osu file format v14

[General]
AudioFilename: audio.mp3
AudioLeadIn: 0
PreviewTime: 5192
Countdown: 0
SampleSet: Soft
StackLeniency: 0.7
Mode: 0
LetterboxInBreaks: 0
EpilepsyWarning: 1
WidescreenStoryboard: 1

[Editor]
Bookmarks: 3478,10335,17192,31335,32621,39478,46335,53192,66907,73764,87478,99478,101192,114907,128621
DistanceSpacing: 1.2
BeatDivisor: 6
GridSize: 4
TimelineZoom: 1.5

[Metadata]
Title:MARENOL
TitleUnicode:MARENOL
Artist:LeaF
ArtistUnicode:LeaF
Creator:Plaudible
Version:LOKIDOKI'S EXHAUST
Source:SOUND VOLTEX VIVID WAVE
Tags:lokidoki glitch hardcore horror electronic instrumental 除草剤 Joso zai G2R2018 sdvx BMS
BeatmapID:2241459
BeatmapSetID:1070820

[Difficulty]
HPDrainRate:5.2
CircleSize:3.8
OverallDifficulty:7
ApproachRate:9
SliderMultiplier:1.6
SliderTickRate:1

[Events]
//Background and Video events
0,0,"bg.jpg",0,0
//Break Periods
//Storyboard Layer 0 (Background)
Sprite,Background,Centre,"sb\blood-2.png",262,205 C,0,142335,,255,0,0 F,2,142335,142635,1,0 S,2,142335,142635,0.5 P,0,142335,142635,A
Sprite,Background,Centre,"sb\glow.png",350,269 C,0,101407,,110,110,110 F,2,101407,101607,1,0 S,2,101407,101607,0.3 P,0,101407,101607,A
Sprite,Background,Centre,"sb\glow.png",0,0 C,0,101621,,110,110,110 M,0,101621,101674,218,408,214.3981,388.3844 F,2,101621,102035,1,0 S,2,101621,102035,0.3 P,0,101621,102035,A M,0,101674,101728,214.3981,388.3844,214.4467,368.4606 M,0,101728,101781,214.4467,368.4606,218.0599,348.8738 M,0,101781,101835,218.0599,348.8738,225.5415,330.4055
Sprite,Background,Centre,"sb\glow.png",239,313 C,0,101942,,110,110,110 F,2,101942,102142,1,0 S,2,101942,102142,0.3 P,0,101942,102142,A
Sprite,Background,Centre,"sb\glow.png",240,312 C,0,102050,,110,110,110 F,2,102050,102250,1,0 S,2,102050,102250,0.3 P,0,102050,102250,A
Sprite,Background,Centre,"sb\glow.png",210,200 C,0,102264,,110,110,110 F,2,102264,102464,1,0 S,2,102264,102464,0.3 P,0,102264,102464,A
Sprite,Background,Centre,"sb\glow.png",0,0 C,0,102478,,110,110,110 M,0,102478,102531,64,290,83.88289,287.8388 F,2,102478,102892,1,0 S,2,102478,102892,0.3 P,0,102478,102892,A M,0,102531,102585,83.88289,287.8388,103.7658,285.6776 M,0,102585,102638,103.7658,285.6776,123.6487,283.5164 M,0,102638,102692,123.6487,283.5164,143.5316,281.3553
Sprite,Background,Centre,"sb\glow.png",293,124 C,0,102907,,174,0,0 F,2,102907,103107,1,0 S,2,102907,103107,0.3 P,0,102907,103107,A
Sprite,Background,Centre,"sb\glow.png",276,295 C,0,103121,,174,0,0 F,2,103121,103321,1,0 S,2,103121,103321,0.3 P,0,103121,103321,A
Sprite,Background,Centre,"sb\glow.png",0,0 C,0,103335,,174,0,0 M,0,103335,103388,423,150,408.5092,163.7243 F,2,103335,103749,1,0 S,2,103335,103749,0.3 P,0,103335,103749,A M,0,103388,103442,408.5092,163.7243,396.5171,179.6572 M,0,103442,103495,396.5171,179.6572,387.352,197.3553 M,0,103495,103549,387.352,197.3553,381,216
Sprite,Background,Centre,"sb\glow.png",382,239 C,0,103657,,174,0,0 F,2,103657,103857,1,0 S,2,103657,103857,0.3 P,0,103657,103857,A
Sprite,Background,Centre,"sb\glow.png",382,239 C,0,103764,,174,0,0 F,2,103764,103964,1,0 S,2,103764,103964,0.3 P,0,103764,103964,A
Sprite,Background,Centre,"sb\glow.png",438,334 C,0,103978,,174,0,0 F,2,103978,104178,1,0 S,2,103978,104178,0.3 P,0,103978,104178,A
Sprite,Background,Centre,"sb\glow.png",0,0 C,0,104192,,174,0,0 M,0,104192,104245,571,218,551.158,220.5088 F,2,104192,104606,1,0 S,2,104192,104606,0.3 P,0,104192,104606,A M,0,104245,104299,551.158,220.5088,531.3159,223.0175 M,0,104299,104352,531.3159,223.0175,511.4739,225.5263 M,0,104352,104406,511.4739,225.5263,491.6319,228.035
Sprite,Background,Centre,"sb\glow.png",352,409 C,0,104621,,143,143,143 F,2,104621,104821,1,0 S,2,104621,104821,0.3 P,0,104621,104821,A
Sprite,Background,Centre,"sb\glow.png",438,334 C,0,104835,,143,143,143 F,2,104835,105035,1,0 S,2,104835,105035,0.3 P,0,104835,105035,A
Sprite,Background,Centre,"sb\glow.png",0,0 C,0,105050,,143,143,143 M,0,105050,105103,274,231,276.7023,250.8166 F,2,105050,105464,1,0 S,2,105050,105464,0.3 P,0,105050,105464,A M,0,105103,105157,276.7023,250.8166,279.4045,270.6332 M,0,105157,105210,279.4045,270.6332,282.1068,290.4498 M,0,105210,105264,282.1068,290.4498,284.8091,310.2664
Sprite,Background,Centre,"sb\glow.png",251,82 C,0,105478,,110,110,110 F,2,105478,105678,1,0 S,2,105478,105678,0.3 P,0,105478,105678,A
Sprite,Background,Centre,"sb\glow.png",337,157 C,0,105692,,110,110,110 F,2,105692,105892,1,0 S,2,105692,105892,0.3 P,0,105692,105892,A
Sprite,Background,Centre,"sb\glow.png",0,0 C,0,105907,,110,110,110 M,0,105907,105960,173,260,175.7023,240.1834 F,2,105907,106321,1,0 S,2,105907,106321,0.3 P,0,105907,106321,A M,0,105960,106014,175.7023,240.1834,178.4045,220.3668 M,0,106014,106067,178.4045,220.3668,181.1068,200.5502 M,0,106067,106121,181.1068,200.5502,183.8091,180.7336
Sprite,Background,Centre,"sb\glow.png",115,107 C,0,106335,,174,0,0 F,2,106335,106535,1,0 S,2,106335,106535,0.3 P,0,106335,106535,A
Sprite,Background,Centre,"sb\glow.png",113,89 C,0,106550,,174,0,0 F,2,106550,106750,1,0 S,2,106550,106750,0.3 P,0,106550,106750,A
Sprite,Background,Centre,"sb\glow.png",260,162 C,0,106764,,143,143,143 F,2,106764,106964,1,0 S,2,106764,106964,0.3 P,0,106764,106964,A
Sprite,Background,Centre,"sb\glow.png",257,182 C,0,106979,,143,143,143 F,2,106979,107179,1,0 S,2,106979,107179,0.3 P,0,106979,107179,A
Sprite,Background,Centre,"sb\glow.png",0,0 C,0,107192,,110,110,110 M,0,107192,107245,66,283,68.56767,263.1857 F,2,107192,107606,1,0 S,2,107192,107606,0.3 P,0,107192,107606,A M,0,107245,107299,68.56767,263.1857,73.32761,243.789 M,0,107299,107352,73.32761,243.789,80.06442,224.9816 M,0,107352,107406,80.06442,224.9816,89.14097,207.1848
Sprite,Background,Centre,"sb\glow.png",0,0 C,0,107621,,110,110,110 M,0,107621,107674,308,275,316.454,293.1099 F,2,107621,108035,1,0 S,2,107621,108035,0.3 P,0,107621,108035,A M,0,107674,107728,316.454,293.1099,323.1302,311.9419 M,0,107728,107781,323.1302,311.9419,327.9686,331.324 M,0,107781,107835,327.9686,331.324,331,350
Sprite,Background,Centre,"sb\glow.png",108,408 C,0,108050,,174,0,0 F,2,108050,108250,1,0 S,2,108050,108250,0.3 P,0,108050,108250,A
Sprite,Background,Centre,"sb\glow.png",199,350 C,0,108264,,174,0,0 F,2,108264,108464,1,0 S,2,108264,108464,0.3 P,0,108264,108464,A
Sprite,Background,Centre,"sb\glow.png",0,0 C,0,108478,,174,0,0 M,0,108478,108531,401,417,381.9948,410.7914 F,2,108478,108892,1,0 S,2,108478,108892,0.3 P,0,108478,108892,A M,0,108531,108585,381.9948,410.7914,363.4436,403.3424 M,0,108585,108638,363.4436,403.3424,345.4262,394.6855 M,0,108638,108692,345.4262,394.6855,328,385
Sprite,Background,Centre,"sb\glow.png",310,372 C,0,108800,,174,0,0 F,2,108800,109000,1,0 S,2,108800,109000,0.3 P,0,108800,109000,A
Sprite,Background,Centre,"sb\glow.png",310,372 C,0,108907,,174,0,0 F,2,108907,109107,1,0 S,2,108907,109107,0.3 P,0,108907,109107,A
Sprite,Background,Centre,"sb\glow.png",413,297 C,0,109121,,174,0,0 F,2,109121,109321,1,0 S,2,109121,109321,0.3 P,0,109121,109321,A
Sprite,Background,Centre,"sb\glow.png",0,0 C,0,109335,,174,0,0 M,0,109335,109388,528,347,529.4249,366.9492 F,2,109335,109749,1,0 S,2,109335,109749,0.3 P,0,109335,109749,A M,0,109388,109442,529.4249,366.9492,530.8499,386.8983 M,0,109442,109495,530.8499,386.8983,532.2748,406.8475 M,0,109495,109549,532.2748,406.8475,533.6998,426.7967
Sprite,Background,Centre,"sb\glow.png",308,271 C,0,109764,,143,143,143 F,2,109764,109964,1,0 S,2,109764,109964,0.3 P,0,109764,109964,A
Sprite,Background,Centre,"sb\glow.png",501,232 C,0,109978,,143,143,143 F,2,109978,110178,1,0 S,2,109978,110178,0.3 P,0,109978,110178,A
Sprite,Background,Centre,"sb\glow.png",0,0 C,0,110192,,143,143,143 M,0,110192,110245,414,65,401.5996,80.63764 F,2,110192,110606,1,0 S,2,110192,110606,0.3 P,0,110192,110606,A M,0,110245,110299,401.5996,80.63764,391.8373,98.02815 M,0,110299,110352,391.8373,98.02815,384.9204,116.726 M,0,110352,110406,384.9204,116.726,381.0888,136.321
Sprite,Background,Centre,"sb\glow.png",381,162 C,0,110514,,143,143,143 F,2,110514,110714,1,0 S,2,110514,110714,0.3 P,0,110514,110714,A
Sprite,Background,Centre,"sb\glow.png",381,162 C,0,110621,,143,143,143 F,2,110621,110821,1,0 S,2,110621,110821,0.3 P,0,110621,110821,A
Sprite,Background,Centre,"sb\glow.png",438,314 C,0,110835,,143,143,143 F,2,110835,111035,1,0 S,2,110835,111035,0.3 P,0,110835,111035,A
Sprite,Background,Centre,"sb\glow.png",0,0 C,0,111050,,143,143,143 M,0,111050,111103,309,363,311.3744,343.1414 F,2,111050,111464,1,0 S,2,111050,111464,0.3 P,0,111050,111464,A M,0,111103,111157,311.3744,343.1414,313.7488,323.2829 M,0,111157,111210,313.7488,323.2829,316.1232,303.4243 M,0,111210,111264,316.1232,303.4243,318.4976,283.5658
Sprite,Background,Centre,"sb\glow.png",215,211 C,0,111478,,110,110,110 F,2,111478,111678,1,0 S,2,111478,111678,0.3 P,0,111478,111678,A
Sprite,Background,Centre,"sb\glow.png",389,173 C,0,111692,,110,110,110 F,2,111692,111892,1,0 S,2,111692,111892,0.3 P,0,111692,111892,A
Sprite,Background,Centre,"sb\glow.png",0,0 C,0,111907,,110,110,110 M,0,111907,111960,189,118,169.3504,121.609 F,2,111907,112321,1,0 S,2,111907,112321,0.3 P,0,111907,112321,A M,0,111960,112014,169.3504,121.609,150.2597,127.4695 M,0,112014,112067,150.2597,127.4695,131.9058,135.3521 M,0,112067,112121,131.9058,135.3521,114.6948,145.5075
Sprite,Background,Centre,"sb\glow.png",362,353 C,0,112335,,174,0,0 F,2,112335,112535,1,0 S,2,112335,112535,0.3 P,0,112335,112535,A
Sprite,Background,Centre,"sb\glow.png",188,315 C,0,112549,,174,0,0 F,2,112549,112749,1,0 S,2,112549,112749,0.3 P,0,112549,112749,A
Sprite,Background,Centre,"sb\glow.png",0,0 C,0,112764,,174,0,0 M,0,112764,112817,388,260,407.6496,263.609 F,2,112764,113178,1,0 S,2,112764,113178,0.3 P,0,112764,113178,A M,0,112817,112871,407.6496,263.609,426.7403,269.4695 M,0,112871,112924,426.7403,269.4695,445.0942,277.3521 M,0,112924,112978,445.0942,277.3521,462.3052,287.5075
Sprite,Background,Centre,"sb\glow.png",539,187 C,0,113192,,143,143,143 F,2,113192,113392,1,0 S,2,113192,113392,0.3 P,0,113192,113392,A
Sprite,Background,Centre,"sb\glow.png",543,167 C,0,113407,,143,143,143 F,2,113407,113607,1,0 S,2,113407,113607,0.3 P,0,113407,113607,A
Sprite,Background,Centre,"sb\glow.png",436,96 C,0,113621,,110,110,110 F,2,113621,113821,1,0 S,2,113621,113821,0.3 P,0,113621,113821,A
Sprite,Background,Centre,"sb\glow.png",432,76 C,0,113836,,110,110,110 F,2,113836,114036,1,0 S,2,113836,114036,0.3 P,0,113836,114036,A
Sprite,Background,Centre,"sb\glow.png",0,0 C,0,114050,,174,0,0 M,0,114050,114103,259,207,269.1205,224.2305 F,2,114050,114464,1,0 S,2,114050,114464,0.3 P,0,114050,114464,A M,0,114103,114157,269.1205,224.2305,277.422,242.4003 M,0,114157,114210,277.422,242.4003,283.9257,261.2899 M,0,114210,114264,283.9257,261.2899,288.2123,280.8038
Sprite,Background,Centre,"sb\glow.png",0,0 C,0,114478,,174,0,0 M,0,114478,114531,463,367,452.8795,384.2305 F,2,114478,114892,1,0 S,2,114478,114892,0.3 P,0,114478,114892,A M,0,114531,114585,452.8795,384.2305,444.578,402.4003 M,0,114585,114638,444.578,402.4003,438.0743,421.2899 M,0,114638,114692,438.0743,421.2899,433.7877,440.8038
Sprite,Background,Centre,"sb\glow.png",305,373 C,0,114907,,143,143,143 F,2,114907,115107,1,0 S,2,114907,115107,0.3 P,0,114907,115107,A
Sprite,Background,Centre,"sb\glow.png",206,390 C,0,115121,,143,143,143 F,2,115121,115321,1,0 S,2,115121,115321,0.3 P,0,115121,115321,A
Sprite,Background,Centre,"sb\glow.png",189,293 C,0,115336,,143,143,143 F,2,115336,115536,1,0 S,2,115336,115536,0.3 P,0,115336,115536,A
Sprite,Background,Centre,"sb\glow.png",296,287 C,0,115550,,143,143,143 F,2,115550,115750,1,0 S,2,115550,115750,0.3 P,0,115550,115750,A
Sprite,Background,Centre,"sb\glow.png",296,287 C,0,115657,,143,143,143 F,2,115657,115857,1,0 S,2,115657,115857,0.3 P,0,115657,115857,A
Sprite,Background,Centre,"sb\glow.png",296,287 C,0,115764,,143,143,143 F,2,115764,115964,1,0 S,2,115764,115964,0.3 P,0,115764,115964,A
Sprite,Background,Centre,"sb\glow.png",206,390 C,0,115978,,110,110,110 F,2,115978,116178,1,0 S,2,115978,116178,0.3 P,0,115978,116178,A
Sprite,Background,Centre,"sb\glow.png",0,0 C,0,116192,,110,110,110 M,0,116192,116245,410,346,401.3618,364.0184 F,2,116192,116606,1,0 S,2,116192,116606,0.3 P,0,116192,116606,A M,0,116245,116299,401.3618,364.0184,394.6693,382.8391 M,0,116299,116352,394.6693,382.8391,389.8624,402.2302 M,0,116352,116406,389.8624,402.2302,387.2991,422.0514
Sprite,Background,Centre,"sb\glow.png",378,237 C,0,116621,,174,0,0 F,2,116621,116821,1,0 S,2,116621,116821,0.3 P,0,116621,116821,A
Sprite,Background,Centre,"sb\glow.png",477,254 C,0,116835,,174,0,0 F,2,116835,117035,1,0 S,2,116835,117035,0.3 P,0,116835,117035,A
Sprite,Background,Centre,"sb\glow.png",494,157 C,0,117050,,174,0,0 F,2,117050,117250,1,0 S,2,117050,117250,0.3 P,0,117050,117250,A
Sprite,Background,Centre,"sb\glow.png",398,148 C,0,117264,,174,0,0 F,2,117264,117464,1,0 S,2,117264,117464,0.3 P,0,117264,117464,A
Sprite,Background,Centre,"sb\glow.png",398,148 C,0,117371,,174,0,0 F,2,117371,117571,1,0 S,2,117371,117571,0.3 P,0,117371,117571,A
Sprite,Background,Centre,"sb\glow.png",398,148 C,0,117478,,174,0,0 F,2,117478,117678,1,0 S,2,117478,117678,0.3 P,0,117478,117678,A
Sprite,Background,Centre,"sb\glow.png",477,254 C,0,117692,,143,143,143 F,2,117692,117892,1,0 S,2,117692,117892,0.3 P,0,117692,117892,A
Sprite,Background,Centre,"sb\glow.png",0,0 C,0,117906,,143,143,143 M,0,117906,117959,273,210,281.6382,228.0184 F,2,117906,118320,1,0 S,2,117906,118320,0.3 P,0,117906,118320,A M,0,117959,118013,281.6382,228.0184,288.3307,246.8391 M,0,118013,118066,288.3307,246.8391,293.1377,266.2302 M,0,118066,118120,293.1377,266.2302,295.7009,286.0515
Sprite,Background,Centre,"sb\glow.png",240,362 C,0,118335,,110,110,110 F,2,118335,118535,1,0 S,2,118335,118535,0.3 P,0,118335,118535,A
Sprite,Background,Centre,"sb\glow.png",390,281 C,0,118550,,110,110,110 F,2,118550,118750,1,0 S,2,118550,118750,0.3 P,0,118550,118750,A
Sprite,Background,Centre,"sb\glow.png",0,0 C,0,118764,,110,110,110 M,0,118764,118817,445,399,425.0786,397.2292 F,2,118764,119178,1,0 S,2,118764,119178,0.3 P,0,118764,119178,A M,0,118817,118871,425.0786,397.2292,405.1571,395.4584 M,0,118871,118924,405.1571,395.4584,385.2357,393.6876 M,0,118924,118978,385.2357,393.6876,365.3142,391.9168
Sprite,Background,Centre,"sb\glow.png",328,221 C,0,119192,,174,0,0 F,2,119192,119392,1,0 S,2,119192,119392,0.3 P,0,119192,119392,A
Sprite,Background,Centre,"sb\glow.png",478,302 C,0,119407,,174,0,0 F,2,119407,119607,1,0 S,2,119407,119607,0.3 P,0,119407,119607,A
Sprite,Background,Centre,"sb\glow.png",0,0 C,0,119621,,174,0,0 M,0,119621,119674,533,184,513.0786,185.7708 F,2,119621,120035,1,0 S,2,119621,120035,0.3 P,0,119621,120035,A M,0,119674,119728,513.0786,185.7708,493.1571,187.5416 M,0,119728,119781,493.1571,187.5416,473.2357,189.3124 M,0,119781,119835,473.2357,189.3124,453.3142,191.0832
Sprite,Background,Centre,"sb\glow.png",271,274 C,0,120050,,143,143,143 F,2,120050,120250,1,0 S,2,120050,120250,0.3 P,0,120050,120250,A
Sprite,Background,Centre,"sb\glow.png",344,298 C,0,120264,,143,143,143 F,2,120264,120464,1,0 S,2,120264,120464,0.3 P,0,120264,120464,A
Sprite,Background,Centre,"sb\glow.png",352,422 C,0,120478,,110,110,110 F,2,120478,120678,1,0 S,2,120478,120678,0.3 P,0,120478,120678,A
Sprite,Background,Centre,"sb\glow.png",279,398 C,0,120692,,110,110,110 F,2,120692,120892,1,0 S,2,120692,120892,0.3 P,0,120692,120892,A
Sprite,Background,Centre,"sb\glow.png",0,0 C,0,120907,,174,0,0 M,0,120907,120960,421,263,429.9947,280.8322 F,2,120907,121321,1,0 S,2,120907,121321,0.3 P,0,120907,121321,A M,0,120960,121014,429.9947,280.8322,436.543,299.6887 M,0,121014,121067,436.543,299.6887,440.533,319.2414 M,0,121067,121121,440.533,319.2414,442.0662,339.1472
Sprite,Background,Centre,"sb\glow.png",0,0 C,0,121335,,174,0,0 M,0,121335,121388,191,413,192.215,393.0676 F,2,121335,121749,1,0 S,2,121335,121749,0.3 P,0,121335,121749,A M,0,121388,121442,192.215,393.0676,196.1039,373.4913 M,0,121442,121495,196.1039,373.4913,202.5587,354.6099 M,0,121495,121549,202.5587,354.6099,211.5547,336.7748
Sprite,Background,Centre,"sb\glow.png",286,208 C,0,121764,,143,143,143 F,2,121764,121964,1,0 S,2,121764,121964,0.3 P,0,121764,121964,A
Sprite,Background,Centre,"sb\glow.png",177,226 C,0,121978,,143,143,143 F,2,121978,122178,1,0 S,2,121978,122178,0.3 P,0,121978,122178,A
Sprite,Background,Centre,"sb\glow.png",156,119 C,0,122192,,143,143,143 F,2,122192,122392,1,0 S,2,122192,122392,0.3 P,0,122192,122392,A
Sprite,Background,Centre,"sb\glow.png",276,110 C,0,122406,,143,143,143 F,2,122406,122606,1,0 S,2,122406,122606,0.3 P,0,122406,122606,A
Sprite,Background,Centre,"sb\glow.png",276,110 C,0,122514,,143,143,143 F,2,122514,122714,1,0 S,2,122514,122714,0.3 P,0,122514,122714,A
Sprite,Background,Centre,"sb\glow.png",276,110 C,0,122621,,143,143,143 F,2,122621,122821,1,0 S,2,122621,122821,0.3 P,0,122621,122821,A
Sprite,Background,Centre,"sb\glow.png",177,226 C,0,122835,,110,110,110 F,2,122835,123035,1,0 S,2,122835,123035,0.3 P,0,122835,123035,A
Sprite,Background,Centre,"sb\glow.png",0,0 C,0,123050,,110,110,110 M,0,123050,123103,313,281,310.2,261.2314 F,2,123050,123464,1,0 S,2,123050,123464,0.3 P,0,123050,123464,A M,0,123103,123157,310.2,261.2314,304.5409,242.0984 M,0,123157,123210,304.5409,242.0984,296.3719,223.8803 M,0,123210,123264,296.3719,223.8803,285.3307,207.2334
Sprite,Background,Centre,"sb\glow.png",418,345 C,0,123478,,174,0,0 F,2,123478,123678,1,0 S,2,123478,123678,0.3 P,0,123478,123678,A
Sprite,Background,Centre,"sb\glow.png",527,363 C,0,123692,,174,0,0 F,2,123692,123892,1,0 S,2,123692,123892,0.3 P,0,123692,123892,A
Sprite,Background,Centre,"sb\glow.png",548,256 C,0,123906,,174,0,0 F,2,123906,124106,1,0 S,2,123906,124106,0.3 P,0,123906,124106,A
Sprite,Background,Centre,"sb\glow.png",442,247 C,0,124120,,174,0,0 F,2,124120,124320,1,0 S,2,124120,124320,0.3 P,0,124120,124320,A
Sprite,Background,Centre,"sb\glow.png",442,247 C,0,124228,,174,0,0 F,2,124228,124428,1,0 S,2,124228,124428,0.3 P,0,124228,124428,A
Sprite,Background,Centre,"sb\glow.png",442,247 C,0,124335,,174,0,0 F,2,124335,124535,1,0 S,2,124335,124535,0.3 P,0,124335,124535,A
Sprite,Background,Centre,"sb\glow.png",527,363 C,0,124550,,143,143,143 F,2,124550,124750,1,0 S,2,124550,124750,0.3 P,0,124550,124750,A
Sprite,Background,Centre,"sb\glow.png",0,0 C,0,124764,,143,143,143 M,0,124764,124817,391,418,393.8001,398.2315 F,2,124764,125178,1,0 S,2,124764,125178,0.3 P,0,124764,125178,A M,0,124817,124871,393.8001,398.2315,399.4591,379.0984 M,0,124871,124924,399.4591,379.0984,407.6281,360.8803 M,0,124924,124978,407.6281,360.8803,418.6693,344.2334
Sprite,Background,Centre,"sb\glow.png",263,127 C,0,125192,,110,110,110 F,2,125192,125392,1,0 S,2,125192,125392,0.3 P,0,125192,125392,A
Sprite,Background,Centre,"sb\glow.png",288,240 C,0,125407,,110,110,110 F,2,125407,125607,1,0 S,2,125407,125607,0.3 P,0,125407,125607,A
Sprite,Background,Centre,"sb\glow.png",0,0 C,0,125621,,110,110,110 M,0,125621,125674,143,300,145.5969,280.1693 F,2,125621,126035,1,0 S,2,125621,126035,0.3 P,0,125621,126035,A M,0,125674,125728,145.5969,280.1693,148.1938,260.3386 M,0,125728,125781,148.1938,260.3386,150.7906,240.5079 M,0,125781,125835,150.7906,240.5079,153.3875,220.6772
Sprite,Background,Centre,"sb\glow.png",408,413 C,0,126050,,174,0,0 F,2,126050,126250,1,0 S,2,126050,126250,0.3 P,0,126050,126250,A
Sprite,Background,Centre,"sb\glow.png",433,300 C,0,126265,,174,0,0 F,2,126265,126465,1,0 S,2,126265,126465,0.3 P,0,126265,126465,A
Sprite,Background,Centre,"sb\glow.png",0,0 C,0,126479,,174,0,0 M,0,126479,126532,288,240,290.5969,259.8307 F,2,126479,126893,1,0 S,2,126479,126893,0.3 P,0,126479,126893,A M,0,126532,126586,290.5969,259.8307,293.1938,279.6614 M,0,126586,126639,293.1938,279.6614,295.7906,299.4921 M,0,126639,126693,295.7906,299.4921,298.3875,319.3228
Sprite,Background,Centre,"sb\glow.png",444,175 C,0,126907,,143,143,143 F,2,126907,127107,1,0 S,2,126907,127107,0.3 P,0,126907,127107,A
Sprite,Background,Centre,"sb\glow.png",517,160 C,0,127121,,143,143,143 F,2,127121,127321,1,0 S,2,127121,127321,0.3 P,0,127121,127321,A
Sprite,Background,Centre,"sb\glow.png",433,300 C,0,127335,,110,110,110 F,2,127335,127535,1,0 S,2,127335,127535,0.3 P,0,127335,127535,A
Sprite,Background,Centre,"sb\glow.png",360,285 C,0,127549,,110,110,110 F,2,127549,127749,1,0 S,2,127549,127749,0.3 P,0,127549,127749,A
Sprite,Background,Centre,"sb\glow.png",0,0 C,0,127764,,174,0,0 M,0,127764,127817,331,123,344.6624,137.5288 F,2,127764,128178,1,0 S,2,127764,128178,0.3 P,0,127764,128178,A M,0,127817,127871,344.6624,137.5288,355.3357,154.3495 M,0,127871,127924,355.3357,154.3495,362.9835,172.7706 M,0,127924,127978,362.9835,172.7706,366.5781,192.4047
Sprite,Background,Centre,"sb\glow.png",0,0 C,0,128192,,174,0,0 M,0,128192,128245,508,350,503.554,369.4525 F,2,128192,128606,1,0 S,2,128192,128606,0.3 P,0,128192,128606,A M,0,128245,128299,503.554,369.4525,495.7926,387.8151 M,0,128299,128352,495.7926,387.8151,484.9552,404.5333 M,0,128352,128406,484.9552,404.5333,472,419
Sprite,Background,Centre,"sb\glow.png",0,0 C,0,128621,,143,143,143 M,0,128621,128674,209,239,223.7337,241.7996 F,2,128621,129678,1,0 S,2,128621,129678,0.3 P,0,128621,129678,A M,0,128674,128728,223.7337,241.7996,238.2195,245.675 M,0,128728,128781,238.2195,245.675,252.2521,250.951 M,0,128781,128835,252.2521,250.951,265.4939,257.9696 M,0,128835,128888,265.4939,257.9696,277.533,266.8916 M,0,128888,128942,277.533,266.8916,288.2078,277.4164 M,0,128942,128996,288.2078,277.4164,297.991,288.7855 M,0,128996,129049,297.991,288.7855,307.8398,300.097 M,0,129049,129103,307.8398,300.097,318.6021,310.5338 M,0,129103,129156,318.6021,310.5338,330.5903,319.5307 M,0,129156,129210,330.5903,319.5307,343.6373,326.9124 M,0,129210,129263,343.6373,326.9124,357.4216,332.8116 M,0,129263,129317,357.4216,332.8116,371.6717,337.4825 M,0,129317,129371,371.6717,337.4825,386.2108,341.1627 M,0,129371,129424,386.2108,341.1627,400.9274,344.0567 M,0,129424,129478,400.9274,344.0567,415.755,346.3176
Sprite,Background,Centre,"sb\glow.png",545,304 C,0,129692,,143,143,143 F,2,129692,129892,1,0 S,2,129692,129892,0.3 P,0,129692,129892,A
Sprite,Background,Centre,"sb\glow.png",0,0 C,0,129907,,143,143,143 M,0,129907,129960,545,304,533.5173,313.596 F,2,129907,130321,1,0 S,2,129907,130321,0.3 P,0,129907,130321,A M,0,129960,130014,533.5173,313.596,523.1572,324.3726 M,0,130014,130067,523.1572,324.3726,514.2998,336.4447 M,0,130067,130121,514.2998,336.4447,507.5603,349.8033
Sprite,Background,Centre,"sb\glow.png",0,0 C,0,130335,,110,110,110 M,0,130335,130388,507,128,492.2663,130.7996 F,2,130335,131392,1,0 S,2,130335,131392,0.3 P,0,130335,131392,A M,0,130388,130442,492.2663,130.7996,477.7805,134.6749 M,0,130442,130495,477.7805,134.6749,463.7479,139.951 M,0,130495,130549,463.7479,139.951,450.506,146.9696 M,0,130549,130602,450.506,146.9696,438.467,155.8916 M,0,130602,130656,438.467,155.8916,427.7923,166.4164 M,0,130656,130710,427.7923,166.4164,418.009,177.7855 M,0,130710,130763,418.009,177.7855,408.1602,189.097 M,0,130763,130817,408.1602,189.097,397.3979,199.5338 M,0,130817,130870,397.3979,199.5338,385.4098,208.5307 M,0,130870,130924,385.4098,208.5307,372.3627,215.9123 M,0,130924,130977,372.3627,215.9123,358.5785,221.8116 M,0,130977,131031,358.5785,221.8116,344.3283,226.4825 M,0,131031,131085,344.3283,226.4825,329.7892,230.1626 M,0,131085,131138,329.7892,230.1626,315.0726,233.0567 M,0,131138,131192,315.0726,233.0567,300.245,235.3176
Sprite,Background,Centre,"sb\glow.png",171,193 C,0,131406,,110,110,110 F,2,131406,131606,1,0 S,2,131406,131606,0.3 P,0,131406,131606,A
Sprite,Background,Centre,"sb\glow.png",0,0 C,0,131621,,110,110,110 M,0,131621,131674,171,193,182.4827,202.596 F,2,131621,132035,1,0 S,2,131621,132035,0.3 P,0,131621,132035,A M,0,131674,131728,182.4827,202.596,192.8428,213.3726 M,0,131728,131781,192.8428,213.3726,201.7002,225.4447 M,0,131781,131835,201.7002,225.4447,208.4397,238.8033
Sprite,Background,Centre,"sb\glow.png",0,0 C,0,132050,,174,0,0 M,0,132050,132103,132,390,142.5984,379.3899 F,2,132050,133107,1,0 S,2,132050,133107,0.3 P,0,132050,133107,A M,0,132103,132157,142.5984,379.3899,153.9799,369.626 M,0,132157,132210,153.9799,369.626,166.1661,360.889 M,0,132210,132264,166.1661,360.889,179.1421,353.3772 M,0,132264,132317,179.1421,353.3772,192.8393,347.2814 M,0,132317,132371,192.8393,347.2814,207.1322,342.7578 M,0,132371,132424,207.1322,342.7578,221.8489,339.9001 M,0,132424,132478,221.8489,339.9001,236.7943,338.7164 M,0,132478,132532,236.7943,338.7164,251.7817,339.1341 M,0,132532,132585,251.7817,339.1341,266.6572,341.019 M,0,132585,132639,266.6572,341.019,281.3098,344.208 M,0,132639,132692,281.3098,344.208,288.666,351.3249 M,0,132692,132746,288.666,351.3249,281.5419,364.5252 M,0,132746,132799,281.5419,364.5252,274.418,377.7255 M,0,132799,132853,274.418,377.7255,267.294,390.9259 M,0,132853,132907,267.294,390.9259,260.17,404.1262
Sprite,Background,Centre,"sb\glow.png",142,278 C,0,133121,,174,0,0 F,2,133121,133321,1,0 S,2,133121,133321,0.3 P,0,133121,133321,A
Sprite,Background,Centre,"sb\glow.png",0,0 C,0,133335,,174,0,0 M,0,133335,133388,142,278,155.2621,271.0519 F,2,133335,133749,1,0 S,2,133335,133749,0.3 P,0,133335,133749,A M,0,133388,133442,155.2621,271.0519,169.1219,265.4219 M,0,133442,133495,169.1219,265.4219,183.5659,261.4553 M,0,133495,133549,183.5659,261.4553,198.4274,259.653
Sprite,Background,Centre,"sb\glow.png",0,0 C,0,133764,,143,143,143 M,0,133764,133817,312,128,298.6561,121.205 F,2,133764,134178,1,0 S,2,133764,134178,0.3 P,0,133764,134178,A M,0,133817,133871,298.6561,121.205,284.762,115.6467 M,0,133871,133924,284.762,115.6467,270.318,111.6553 M,0,133924,133978,270.318,111.6553,255.4639,109.7653
Sprite,Background,Centre,"sb\glow.png",0,0 C,0,134192,,143,143,143 M,0,134192,134245,124,198,137.2621,191.0519 F,2,134192,134606,1,0 S,2,134192,134606,0.3 P,0,134192,134606,A M,0,134245,134299,137.2621,191.0519,151.1219,185.4219 M,0,134299,134352,151.1219,185.4219,165.5659,181.4553 M,0,134352,134406,165.5659,181.4553,180.4274,179.653
Sprite,Background,Centre,"sb\glow.png",0,0 C,0,134621,,110,110,110 M,0,134621,134674,302,288,299.4971,302.7897 F,2,134621,135035,1,0 S,2,134621,135035,0.3 P,0,134621,135035,A M,0,134674,134728,299.4971,302.7897,296.9943,317.5794 M,0,134728,134781,296.9943,317.5794,294.4914,332.3691 M,0,134781,134835,294.4914,332.3691,291.9885,347.1588
Sprite,Background,Centre,"sb\glow.png",0,0 C,0,135050,,110,110,110 M,0,135050,135103,400,403,397.2951,388.2459 F,2,135050,135464,1,0 S,2,135050,135464,0.3 P,0,135050,135464,A M,0,135103,135157,397.2951,388.2459,394.5901,373.4918 M,0,135157,135210,394.5901,373.4918,391.8853,358.7377 M,0,135210,135264,391.8853,358.7377,389.1803,343.9836
Sprite,Background,Centre,"sb\glow.png",0,0 C,0,135478,,174,0,0 M,0,135478,135531,522,182,507.0821,183.5673 F,2,135478,136535,1,0 S,2,135478,136535,0.3 P,0,135478,136535,A M,0,135531,135585,507.0821,183.5673,492.1642,185.1345 M,0,135585,135638,492.1642,185.1345,477.2463,186.7018 M,0,135638,135692,477.2463,186.7018,462.3284,188.269 M,0,135692,135745,462.3284,188.269,447.4105,189.8362 M,0,135745,135799,447.4105,189.8362,432.4926,191.4035 M,0,135799,135852,432.4926,191.4035,417.5747,192.9707 M,0,135852,135906,417.5747,192.9707,402.6568,194.538 M,0,135906,135960,402.6568,194.538,387.7389,196.1053 M,0,135960,136013,387.7389,196.1053,372.821,197.6725 M,0,136013,136067,372.821,197.6725,357.9031,199.2397 M,0,136067,136120,357.9031,199.2397,342.9852,200.807 M,0,136120,136174,342.9852,200.807,328.0673,202.3743 M,0,136174,136227,328.0673,202.3743,313.1494,203.9415 M,0,136227,136281,313.1494,203.9415,298.2315,205.5088 M,0,136281,136335,298.2315,205.5088,283.3136,207.076
Sprite,Background,Centre,"sb\glow.png",0,0 C,0,136550,,174,0,0 M,0,136550,136603,379,115,364.0501,116.2254 F,2,136550,137178,1,0 S,2,136550,137178,0.3 P,0,136550,137178,A M,0,136603,136657,364.0501,116.2254,349.1003,117.4508 M,0,136657,136710,349.1003,117.4508,334.1504,118.6762 M,0,136710,136764,334.1504,118.6762,319.2006,119.9016 M,0,136764,136817,319.2006,119.9016,334.1504,118.6762 M,0,136817,136871,334.1504,118.6762,349.1003,117.4508 M,0,136871,136924,349.1003,117.4508,364.0501,116.2254 M,0,136924,136978,364.0501,116.2254,379,115
Sprite,Background,Centre,"sb\glow.png",0,0 C,0,137192,,143,143,143 M,0,137192,137245,118,314,132.9179,312.4327 F,2,137192,138249,1,0 S,2,137192,138249,0.3 P,0,137192,138249,A M,0,137245,137299,132.9179,312.4327,147.8358,310.8655 M,0,137299,137352,147.8358,310.8655,162.7537,309.2982 M,0,137352,137406,162.7537,309.2982,177.6716,307.731 M,0,137406,137459,177.6716,307.731,192.5895,306.1638 M,0,137459,137513,192.5895,306.1638,207.5074,304.5965 M,0,137513,137566,207.5074,304.5965,222.4253,303.0292 M,0,137566,137620,222.4253,303.0292,237.3432,301.462 M,0,137620,137674,237.3432,301.462,252.2611,299.8947 M,0,137674,137727,252.2611,299.8947,267.179,298.3275 M,0,137727,137781,267.179,298.3275,282.0969,296.7603 M,0,137781,137834,282.0969,296.7603,297.0148,295.193 M,0,137834,137888,297.0148,295.193,311.9327,293.6257 M,0,137888,137941,311.9327,293.6257,326.8506,292.0585 M,0,137941,137995,326.8506,292.0585,341.7685,290.4912 M,0,137995,138049,341.7685,290.4912,356.6864,288.924
Sprite,Background,Centre,"sb\glow.png",0,0 C,0,138264,,143,143,143 M,0,138264,138317,261,381,275.9499,379.7746 F,2,138264,138892,1,0 S,2,138264,138892,0.3 P,0,138264,138892,A M,0,138317,138371,275.9499,379.7746,290.8997,378.5492 M,0,138371,138424,290.8997,378.5492,305.8496,377.3238 M,0,138424,138478,305.8496,377.3238,320.7994,376.0984 M,0,138478,138531,320.7994,376.0984,305.8496,377.3238 M,0,138531,138585,305.8496,377.3238,290.8997,378.5492 M,0,138585,138638,290.8997,378.5492,275.9499,379.7746 M,0,138638,138692,275.9499,379.7746,261,381
Sprite,Background,Centre,"sb\glow.png",0,0 C,0,138907,,110,110,110 M,0,138907,138960,449,121,460.2066,130.9635 F,2,138907,140821,1,0 S,2,138907,140821,0.3 P,0,138907,140821,A M,0,138960,139014,460.2066,130.9635,470.4193,141.9408 M,0,139014,139067,470.4193,141.9408,479.3603,153.974 M,0,139067,139121,479.3603,153.974,486.7219,167.0305 M,0,139121,139174,486.7219,167.0305,492.2271,180.9701 M,0,139174,139228,492.2271,180.9701,495.6912,195.5513 M,0,139228,139281,495.6912,195.5513,497.0904,210.4741 M,0,139281,139335,497.0904,210.4741,496.5519,225.4548 M,0,139335,139389,496.5519,225.4548,494.2961,240.2769 M,0,139389,139442,494.2961,240.2769,490.5833,254.8046 M,0,139442,139496,490.5833,254.8046,485.6595,268.9694 M,0,139496,139549,485.6595,268.9694,479.5798,277.3301 M,0,139549,139603,479.5798,277.3301,471.5262,264.6883 M,0,139603,139656,471.5262,264.6883,461.9016,253.1966 M,0,139656,139710,461.9016,253.1966,450.9267,242.9848 M,0,139710,139764,450.9267,242.9848,438.8622,234.0836 M,0,139764,139817,438.8622,234.0836,450.9267,242.9847 M,0,139817,139871,450.9267,242.9847,461.9016,253.1966 M,0,139871,139924,461.9016,253.1966,471.5262,264.6882 M,0,139924,139978,471.5262,264.6882,479.5798,277.3301 M,0,139978,140031,479.5798,277.3301,485.6595,268.9694 M,0,140031,140085,485.6595,268.9694,490.5833,254.8046 M,0,140085,140139,490.5833,254.8046,494.2961,240.2769 M,0,140139,140192,494.2961,240.2769,496.5519,225.4548 M,0,140192,140246,496.5519,225.4548,497.0904,210.4741 M,0,140246,140299,497.0904,210.4741,495.6912,195.5513 M,0,140299,140353,495.6912,195.5513,492.2271,180.9701 M,0,140353,140406,492.2271,180.9701,486.7219,167.0305 M,0,140406,140460,486.7219,167.0305,479.3603,153.974 M,0,140460,140514,479.3603,153.974,470.4194,141.9408 M,0,140514,140567,470.4194,141.9408,460.2066,130.9635 M,0,140567,140621,460.2066,130.9635,449,121
Sprite,Background,Centre,"sb\glow.png",346,172 C,0,141050,,174,0,0 F,2,141050,141250,1,0 S,2,141050,141250,0.3 P,0,141050,141250,A
Sprite,Background,Centre,"sb\glow.png",250,190 C,0,141478,,174,0,0 F,2,141478,141678,1,0 S,2,141478,141678,0.3 P,0,141478,141678,A
Sprite,Background,Centre,"sb\glow.png",336,157 C,0,141907,,174,0,0 F,2,141907,142107,1,0 S,2,141907,142107,0.3 P,0,141907,142107,A
Sprite,Background,Centre,"sb\glow.png",320,233 C,0,87478,,143,143,143 F,2,87478,87678,1,0 S,2,87478,87678,0.3 P,0,87478,87678,A
Sprite,Background,Centre,"sb\glow.png",436,223 C,0,87692,,143,143,143 F,2,87692,87892,1,0 S,2,87692,87892,0.3 P,0,87692,87892,A
Sprite,Background,Centre,"sb\glow.png",365,83 C,0,87907,,143,143,143 F,2,87907,88107,1,0 S,2,87907,88107,0.3 P,0,87907,88107,A
Sprite,Background,Centre,"sb\glow.png",317,238 C,0,88121,,110,110,110 F,2,88121,88321,1,0 S,2,88121,88321,0.3 P,0,88121,88321,A
Sprite,Background,Centre,"sb\glow.png",310,246 C,0,88228,,110,110,110 F,2,88228,88428,1,0 S,2,88228,88428,0.3 P,0,88228,88428,A
Sprite,Background,Centre,"sb\glow.png",0,0 C,0,88335,,110,110,110 M,0,88335,88388,301,257,309.9,274.8931 F,2,88335,88749,1,0 S,2,88335,88749,0.3 P,0,88335,88749,A M,0,88388,88442,309.9,274.8931,317.0317,293.5559 M,0,88442,88495,317.0317,293.5559,322.3435,312.813 M,0,88495,88549,322.3435,312.813,325.6056,332.524
Sprite,Background,Centre,"sb\glow.png",261,410 C,0,88764,,110,110,110 F,2,88764,88964,1,0 S,2,88764,88964,0.3 P,0,88764,88964,A
Sprite,Background,Centre,"sb\glow.png",455,247 C,0,89192,,174,0,0 F,2,89192,89392,1,0 S,2,89192,89392,0.3 P,0,89192,89392,A
Sprite,Background,Centre,"sb\glow.png",571,257 C,0,89406,,174,0,0 F,2,89406,89606,1,0 S,2,89406,89606,0.3 P,0,89406,89606,A
Sprite,Background,Centre,"sb\glow.png",500,397 C,0,89621,,174,0,0 F,2,89621,89821,1,0 S,2,89621,89821,0.3 P,0,89621,89821,A
Sprite,Background,Centre,"sb\glow.png",452,242 C,0,89835,,143,143,143 F,2,89835,90035,1,0 S,2,89835,90035,0.3 P,0,89835,90035,A
Sprite,Background,Centre,"sb\glow.png",445,234 C,0,89942,,143,143,143 F,2,89942,90142,1,0 S,2,89942,90142,0.3 P,0,89942,90142,A
Sprite,Background,Centre,"sb\glow.png",0,0 C,0,90049,,143,143,143 M,0,90049,90102,436,223,444.9001,205.1069 F,2,90049,90463,1,0 S,2,90049,90463,0.3 P,0,90049,90463,A M,0,90102,90156,444.9001,205.1069,452.0317,186.4441 M,0,90156,90209,452.0317,186.4441,457.3435,167.187 M,0,90209,90263,457.3435,167.187,460.6056,147.476
Sprite,Background,Centre,"sb\glow.png",396,70 C,0,90478,,143,143,143 F,2,90478,90678,1,0 S,2,90478,90678,0.3 P,0,90478,90678,A
Sprite,Background,Centre,"sb\glow.png",115,264 C,0,90907,,110,110,110 F,2,90907,91107,1,0 S,2,90907,91107,0.3 P,0,90907,91107,A
Sprite,Background,Centre,"sb\glow.png",228,241 C,0,91121,,110,110,110 F,2,91121,91321,1,0 S,2,91121,91321,0.3 P,0,91121,91321,A
Sprite,Background,Centre,"sb\glow.png",282,329 C,0,91335,,110,110,110 F,2,91335,91535,1,0 S,2,91335,91535,0.3 P,0,91335,91535,A
Sprite,Background,Centre,"sb\glow.png",202,319 C,0,91550,,110,110,110 F,2,91550,91750,1,0 S,2,91550,91750,0.3 P,0,91550,91750,A
Sprite,Background,Centre,"sb\glow.png",292,187 C,0,91764,,174,0,0 F,2,91764,91964,1,0 S,2,91764,91964,0.3 P,0,91764,91964,A
Sprite,Background,Centre,"sb\glow.png",354,291 C,0,91978,,174,0,0 F,2,91978,92178,1,0 S,2,91978,92178,0.3 P,0,91978,92178,A
Sprite,Background,Centre,"sb\glow.png",235,395 C,0,92192,,174,0,0 F,2,92192,92392,1,0 S,2,92192,92392,0.3 P,0,92192,92392,A
Sprite,Background,Centre,"sb\glow.png",282,329 C,0,92407,,174,0,0 F,2,92407,92607,1,0 S,2,92407,92607,0.3 P,0,92407,92607,A
Sprite,Background,Centre,"sb\glow.png",368,413 C,0,92621,,143,143,143 F,2,92621,92821,1,0 S,2,92621,92821,0.3 P,0,92621,92821,A
Sprite,Background,Centre,"sb\glow.png",370,429 C,0,92835,,143,143,143 F,2,92835,93035,1,0 S,2,92835,93035,0.3 P,0,92835,93035,A
Sprite,Background,Centre,"sb\glow.png",485,362 C,0,93050,,110,110,110 F,2,93050,93250,1,0 S,2,93050,93250,0.3 P,0,93050,93250,A
Sprite,Background,Centre,"sb\glow.png",483,378 C,0,93264,,110,110,110 F,2,93264,93464,1,0 S,2,93264,93464,0.3 P,0,93264,93464,A
Sprite,Background,Centre,"sb\glow.png",0,0 C,0,93478,,174,0,0 M,0,93478,93531,313,256,302.0711,272.7239 F,2,93478,93892,1,0 S,2,93478,93892,0.3 P,0,93478,93892,A M,0,93531,93585,302.0711,272.7239,293.1578,290.5943 M,0,93585,93638,293.1578,290.5943,286.2238,309.3265 M,0,93638,93692,286.2238,309.3265,281.7134,328.7945
Sprite,Background,Centre,"sb\glow.png",0,0 C,0,93907,,174,0,0 M,0,93907,93960,531,230,541.9289,246.7239 F,2,93907,94321,1,0 S,2,93907,94321,0.3 P,0,93907,94321,A M,0,93960,94014,541.9289,246.7239,550.8422,264.5943 M,0,94014,94067,550.8422,264.5943,557.7762,283.3265 M,0,94067,94121,557.7762,283.3265,562.2866,302.7944
Sprite,Background,Centre,"sb\glow.png",413,178 C,0,94335,,143,143,143 F,2,94335,94535,1,0 S,2,94335,94535,0.3 P,0,94335,94535,A
Sprite,Background,Centre,"sb\glow.png",383,88 C,0,94550,,143,143,143 F,2,94550,94750,1,0 S,2,94550,94750,0.3 P,0,94550,94750,A
Sprite,Background,Centre,"sb\glow.png",444,269 C,0,94764,,143,143,143 F,2,94764,94964,1,0 S,2,94764,94964,0.3 P,0,94764,94964,A
Sprite,Background,Centre,"sb\glow.png",529,99 C,0,94978,,110,110,110 F,2,94978,95178,1,0 S,2,94978,95178,0.3 P,0,94978,95178,A
Sprite,Background,Centre,"sb\glow.png",534,92 C,0,95085,,110,110,110 F,2,95085,95285,1,0 S,2,95085,95285,0.3 P,0,95085,95285,A
Sprite,Background,Centre,"sb\glow.png",0,0 C,0,95192,,110,110,110 M,0,95192,95245,539,81,519.0889,81.69823 F,2,95192,95606,1,0 S,2,95192,95606,0.3 P,0,95192,95606,A M,0,95245,95299,519.0889,81.69823,499.8015,86.5897 M,0,95299,95352,499.8015,86.5897,481.9953,95.43678 M,0,95352,95406,481.9953,95.43678,466.6816,108.1423
Sprite,Background,Centre,"sb\glow.png",413,178 C,0,95621,,110,110,110 F,2,95621,95821,1,0 S,2,95621,95821,0.3 P,0,95621,95821,A
Sprite,Background,Centre,"sb\glow.png",296,295 C,0,96050,,174,0,0 F,2,96050,96250,1,0 S,2,96050,96250,0.3 P,0,96050,96250,A
Sprite,Background,Centre,"sb\glow.png",266,385 C,0,96265,,174,0,0 F,2,96265,96465,1,0 S,2,96265,96465,0.3 P,0,96265,96465,A
Sprite,Background,Centre,"sb\glow.png",327,204 C,0,96479,,174,0,0 F,2,96479,96679,1,0 S,2,96479,96679,0.3 P,0,96479,96679,A
Sprite,Background,Centre,"sb\glow.png",412,374 C,0,96693,,143,143,143 F,2,96693,96893,1,0 S,2,96693,96893,0.3 P,0,96693,96893,A
Sprite,Background,Centre,"sb\glow.png",417,381 C,0,96800,,143,143,143 F,2,96800,97000,1,0 S,2,96800,97000,0.3 P,0,96800,97000,A
Sprite,Background,Centre,"sb\glow.png",0,0 C,0,96907,,143,143,143 M,0,96907,96960,422,392,402.0889,391.3018 F,2,96907,97321,1,0 S,2,96907,97321,0.3 P,0,96907,97321,A M,0,96960,97014,402.0889,391.3018,382.8015,386.4103 M,0,97014,97067,382.8015,386.4103,364.9953,377.5632 M,0,97067,97121,364.9953,377.5632,349.6816,364.8577
Sprite,Background,Centre,"sb\glow.png",296,295 C,0,97336,,143,143,143 F,2,97336,97536,1,0 S,2,97336,97536,0.3 P,0,97336,97536,A
Sprite,Background,Centre,"sb\glow.png",0,0 C,0,97764,,110,110,110 M,0,97764,97817,504,81,502.0599,95.87401 F,2,97764,98178,1,0 S,2,97764,98178,0.3 P,0,97764,98178,A M,0,97817,97871,502.0599,95.87401,500.1198,110.748 M,0,97871,97924,500.1198,110.748,498.1797,125.622 M,0,97924,97978,498.1797,125.622,496.2397,140.496
Sprite,Background,Centre,"sb\glow.png",0,0 C,0,98192,,110,110,110 M,0,98192,98245,417,137,418.7382,122.1011 F,2,98192,98606,1,0 S,2,98192,98606,0.3 P,0,98192,98606,A M,0,98245,98299,418.7382,122.1011,420.4764,107.2021 M,0,98299,98352,420.4764,107.2021,422.2146,92.30316 M,0,98352,98406,422.2146,92.30316,423.9529,77.40421
Sprite,Background,Centre,"sb\glow.png",0,0 C,0,98621,,174,0,0 M,0,98621,98674,334,263,332.0599,248.126 F,2,98621,99035,1,0 S,2,98621,99035,0.3 P,0,98621,99035,A M,0,98674,98728,332.0599,248.126,330.1198,233.252 M,0,98728,98781,330.1198,233.252,328.1797,218.378 M,0,98781,98835,328.1797,218.378,326.2397,203.504
Sprite,Background,Centre,"sb\glow.png",0,0 C,0,99049,,174,0,0 M,0,99049,99102,247,207,248.7673,221.8955 F,2,99049,99463,1,0 S,2,99049,99463,0.3 P,0,99049,99463,A M,0,99102,99156,248.7673,221.8955,250.5345,236.7911 M,0,99156,99209,250.5345,236.7911,252.3018,251.6866 M,0,99209,99263,252.3018,251.6866,254,266
Sprite,Background,Centre,"sb\glow.png",0,0 C,0,76050,,174,0,0 M,0,76050,76103,147,149,164.9526,157.4844 F,2,76050,76392,1,0 S,2,76050,76392,0.3 P,0,76050,76392,A M,0,76103,76157,164.9526,157.4844,179.649,170.7634 M,0,76157,76192,179.649,170.7634,187.0599,181.6955
Sprite,Background,Centre,"sb\glow.png",0,0 C,0,76335,,255,0,0 M,0,76335,76388,236,364,262.0132,378.9437 F,2,76335,76856,1,0 S,2,76335,76856,0.3 P,0,76335,76856,A M,0,76388,76442,262.0132,378.9437,288.6406,389.6641 M,0,76442,76495,288.6406,389.6641,317.833,382.7501 M,0,76495,76549,317.833,382.7501,347.0255,375.8361 M,0,76549,76602,347.0255,375.8361,373.4848,365.0275 M,0,76602,76656,373.4848,365.0275,402.5278,357.5105
Sprite,Background,Centre,"sb\glow.png",0,0 C,0,76764,,255,0,0 M,0,76764,76817,518,354,530.9249,327.1255 F,2,76764,77249,1,0 S,2,76764,77249,0.3 P,0,76764,77249,A M,0,76817,76871,530.9249,327.1255,532.5511,297.3562 M,0,76871,76924,532.5511,297.3562,524.395,268.5818 M,0,76924,76978,524.395,268.5818,506.9312,254.3448 M,0,76978,77031,506.9312,254.3448,484.3607,272.1782 M,0,77031,77049,484.3607,272.1782,476.2405,278.0146
Sprite,Background,Centre,"sb\glow.png",0,0 C,0,77192,,174,0,0 M,0,77192,77245,357,159,351.6394,178.2018 F,2,77192,77713,1,0 S,2,77192,77713,0.3 P,0,77192,77713,A M,0,77245,77299,351.6394,178.2018,350.1006,198.057 M,0,77299,77352,350.1006,198.057,352.43,217.8222 M,0,77352,77406,352.43,217.8222,358.8563,236.6718 M,0,77406,77459,358.8563,236.6718,368.7986,253.9126 M,0,77459,77513,368.7986,253.9126,381.9297,268.9306
Sprite,Background,Centre,"sb\glow.png",0,0 C,0,77621,,174,0,0 M,0,77621,77674,385,364,403.0433,357.8705 F,2,77621,78035,1,0 S,2,77621,78035,0.3 P,0,77621,78035,A M,0,77674,77728,403.0433,357.8705,385,364 M,0,77728,77781,385,364,403.0433,357.8705 M,0,77781,77835,403.0433,357.8705,385,364
Sprite,Background,Centre,"sb\glow.png",302,327 C,0,77942,,174,0,0 F,2,77942,78142,1,0 S,2,77942,78142,0.3 P,0,77942,78142,A
Sprite,Background,Centre,"sb\glow.png",0,0 C,0,78050,,174,0,0 M,0,78050,78103,302,327,282.1919,329.7639 F,2,78050,78464,1,0 S,2,78050,78464,0.3 P,0,78050,78464,A M,0,78103,78157,282.1919,329.7639,262.3838,332.5278 M,0,78157,78210,262.3838,332.5278,242.5757,335.2917 M,0,78210,78264,242.5757,335.2917,222.7676,338.0557
Sprite,Background,Centre,"sb\glow.png",0,0 C,0,78335,,174,0,0 M,0,78335,78388,221,327,240.7732,323.9965 F,2,78335,78749,1,0 S,2,78335,78749,0.3 P,0,78335,78749,A M,0,78388,78442,240.7732,323.9965,260.5464,320.993 M,0,78442,78495,260.5464,320.993,280.3195,317.9894 M,0,78495,78549,280.3195,317.9894,300,315
Sprite,Background,Centre,"sb\glow.png",357,250 C,0,78621,,174,0,0 F,2,78621,78821,1,0 S,2,78621,78821,0.3 P,0,78621,78821,A
Sprite,Background,Centre,"sb\glow.png",0,0 C,0,78907,,255,0,0 M,0,78907,78960,237,67,225,83 F,2,78907,79392,1,0 S,2,78907,79392,0.3 P,0,78907,79392,A M,0,78960,79014,225,83,213,99 M,0,79014,79067,213,99,217.9915,118.3671 M,0,79067,79121,217.9915,118.3671,222.983,137.7342 M,0,79121,79174,222.983,137.7342,227.9746,157.1013 M,0,79174,79192,227.9746,157.1013,229.6384,163.557
Sprite,Background,Centre,"sb\glow.png",0,0 C,0,79335,,255,0,0 M,0,79335,79388,155,216,150.2801,196.5649 F,2,79335,79820,1,0 S,2,79335,79820,0.3 P,0,79335,79820,A M,0,79388,79442,150.2801,196.5649,145.5601,177.1299 M,0,79442,79495,145.5601,177.1299,143.9868,170.6515 M,0,79495,79549,143.9868,170.6515,148.7067,190.0866 M,0,79549,79602,148.7067,190.0866,153.4267,209.5216 M,0,79602,79620,153.4267,209.5216,155,216
Sprite,Background,Centre,"sb\glow.png",0,0 C,0,79764,,174,0,0 M,0,79764,79817,116,310,145.3009,314.3009 F,2,79764,80285,1,0 S,2,79764,80285,0.3 P,0,79764,80285,A M,0,79817,79871,145.3009,314.3009,174.3966,319.3208 M,0,79871,79924,174.3966,319.3208,186.7021,342.6474 M,0,79924,79978,186.7021,342.6474,209.1773,357.1958 M,0,79978,80031,209.1773,357.1958,237.2405,364.9874 M,0,80031,80085,237.2405,364.9874,266.4673,369.9073
Sprite,Background,Centre,"sb\glow.png",0,0 C,0,80192,,174,0,0 M,0,80192,80245,416,209,386.5312,212.7033 F,2,80192,80713,1,0 S,2,80192,80713,0.3 P,0,80192,80713,A M,0,80245,80299,386.5312,212.7033,357.9583,218.2778 M,0,80299,80352,357.9583,218.2778,345.449,241.3235 M,0,80352,80406,345.449,241.3235,323.1614,256.0616 M,0,80406,80459,323.1614,256.0616,294.9297,263.1406 M,0,80459,80513,294.9297,263.1406,266.3382,268.7967
Sprite,Background,Centre,"sb\glow.png",0,0 C,0,80621,,255,0,0 M,0,80621,80674,104,88,123.3716,92.93302 F,2,80621,81249,1,0 S,2,80621,81249,0.3 P,0,80621,81249,A M,0,80674,80728,123.3716,92.93302,141.7986,100.6265 M,0,80728,80781,141.7986,100.6265,157.7449,112.578 M,0,80781,80835,157.7449,112.578,170.4164,128.0304 M,0,80835,80888,170.4164,128.0304,183.7187,142.9209 M,0,80888,80942,183.7187,142.9209,200.1324,154.2639 M,0,80942,80996,200.1324,154.2639,218.4616,162.2158 M,0,80996,81049,218.4616,162.2158,237.6286,167.901
Sprite,Background,Centre,"sb\glow.png",392,346 C,0,81264,,255,0,0 F,2,81264,81464,1,0 S,2,81264,81464,0.3 P,0,81264,81464,A
Sprite,Background,Centre,"sb\glow.png",392,346 C,0,81371,,255,0,0 F,2,81371,81571,1,0 S,2,81371,81571,0.3 P,0,81371,81571,A
Sprite,Background,Centre,"sb\glow.png",0,0 C,0,81478,,255,0,0 M,0,81478,81531,392,346,372.6194,350.5867 F,2,81478,81785,1,0 S,2,81478,81785,0.3 P,0,81478,81785,A M,0,81531,81585,372.6194,350.5867,354.9093,359.6219
Sprite,Background,Centre,"sb\glow.png",0,0 C,0,81692,,255,0,0 M,0,81692,81745,282,257,301.3806,261.5867 F,2,81692,81999,1,0 S,2,81692,81999,0.3 P,0,81692,81999,A M,0,81745,81799,301.3806,261.5867,319.0907,270.6219
Sprite,Background,Centre,"sb\glow.png",0,0 C,0,81907,,174,0,0 M,0,81907,81960,483,188,463.0992,186.0099 F,2,81907,82428,1,0 S,2,81907,82428,0.3 P,0,81907,82428,A M,0,81960,82014,463.0992,186.0099,443.1985,184.0199 M,0,82014,82067,443.1985,184.0199,423.2978,182.0298 M,0,82067,82121,423.2978,182.0298,416.1421,181.2906 M,0,82121,82174,416.1421,181.2906,396.2483,179.2326 M,0,82174,82228,396.2483,179.2326,376.3544,177.1746
Sprite,Background,Centre,"sb\glow.png",0,0 C,0,82335,,255,0,0 M,0,82335,82388,215,74,234.0033,79.96056 F,2,82335,82856,1,0 S,2,82335,82856,0.3 P,0,82335,82856,A M,0,82388,82442,234.0033,79.96056,251.1759,89.98935 M,0,82442,82495,251.1759,89.98935,265.7537,103.5035 M,0,82495,82549,265.7537,103.5035,276.5808,120.1894 M,0,82549,82602,276.5808,120.1894,283.5934,138.8013 M,0,82602,82656,283.5934,138.8013,285.7567,158.5796
Sprite,Background,Centre,"sb\glow.png",0,0 C,0,82764,,255,0,0 M,0,82764,82817,187,165,167.1029,163.7481 F,2,82764,83071,1,0 S,2,82764,83071,0.3 P,0,82764,83071,A M,0,82817,82871,167.1029,163.7481,147.8873,158.5323
Sprite,Background,Centre,"sb\glow.png",102,262 C,0,82978,,255,0,0 F,2,82978,83178,1,0 S,2,82978,83178,0.3 P,0,82978,83178,A
Sprite,Background,Centre,"sb\glow.png",102,262 C,0,83085,,255,0,0 F,2,83085,83285,1,0 S,2,83085,83285,0.3 P,0,83085,83285,A
Sprite,Background,Centre,"sb\glow.png",0,0 C,0,83192,,174,0,0 M,0,83192,83245,102,262,120.7476,282.3136 F,2,83192,83499,1,0 S,2,83192,83499,0.3 P,0,83192,83499,A M,0,83245,83299,120.7476,282.3136,127.8275,311.4662
Sprite,Background,Centre,"sb\glow.png",0,0 C,0,83407,,174,0,0 M,0,83407,83460,200,379,181.2524,399.3136 F,2,83407,83714,1,0 S,2,83407,83714,0.3 P,0,83407,83714,A M,0,83460,83514,181.2524,399.3136,174.1725,428.4662
Sprite,Background,Centre,"sb\glow.png",0,0 C,0,83621,,255,0,0 M,0,83621,83674,276,299,305.7794,302.6317 F,2,83621,84142,1,0 S,2,83621,84142,0.3 P,0,83621,84142,A M,0,83674,83728,305.7794,302.6317,330.524,316.9093 M,0,83728,83781,330.524,316.9093,357.2647,325.8058 M,0,83781,83835,357.2647,325.8058,387.2355,327.1281 M,0,83835,83888,387.2355,327.1281,399.131,334.5017 M,0,83888,83942,399.131,334.5017,382.9062,359.4192
Sprite,Background,Centre,"sb\glow.png",455,389 C,0,84050,,255,0,0 F,2,84050,84250,1,0 S,2,84050,84250,0.3 P,0,84050,84250,A
Sprite,Background,Centre,"sb\glow.png",0,0 C,0,84264,,255,0,0 M,0,84264,84317,389,156,369.5046,160.1147 F,2,84264,84571,1,0 S,2,84264,84571,0.3 P,0,84264,84571,A M,0,84317,84371,369.5046,160.1147,351.1554,167.9186
Sprite,Background,Centre,"sb\glow.png",0,0 C,0,84478,,255,0,0 M,0,84478,84531,481,206,489.7071,188.074 F,2,84478,84785,1,0 S,2,84478,84785,0.3 P,0,84478,84785,A M,0,84531,84585,489.7071,188.074,494.8546,168.8082
Sprite,Background,Centre,"sb\glow.png",400,261 C,0,84693,,255,0,0 F,2,84693,84893,1,0 S,2,84693,84893,0.3 P,0,84693,84893,A
Sprite,Background,Centre,"sb\glow.png",400,261 C,0,84800,,255,0,0 F,2,84800,85000,1,0 S,2,84800,85000,0.3 P,0,84800,85000,A
Sprite,Background,Centre,"sb\glow.png",0,0 C,0,84907,,192,192,192 M,0,84907,84960,400,261,373.3307,274.7387 F,2,84907,85321,1,0 S,2,84907,85321,0.3 P,0,84907,85321,A M,0,84960,85014,373.3307,274.7387,344.3745,274.6062 M,0,85014,85067,344.3745,274.6062,316.4039,267.0009 M,0,85067,85121,316.4039,267.0009,287.1836,260.2055
Sprite,Background,Centre,"sb\glow.png",236,310 C,0,85228,,192,192,192 F,2,85228,85428,1,0 S,2,85228,85428,0.3 P,0,85228,85428,A
Sprite,Background,Centre,"sb\glow.png",0,0 C,0,85335,,192,192,192 M,0,85335,85388,222,332,251.1234,339.199 F,2,85335,85820,1,0 S,2,85335,85820,0.3 P,0,85335,85820,A M,0,85388,85442,251.1234,339.199,280.2468,346.3981 M,0,85442,85495,280.2468,346.3981,289.9547,348.7978 M,0,85495,85549,289.9547,348.7978,260.8312,341.5987 M,0,85549,85602,260.8312,341.5987,231.7078,334.3997 M,0,85602,85620,231.7078,334.3997,222,332
Sprite,Background,Centre,"sb\blood-1.png",524,286 C,0,72907,,174,0,0 F,2,72907,73964,1,0 S,2,72907,73964,0.5 P,0,72907,73964,A
Sprite,Background,Centre,"sb\blood-2.png",82,142 C,0,71192,,255,0,0 F,2,71192,72249,1,0 S,2,71192,72249,0.5 P,0,71192,72249,A
Sprite,Background,Centre,"sb\blood-1.png",495,106 C,0,69478,,174,0,0 F,2,69478,70535,1,0 S,2,69478,70535,0.5 P,0,69478,70535,A
Sprite,Background,Centre,"sb\blood-2.png",267,404 C,0,67764,,255,0,0 F,2,67764,68821,1,0 S,2,67764,68821,0.5 P,0,67764,68821,A
Sprite,Background,Centre,"sb\glow.png",0,0 C,0,66907,,174,0,0 M,0,66907,66960,496,331,486.1861,332.9201 F,2,66907,67857,1,0 S,2,66907,67857,0.3 P,0,66907,67857,A M,0,66960,67014,486.1861,332.9201,476.3721,334.8402 M,0,67014,67067,476.3721,334.8402,466.5582,336.7603 M,0,67067,67121,466.5582,336.7603,456.7443,338.6805 M,0,67121,67174,456.7443,338.6805,447.7883,337.7883 M,0,67174,67228,447.7883,337.7883,448.4611,344.3801 M,0,67228,67282,448.4611,344.3801,445.1462,353.8147 M,0,67282,67335,445.1462,353.8147,441.8313,363.2493 M,0,67335,67389,441.8313,363.2493,438.5165,372.6839 M,0,67389,67442,438.5165,372.6839,431.6486,377.8919 M,0,67442,67496,431.6486,377.8919,421.7847,379.5359 M,0,67496,67549,421.7847,379.5359,411.9207,381.1799 M,0,67549,67603,411.9207,381.1799,402.0568,382.8239 M,0,67603,67657,402.0568,382.8239,392.1928,384.4679
Sprite,Background,Centre,"sb\glow.png",0,0 C,0,67764,,255,0,0 M,0,67764,67817,267,404,274.8098,375.4552 F,2,67764,68821,1,0 S,2,67764,68821,0.3 P,0,67764,68821,A M,0,67817,67871,274.8098,375.4552,279.3754,353.1035 M,0,67871,67924,279.3754,353.1035,302.5828,334.634 M,0,67924,67978,302.5828,334.634,290.823,327.8977 M,0,67978,68031,290.823,327.8977,260.8784,327.9079 M,0,68031,68085,260.8784,327.9079,231.6984,321.2456 M,0,68085,68139,231.6984,321.2456,204.4914,311.2531 M,0,68139,68192,204.4914,311.2531,177.0124,306.8961 M,0,68192,68246,177.0124,306.8961,147.6019,301.5795 M,0,68246,68299,147.6019,301.5795,127.4207,300.0327 M,0,68299,68353,127.4207,300.0327,149.4097,279.7796 M,0,68353,68406,149.4097,279.7796,162.9573,253.2494 M,0,68406,68460,162.9573,253.2494,164.83,223.4901 M,0,68460,68514,164.83,223.4901,162.518,202.2293 M,0,68514,68567,162.518,202.2293,187.2301,219.098 M,0,68567,68621,187.2301,219.098,215.3493,229.3431
Sprite,Background,Centre,"sb\glow.png",0,0 C,0,69478,,174,0,0 M,0,69478,69531,495,106,467.9637,118.8123 F,2,69478,70535,1,0 S,2,69478,70535,0.3 P,0,69478,70535,A M,0,69531,69585,467.9637,118.8123,438.352,121.9074 M,0,69585,69638,438.352,121.9074,410.5555,111.3717 M,0,69638,69692,410.5555,111.3717,389.5886,131.8682 M,0,69692,69745,389.5886,131.8682,362.245,143.6669 M,0,69745,69799,362.245,143.6669,332.3882,144.4722 M,0,69799,69853,332.3882,144.4722,341.4695,167.4418 M,0,69853,69906,341.4695,167.4418,360.8747,190.1874 M,0,69906,69960,360.8747,190.1874,385.6352,207.0511 M,0,69960,70013,385.6352,207.0511,407.0819,227.5384 M,0,70013,70067,407.0819,227.5384,416.3486,255.9066 M,0,70067,70120,416.3486,255.9066,415.3075,282.6923 M,0,70120,70174,415.3075,282.6923,386.152,288.848 M,0,70174,70228,386.152,288.848,359.9821,301.302 M,0,70228,70281,359.9821,301.302,338.3537,317.8066 M,0,70281,70335,338.3537,317.8066,311.0981,325.5234
Sprite,Background,Centre,"sb\glow.png",0,0 C,0,71192,,255,0,0 M,0,71192,71245,82,142,91.82735,170.0722 F,2,71192,72249,1,0 S,2,71192,72249,0.3 P,0,71192,72249,A M,0,71245,71299,91.82735,170.0722,85.70137,199.0081 M,0,71299,71352,85.70137,199.0081,91.97475,223.1461 M,0,71352,71406,91.97475,223.1461,102.7878,250.9279 M,0,71406,71459,102.7878,250.9279,104.2721,277.7194 M,0,71459,71513,104.2721,277.7194,127.9303,259.4114 M,0,71513,71567,127.9303,259.4114,155.8497,248.7931 M,0,71567,71620,155.8497,248.7931,185.7052,247.4233 M,0,71620,71674,185.7052,247.4233,214.9393,253.8753 M,0,71674,71727,214.9393,253.8753,217.3367,242.0059 M,0,71727,71781,217.3367,242.0059,205.8593,214.3181 M,0,71781,71834,205.8593,214.3181,199.6701,185.0287 M,0,71834,71888,199.6701,185.0287,201.6946,155.2303 M,0,71888,71942,201.6946,155.2303,209.9907,149.4321 M,0,71942,71995,209.9907,149.4321,222.8363,176.2981 M,0,71995,72049,222.8363,176.2981,245.3382,195.8775
Sprite,Background,Centre,"sb\glow.png",0,0 C,0,72907,,174,0,0 M,0,72907,72960,524,286,494.2545,283.1614 F,2,72907,73964,1,0 S,2,72907,73964,0.3 P,0,72907,73964,A M,0,72960,73014,494.2545,283.1614,465.6551,291.3591 M,0,73014,73067,465.6551,291.3591,444.8697,312.4282 M,0,73067,73121,444.8697,312.4282,438.9019,341.4232 M,0,73121,73174,438.9019,341.4232,448.5915,369.4693 M,0,73174,73228,448.5915,369.4693,470.9602,388.8795 M,0,73228,73282,470.9602,388.8795,500.1964,390.9961 M,0,73282,73335,500.1964,390.9961,522.9813,372.4273 M,0,73335,73389,522.9813,372.4273,505.5975,367.5045 M,0,73389,73442,505.5975,367.5045,475.8008,370.9914 M,0,73442,73496,475.8008,370.9914,446.0041,374.4782 M,0,73496,73549,446.0041,374.4782,421.0448,387.9552 M,0,73549,73603,421.0448,387.9552,393.6552,396.1345 M,0,73603,73657,393.6552,396.1345,363.804,399.1196 M,0,73657,73710,363.804,399.1196,335.3556,400.3342 M,0,73710,73764,335.3556,400.3342,306.7401,391.3256
Sprite,Background,Centre,"sb\glow.png",191,331 C,0,74192,,174,0,0 F,2,74192,74392,1,0 S,2,74192,74392,0.3 P,0,74192,74392,A
Sprite,Background,Centre,"sb\glow.png",283,286 C,0,74407,,255,0,0 F,2,74407,74607,1,0 S,2,74407,74607,0.3 P,0,74407,74607,A
Sprite,Background,Centre,"sb\glow.png",283,286 C,0,74514,,255,0,0 F,2,74514,74714,1,0 S,2,74514,74714,0.3 P,0,74514,74714,A
Sprite,Background,Centre,"sb\glow.png",283,286 C,0,74621,,255,0,0 F,2,74621,74821,1,0 S,2,74621,74821,0.3 P,0,74621,74821,A
Sprite,Background,Centre,"sb\glow.png",206,426 C,0,74835,,255,0,0 F,2,74835,75035,1,0 S,2,74835,75035,0.3 P,0,74835,75035,A
Sprite,Background,Centre,"sb\glow.png",0,0 C,0,75050,,255,0,0 M,0,75050,75103,75,320,89.03488,334.1787 F,2,75050,75464,1,0 S,2,75050,75464,0.3 P,0,75050,75464,A M,0,75103,75157,89.03488,334.1787,100.3342,350.5967 M,0,75157,75210,100.3342,350.5967,108.8541,368.6372 M,0,75210,75264,108.8541,368.6372,113.5282,388.031
Sprite,Background,Centre,"sb\glow.png",256,344 C,0,65621,,255,0,0 F,2,65621,65821,1,0 S,2,65621,65821,0.3 P,0,65621,65821,A
Sprite,Background,Centre,"sb\glow.png",237,177 C,0,66050,,255,0,0 F,2,66050,66250,1,0 S,2,66050,66250,0.3 P,0,66050,66250,A
Sprite,Background,Centre,"sb\glow.png",403,157 C,0,66478,,255,0,0 F,2,66478,66678,1,0 S,2,66478,66678,0.3 P,0,66478,66678,A
Sprite,Background,Centre,"sb\blood-2.png",340,328 C,0,57478,,174,0,0 F,2,57478,57999,1,0 S,2,57478,57999,0.5 P,0,57478,57999,A
Sprite,Background,Centre,"sb\glow.png",0,0 C,0,54050,,174,0,0 M,0,54050,54103,290,403,270.1285,400.7362 F,2,54050,54535,1,0 S,2,54050,54535,0.3 P,0,54050,54535,A M,0,54103,54157,270.1285,400.7362,250.2571,398.4723 M,0,54157,54210,250.2571,398.4723,243.6333,397.7177 M,0,54210,54264,243.6333,397.7177,263.5047,399.9815 M,0,54264,54317,263.5047,399.9815,283.3762,402.2454 M,0,54317,54335,283.3762,402.2454,290,403
Sprite,Background,Centre,"sb\glow.png",0,0 C,0,54478,,174,0,0 M,0,54478,54531,267,306,286.8715,303.7361 F,2,54478,54963,1,0 S,2,54478,54963,0.3 P,0,54478,54963,A M,0,54531,54585,286.8715,303.7361,306.7429,301.4723 M,0,54585,54638,306.7429,301.4723,313.3668,300.7177 M,0,54638,54692,313.3668,300.7177,293.4953,302.9816 M,0,54692,54745,293.4953,302.9816,273.6238,305.2454 M,0,54745,54763,273.6238,305.2454,267,306
Sprite,Background,Centre,"sb\glow.png",0,0 C,0,54907,,255,0,0 M,0,54907,54960,172,169,185.6745,183.495 F,2,54907,55428,1,0 S,2,54907,55428,0.3 P,0,54907,55428,A M,0,54960,55014,185.6745,183.495,193.9548,201.5885 M,0,55014,55067,193.9548,201.5885,195.9529,221.4136 M,0,55067,55121,195.9529,221.4136,192.9426,241.1492 M,0,55121,55174,192.9426,241.1492,181.2682,239.5657 M,0,55174,55228,181.2682,239.5657,166.1544,226.4671
Sprite,Background,Centre,"sb\glow.png",0,0 C,0,55335,,255,0,0 M,0,55335,55388,109,324,128.6698,320.8842 F,2,55335,55820,1,0 S,2,55335,55820,0.3 P,0,55335,55820,A M,0,55388,55442,128.6698,320.8842,148.4855,322.4879 M,0,55442,55495,148.4855,322.4879,154.9752,323.9013 M,0,55495,55549,154.9752,323.9013,135.3327,320.6444 M,0,55549,55602,135.3327,320.6444,115.5437,322.7929 M,0,55602,55620,115.5437,322.7929,109,324
Sprite,Background,Centre,"sb\glow.png",0,0 C,0,55764,,174,0,0 M,0,55764,55817,234,387,253.5122,391.3903 F,2,55764,56285,1,0 S,2,55764,56285,0.3 P,0,55764,56285,A M,0,55817,55871,253.5122,391.3903,273.0244,395.7805 M,0,55871,55924,273.0244,395.7805,285.6313,411.0237 M,0,55924,55978,285.6313,411.0237,297.8748,426.8382 M,0,55978,56031,297.8748,426.8382,317.2403,431.6549 M,0,56031,56085,317.2403,431.6549,336.6795,436.3579
Sprite,Background,Centre,"sb\glow.png",0,0 C,0,56192,,174,0,0 M,0,56192,56245,418,353,437.5122,348.6097 F,2,56192,56713,1,0 S,2,56192,56713,0.3 P,0,56192,56713,A M,0,56245,56299,437.5122,348.6097,457.0244,344.2195 M,0,56299,56352,457.0244,344.2195,469.6313,328.9763 M,0,56352,56406,469.6313,328.9763,481.8748,313.1618 M,0,56406,56459,481.8748,313.1618,501.2403,308.3451 M,0,56459,56513,501.2403,308.3451,520.6795,303.6421
Sprite,Background,Centre,"sb\glow.png",0,0 C,0,56621,,255,0,0 M,0,56621,56674,338,194,329.9205,199.8448 F,2,56621,57571,1,0 S,2,56621,57571,0.3 P,0,56621,57571,A M,0,56674,56728,329.9205,199.8448,322.6702,206.6711 M,0,56728,56781,322.6702,206.6711,316.3651,214.3664 M,0,56781,56835,316.3651,214.3664,311.1059,222.805 M,0,56835,56888,311.1059,222.805,306.7184,231.7371 M,0,56888,56942,306.7184,231.7371,303.9787,241.314 M,0,56942,56995,303.9787,241.314,302.496,251.1534 M,0,56995,57049,302.496,251.1534,302.2925,261.0955 M,0,57049,57103,302.2925,261.0955,303.0416,271.0271 M,0,57103,57156,303.0416,271.0271,305.5864,280.661 M,0,57156,57210,305.5864,280.661,309.3455,289.8765 M,0,57210,57263,309.3455,289.8765,314.256,298.5249 M,0,57263,57317,314.256,298.5249,319.9439,306.7121 M,0,57317,57371,319.9439,306.7121,327.0605,313.6914
Sprite,Background,Centre,"sb\glow.png",0,0 C,0,57478,,174,0,0 M,0,57478,57531,340,328,311.5395,318.5132 F,2,57478,57999,1,0 S,2,57478,57999,0.3 P,0,57478,57999,A M,0,57531,57585,311.5395,318.5132,287.0263,305.079 M,0,57585,57638,287.0263,305.079,270.3775,325.4842 M,0,57638,57692,270.3775,325.4842,255.8038,346.4767 M,0,57692,57745,255.8038,346.4767,232.7866,333.6981 M,0,57745,57799,232.7866,333.6981,203.7682,326.0868
Sprite,Background,Centre,"sb\glow.png",0,0 C,0,57907,,174,0,0 M,0,57907,57960,185,321,198.8982,347.3806 F,2,57907,58214,1,0 S,2,57907,58214,0.3 P,0,57907,58214,A M,0,57960,58014,198.8982,347.3806,203.9483,376.7725
Sprite,Background,Centre,"sb\glow.png",0,0 C,0,58121,,174,0,0 M,0,58121,58174,116,374,107.0668,402.4369 F,2,58121,58428,1,0 S,2,58121,58428,0.3 P,0,58121,58428,A M,0,58174,58228,107.0668,402.4369,89.50534,426.5262
Sprite,Background,Centre,"sb\glow.png",0,0 C,0,58335,,255,0,0 M,0,58335,58388,102,286,92.45425,268.5008 F,2,58335,58856,1,0 S,2,58335,58856,0.3 P,0,58335,58856,A M,0,58388,58442,92.45425,268.5008,86.55675,249.4827 M,0,58442,58495,86.55675,249.4827,84.52707,229.6885 M,0,58495,58549,84.52707,229.6885,86.77469,209.9042 M,0,58549,58602,86.77469,209.9042,92.87415,190.9639 M,0,58602,58656,92.87415,190.9639,102.8875,173.7533
Sprite,Background,Centre,"sb\glow.png",0,0 C,0,58764,,255,0,0 M,0,58764,58817,95,95,114.8756,95.01369 F,2,58764,59249,1,0 S,2,58764,59249,0.3 P,0,58764,59249,A M,0,58817,58871,114.8756,95.01369,133.9476,100.44 M,0,58871,58924,133.9476,100.44,139.9059,103.3177 M,0,58924,58978,139.9059,103.3177,121.4433,96.03145 M,0,58978,59031,121.4433,96.03145,101.6461,94.74326 M,0,59031,59049,101.6461,94.74326,95,95
Sprite,Background,Centre,"sb\glow.png",0,0 C,0,59192,,174,0,0 M,0,59192,59245,186,178,205.881,175.8213 F,2,59192,59713,1,0 S,2,59192,59713,0.3 P,0,59192,59713,A M,0,59245,59299,205.881,175.8213,225.7619,173.6425 M,0,59299,59352,225.7619,173.6425,245.6429,171.4638 M,0,59352,59406,245.6429,171.4638,260.4237,163.5933 M,0,59406,59459,260.4237,163.5933,267.0703,169.0688 M,0,59459,59513,267.0703,169.0688,286.9385,166.7763
Sprite,Background,Centre,"sb\glow.png",0,0 C,0,59621,,174,0,0 M,0,59621,59674,362,278,342.119,275.8213 F,2,59621,60142,1,0 S,2,59621,60142,0.3 P,0,59621,60142,A M,0,59674,59728,342.119,275.8213,322.2381,273.6425 M,0,59728,59781,322.2381,273.6425,302.3571,271.4638 M,0,59781,59835,302.3571,271.4638,287.5763,263.5933 M,0,59835,59888,287.5763,263.5933,280.9297,269.0688 M,0,59888,59942,280.9297,269.0688,261.0615,266.7763
Sprite,Background,Centre,"sb\glow.png",0,0 C,0,60050,,255,0,0 M,0,60050,60103,146,288,155.2419,291.7523 F,2,60050,61000,1,0 S,2,60050,61000,0.3 P,0,60050,61000,A M,0,60103,60157,155.2419,291.7523,163.9253,296.6345 M,0,60157,60210,163.9253,296.6345,171.915,302.5676 M,0,60210,60264,171.915,302.5676,179.0869,309.4572 M,0,60264,60317,179.0869,309.4572,185.3292,317.1944 M,0,60317,60371,185.3292,317.1944,190.8167,325.4985 M,0,60371,60424,190.8167,325.4985,194.7726,334.6435 M,0,60424,60478,194.7726,334.6435,197.5399,344.2046 M,0,60478,60532,197.5399,344.2046,199.0768,354.0312 M,0,60532,60585,199.0768,354.0312,199.3607,363.969 M,0,60585,60639,199.3607,363.969,198.7337,373.9084 M,0,60639,60692,198.7337,373.9084,196.3447,383.5842 M,0,60692,60746,196.3447,383.5842,192.7578,392.8708 M,0,60746,60800,192.7578,392.8708,188.2953,401.7989
Sprite,Background,Centre,"sb\glow.png",0,0 C,0,60907,,174,0,0 M,0,60907,60960,81,405,90.93167,387.7367 F,2,60907,61392,1,0 S,2,60907,61392,0.3 P,0,60907,61392,A M,0,60960,61014,90.93167,387.7367,104.6167,373.3136 M,0,61014,61067,104.6167,373.3136,109.7839,369.1378 M,0,61067,61121,109.7839,369.1378,94.92444,382.3952 M,0,61121,61174,94.92444,382.3952,84.17597,399.1527 M,0,61174,61192,84.17597,399.1527,81,405
Sprite,Background,Centre,"sb\glow.png",0,0 C,0,61335,,174,0,0 M,0,61335,61388,146,288,165.0709,282.3151 F,2,61335,61820,1,0 S,2,61335,61820,0.3 P,0,61335,61820,A M,0,61388,61442,165.0709,282.3151,184.9206,281.6905 M,0,61442,61495,184.9206,281.6905,191.5159,282.4409 M,0,61495,61549,191.5159,282.4409,171.6552,281.2631 M,0,61549,61602,171.6552,281.2631,152.3206,285.9269 M,0,61602,61620,152.3206,285.9269,146,288
Sprite,Background,Centre,"sb\glow.png",0,0 C,0,61764,,255,0,0 M,0,61764,61817,266,346,283.8885,337.0557 F,2,61764,62285,1,0 S,2,61764,62285,0.3 P,0,61764,62285,A M,0,61817,61871,283.8885,337.0557,302.0878,331.0598 M,0,61871,61924,302.0878,331.0598,321.4477,336.079 M,0,61924,61978,321.4477,336.079,340.8076,341.0983 M,0,61978,62031,340.8076,341.0983,351.6548,342.2737 M,0,62031,62085,351.6548,342.2737,369.6053,348.7681
Sprite,Background,Centre,"sb\glow.png",0,0 C,0,62192,,255,0,0 M,0,62192,62245,472,429,460.4061,412.7563 F,2,62192,62677,1,0 S,2,62192,62677,0.3 P,0,62192,62677,A M,0,62245,62299,460.4061,412.7563,451.5907,394.8697 M,0,62299,62352,451.5907,394.8697,449.2787,388.6354 M,0,62352,62406,449.2787,388.6354,457.045,407.0082 M,0,62406,62459,457.045,407.0082,468.0011,423.6724 M,0,62459,62477,468.0011,423.6724,472,429
Sprite,Background,Centre,"sb\glow.png",0,0 C,0,62621,,174,0,0 M,0,62621,62674,439,292,442.7792,272.4738 F,2,62621,63142,1,0 S,2,62621,63142,0.3 P,0,62621,63142,A M,0,62674,62728,442.7792,272.4738,438.5901,253.0671 M,0,62728,62781,438.5901,253.0671,429.7109,236.0451 M,0,62781,62835,429.7109,236.0451,427.4002,218.2716 M,0,62835,62888,427.4002,218.2716,419.8669,199.8092 M,0,62888,62942,419.8669,199.8092,418.0202,179.9777
Sprite,Background,Centre,"sb\glow.png",0,0 C,0,63050,,174,0,0 M,0,63050,63103,281,155,295.0913,140.8767 F,2,63050,63571,1,0 S,2,63050,63571,0.3 P,0,63050,63571,A M,0,63103,63157,295.0913,140.8767,312.332,130.863 M,0,63157,63210,312.332,130.863,331.6006,125.7006 M,0,63210,63264,331.6006,125.7006,351.5535,124.9147 M,0,63264,63317,351.5535,124.9147,342.6143,140.2977 M,0,63317,63371,342.6143,140.2977,337.2303,159.4508
Sprite,Background,Centre,"sb\glow.png",0,0 C,0,46335,,143,143,143 M,0,46335,46388,92,209,99.03086,201.892 F,2,46335,49206,1,0 S,2,46335,49206,0.3 P,0,46335,49206,A M,0,46388,46442,99.03086,201.892,106.5828,195.3412 M,0,46442,46495,106.5828,195.3412,114.6665,189.4602 M,0,46495,46549,114.6665,189.4602,123.2699,184.371 M,0,46549,46602,123.2699,184.371,132.3484,180.1893 M,0,46602,46656,132.3484,180.1893,141.8241,177.0095 M,0,46656,46709,141.8241,177.0095,151.5914,174.8885 M,0,46709,46763,151.5914,174.8885,161.5306,173.8315 M,0,46763,46817,161.5306,173.8315,171.5265,173.797 M,0,46817,46870,171.5265,173.797,181.4815,174.7072 M,0,46870,46924,181.4815,174.7072,191.323,176.4653 M,0,46924,46977,191.323,176.4653,201.0025,178.9681 M,0,46977,47031,201.0025,178.9681,210.4919,182.1171 M,0,47031,47084,210.4919,182.1171,219.7778,185.8249 M,0,47084,47138,219.7778,185.8249,228.8573,190.0132 M,0,47138,47192,228.8573,190.0132,237.7338,194.6167 M,0,47192,47245,237.7338,194.6167,239.0724,201.192 M,0,47245,47299,239.0724,201.192,233.564,209.5374 M,0,47299,47352,233.564,209.5374,228.3722,218.0833 M,0,47352,47406,228.3722,218.0833,223.5362,226.8353 M,0,47406,47459,223.5362,226.8353,219.1001,235.7964 M,0,47459,47513,219.1001,235.7964,215.1136,244.9662 M,0,47513,47567,215.1136,244.9662,211.6304,254.3385 M,0,47567,47620,211.6304,254.3385,208.7081,263.9003 M,0,47620,47674,208.7081,263.9003,206.4063,273.6299 M,0,47674,47727,206.4063,273.6299,204.7827,283.495 M,0,47727,47781,204.7827,283.495,203.8892,293.4526 M,0,47781,47834,203.8892,293.4526,203.7669,303.4492 M,0,47834,47888,203.7669,303.4492,204.4408,313.4238 M,0,47888,47942,204.4408,313.4238,205.9173,323.3114 M,0,47942,47995,205.9173,323.3114,208.1812,333.049 M,0,47995,48049,208.1812,333.049,211.1988,342.5802 M,0,48049,48102,211.1988,342.5802,214.9212,351.8592 M,0,48102,48156,214.9212,351.8592,219.2899,360.8522 M,0,48156,48209,219.2899,360.8522,226.4556,360.6209 M,0,48209,48263,226.4556,360.6209,234.7174,354.9891 M,0,48263,48317,234.7174,354.9891,242.6407,348.8907 M,0,48317,48370,242.6407,348.8907,250.1667,342.3086 M,0,48370,48424,250.1667,342.3086,257.2309,335.2336 M,0,48424,48477,257.2309,335.2336,263.7675,327.6687 M,0,48477,48531,263.7675,327.6687,269.7111,319.6299 M,0,48531,48584,269.7111,319.6299,275.0049,311.1491 M,0,48584,48638,275.0049,311.1491,279.6032,302.2721 M,0,48638,48692,279.6032,302.2721,283.4779,293.0562 M,0,48692,48745,283.4779,293.0562,286.6183,283.5647 M,0,48745,48799,286.6183,283.5647,289.0341,273.8632 M,0,48799,48852,289.0341,273.8632,290.7501,264.0135 M,0,48852,48906,290.7501,264.0135,291.8025,254.0708
Sprite,Background,Centre,"sb\glow.png",270,103 C,0,49335,,143,143,143 F,2,49335,49635,1,0 S,2,49335,49635,0.3 P,0,49335,49635,A
Sprite,Background,Centre,"sb\glow.png",0,0 C,0,49764,,110,110,110 M,0,49764,49817,332,159,341.4557,155.748 F,2,49764,52635,1,0 S,2,49764,52635,0.3 P,0,49764,52635,A M,0,49817,49871,341.4557,155.748,351.0369,152.8867 M,0,49871,49924,351.0369,152.8867,360.7295,150.4294 M,0,49924,49978,360.7295,150.4294,370.5181,148.3878 M,0,49978,50031,370.5181,148.3878,380.3855,146.7696 M,0,50031,50085,380.3855,146.7696,390.3137,145.5804 M,0,50085,50138,390.3137,145.5804,400.2842,144.8226 M,0,50138,50192,400.2842,144.8226,410.278,144.4954 M,0,50192,50246,410.278,144.4954,420.2768,144.594 M,0,50246,50299,420.2768,144.594,430.2626,145.1119 M,0,50299,50353,430.2626,145.1119,440.2189,146.0388 M,0,50353,50406,440.2189,146.0388,450.1302,147.363 M,0,50406,50460,450.1302,147.363,459.9827,149.0704 M,0,50460,50513,459.9827,149.0704,469.7645,151.1456 M,0,50513,50567,469.7645,151.1456,479.4649,153.5727 M,0,50567,50621,479.4649,153.5727,489.0754,156.3347 M,0,50621,50674,489.0754,156.3347,498.5891,159.4139 M,0,50674,50728,498.5891,159.4139,508.0002,162.7938 M,0,50728,50781,508.0002,162.7938,517.3046,166.4571 M,0,50781,50835,517.3046,166.4571,517.0813,172.5372 M,0,50835,50888,517.0813,172.5372,510.8494,180.3566 M,0,50888,50942,510.8494,180.3566,505.036,188.4917 M,0,50942,50996,505.036,188.4917,499.6864,196.9388 M,0,50996,51049,499.6864,196.9388,494.8468,205.6879 M,0,51049,51103,494.8468,205.6879,490.5608,214.721 M,0,51103,51156,490.5608,214.721,486.8674,224.012 M,0,51156,51210,486.8674,224.012,483.7992,233.5277 M,0,51210,51263,483.7992,233.5277,481.3784,243.2282 M,0,51263,51317,481.3784,243.2282,479.6169,253.0699 M,0,51317,51371,479.6169,253.0699,478.5138,263.0071 M,0,51371,51424,478.5138,263.0071,478.0572,272.995 M,0,51424,51478,478.0572,272.995,478.2244,282.992 M,0,51478,51531,478.2244,282.992,478.9864,292.9615 M,0,51531,51585,478.9864,292.9615,480.3072,302.8726 M,0,51585,51638,480.3072,302.8726,481.3366,311.7305 M,0,51638,51692,481.3366,311.7305,471.9744,308.2194 M,0,51692,51746,471.9744,308.2194,462.4404,305.2063 M,0,51746,51799,462.4404,305.2063,452.7541,302.7269 M,0,51799,51853,452.7541,302.7269,442.9404,300.8129 M,0,51853,51906,442.9404,300.8129,433.0298,299.4909 M,0,51906,51960,433.0298,299.4909,423.0567,298.7799 M,0,51960,52013,423.0567,298.7799,413.0587,298.691 M,0,52013,52067,413.0587,298.691,403.0746,299.2255 M,0,52067,52121,403.0746,299.2255,393.1426,300.3754 M,0,52121,52174,393.1426,300.3754,383.298,302.1232 M,0,52174,52228,383.298,302.1232,373.5727,304.4446 M,0,52228,52281,373.5727,304.4446,363.9931,307.3092 M,0,52281,52335,363.9931,307.3092,354.5804,310.6823
Sprite,Background,Centre,"sb\glow.png",179,262 C,0,52764,,110,110,110 F,2,52764,53064,1,0 S,2,52764,53064,0.3 P,0,52764,53064,A
Sprite,Background,Centre,"sb\glow.png",384,273 C,0,34335,,143,143,143 F,2,34335,34535,1,0 S,2,34335,34535,0.3 P,0,34335,34535,A
Sprite,Background,Centre,"sb\glow.png",293,292 C,0,34764,,143,143,143 F,2,34764,34964,1,0 S,2,34764,34964,0.3 P,0,34764,34964,A
Sprite,Background,Centre,"sb\glow.png",203,313 C,0,35192,,143,143,143 F,2,35192,35392,1,0 S,2,35192,35392,0.3 P,0,35192,35392,A
Sprite,Background,Centre,"sb\glow.png",112,332 C,0,35621,,143,143,143 F,2,35621,35821,1,0 S,2,35621,35821,0.3 P,0,35621,35821,A
Sprite,Background,Centre,"sb\glow.png",364,343 C,0,36050,,110,110,110 F,2,36050,36250,1,0 S,2,36050,36250,0.3 P,0,36050,36250,A
Sprite,Background,Centre,"sb\glow.png",384,273 C,0,36478,,110,110,110 F,2,36478,36678,1,0 S,2,36478,36678,0.3 P,0,36478,36678,A
Sprite,Background,Centre,"sb\glow.png",453,293 C,0,36907,,110,110,110 F,2,36907,37107,1,0 S,2,36907,37107,0.3 P,0,36907,37107,A
Sprite,Background,Centre,"sb\glow.png",433,363 C,0,37335,,110,110,110 F,2,37335,37535,1,0 S,2,37335,37535,0.3 P,0,37335,37535,A
Sprite,Background,Centre,"sb\glow.png",227,145 C,0,37764,,192,192,192 F,2,37764,37964,1,0 S,2,37764,37964,0.3 P,0,37764,37964,A
Sprite,Background,Centre,"sb\glow.png",248,235 C,0,38192,,192,192,192 F,2,38192,38392,1,0 S,2,38192,38392,0.3 P,0,38192,38392,A
Sprite,Background,Centre,"sb\glow.png",270,325 C,0,38621,,192,192,192 F,2,38621,38821,1,0 S,2,38621,38821,0.3 P,0,38621,38821,A
Sprite,Background,Centre,"sb\blood-1.png",351,388 C,0,25335,,174,0,0 F,2,25335,25856,1,0 S,2,25335,25856,0.5 P,0,25335,25856,A
Sprite,Background,Centre,"sb\glow.png",0,0 C,0,30907,,174,0,0 M,0,30907,30960,362,399,339.8854,378.7283 F,2,30907,31428,1,0 S,2,30907,31428,0.3 P,0,30907,31428,A M,0,30960,31014,339.8854,378.7283,315.0668,368.256 M,0,31014,31067,315.0668,368.256,285.6858,374.3188 M,0,31067,31121,285.6858,374.3188,261.342,372.3679 M,0,31121,31174,261.342,372.3679,243.2506,383.8819 M,0,31174,31228,243.2506,383.8819,214.1272,391.0809
Sprite,Background,Centre,"sb\glow.png",0,0 C,0,31335,,174,0,0 M,0,31335,31388,213,250,190.8854,270.2717 F,2,31335,31856,1,0 S,2,31335,31856,0.3 P,0,31335,31856,A M,0,31388,31442,190.8854,270.2717,166.0668,280.744 M,0,31442,31495,166.0668,280.744,136.6858,274.6812 M,0,31495,31549,136.6858,274.6812,112.342,276.6321 M,0,31549,31602,112.342,276.6321,94.2506,265.1181 M,0,31602,31656,94.2506,265.1181,65.12717,257.9191
Sprite,Background,Centre,"sb\glow.png",0,0 C,0,31764,,255,0,0 M,0,31764,31817,228,134,255.1325,146.5548 F,2,31764,32285,1,0 S,2,31764,32285,0.3 P,0,31764,32285,A M,0,31817,31871,255.1325,146.5548,284.3172,153.3941 M,0,31871,31924,284.3172,153.3941,303.118,172.3957 M,0,31924,31978,303.118,172.3957,324.9639,186.9739 M,0,31978,32031,324.9639,186.9739,354.1472,193.8446 M,0,32031,32085,354.1472,193.8446,382.4814,203.6741
Sprite,Background,Centre,"sb\blood-2.png",395,208 C,0,32192,,174,0,0 F,2,32192,32606,1,0 S,2,32192,32606,0.5 P,0,32192,32606,A
Sprite,Background,Centre,"sb\glow.png",0,0 C,0,24050,,174,0,0 M,0,24050,24103,232,166,260.9143,158.0024 F,2,24050,24571,1,0 S,2,24050,24571,0.3 P,0,24050,24571,A M,0,24103,24157,260.9143,158.0024,279.7593,146.1665 M,0,24157,24210,279.7593,146.1665,301.5414,147.8399 M,0,24210,24264,301.5414,147.8399,330.785,141.1456 M,0,24264,24317,330.785,141.1456,360.0286,134.4513 M,0,24317,24371,360.0286,134.4513,347.3673,157.8459
Sprite,Background,Centre,"sb\glow.png",0,0 C,0,24478,,174,0,0 M,0,24478,24531,323,303,351.9143,310.9976 F,2,24478,24999,1,0 S,2,24478,24999,0.3 P,0,24478,24999,A M,0,24531,24585,351.9143,310.9976,370.7593,322.8335 M,0,24585,24638,370.7593,322.8335,392.5414,321.1601 M,0,24638,24692,392.5414,321.1601,421.785,327.8544 M,0,24692,24745,421.785,327.8544,451.0286,334.5487 M,0,24745,24799,451.0286,334.5487,438.3673,311.1541
Sprite,Background,Centre,"sb\glow.png",0,0 C,0,24907,,255,0,0 M,0,24907,24960,530,126,506.5739,144.7408 F,2,24907,25428,1,0 S,2,24907,25428,0.3 P,0,24907,25428,A M,0,24960,25014,506.5739,144.7408,514.375,172.3673 M,0,25014,25067,514.375,172.3673,520.2333,193.3001 M,0,25067,25121,520.2333,193.3001,534.1804,215.127 M,0,25121,25174,534.1804,215.127,539.3365,244.5002 M,0,25174,25228,539.3365,244.5002,533.5543,273.7887
Sprite,Background,Centre,"sb\spook.png",262,205 C,0,142335,,255,0,0 F,2,142335,143085,1,0 S,2,142335,143085,0.55 P,0,142335,143085,A
//Storyboard Layer 1 (Fail)
//Storyboard Layer 2 (Pass)
//Storyboard Layer 3 (Foreground)
//Storyboard Layer 4 (Overlay)
//Storyboard Sound Samples

[TimingPoints]
50,428.571428571429,4,2,0,100,1,0
1764,-50,4,2,0,100,0,0
3478,-50,4,2,2,50,0,0
5192,-100,4,2,2,50,0,0
10335,-100,4,2,2,90,0,0
17192,-100,4,2,21,100,0,0
17442,-100,4,2,2,100,0,0
18907,-66.6666666666667,4,2,3,100,0,0
32192,-100,4,2,3,100,0,0
32621,-100,4,2,2,50,0,0
34335,-100,4,2,4,80,0,0
39478,-100,4,2,21,100,0,0
42907,-100,4,2,4,100,0,0
44621,-100,4,2,2,100,0,0
44835,-100,4,2,2,25,0,0
46335,-200,4,2,21,100,0,0
46389,-200,4,2,3,50,0,0
53192,-200,4,2,3,100,0,0
54050,-100,4,2,3,100,0,0
56621,-200,4,2,3,100,0,0
57478,-66.6666666666667,4,2,3,100,0,0
58335,-100,4,2,3,100,0,0
60050,-200,4,2,3,100,0,0
60907,-100,4,2,3,100,0,0
63478,-200,4,2,3,100,0,0
64335,-200,4,2,2,35,0,0
66907,-200,4,2,3,100,0,0
67764,-66.6666666666667,4,2,3,100,0,0
68907,-66.6666666666667,4,2,2,50,0,0
69478,-66.6666666666667,4,2,3,100,0,0
70621,-66.6666666666667,4,2,2,50,0,0
71192,-66.6666666666667,4,2,3,100,0,0
72335,-66.6666666666667,4,2,2,50,0,0
72906,-66.6666666666667,4,2,3,100,0,0
73764,-100,4,2,3,50,0,0
75478,-100,4,2,3,100,0,0
76335,-66.6666666666667,4,2,3,100,0,0
77192,-100,4,2,3,100,0,0
79764,-66.6666666666667,4,2,3,100,0,0
80621,-100,4,2,3,100,0,0
83192,-66.6666666666667,4,2,3,100,0,0
84050,-100,4,2,3,100,0,0
84907,-66.6666666666667,4,2,3,100,0,0
87478,-100,4,2,3,50,0,0
87692,-100,4,2,3,25,0,0
88335,-100,4,2,2,25,0,0
89192,-100,4,2,3,50,0,0
89406,-100,4,2,3,25,0,0
90050,-100,4,2,2,25,0,0
90907,-100,4,2,3,50,0,0
91121,-100,4,2,3,25,0,0
91764,-100,4,2,2,25,0,0
92621,-100,4,2,3,50,0,0
92835,-100,4,2,3,25,0,0
93478,-100,4,2,2,25,0,0
94335,-100,4,2,3,50,0,0
94549,-100,4,2,3,25,0,0
95192,-100,4,2,2,25,0,0
96050,-100,4,2,3,50,0,0
96264,-100,4,2,3,25,0,0
96907,-100,4,2,2,25,0,0
97764,-133.333333333333,4,2,3,50,0,0
97978,-133.333333333333,4,2,3,25,0,0
99478,-50,4,2,0,100,0,0
101192,-50,4,2,3,100,0,0
101406,-50,4,2,3,75,0,0
101407,-100,4,2,3,75,0,0
101621,-100,4,2,2,50,0,0
102907,-100,4,2,3,100,0,0
103121,-100,4,2,3,75,0,0
103336,-100,4,2,2,50,0,0
104621,-100,4,2,3,100,0,0
104835,-100,4,2,3,75,0,0
105050,-100,4,2,2,50,0,0
106335,-100,4,2,3,100,0,0
106549,-100,4,2,3,75,0,0
106764,-100,4,2,2,50,0,0
108050,-100,4,2,3,100,0,0
108264,-100,4,2,3,75,0,0
108479,-100,4,2,2,50,0,0
109764,-100,4,2,3,100,0,0
109978,-100,4,2,3,75,0,0
110193,-100,4,2,2,50,0,0
111478,-100,4,2,3,100,0,0
111692,-100,4,2,3,75,0,0
111907,-100,4,2,2,50,0,0
113192,-100,4,2,3,100,0,0
113406,-100,4,2,3,75,0,0
113621,-100,4,2,2,50,0,0
114907,-100,4,2,3,100,0,0
115121,-100,4,2,3,75,0,0
115336,-100,4,2,2,50,0,0
116621,-100,4,2,3,100,0,0
116835,-100,4,2,3,75,0,0
117050,-100,4,2,2,50,0,0
118335,-100,4,2,3,100,0,0
118549,-100,4,2,3,75,0,0
118764,-100,4,2,2,50,0,0
120050,-100,4,2,3,100,0,0
120264,-100,4,2,3,75,0,0
120479,-100,4,2,2,50,0,0
121764,-100,4,2,3,100,0,0
121978,-100,4,2,3,75,0,0
122193,-100,4,2,2,50,0,0
123478,-100,4,2,3,100,0,0
123692,-100,4,2,3,75,0,0
123907,-100,4,2,2,50,0,0
125192,-100,4,2,3,100,0,0
125406,-100,4,2,3,75,0,0
125621,-100,4,2,2,50,0,0
126907,-100,4,2,3,100,0,0
127121,-100,4,2,3,75,0,0
127336,-100,4,2,2,50,0,0
128621,-133.333333333333,4,2,2,25,0,0
142335,-133.333333333333,4,2,81,60,0,0
147050,-133.333333333333,4,2,81,60,0,0

[Colours]
Combo1 : 174,0,0
Combo2 : 255,0,0
Combo3 : 192,192,192
Combo4 : 143,143,143
Combo5 : 110,110,110

[HitObjects]
174,135,1764,6,0,B|250:151|295:52|228:-39|15:-15|62:270|62:270|96:227|96:227|174:320|312:223|238:193|129:179|216:332|391:295|373:155|373:155|451:230|382:297|382:297|313:371|392:402|463:381|415:267|353:357,1,1280,0|0,0:0|0:0,0:0:0:0:
174,135,4335,5,8,0:0:0:0:
177,155,4442,1,8,0:0:0:0:
242,256,4657,5,8,0:0:0:0:
239,276,4764,1,8,0:0:0:0:
171,364,4978,1,8,0:0:0:0:
384,227,5192,5,8,0:0:0:0:
364,157,5407,1,2,0:0:0:0:
433,137,5621,1,8,0:0:0:0:
453,207,5835,1,2,0:0:0:0:
194,65,6050,37,8,0:0:0:0:
174,135,6264,1,2,0:0:0:0:
243,155,6478,1,8,0:0:0:0:
263,85,6692,1,2,0:0:0:0:
111,256,6907,6,0,P|65:267|32:285,1,80,8|2,0:0|0:0,0:0:0:0:
126,30,7335,2,0,P|172:41|205:59,1,80,8|2,0:0|0:0,0:0:0:0:
318,249,7764,6,0,B|220:269|280:324|165:349,1,160,8|8,0:0|0:0,0:0:0:0:
193,340,8407,1,2,0:0:0:0:
387,269,8621,37,8,0:0:0:0:
407,199,8835,1,2,0:0:0:0:
338,179,9050,1,8,0:0:0:0:
318,249,9264,1,2,0:0:0:0:
174,135,9478,5,8,0:0:0:0:
194,205,9692,1,2,0:0:0:0:
125,225,9907,1,8,0:0:0:0:
105,155,10121,1,2,0:0:0:0:
290,41,10335,22,0,L|414:64,1,120,8|0,0:0|0:0,0:0:0:0:
423,68,10764,2,0,B|382:94|382:94|400:198,1,120,4|2,0:0|0:0,0:0:0:0:
398,182,11192,2,0,L|442:202,2,40,8|2|2,0:0|0:0|0:0,0:0:0:0:
445,304,11621,2,0,L|490:287,2,40,4|0|2,0:0|0:0|0:0,0:0:0:0:
301,264,12050,6,0,B|253:278|253:278|239:298|239:298|179:318,1,120,8|0,0:0|0:0,0:0:0:0:
176,317,12478,2,0,P|185:273|147:207,1,120,4|2,0:0|0:0,0:0:0:0:
131,198,12907,2,0,L|141:156,2,40,8|2|2,0:0|0:0|0:0,0:0:0:0:
48,156,13335,2,0,L|58:114,2,40,4|0|2,0:0|0:0|0:0,0:0:0:0:
131,42,13764,54,0,B|188:23|188:23|249:41,1,120,8|0,0:0|0:0,0:0:0:0:
267,48,14192,2,0,L|388:26,1,120,4|2,0:0|0:0,0:0:0:0:
411,22,14621,2,0,L|401:71,2,40,8|2|2,0:0|0:0|0:0,0:0:0:0:
496,93,15050,2,0,L|486:142,2,40,4|0|2,0:0|0:0|0:0,0:0:0:0:
256,192,15478,12,2,17192,0:0:0:0:
183,67,18907,6,0,B|150:95|150:95|165:144|165:144|160:149|160:149|165:144|165:144|189:217,1,180.000006866455,8|4,0:0|0:0,0:0:0:0:
115,320,19335,2,0,B|178:297|178:297|196:304|196:304|292:270,1,180.000006866455,4|0,0:0|0:0,0:0:0:0:
271,185,19764,53,8,0:0:0:0:
383,329,19978,2,0,B|412:274|412:274|380:203|380:203|381:189|381:189|342:111,1,240.000009155274,2|2,0:0|0:0,0:0:0:0:
455,83,20621,5,8,0:0:0:0:
455,83,20728,1,0,0:0:0:0:
455,83,20835,2,0,L|469:24,1,60.0000022888184,2|4,0:0|0:0,0:0:0:0:
347,27,21050,54,0,B|312:34|312:34|308:38|308:38|281:45|281:45|259:80|259:80|214:93|214:93|209:97|209:97|169:108,1,180.000006866455,4|0,0:0|0:0,0:0:0:0:
176,106,21478,1,8,0:0:0:0:
271,185,21692,1,2,0:0:0:0:
136,279,21907,5,4,0:0:0:0:
272,170,22121,1,2,0:0:0:0:
434,300,22335,54,0,B|411:284|380:285|380:285|327:309|327:309|324:316|324:316|247:354,1,180.000006866455,8|4,0:0|0:0,0:0:0:0:
251,354,22764,1,4,0:0:0:0:
273,153,22978,1,2,0:0:0:0:
168,241,23192,6,0,B|146:263|146:263|138:267|138:267|123:285|123:285|61:235|111:160,1,180.000006866455,8|4,0:0|0:0,0:0:0:0:
32,136,23621,2,0,P|71:105|95:100,1,60.0000022888184,4|0,0:0|0:0,0:0:0:0:
68,23,23835,2,0,P|117:28|138:42,1,60.0000022888184,2|0,0:0|0:0,0:0:0:0:
168,110,24050,54,0,B|215:97|215:97|216:88|216:88|215:97|215:97|298:78|298:78|271:122,1,180.000006866455,8|4,0:0|0:0,0:0:0:0:
259,247,24478,2,0,B|306:260|306:260|307:269|307:269|306:260|306:260|389:279|389:279|362:235,1,180.000006866455,4|0,0:0|0:0,0:0:0:0:
466,70,24907,6,0,B|441:90|441:90|457:135|457:135|455:141|455:141|457:135|457:135|491:182|462:234,1,180.000006866455,8|4,0:0|0:0,0:0:0:0:
287,332,25335,54,0,B|253:279|318:210|393:283,1,180.000006866455,4|0,0:0|0:0,0:0:0:0:
255,161,25764,6,0,B|191:180|191:180|187:187|187:187|127:206|127:206|149:219|155:237,1,180.000006866455,8|4,0:0|0:0,0:0:0:0:
66,274,26192,2,0,B|33:227|33:227|50:141|50:141|55:136|55:136|64:90,1,180.000006866455,4|0,0:0|0:0,0:0:0:0:
148,95,26621,1,8,0:0:0:0:
307,268,26835,53,2,0:0:0:0:
307,268,26942,1,4,0:0:0:0:
307,268,27050,2,0,P|277:258|240:253,1,60.0000022888184,4|0,0:0|0:0,0:0:0:0:
179,330,27264,2,0,P|150:344|121:366,1,60.0000022888184,2|0,0:0|0:0,0:0:0:0:
154,236,27478,6,0,B|162:202|162:202|160:197|160:197|170:166|170:166|194:142|194:142|202:104|202:104|202:99|202:99|209:69,1,180.000006866455,8|4,0:0|0:0,0:0:0:0:
23,44,27907,2,0,B|35:85|57:90|57:90|56:97|56:97|86:103|86:103|109:90|109:90|106:84|106:84|126:74|129:10,1,180.000006866455,4|0,0:0|0:0,0:0:0:0:
212,48,28335,1,8,0:0:0:0:
313,163,28550,53,2,0:0:0:0:
313,163,28657,1,4,0:0:0:0:
313,163,28764,2,0,B|324:196|319:228|319:228|324:239|324:239|316:268|328:298|328:298|308:275|273:266,1,180.000006866455,4|0,0:0|0:0,0:0:0:0:
214,304,29192,6,0,B|201:301|189:302|189:302|185:299|185:299|171:294|157:296|157:296|166:278|164:263|164:263|163:258|163:258|171:242|173:223|173:223|186:227|200:226|200:226|204:229|204:229|219:227|229:239,1,180.000006866455,8|4,0:0|0:0,0:0:0:0:
225,128,29621,2,0,L|165:136,3,60.0000022888184,4|2|2|0,0:0|0:0|0:0|0:0,0:0:0:0:
298,74,30050,54,0,P|308:48|315:15,1,60.0000022888184,8|0,0:0|0:0,0:0:0:0:
420,101,30264,2,0,P|410:75|403:42,1,60.0000022888184,2|4,0:0|0:0,0:0:0:0:
290,178,30478,6,0,L|354:165,1,60.0000022888184,4|0,0:0|0:0,0:0:0:0:
427,262,30692,2,0,L|363:249,1,60.0000022888184,2|0,0:0|0:0,0:0:0:0:
298,343,30907,54,0,B|262:310|262:310|199:323|199:323|197:315|197:315|199:323|199:323|110:345,1,180.000006866455,8|4,0:0|0:0,0:0:0:0:
149,194,31335,2,0,B|113:227|113:227|50:214|50:214|48:222|48:222|50:214|50:214|-39:192,1,180.000006866455,4|0,0:0|0:0,0:0:0:0:
164,78,31764,6,0,B|186:93|231:99|231:99|245:129|245:129|284:132|336:155,1,180.000006866455,8|4,0:0|0:0,0:0:0:0:
331,152,32192,54,0,B|326:166|313:174|313:174|318:186|318:186|309:196|309:196|323:212|323:234,1,80,4|2,0:0|0:0,0:0:0:0:
410,284,32621,21,2,0:0:0:0:
406,290,33050,1,2,0:0:0:0:
413,294,33478,1,2,0:0:0:0:
417,288,33907,1,2,0:0:0:0:
320,217,34335,5,12,0:0:0:0:
229,236,34764,1,2,0:0:0:0:
139,257,35192,1,8,0:0:0:0:
48,276,35621,1,8,0:0:0:0:
300,287,36050,5,12,0:0:0:0:
320,217,36478,1,2,0:0:0:0:
389,237,36907,1,8,0:0:0:0:
369,307,37335,1,8,0:0:0:0:
163,89,37764,37,12,0:0:0:0:
184,179,38192,1,2,0:0:0:0:
206,269,38621,1,8,0:0:0:0:
256,192,39478,12,0,42692,0:0:0:0:
256,192,42907,12,8,44621,0:0:0:0:
28,153,46335,6,0,B|87:89|178:141|178:141|114:231|157:308|157:308|224:268|228:195,1,480,2|2,0:0|0:0,0:0:0:0:
206,47,49335,1,0,0:0:0:0:
268,103,49764,6,0,B|358:70|457:112|457:112|401:175|418:256|418:256|347:227|276:261,1,480,2|2,0:0|0:0,0:0:0:0:
115,206,52764,1,0,0:0:0:0:
190,263,52978,37,2,0:0:0:0:
58,384,53192,2,0,P|63:341|129:277,1,120,8|0,0:0|0:0,0:0:0:0:
226,347,54050,38,0,L|147:338,2,53.3333333333333,6|2|2,0:0|0:0|0:0,0:0:0:0:
203,250,54478,2,0,L|282:241,2,53.3333333333333,2|2|2,0:0|0:0|0:0,0:0:0:0:
108,113,54907,6,0,B|143:141|127:192|127:192|82:153,1,120,8|0,0:0|0:0,0:0:0:0:
45,268,55335,2,0,P|77:265|105:273,2,53.3333333333333,2|2|2,0:0|0:0|0:0,0:0:0:0:
170,331,55764,54,0,B|210:340|210:340|234:371|234:371|296:386,1,120,4|0,0:0|0:0,0:0:0:0:
354,297,56192,2,0,B|394:288|394:288|418:257|418:257|480:242,1,120,2|0,0:0|0:0,0:0:0:0:
274,138,56621,6,0,P|245:170|274:266,1,140,8|0,0:0|0:0,0:0:0:0:
276,272,57478,54,0,B|225:255|225:255|223:249|223:249|225:255|225:255|189:283|189:283|192:291|192:291|189:283|189:283|128:267,1,180.000006866455,4|0,0:0|0:0,0:0:0:0:
121,265,57907,2,0,P|136:294|140:324,1,60.0000022888184,2|0,0:0|0:0,0:0:0:0:
52,318,58121,2,0,P|42:349|23:373,1,60.0000022888184,2|0,0:0|0:0,0:0:0:0:
38,230,58335,6,0,P|21:186|55:100,1,120.000004577637,8|0,0:0|0:0,0:0:0:0:
31,39,58764,2,0,P|65:42|92:59,2,53.3333333333333,2|2|2,0:0|0:0|0:0,0:0:0:0:
122,122,59192,54,0,B|195:114|195:114|197:105|197:105|195:114|195:114|247:108,1,120,4|0,0:0|0:0,0:0:0:0:
298,222,59621,2,0,B|225:214|225:214|223:205|223:205|225:214|225:214|173:208,1,120,2|0,0:0|0:0,0:0:0:0:
82,232,60050,6,0,P|125:266|123:348,1,140,8|0,0:0|0:0,0:0:0:0:
17,349,60907,54,0,P|34:323|67:302,2,53.3333333333333,6|2|2,0:0|0:0|0:0,0:0:0:0:
82,232,61335,2,0,P|112:225|150:234,2,53.3333333333333,2|2|2,0:0|0:0|0:0,0:0:0:0:
202,290,61764,6,0,B|234:274|234:274|288:288|288:288|287:283|287:283|288:288|288:288|336:301,1,120,8|0,0:0|0:0,0:0:0:0:
408,373,62192,2,0,P|394:353|382:322,2,53.3333333333333,2|2|2,0:0|0:0|0:0,0:0:0:0:
375,236,62621,54,0,B|386:207|365:182|365:182|369:171|369:171|346:139|358:105,1,120,4|0,0:0|0:0,0:0:0:0:
217,99,63050,2,0,B|243:66|289:69|289:69|272:88|273:112,1,120,0|0,0:0|0:0,0:0:0:0:
261,196,63478,6,0,L|98:214,2,160,8|2|2,0:0|0:0|0:0,0:0:0:0:
192,288,65621,1,2,0:0:0:0:
173,121,66050,1,2,0:0:0:0:
339,101,66478,1,2,0:0:0:0:
432,275,66907,54,0,B|386:284|386:284|383:281|383:281|386:284|386:284|373:321|373:321|319:330,1,140,8|0,0:0|0:0,0:0:0:0:
203,348,67764,6,0,B|217:324|206:300|206:300|230:295|245:269|245:269|189:281|144:254|144:254|130:259|130:259|101:241|59:247|59:247|118:209|95:143|95:143|138:184|210:176,1,480.000018310548,4|8,0:0|0:0,0:0:0:0:
431,50,69478,54,0,B|383:80|346:55|346:55|317:96|265:88|265:88|304:176|350:124|355:226|355:226|323:232|323:232|320:235|320:235|298:242|298:242|287:260|287:260|259:264|259:264|257:268|257:268|231:272,1,480.000018310548,4|8,0:0|0:0,0:0:0:0:
18,86,71192,6,0,B|39:121|16:152|16:152|45:182|39:223|39:223|89:172|162:202|162:202|120:130|144:82|144:82|150:138|220:155,1,480.000018310548,4|8,0:0|0:0,0:0:0:0:
460,230,72907,54,0,B|362:206|325:316|430:381|463:309|463:309|369:320|369:320|351:338|351:338|291:344|291:344|283:348|283:348|229:331,1,480.000018310548,4|8,0:0|0:0,0:0:0:0:
127,275,74192,1,0,0:0:0:0:
219,230,74407,5,0,0:0:0:0:
219,230,74514,1,0,0:0:0:0:
219,230,74621,1,0,0:0:0:0:
142,370,74835,1,0,0:0:0:0:
11,264,75050,2,0,P|38:297|51:346,1,80,0|0,0:0|0:0,0:0:0:0:
219,230,75478,54,0,B|138:187|146:250|44:186,1,160,8|8,0:0|0:0,0:0:0:0:
83,93,76050,2,0,P|112:110|131:160,1,53.3333333333333,8|8,0:0|0:0,0:0:0:0:
172,308,76335,6,0,B|219:335|219:335|295:317|295:317|298:312|298:312|383:290,1,180.000006866455,6|0,0:0|0:0,0:0:0:0:
454,298,76764,2,0,B|486:254|451:194|451:194|425:208|425:208|422:215|422:215|390:238,1,160.000006103516,8|0,0:0|0:0,0:0:0:0:
293,103,77192,54,0,P|288:161|318:213,1,120,8|0,0:0|0:0,0:0:0:0:
321,308,77621,2,0,P|334:306|347:293,4,20,8|8|8|8|8,0:0|0:0|0:0|0:0|0:0,0:0:0:0:
238,271,77942,1,8,0:0:0:0:
238,271,78050,2,0,L|152:283,1,80,6|0,0:0|0:0,0:0:0:0:
157,271,78335,2,0,L|236:259,1,80,8|0,0:0|0:0,0:0:0:0:
293,194,78621,1,8,0:0:0:0:
173,11,78907,6,0,B|149:43|149:43|174:140,1,106.666666666667,8|8,0:0|0:0,0:0:0:0:
91,160,79335,2,0,L|74:90,2,53.3333333333333,8|8|8,0:0|0:0|0:0,0:0:0:0:
52,254,79764,54,0,B|80:257|80:257|83:260|83:260|116:264|116:264|122:278|122:278|121:283|121:283|128:298|128:298|171:306|171:306|174:310|174:310|225:317,1,180.000006866455,6|0,0:0|0:0,0:0:0:0:
352,153,80192,2,0,B|323:156|323:156|321:159|321:159|288:163|288:163|282:177|282:177|283:182|283:182|276:197|276:197|232:205|232:205|230:209|230:209|179:216,1,180.000006866455,8|0,0:0|0:0,0:0:0:0:
40,32,80621,6,0,B|134:51|73:97|204:118,1,160,8|8,0:0|0:0,0:0:0:0:
328,290,81264,1,8,0:0:0:0:
328,290,81371,1,8,0:0:0:0:
328,290,81478,2,0,P|300:298|274:318,1,40,6|0,0:0|0:0,0:0:0:0:
218,201,81692,2,0,P|246:209|272:229,1,40,8|0,0:0|0:0,0:0:0:0:
419,132,81907,54,0,B|359:126|359:126|363:121|363:121|359:126|359:126|301:120,1,120,8|0,0:0|0:0,0:0:0:0:
166,16,82335,6,0,P|210:44|229:112,1,106.666666666667,8|8,0:0|0:0,0:0:0:0:
123,109,82764,2,0,P|87:104|73:98,1,40,8|0,0:0|0:0,0:0:0:0:
38,206,82978,1,8,0:0:0:0:
38,206,83085,1,0,0:0:0:0:
38,206,83192,54,0,B|54:215|54:215|71:285,1,60.0000022888184,6|0,0:0|0:0,0:0:0:0:
136,323,83407,2,0,B|120:332|120:332|103:402,1,60.0000022888184,8|0,0:0|0:0,0:0:0:0:
212,243,83621,6,0,B|253:248|253:248|275:269|275:269|343:272|343:272|315:292|314:331,1,180.000006866455,8|0,0:0|0:0,0:0:0:0:
391,333,84050,1,8,0:0:0:0:
325,100,84264,2,0,P|305:104|287:112,1,40,8|0,0:0|0:0,0:0:0:0:
417,150,84478,2,0,P|426:132|431:112,1,40,8|0,0:0|0:0,0:0:0:0:
336,205,84693,1,8,0:0:0:0:
336,205,84800,1,0,0:0:0:0:
336,205,84907,6,0,B|303:222|303:222|263:216|263:216|261:213|261:213|218:203,1,120.000004577637,6|8,0:0|0:0,0:0:0:0:
172,254,85228,1,8,0:0:0:0:
158,276,85335,2,0,L|247:298,2,80.0000030517579,8|8|8,0:0|0:0|0:0,0:0:0:0:
113,70,85764,5,8,0:0:0:0:
84,155,85978,1,0,0:0:0:0:
71,149,86192,5,0,0:0:0:0:
97,248,86406,1,0,0:0:0:0:
97,248,86514,1,0,0:0:0:0:
97,248,86621,1,0,0:0:0:0:
308,109,87264,5,2,0:0:0:0:
256,177,87478,37,8,0:0:0:0:
372,167,87692,1,8,0:0:0:0:
301,27,87907,1,0,0:0:0:0:
253,182,88121,5,0,0:0:0:0:
246,190,88228,1,0,0:0:0:0:
237,201,88335,2,0,P|252:234|263:293,1,80,2|0,0:0|0:0,0:0:0:0:
197,354,88764,1,0,0:0:0:0:
391,191,89192,5,8,0:0:0:0:
507,201,89406,1,8,0:0:0:0:
436,341,89621,1,0,0:0:0:0:
388,186,89835,37,0,0:0:0:0:
381,178,89942,1,0,0:0:0:0:
372,167,90049,2,0,P|387:134|398:75,1,80,2|0,0:0|0:0,0:0:0:0:
332,14,90478,1,0,0:0:0:0:
51,208,90907,5,8,0:0:0:0:
164,185,91121,1,8,0:0:0:0:
218,273,91335,1,0,0:0:0:0:
138,263,91550,1,0,0:0:0:0:
228,131,91764,5,2,0:0:0:0:
290,235,91978,1,0,0:0:0:0:
171,339,92192,1,0,0:0:0:0:
218,273,92407,1,0,0:0:0:0:
304,357,92621,37,8,0:0:0:0:
306,373,92835,1,8,0:0:0:0:
421,306,93050,5,0,0:0:0:0:
419,322,93264,1,0,0:0:0:0:
249,200,93478,6,0,P|231:230|217:277,1,80,2|0,0:0|0:0,0:0:0:0:
467,174,93907,2,0,P|485:204|499:251,1,80,0|0,0:0|0:0,0:0:0:0:
349,122,94335,37,8,0:0:0:0:
319,32,94550,1,8,0:0:0:0:
380,213,94764,1,0,0:0:0:0:
465,43,94978,5,0,0:0:0:0:
470,36,95085,1,0,0:0:0:0:
475,25,95192,2,0,P|427:34|397:58,1,80,2|0,0:0|0:0,0:0:0:0:
349,122,95621,1,0,0:0:0:0:
232,239,96050,5,8,0:0:0:0:
202,329,96265,1,8,0:0:0:0:
263,148,96479,1,0,0:0:0:0:
348,318,96693,37,0,0:0:0:0:
353,325,96800,1,0,0:0:0:0:
358,336,96907,2,0,P|310:327|280:303,1,80,2|0,0:0|0:0,0:0:0:0:
232,239,97336,1,0,0:0:0:0:
440,25,97764,6,0,L|431:94,1,60.0000022888184,8|8,0:0|0:0,0:0:0:0:
353,81,98192,2,0,L|360:21,1,60.0000022888184,0|0,0:0|0:0,0:0:0:0:
270,207,98621,6,0,L|261:138,1,60.0000022888184,0|0,0:0|0:0,0:0:0:0:
183,151,99049,2,0,L|190:210,1,60.0000022888184,0|0,0:0|0:0,0:0:0:0:
233,321,99478,6,0,B|393:240|343:381|512:338|512:338|421:279|484:164|484:164|421:279|295:226,2,640,0|0|8,0:0|0:0|0:0,0:0:0:0:
286,213,101407,37,8,0:0:0:0:
154,352,101621,2,0,P|150:314|166:266,1,80,2|2,0:0|0:0,0:0:0:0:
175,257,101942,1,2,0:0:0:0:
176,256,102050,1,0,0:0:0:0:
146,144,102264,1,2,0:0:0:0:
0,234,102478,2,0,L|92:224,1,80
229,68,102907,5,8,0:0:0:0:
212,239,103121,1,8,0:0:0:0:
359,94,103335,2,0,P|332:124|317:160,1,80,2|2,0:0|0:0,0:0:0:0:
318,183,103657,1,2,0:0:0:0:
318,183,103764,1,0,0:0:0:0:
374,278,103978,1,2,0:0:0:0:
507,162,104192,2,0,L|420:173,1,80,2|0,0:0|0:0,0:0:0:0:
288,353,104621,37,8,0:0:0:0:
374,278,104835,1,8,0:0:0:0:
210,175,105050,2,0,L|222:263,1,80,2|0,0:0|0:0,0:0:0:0:
187,26,105478,5,0,0:0:0:0:
273,101,105692,1,0,0:0:0:0:
109,204,105907,2,0,L|121:116,1,80,2|2,0:0|0:0,0:0:0:0:
51,51,106335,5,8,0:0:0:0:
49,33,106550,1,8,0:0:0:0:
196,106,106764,37,2,0:0:0:0:
193,126,106979,1,2,0:0:0:0:
2,227,107192,6,0,P|10:185|32:140,1,80,2|2,0:0|0:0,0:0:0:0:
244,219,107621,2,0,P|259:255|267:294,1,80,2|2,0:0|0:0,0:0:0:0:
44,352,108050,5,8,0:0:0:0:
135,294,108264,1,8,0:0:0:0:
337,361,108478,2,0,P|294:345|264:329,1,80,2|2,0:0|0:0,0:0:0:0:
246,316,108800,1,2,0:0:0:0:
246,316,108907,1,0,0:0:0:0:
349,241,109121,1,2,0:0:0:0:
464,291,109335,2,0,L|470:375,1,80,0|0,0:0|0:0,0:0:0:0:
244,215,109764,37,8,0:0:0:0:
437,176,109978,1,8,0:0:0:0:
350,9,110192,2,0,P|330:37|317:81,1,80,2|2,0:0|0:0,0:0:0:0:
317,106,110514,1,2,0:0:0:0:
317,106,110621,1,0,0:0:0:0:
374,258,110835,1,2,0:0:0:0:
245,307,111050,2,0,L|256:215,1,80,2|0,0:0|0:0,0:0:0:0:
151,155,111478,5,8,0:0:0:0:
325,117,111692,1,8,0:0:0:0:
125,62,111907,2,0,P|96:68|47:92,1,80,2|0,0:0|0:0,0:0:0:0:
298,297,112335,5,0,0:0:0:0:
124,259,112549,1,0,0:0:0:0:
324,204,112764,2,0,P|353:210|402:234,1,80,2|2,0:0|0:0,0:0:0:0:
475,131,113192,37,8,0:0:0:0:
479,111,113407,1,8,0:0:0:0:
372,40,113621,5,2,0:0:0:0:
368,20,113836,1,2,0:0:0:0:
195,151,114050,6,0,P|215:190|227:253,1,80,2|2,0:0|0:0,0:0:0:0:
399,311,114478,2,0,P|379:350|367:413,1,80,2|2,0:0|0:0,0:0:0:0:
241,317,114907,37,8,0:0:0:0:
142,334,115121,1,8,0:0:0:0:
125,237,115336,1,2,0:0:0:0:
232,231,115550,1,2,0:0:0:0:
232,231,115657,1,2,0:0:0:0:
232,231,115764,1,0,0:0:0:0:
142,334,115978,5,2,0:0:0:0:
346,290,116192,2,0,P|332:322|323:370,1,80,0|0,0:0|0:0,0:0:0:0:
314,181,116621,5,8,0:0:0:0:
413,198,116835,1,8,0:0:0:0:
430,101,117050,1,2,0:0:0:0:
334,92,117264,1,2,0:0:0:0:
334,92,117371,1,2,0:0:0:0:
334,92,117478,1,0,0:0:0:0:
413,198,117692,37,2,0:0:0:0:
209,154,117906,2,0,P|223:186|232:234,1,80,2|0,0:0|0:0,0:0:0:0:
176,306,118335,5,8,0:0:0:0:
326,225,118550,1,8,0:0:0:0:
381,343,118764,2,0,L|291:335,1,80,2|0,0:0|0:0,0:0:0:0:
264,165,119192,5,0,0:0:0:0:
414,246,119407,1,0,0:0:0:0:
469,128,119621,2,0,L|379:136,1,80,2|2,0:0|0:0,0:0:0:0:
207,218,120050,37,8,0:0:0:0:
280,242,120264,1,8,0:0:0:0:
288,366,120478,5,2,0:0:0:0:
215,342,120692,1,2,0:0:0:0:
357,207,120907,6,0,P|372:241|378:289,1,80,2|2,0:0|0:0,0:0:0:0:
127,357,121335,2,0,P|132:317|148:280,1,80,2|2,0:0|0:0,0:0:0:0:
222,152,121764,37,8,0:0:0:0:
113,170,121978,1,8,0:0:0:0:
92,63,122192,1,2,0:0:0:0:
212,54,122406,1,2,0:0:0:0:
212,54,122514,1,2,0:0:0:0:
212,54,122621,1,0,0:0:0:0:
113,170,122835,5,2,0:0:0:0:
249,225,123050,2,0,P|240:184|218:147,1,80,0|0,0:0|0:0,0:0:0:0:
354,289,123478,5,8,0:0:0:0:
463,307,123692,1,8,0:0:0:0:
484,200,123906,1,2,0:0:0:0:
378,191,124120,1,2,0:0:0:0:
378,191,124228,1,2,0:0:0:0:
378,191,124335,1,0,0:0:0:0:
463,307,124550,37,2,0:0:0:0:
327,362,124764,2,0,P|336:321|358:284,1,80,2|0,0:0|0:0,0:0:0:0:
199,71,125192,5,8,0:0:0:0:
224,184,125407,1,8,0:0:0:0:
79,244,125621,2,0,L|90:160,1,80,2|0,0:0|0:0,0:0:0:0:
344,357,126050,5,0,0:0:0:0:
369,244,126265,1,0,0:0:0:0:
224,184,126479,2,0,L|235:268,1,80,2|0,0:0|0:0,0:0:0:0:
380,119,126907,37,8,0:0:0:0:
453,104,127121,1,8,0:0:0:0:
369,244,127335,5,2,0:0:0:0:
296,229,127549,1,2,0:0:0:0:
267,67,127764,6,0,P|293:101|303:142,1,80,2|2,0:0|0:0,0:0:0:0:
444,294,128192,2,0,P|432:332|408:363,1,80,2|2,0:0|0:0,0:0:0:0:
145,183,128621,38,0,B|265:202|201:275|366:292,1,240.000009155274,2|2,0:0|0:0,0:0:0:0:
481,248,129692,1,0,0:0:0:0:
481,248,129907,2,0,P|456:272|437:312,1,60.0000022888184,2|0,0:0|0:0,0:0:0:0:
443,72,130335,6,0,B|323:91|387:164|222:181,1,240.000009155274,2|2,0:0|0:0,0:0:0:0:
107,137,131406,1,0,0:0:0:0:
107,137,131621,2,0,P|132:161|151:201,1,60.0000022888184,2|0,0:0|0:0,0:0:0:0:
68,334,132050,6,0,B|135:262|227:291|227:291|193:354,1,240.000009155274,2|2,0:0|0:0,0:0:0:0:
78,222,133121,1,0,0:0:0:0:
78,222,133335,2,0,P|109:208|145:203,1,60.0000022888184,2|2,0:0|0:0,0:0:0:0:
248,72,133764,38,0,P|216:58|180:53,1,60.0000022888184,2|2,0:0|0:0,0:0:0:0:
60,142,134192,2,0,P|91:128|127:123,1,60.0000022888184,2|2,0:0|0:0,0:0:0:0:
238,232,134621,6,0,L|227:297,1,60.0000022888184,2|2,0:0|0:0,0:0:0:0:
336,347,135050,2,0,L|325:287,1,60.0000022888184,2|2,0:0|0:0,0:0:0:0:
458,126,135478,6,0,L|201:153,1,240.000009155274,2|2,0:0|0:0,0:0:0:0:
315,59,136550,2,0,L|254:64,2,60.0000022888184,0|2|0,0:0|0:0|0:0,0:0:0:0:
54,258,137192,38,0,L|311:231,1,240.000009155274,2|2,0:0|0:0,0:0:0:0:
197,325,138264,2,0,L|258:320,2,60.0000022888184,0|2|0,0:0|0:0|0:0,0:0:0:0:
385,65,138907,6,0,B|461:127|417:224|417:224|400:191|363:171,2,240.000009155274,2|2|2,0:0|0:0|0:0,0:0:0:0:
282,116,141050,5,2,0:0:0:0:
186,134,141478,1,2,0:0:0:0:
272,101,141907,1,2,0:0:0:0:
198,149,142335,5,2,0:0:0:0:
