osu file format v14

[General]
AudioFilename: audio.mp3
AudioLeadIn: 0
PreviewTime: -1
Countdown: 0
SampleSet: Normal
StackLeniency: 0.7
Mode: 3
LetterboxInBreaks: 0
SpecialStyle: 0
WidescreenStoryboard: 1

[Editor]
DistanceSpacing: 0.15
BeatDivisor: 8
GridSize: 4
TimelineZoom: 3.599998

[Metadata]
Title:MARENOL
TitleUnicode:MARENOL
Artist:LeaF
ArtistUnicode:LeaF
Creator:LostCool
Version:deiseASeS
Source:G2R2018
Tags:除草剤 Optie & Fiz PHANTASMA
BeatmapID:1836433
BeatmapSetID:878042

[Difficulty]
HPDrainRate:0
CircleSize:7
OverallDifficulty:0
ApproachRate:5
SliderMultiplier:1.4
SliderTickRate:1

[Events]
//Background and Video events
0,0,"bg1.png",0,0
//Break Periods
//Storyboard Layer 0 (Background)
//Storyboard Layer 1 (Fail)
//Storyboard Layer 2 (Pass)
//Storyboard Layer 3 (Foreground)
//Storyboard Sound Samples

[TimingPoints]
1703,214.285714285714,4,1,0,0,1,0
3417,-1000,4,1,0,0,0,0
3444,-833.333333333333,4,1,0,0,0,0
3470,-714.285714285714,4,1,0,0,0,0
3497,-625,4,1,0,0,0,0
3524,-555.555555555556,4,1,0,0,0,0
3551,-500,4,1,0,0,0,0
3577,-454.545454545455,4,1,0,0,0,0
3604,-416.666666666667,4,1,0,0,0,0
3631,-384.615384615385,4,1,0,0,0,0
3658,-357.142857142857,4,1,0,0,0,0
3685,-333.333333333333,4,1,0,0,0,0
3711,-312.5,4,1,0,0,0,0
3738,-294.117647058824,4,1,0,0,0,0
3765,-277.777777777778,4,1,0,0,0,0
3792,-263.157894736842,4,1,0,0,0,0
3819,-200,4,1,0,0,0,0
3845,-200,4,1,0,0,0,0
3881,-192.307692307692,4,1,0,0,0,0
3917,-185.185185185185,4,1,0,0,0,0
3952,-178.571428571429,4,1,0,0,0,0
3988,-172.413793103448,4,1,0,0,0,0
4024,-166.666666666667,4,1,0,0,0,0
4060,-161.290322580645,4,1,0,0,0,0
4095,-156.25,4,1,0,0,0,0
4131,-151.515151515152,4,1,0,0,0,0
4167,-147.058823529412,4,1,0,0,0,0
4202,-142.857142857143,4,1,0,0,0,0
4220,-140.845070422535,4,1,0,0,0,0
4234,-138.888888888889,4,1,0,0,0,0
4247,-136.986301369863,4,1,0,0,0,0
4261,-135.135135135135,4,1,0,0,0,0
4274,-133.333333333333,4,1,0,0,0,0
5131,-111.111111111111,4,1,0,0,0,0
5560,-109.89010989011,4,1,0,0,0,0
5988,-108.695652173913,4,1,0,0,0,0
6417,-107.52688172043,4,1,0,0,0,0
6845,-106.382978723404,4,1,0,0,0,0
7274,-105.263157894737,4,1,0,0,0,0
7702,-104.166666666667,4,1,0,0,0,0
8131,-103.092783505155,4,1,0,0,0,0
8560,-102.040816326531,4,1,0,0,0,0
9417,-101.010101010101,4,1,0,0,0,0
10274,-100,4,1,0,0,0,0
15417,-10,4,1,0,0,0,0
15524,-10000,4,1,0,0,0,0
15537,-11.1111111111111,4,1,0,0,0,0
15551,-666.666666666667,4,1,0,0,0,0
15564,-12.5,4,1,0,0,0,0
15577,-500,4,1,0,0,0,0
15591,-14.2857142857143,4,1,0,0,0,0
15604,-400,4,1,0,0,0,0
15618,-16.6666666666667,4,1,0,0,0,0
15631,-333.333333333333,4,1,0,0,0,0
15644,-20,4,1,0,0,0,0
15658,-285.714285714286,4,1,0,0,0,0
15671,-25,4,1,0,0,0,0
15685,-250,4,1,0,0,0,0
15698,-33.3333333333333,4,1,0,0,0,0
15711,-222.222222222222,4,1,0,0,0,0
15725,-50,4,1,0,0,0,0
15738,-200,4,1,0,0,0,0
15752,-100,4,1,0,0,0,0
15765,-181.818181818182,4,1,0,0,0,0
15778,-10000,4,1,0,0,0,0
15792,-166.666666666667,4,1,0,0,0,0
15805,-10000,4,1,0,0,0,0
15819,-133.333333333333,4,1,0,0,0,0
15832,-10000,4,1,0,0,0,0
15845,-10,4,1,0,0,0,0
15952,-10000,4,1,0,0,0,0
15965,-11.1111111111111,4,1,0,0,0,0
15979,-666.666666666667,4,1,0,0,0,0
15992,-12.5,4,1,0,0,0,0
16005,-500,4,1,0,0,0,0
16019,-14.2857142857143,4,1,0,0,0,0
16032,-400,4,1,0,0,0,0
16046,-16.6666666666667,4,1,0,0,0,0
16059,-333.333333333333,4,1,0,0,0,0
16072,-20,4,1,0,0,0,0
16086,-285.714285714286,4,1,0,0,0,0
16099,-25,4,1,0,0,0,0
16113,-250,4,1,0,0,0,0
16126,-33.3333333333333,4,1,0,0,0,0
16139,-222.222222222222,4,1,0,0,0,0
16153,-50,4,1,0,0,0,0
16166,-200,4,1,0,0,0,0
16180,-100,4,1,0,0,0,0
16193,-181.818181818182,4,1,0,0,0,0
16206,-10000,4,1,0,0,0,0
16220,-166.666666666667,4,1,0,0,0,0
16233,-10000,4,1,0,0,0,0
16247,-133.333333333333,4,1,0,0,0,0
16260,-10000,4,1,0,0,0,0
16274,-10,4,1,0,0,0,0
16381,-10000,4,1,0,0,0,0
16394,-11.1111111111111,4,1,0,0,0,0
16408,-666.666666666667,4,1,0,0,0,0
16421,-12.5,4,1,0,0,0,0
16434,-500,4,1,0,0,0,0
16448,-14.2857142857143,4,1,0,0,0,0
16461,-400,4,1,0,0,0,0
16475,-16.6666666666667,4,1,0,0,0,0
16488,-333.333333333333,4,1,0,0,0,0
16501,-20,4,1,0,0,0,0
16515,-285.714285714286,4,1,0,0,0,0
16528,-25,4,1,0,0,0,0
16542,-250,4,1,0,0,0,0
16555,-33.3333333333333,4,1,0,0,0,0
16568,-222.222222222222,4,1,0,0,0,0
16582,-50,4,1,0,0,0,0
16595,-200,4,1,0,0,0,0
16609,-100,4,1,0,0,0,0
16622,-181.818181818182,4,1,0,0,0,0
16635,-10000,4,1,0,0,0,0
16649,-166.666666666667,4,1,0,0,0,0
16662,-10000,4,1,0,0,0,0
16676,-133.333333333333,4,1,0,0,0,0
16689,-10000,4,1,0,0,0,0
16702,-10,4,1,0,0,0,0
16809,-10000,4,1,0,0,0,0
16822,-11.1111111111111,4,1,0,0,0,0
16836,-666.666666666667,4,1,0,0,0,0
16849,-12.5,4,1,0,0,0,0
16862,-500,4,1,0,0,0,0
16876,-14.2857142857143,4,1,0,0,0,0
16889,-400,4,1,0,0,0,0
16903,-16.6666666666667,4,1,0,0,0,0
16916,-333.333333333333,4,1,0,0,0,0
16929,-20,4,1,0,0,0,0
16943,-285.714285714286,4,1,0,0,0,0
16956,-25,4,1,0,0,0,0
16970,-250,4,1,0,0,0,0
16983,-33.3333333333333,4,1,0,0,0,0
16996,-222.222222222222,4,1,0,0,0,0
17010,-50,4,1,0,0,0,0
17023,-200,4,1,0,0,0,0
17037,-100,4,1,0,0,0,0
17050,-181.818181818182,4,1,0,0,0,0
17063,-10000,4,1,0,0,0,0
17077,-166.666666666667,4,1,0,0,0,0
17090,-10000,4,1,0,0,0,0
17104,-133.333333333333,4,1,0,0,0,0
17117,-10000,4,1,0,0,0,0
17131,-200,4,1,0,0,0,0
17560,-80,4,1,0,0,0,0
17613,-133.333333333333,4,1,0,0,0,0
17774,-80,4,1,0,0,0,0
17827,-133.333333333333,4,1,0,0,0,0
17988,-66.6666666666667,4,1,0,0,0,0
18042,-133.333333333333,4,1,0,0,0,0
18202,-66.6666666666667,4,1,0,0,0,0
18310,-200,4,1,0,0,0,0
18417,-66.6666666666667,4,1,0,0,0,0
18525,-200,4,1,0,0,0,0
18631,-66.6666666666667,4,1,0,0,0,0
18739,-200,4,1,0,0,0,0
18845,-100,4,1,0,0,0,0
32345,-1000,4,1,0,0,0,0
32439,-20,4,1,0,0,0,0
32452,-66.6666666666667,4,1,0,0,0,0
32466,-80,4,1,0,0,0,0
32479,-100,4,1,0,0,0,0
32493,-133.333333333333,4,1,0,0,0,0
32506,-200,4,1,0,0,0,0
32519,-400,4,1,0,0,0,0
32533,-833.333333333333,4,1,0,0,0,0
32546,-1666.66666666667,4,1,0,0,0,0
32560,-3333.33333333333,4,1,0,0,0,0
34060,-1000,4,1,0,0,0,0
34154,-20,4,1,0,0,0,0
34167,-66.6666666666667,4,1,0,0,0,0
34181,-80,4,1,0,0,0,0
34194,-100,4,1,0,0,0,0
34208,-133.333333333333,4,1,0,0,0,0
34221,-200,4,1,0,0,0,0
34234,-400,4,1,0,0,0,0
34248,-833.333333333333,4,1,0,0,0,0
34261,-1666.66666666667,4,1,0,0,0,0
34275,-100,4,1,0,0,0,0
44560,-10,4,1,0,0,0,0
44667,-20,4,1,0,0,0,0
44694,-40,4,1,0,0,0,0
44720,-80,4,1,0,0,0,0
44747,-161.290322580645,4,1,0,0,0,0
44774,-322.58064516129,4,1,0,0,0,0
45845,-10,4,1,0,0,0,0
45952,-20,4,1,0,0,0,0
45979,-40,4,1,0,0,0,0
46005,-80,4,1,0,0,0,0
46032,-161.290322580645,4,1,0,0,0,0
46059,-322.58064516129,4,1,0,0,0,0
46488,-100,4,1,0,0,0,0
63738,-10,4,1,0,0,0,0
63845,-20,4,1,0,0,0,0
63872,-40,4,1,0,0,0,0
63898,-80,4,1,0,0,0,0
63925,-161.290322580645,4,1,0,0,0,0
63952,-322.58064516129,4,1,0,0,0,0
64274,-243.90243902439,4,1,0,0,0,0
64488,-196.078431372549,4,1,0,0,0,0
64702,-163.934426229508,4,1,0,0,0,0
64917,-140.845070422535,4,1,0,0,0,0
66631,-10,4,1,0,0,0,0
66738,-20,4,1,0,0,0,0
66765,-40,4,1,0,0,0,0
66791,-80,4,1,0,0,0,0
66818,-161.290322580645,4,1,0,0,0,0
66845,-322.58064516129,4,1,0,0,0,0
66872,-32.258064516129,4,1,0,0,0,0
66899,-400,4,1,0,0,0,0
66926,-40,4,1,0,0,0,0
66952,-500,4,1,0,0,0,0
66979,-50,4,1,0,0,0,0
67006,-666.666666666667,4,1,0,0,0,0
67033,-66.6666666666667,4,1,0,0,0,0
67060,-100,4,1,0,0,0,0
67086,-10,4,1,0,0,0,0
67100,-1000,4,1,0,0,0,0
67113,-66.6666666666667,4,1,0,0,0,0
67140,-133.333333333333,4,1,0,0,0,0
67167,-50,4,1,0,0,0,0
67194,-153.846153846154,4,1,0,0,0,0
67220,-40,4,1,0,0,0,0
67247,-181.818181818182,4,1,0,0,0,0
67274,-33.3333333333333,4,1,0,0,0,0
67301,-222.222222222222,4,1,0,0,0,0
67327,-28.5714285714286,4,1,0,0,0,0
67354,-285.714285714286,4,1,0,0,0,0
67381,-33.3333333333333,4,1,0,0,0,0
67408,-222.222222222222,4,1,0,0,0,0
67435,-40,4,1,0,0,0,0
67462,-181.818181818182,4,1,0,0,0,0
67488,-50,4,1,0,0,0,0
67515,-153.846153846154,4,1,0,0,0,0
67542,-66.6666666666667,4,1,0,0,0,0
67569,-133.333333333333,4,1,0,0,0,0
67595,-80,4,1,0,0,0,0
67622,-117.647058823529,4,1,0,0,0,0
67649,-88.4955752212389,4,1,0,0,0,0
67676,-105.263157894737,4,1,0,0,0,0
67702,-100,4,1,0,0,0,0
68560,-10,4,1,0,0,0,0
68573,-100,4,1,0,0,0,0
68586,-1000,4,1,0,0,0,0
68600,-200,4,1,0,0,0,0
68613,-100,4,1,0,0,0,0
70542,-100,4,1,0,0,0,0
70555,-1000,4,1,0,0,0,0
70569,-200,4,1,0,0,0,0
70582,-100,4,1,0,0,0,0
70810,-100,4,1,0,0,0,0
70823,-1000,4,1,0,0,0,0
70837,-200,4,1,0,0,0,0
70850,-100,4,1,0,0,0,0
71988,-10,4,1,0,0,0,0
72042,-20,4,1,0,0,0,0
72095,-40,4,1,0,0,0,0
72122,-80,4,1,0,0,0,0
72136,-133.333333333333,4,1,0,0,0,0
72149,-238.095238095238,4,1,0,0,0,0
72162,-476.190476190476,4,1,0,0,0,0
72176,-1000,4,1,0,0,0,0
72256,-10,4,1,0,0,0,0
72310,-20,4,1,0,0,0,0
72363,-40,4,1,0,0,0,0
72390,-80,4,1,0,0,0,0
72404,-133.333333333333,4,1,0,0,0,0
72417,-238.095238095238,4,1,0,0,0,0
72430,-476.190476190476,4,1,0,0,0,0
72444,-1000,4,1,0,0,0,0
72551,-10,4,1,0,0,0,0
72605,-20,4,1,0,0,0,0
72658,-40,4,1,0,0,0,0
72685,-80,4,1,0,0,0,0
72699,-133.333333333333,4,1,0,0,0,0
72712,-238.095238095238,4,1,0,0,0,0
72725,-476.190476190476,4,1,0,0,0,0
72739,-1000,4,1,0,0,0,0
72845,-100,4,1,0,0,0,0
73702,-10,4,1,0,0,0,0
73809,-20,4,1,0,0,0,0
73836,-40,4,1,0,0,0,0
73862,-80,4,1,0,0,0,0
73889,-161.290322580645,4,1,0,0,0,0
73916,-322.58064516129,4,1,0,0,0,0
74988,-10,4,1,0,0,0,0
75095,-20,4,1,0,0,0,0
75122,-40,4,1,0,0,0,0
75148,-80,4,1,0,0,0,0
75175,-161.290322580645,4,1,0,0,0,0
75202,-322.58064516129,4,1,0,0,0,0
75417,-100,4,1,0,0,0,0
141872,-10,4,1,0,0,0,0
141926,-20,4,1,0,0,0,0
141979,-40,4,1,0,0,0,0
142006,-80,4,1,0,0,0,0
142020,-133.333333333333,4,1,0,0,0,0
142033,-238.095238095238,4,1,0,0,0,0
142046,-476.190476190476,4,1,0,0,0,0
142060,-1000,4,1,0,0,0,0

[HitObjects]
36,192,1703,128,0,1729:0:0:0:0:
329,192,1703,128,0,1729:0:0:0:0:
109,192,1729,128,0,1756:0:0:0:0:
402,192,1729,128,0,1756:0:0:0:0:
182,192,1756,128,0,1783:0:0:0:0:
475,192,1756,128,0,1783:0:0:0:0:
256,192,1783,128,0,1810:0:0:0:0:
329,192,1810,128,0,1836:0:0:0:0:
36,192,1810,128,0,1836:0:0:0:0:
402,192,1836,128,0,1863:0:0:0:0:
109,192,1836,128,0,1863:0:0:0:0:
475,192,1863,128,0,1890:0:0:0:0:
182,192,1863,128,0,1890:0:0:0:0:
329,192,1890,128,0,1917:0:0:0:0:
256,192,1917,128,0,1944:0:0:0:0:
36,192,1944,128,0,1970:0:0:0:0:
109,192,1970,128,0,1997:0:0:0:0:
402,192,1970,128,0,1997:0:0:0:0:
182,192,1997,128,0,2024:0:0:0:0:
329,192,1997,128,0,2024:0:0:0:0:
475,192,2024,128,0,2051:0:0:0:0:
256,192,2024,128,0,2051:0:0:0:0:
36,192,2051,128,0,2077:0:0:0:0:
109,192,2077,128,0,2104:0:0:0:0:
402,192,2077,128,0,2104:0:0:0:0:
329,192,2104,128,0,2131:0:0:0:0:
182,192,2104,128,0,2131:0:0:0:0:
256,192,2131,128,0,2158:0:0:0:0:
475,192,2158,128,0,2185:0:0:0:0:
36,192,2158,128,0,2185:0:0:0:0:
402,192,2185,128,0,2211:0:0:0:0:
109,192,2185,128,0,2211:0:0:0:0:
329,192,2211,128,0,2238:0:0:0:0:
256,192,2238,128,0,2265:0:0:0:0:
182,192,2265,128,0,2292:0:0:0:0:
475,192,2265,128,0,2292:0:0:0:0:
109,192,2292,128,0,2319:0:0:0:0:
402,192,2292,128,0,2319:0:0:0:0:
36,192,2319,128,0,2345:0:0:0:0:
329,192,2319,128,0,2345:0:0:0:0:
256,192,2345,128,0,2372:0:0:0:0:
182,192,2372,128,0,2399:0:0:0:0:
109,192,2399,128,0,2426:0:0:0:0:
475,192,2399,128,0,2426:0:0:0:0:
402,192,2426,128,0,2452:0:0:0:0:
329,192,2452,128,0,2479:0:0:0:0:
36,192,2452,128,0,2479:0:0:0:0:
256,192,2479,128,0,2506:0:0:0:0:
182,192,2506,128,0,2533:0:0:0:0:
475,192,2506,128,0,2533:0:0:0:0:
109,192,2533,128,0,2560:0:0:0:0:
402,192,2533,128,0,2560:0:0:0:0:
36,192,2560,128,0,2586:0:0:0:0:
329,192,2560,128,0,2586:0:0:0:0:
109,192,2586,128,0,2613:0:0:0:0:
402,192,2586,128,0,2613:0:0:0:0:
182,192,2613,128,0,2640:0:0:0:0:
475,192,2613,128,0,2640:0:0:0:0:
256,192,2640,128,0,2667:0:0:0:0:
329,192,2667,128,0,2694:0:0:0:0:
36,192,2667,128,0,2694:0:0:0:0:
402,192,2694,128,0,2720:0:0:0:0:
109,192,2694,128,0,2720:0:0:0:0:
475,192,2720,128,0,2747:0:0:0:0:
182,192,2720,128,0,2747:0:0:0:0:
329,192,2747,128,0,2774:0:0:0:0:
256,192,2774,128,0,2801:0:0:0:0:
36,192,2801,128,0,2827:0:0:0:0:
109,192,2827,128,0,2854:0:0:0:0:
402,192,2827,128,0,2854:0:0:0:0:
182,192,2854,128,0,2881:0:0:0:0:
329,192,2854,128,0,2881:0:0:0:0:
475,192,2881,128,0,2908:0:0:0:0:
256,192,2881,128,0,2908:0:0:0:0:
36,192,2908,128,0,2935:0:0:0:0:
109,192,2935,128,0,2961:0:0:0:0:
402,192,2935,128,0,2961:0:0:0:0:
329,192,2961,128,0,2988:0:0:0:0:
182,192,2961,128,0,2988:0:0:0:0:
256,192,2988,128,0,3015:0:0:0:0:
475,192,3015,128,0,3042:0:0:0:0:
36,192,3015,128,0,3042:0:0:0:0:
402,192,3042,128,0,3069:0:0:0:0:
109,192,3042,128,0,3069:0:0:0:0:
329,192,3069,128,0,3095:0:0:0:0:
256,192,3095,128,0,3122:0:0:0:0:
182,192,3122,128,0,3149:0:0:0:0:
475,192,3122,128,0,3149:0:0:0:0:
109,192,3149,128,0,3176:0:0:0:0:
402,192,3149,128,0,3176:0:0:0:0:
36,192,3176,128,0,3202:0:0:0:0:
329,192,3176,128,0,3202:0:0:0:0:
256,192,3202,128,0,3229:0:0:0:0:
182,192,3229,128,0,3256:0:0:0:0:
109,192,3256,128,0,3283:0:0:0:0:
475,192,3256,128,0,3283:0:0:0:0:
402,192,3283,128,0,3310:0:0:0:0:
329,192,3310,128,0,3336:0:0:0:0:
36,192,3310,128,0,3336:0:0:0:0:
256,192,3336,128,0,3363:0:0:0:0:
182,192,3363,128,0,3390:0:0:0:0:
475,192,3363,128,0,3390:0:0:0:0:
109,192,3390,128,0,3417:0:0:0:0:
402,192,3390,128,0,3417:0:0:0:0:
36,192,3417,1,0,0:0:0:0:
329,192,3417,1,0,0:0:0:0:
109,192,3845,1,0,0:0:0:0:
402,192,3845,1,0,0:0:0:0:
182,192,4274,1,0,0:0:0:0:
475,192,4274,1,0,0:0:0:0:
182,192,4381,1,0,0:0:0:0:
475,192,4381,1,0,0:0:0:0:
109,192,4595,1,0,0:0:0:0:
182,192,4595,1,0,0:0:0:0:
475,192,4595,1,0,0:0:0:0:
475,192,4702,1,0,0:0:0:0:
109,192,4702,1,0,0:0:0:0:
182,192,4702,1,0,0:0:0:0:
36,192,4917,1,0,0:0:0:0:
182,192,4917,1,0,0:0:0:0:
475,192,4917,1,0,0:0:0:0:
256,192,5131,1,0,0:0:0:0:
475,192,5131,1,0,0:0:0:0:
109,192,5131,128,0,5560:0:0:0:0:
402,192,5345,1,0,0:0:0:0:
329,192,5345,128,0,5560:0:0:0:0:
402,192,5560,128,0,5988:0:0:0:0:
182,192,5774,128,0,5988:0:0:0:0:
109,192,5774,1,0,0:0:0:0:
329,192,5988,128,0,6417:0:0:0:0:
109,192,6202,128,0,6417:0:0:0:0:
36,192,6202,1,0,0:0:0:0:
402,192,6417,128,0,6845:0:0:0:0:
182,192,6631,128,0,6845:0:0:0:0:
256,192,6631,1,0,0:0:0:0:
109,192,6845,128,0,7274:0:0:0:0:
256,192,7060,128,0,7274:0:0:0:0:
329,192,7060,1,0,0:0:0:0:
182,192,7274,128,0,7702:0:0:0:0:
329,192,7488,128,0,7702:0:0:0:0:
402,192,7488,1,0,0:0:0:0:
256,192,7702,128,0,8131:0:0:0:0:
402,192,7917,1,0,0:0:0:0:
475,192,7917,128,0,8131:0:0:0:0:
182,192,8131,128,0,8560:0:0:0:0:
329,192,8345,1,0,0:0:0:0:
475,192,8345,128,0,8560:0:0:0:0:
36,192,8560,1,0,0:0:0:0:
402,192,8560,128,0,8988:0:0:0:0:
109,192,8774,1,0,0:0:0:0:
182,192,8774,128,0,8988:0:0:0:0:
109,192,8988,128,0,9417:0:0:0:0:
329,192,9202,128,0,9417:0:0:0:0:
402,192,9202,1,0,0:0:0:0:
182,192,9417,128,0,9845:0:0:0:0:
402,192,9631,128,0,9845:0:0:0:0:
475,192,9631,1,0,0:0:0:0:
109,192,9845,128,0,10274:0:0:0:0:
329,192,10060,128,0,10274:0:0:0:0:
256,192,10060,1,0,0:0:0:0:
475,192,10274,1,0,0:0:0:0:
402,192,10274,1,0,0:0:0:0:
182,192,10274,1,0,0:0:0:0:
36,192,10274,1,0,0:0:0:0:
256,192,10381,1,0,0:0:0:0:
109,192,10381,1,0,0:0:0:0:
182,192,10488,1,0,0:0:0:0:
329,192,10488,1,0,0:0:0:0:
475,192,10488,1,0,0:0:0:0:
402,192,10488,128,0,10702:0:0:0:0:
256,192,10595,1,0,0:0:0:0:
109,192,10595,1,0,0:0:0:0:
182,192,10702,1,0,0:0:0:0:
36,192,10702,1,0,0:0:0:0:
329,192,10702,1,0,0:0:0:0:
475,192,10702,1,0,0:0:0:0:
256,192,10810,1,0,0:0:0:0:
402,192,10810,1,0,0:0:0:0:
329,192,10917,1,0,0:0:0:0:
475,192,10917,1,0,0:0:0:0:
109,192,10917,128,0,11131:0:0:0:0:
36,192,10917,1,0,0:0:0:0:
182,192,10917,1,0,0:0:0:0:
402,192,11024,1,0,0:0:0:0:
256,192,11024,1,0,0:0:0:0:
329,192,11131,1,0,0:0:0:0:
182,192,11131,1,0,0:0:0:0:
36,192,11131,1,0,0:0:0:0:
475,192,11131,1,0,0:0:0:0:
256,192,11238,1,0,0:0:0:0:
109,192,11238,1,0,0:0:0:0:
182,192,11345,1,0,0:0:0:0:
36,192,11345,1,0,0:0:0:0:
402,192,11345,128,0,11560:0:0:0:0:
329,192,11345,1,0,0:0:0:0:
475,192,11345,1,0,0:0:0:0:
109,192,11452,1,0,0:0:0:0:
182,192,11560,1,0,0:0:0:0:
256,192,11560,1,0,0:0:0:0:
329,192,11560,1,0,0:0:0:0:
475,192,11560,1,0,0:0:0:0:
109,192,11667,1,0,0:0:0:0:
36,192,11667,1,0,0:0:0:0:
182,192,11774,1,0,0:0:0:0:
329,192,11774,1,0,0:0:0:0:
402,192,11774,1,0,0:0:0:0:
475,192,11774,1,0,0:0:0:0:
256,192,11774,128,0,11988:0:0:0:0:
109,192,11881,1,0,0:0:0:0:
36,192,11881,1,0,0:0:0:0:
182,192,11988,1,0,0:0:0:0:
329,192,11988,1,0,0:0:0:0:
402,192,12095,1,0,0:0:0:0:
475,192,12095,1,0,0:0:0:0:
256,192,12095,1,0,0:0:0:0:
109,192,12095,1,0,0:0:0:0:
182,192,12202,1,0,0:0:0:0:
329,192,12202,1,0,0:0:0:0:
36,192,12202,128,0,12417:0:0:0:0:
109,192,12310,1,0,0:0:0:0:
256,192,12310,1,0,0:0:0:0:
182,192,12417,1,0,0:0:0:0:
329,192,12417,1,0,0:0:0:0:
402,192,12417,1,0,0:0:0:0:
475,192,12417,1,0,0:0:0:0:
256,192,12524,1,0,0:0:0:0:
109,192,12524,1,0,0:0:0:0:
182,192,12631,1,0,0:0:0:0:
329,192,12631,1,0,0:0:0:0:
256,192,12738,1,0,0:0:0:0:
402,192,12738,1,0,0:0:0:0:
329,192,12845,1,0,0:0:0:0:
475,192,12845,1,0,0:0:0:0:
182,192,12845,1,0,0:0:0:0:
36,192,12952,1,0,0:0:0:0:
109,192,12952,1,0,0:0:0:0:
402,192,12952,1,0,0:0:0:0:
256,192,12952,1,0,0:0:0:0:
329,192,13060,1,0,0:0:0:0:
475,192,13060,128,0,13274:0:0:0:0:
182,192,13060,1,0,0:0:0:0:
256,192,13167,1,0,0:0:0:0:
402,192,13167,1,0,0:0:0:0:
109,192,13167,1,0,0:0:0:0:
329,192,13274,1,0,0:0:0:0:
36,192,13274,1,0,0:0:0:0:
182,192,13274,1,0,0:0:0:0:
402,192,13381,1,0,0:0:0:0:
256,192,13381,1,0,0:0:0:0:
109,192,13381,1,0,0:0:0:0:
182,192,13488,1,0,0:0:0:0:
329,192,13488,1,0,0:0:0:0:
475,192,13488,1,0,0:0:0:0:
402,192,13595,1,0,0:0:0:0:
256,192,13595,1,0,0:0:0:0:
109,192,13595,1,0,0:0:0:0:
36,192,13702,128,0,13917:0:0:0:0:
182,192,13702,1,0,0:0:0:0:
329,192,13702,1,0,0:0:0:0:
256,192,13810,1,0,0:0:0:0:
402,192,13810,1,0,0:0:0:0:
109,192,13810,1,0,0:0:0:0:
182,192,13917,1,0,0:0:0:0:
329,192,13917,1,0,0:0:0:0:
475,192,13917,1,0,0:0:0:0:
256,192,14024,1,0,0:0:0:0:
109,192,14024,1,0,0:0:0:0:
402,192,14024,1,0,0:0:0:0:
329,192,14131,1,0,0:0:0:0:
182,192,14131,128,0,14345:0:0:0:0:
36,192,14131,1,0,0:0:0:0:
109,192,14238,1,0,0:0:0:0:
256,192,14238,1,0,0:0:0:0:
402,192,14238,1,0,0:0:0:0:
329,192,14345,1,0,0:0:0:0:
475,192,14345,1,0,0:0:0:0:
36,192,14345,1,0,0:0:0:0:
402,192,14452,1,0,0:0:0:0:
256,192,14452,1,0,0:0:0:0:
109,192,14452,1,0,0:0:0:0:
182,192,14560,1,0,0:0:0:0:
475,192,14560,1,0,0:0:0:0:
329,192,14560,128,0,14774:0:0:0:0:
402,192,14667,1,0,0:0:0:0:
256,192,14667,1,0,0:0:0:0:
109,192,14667,1,0,0:0:0:0:
182,192,14774,1,0,0:0:0:0:
36,192,14774,1,0,0:0:0:0:
475,192,14774,1,0,0:0:0:0:
402,192,14881,1,0,0:0:0:0:
256,192,14881,1,0,0:0:0:0:
109,192,14881,1,0,0:0:0:0:
36,192,14988,1,0,0:0:0:0:
182,192,14988,1,0,0:0:0:0:
329,192,14988,1,0,0:0:0:0:
475,192,14988,128,0,15202:0:0:0:0:
402,192,15095,1,0,0:0:0:0:
256,192,15095,1,0,0:0:0:0:
109,192,15095,1,0,0:0:0:0:
182,192,15202,1,0,0:0:0:0:
329,192,15202,1,0,0:0:0:0:
256,192,15310,1,0,0:0:0:0:
402,192,15310,1,0,0:0:0:0:
256,192,15417,128,0,17131:0:0:0:0:
36,192,15417,128,0,15845:0:0:0:0:
475,192,15845,128,0,16274:0:0:0:0:
36,192,16274,128,0,17131:0:0:0:0:
475,192,16702,128,0,17131:0:0:0:0:
402,192,17131,1,0,0:0:0:0:
329,192,17131,1,0,0:0:0:0:
109,192,17131,1,0,0:0:0:0:
182,192,17131,1,0,0:0:0:0:
36,192,17345,128,0,17399:0:0:0:0:
256,192,17345,128,0,17399:0:0:0:0:
475,192,17345,128,0,17399:0:0:0:0:
475,192,17560,128,0,17613:0:0:0:0:
256,192,17560,128,0,17613:0:0:0:0:
36,192,17560,128,0,17613:0:0:0:0:
109,192,17774,128,0,17827:0:0:0:0:
402,192,17774,128,0,17827:0:0:0:0:
329,192,17988,1,0,0:0:0:0:
182,192,17988,1,0,0:0:0:0:
256,192,18202,128,0,18310:0:0:0:0:
182,192,18417,128,0,18524:0:0:0:0:
329,192,18417,128,0,18524:0:0:0:0:
109,192,18631,128,0,18738:0:0:0:0:
256,192,18631,128,0,18738:0:0:0:0:
402,192,18631,128,0,18738:0:0:0:0:
182,192,18845,1,0,0:0:0:0:
36,192,18845,1,0,0:0:0:0:
475,192,18845,1,0,0:0:0:0:
402,192,18845,1,0,0:0:0:0:
256,192,18899,1,0,0:0:0:0:
329,192,18952,1,0,0:0:0:0:
402,192,18952,1,0,0:0:0:0:
109,192,18952,1,0,0:0:0:0:
182,192,19006,1,0,0:0:0:0:
256,192,19060,1,0,0:0:0:0:
329,192,19060,1,0,0:0:0:0:
475,192,19060,1,0,0:0:0:0:
36,192,19060,1,0,0:0:0:0:
109,192,19167,1,0,0:0:0:0:
182,192,19167,1,0,0:0:0:0:
402,192,19167,1,0,0:0:0:0:
182,192,19274,1,0,0:0:0:0:
256,192,19274,1,0,0:0:0:0:
475,192,19274,1,0,0:0:0:0:
36,192,19274,1,0,0:0:0:0:
109,192,19327,1,0,0:0:0:0:
256,192,19381,1,0,0:0:0:0:
329,192,19381,1,0,0:0:0:0:
182,192,19435,1,0,0:0:0:0:
402,192,19488,1,0,0:0:0:0:
475,192,19488,1,0,0:0:0:0:
36,192,19488,1,0,0:0:0:0:
109,192,19488,1,0,0:0:0:0:
182,192,19595,1,0,0:0:0:0:
109,192,19595,1,0,0:0:0:0:
329,192,19595,1,0,0:0:0:0:
402,192,19595,1,0,0:0:0:0:
329,192,19702,1,0,0:0:0:0:
256,192,19702,1,0,0:0:0:0:
182,192,19702,1,0,0:0:0:0:
36,192,19702,1,0,0:0:0:0:
475,192,19702,1,0,0:0:0:0:
109,192,19756,1,0,0:0:0:0:
402,192,19756,1,0,0:0:0:0:
182,192,19810,1,0,0:0:0:0:
329,192,19810,1,0,0:0:0:0:
256,192,19863,1,0,0:0:0:0:
182,192,19917,1,0,0:0:0:0:
402,192,19917,1,0,0:0:0:0:
329,192,19917,1,0,0:0:0:0:
109,192,19917,1,0,0:0:0:0:
109,192,20024,1,0,0:0:0:0:
36,192,20024,1,0,0:0:0:0:
402,192,20024,1,0,0:0:0:0:
475,192,20024,1,0,0:0:0:0:
256,192,20024,1,0,0:0:0:0:
182,192,20131,1,0,0:0:0:0:
329,192,20131,1,0,0:0:0:0:
36,192,20131,1,0,0:0:0:0:
475,192,20131,1,0,0:0:0:0:
402,192,20185,1,0,0:0:0:0:
256,192,20185,1,0,0:0:0:0:
109,192,20185,1,0,0:0:0:0:
182,192,20238,1,0,0:0:0:0:
329,192,20238,1,0,0:0:0:0:
256,192,20292,1,0,0:0:0:0:
36,192,20345,1,0,0:0:0:0:
475,192,20345,1,0,0:0:0:0:
109,192,20399,1,0,0:0:0:0:
402,192,20399,1,0,0:0:0:0:
182,192,20452,1,0,0:0:0:0:
329,192,20452,1,0,0:0:0:0:
256,192,20506,1,0,0:0:0:0:
109,192,20560,1,0,0:0:0:0:
36,192,20560,1,0,0:0:0:0:
402,192,20560,1,0,0:0:0:0:
475,192,20560,1,0,0:0:0:0:
182,192,20613,1,0,0:0:0:0:
329,192,20613,1,0,0:0:0:0:
256,192,20667,1,0,0:0:0:0:
182,192,20720,1,0,0:0:0:0:
329,192,20720,1,0,0:0:0:0:
109,192,20774,1,0,0:0:0:0:
402,192,20774,1,0,0:0:0:0:
36,192,20827,1,0,0:0:0:0:
475,192,20827,1,0,0:0:0:0:
109,192,20881,1,0,0:0:0:0:
402,192,20881,1,0,0:0:0:0:
182,192,20935,1,0,0:0:0:0:
329,192,20935,1,0,0:0:0:0:
256,192,20988,1,0,0:0:0:0:
182,192,21042,1,0,0:0:0:0:
329,192,21042,1,0,0:0:0:0:
109,192,21095,1,0,0:0:0:0:
402,192,21095,1,0,0:0:0:0:
36,192,21149,1,0,0:0:0:0:
475,192,21149,1,0,0:0:0:0:
109,192,21202,1,0,0:0:0:0:
402,192,21202,1,0,0:0:0:0:
182,192,21256,1,0,0:0:0:0:
329,192,21256,1,0,0:0:0:0:
256,192,21310,1,0,0:0:0:0:
475,192,21310,1,0,0:0:0:0:
36,192,21310,1,0,0:0:0:0:
402,192,21363,1,0,0:0:0:0:
109,192,21363,1,0,0:0:0:0:
329,192,21417,1,0,0:0:0:0:
182,192,21417,1,0,0:0:0:0:
36,192,21417,1,0,0:0:0:0:
256,192,21470,1,0,0:0:0:0:
475,192,21524,1,0,0:0:0:0:
109,192,21524,1,0,0:0:0:0:
182,192,21560,1,0,0:0:0:0:
256,192,21595,1,0,0:0:0:0:
475,192,21631,1,0,0:0:0:0:
329,192,21631,1,0,0:0:0:0:
36,192,21631,1,0,0:0:0:0:
109,192,21667,1,0,0:0:0:0:
182,192,21702,1,0,0:0:0:0:
475,192,21738,1,0,0:0:0:0:
256,192,21738,1,0,0:0:0:0:
182,192,21774,1,0,0:0:0:0:
109,192,21810,1,0,0:0:0:0:
329,192,21845,1,0,0:0:0:0:
475,192,21845,1,0,0:0:0:0:
36,192,21845,1,0,0:0:0:0:
256,192,21899,1,0,0:0:0:0:
36,192,21952,1,0,0:0:0:0:
402,192,21952,1,0,0:0:0:0:
329,192,21988,1,0,0:0:0:0:
256,192,22024,1,0,0:0:0:0:
36,192,22060,1,0,0:0:0:0:
475,192,22060,1,0,0:0:0:0:
182,192,22060,1,0,0:0:0:0:
402,192,22095,1,0,0:0:0:0:
329,192,22131,1,0,0:0:0:0:
36,192,22167,1,0,0:0:0:0:
256,192,22167,1,0,0:0:0:0:
329,192,22202,1,0,0:0:0:0:
402,192,22238,1,0,0:0:0:0:
475,192,22274,1,0,0:0:0:0:
182,192,22274,1,0,0:0:0:0:
36,192,22301,1,0,0:0:0:0:
256,192,22327,1,0,0:0:0:0:
109,192,22354,1,0,0:0:0:0:
329,192,22381,1,0,0:0:0:0:
182,192,22408,1,0,0:0:0:0:
402,192,22435,1,0,0:0:0:0:
256,192,22461,1,0,0:0:0:0:
475,192,22488,1,0,0:0:0:0:
329,192,22488,1,0,0:0:0:0:
402,192,22542,1,0,0:0:0:0:
256,192,22542,1,0,0:0:0:0:
329,192,22595,1,0,0:0:0:0:
182,192,22595,1,0,0:0:0:0:
256,192,22649,1,0,0:0:0:0:
109,192,22649,1,0,0:0:0:0:
182,192,22702,1,0,0:0:0:0:
36,192,22702,1,0,0:0:0:0:
475,192,22702,1,0,0:0:0:0:
402,192,22702,1,0,0:0:0:0:
256,192,22810,1,0,0:0:0:0:
402,192,22810,1,0,0:0:0:0:
109,192,22917,1,0,0:0:0:0:
36,192,22917,1,0,0:0:0:0:
329,192,22917,1,0,0:0:0:0:
475,192,22917,1,0,0:0:0:0:
256,192,22917,1,0,0:0:0:0:
182,192,23024,1,0,0:0:0:0:
36,192,23024,1,0,0:0:0:0:
402,192,23024,1,0,0:0:0:0:
402,192,23131,1,0,0:0:0:0:
256,192,23131,1,0,0:0:0:0:
475,192,23131,1,0,0:0:0:0:
36,192,23131,1,0,0:0:0:0:
109,192,23185,1,0,0:0:0:0:
402,192,23238,1,0,0:0:0:0:
109,192,23292,1,0,0:0:0:0:
402,192,23345,1,0,0:0:0:0:
475,192,23345,1,0,0:0:0:0:
182,192,23345,1,0,0:0:0:0:
256,192,23345,1,0,0:0:0:0:
36,192,23345,1,0,0:0:0:0:
329,192,23399,1,0,0:0:0:0:
182,192,23452,1,0,0:0:0:0:
109,192,23452,1,0,0:0:0:0:
329,192,23506,1,0,0:0:0:0:
402,192,23560,1,0,0:0:0:0:
475,192,23560,1,0,0:0:0:0:
256,192,23560,1,0,0:0:0:0:
182,192,23560,1,0,0:0:0:0:
36,192,23560,1,0,0:0:0:0:
109,192,23613,1,0,0:0:0:0:
329,192,23667,1,0,0:0:0:0:
109,192,23720,1,0,0:0:0:0:
329,192,23774,1,0,0:0:0:0:
256,192,23774,1,0,0:0:0:0:
475,192,23774,1,0,0:0:0:0:
36,192,23774,1,0,0:0:0:0:
182,192,23774,1,0,0:0:0:0:
402,192,23827,1,0,0:0:0:0:
109,192,23881,1,0,0:0:0:0:
402,192,23935,1,0,0:0:0:0:
109,192,23988,1,0,0:0:0:0:
256,192,23988,1,0,0:0:0:0:
329,192,23988,1,0,0:0:0:0:
475,192,23988,1,0,0:0:0:0:
36,192,24015,1,0,0:0:0:0:
182,192,24042,1,0,0:0:0:0:
109,192,24069,1,0,0:0:0:0:
256,192,24095,1,0,0:0:0:0:
182,192,24122,1,0,0:0:0:0:
329,192,24149,1,0,0:0:0:0:
256,192,24176,1,0,0:0:0:0:
402,192,24202,1,0,0:0:0:0:
329,192,24229,1,0,0:0:0:0:
475,192,24256,1,0,0:0:0:0:
402,192,24283,1,0,0:0:0:0:
256,192,24310,1,0,0:0:0:0:
329,192,24336,1,0,0:0:0:0:
182,192,24363,1,0,0:0:0:0:
256,192,24390,1,0,0:0:0:0:
109,192,24417,1,0,0:0:0:0:
475,192,24417,1,0,0:0:0:0:
182,192,24444,1,0,0:0:0:0:
36,192,24470,1,0,0:0:0:0:
256,192,24497,1,0,0:0:0:0:
109,192,24524,1,0,0:0:0:0:
329,192,24551,1,0,0:0:0:0:
182,192,24577,1,0,0:0:0:0:
402,192,24604,1,0,0:0:0:0:
256,192,24631,1,0,0:0:0:0:
475,192,24658,1,0,0:0:0:0:
329,192,24685,1,0,0:0:0:0:
402,192,24711,1,0,0:0:0:0:
256,192,24738,1,0,0:0:0:0:
329,192,24765,1,0,0:0:0:0:
182,192,24792,1,0,0:0:0:0:
256,192,24819,1,0,0:0:0:0:
109,192,24845,1,0,0:0:0:0:
329,192,24845,1,0,0:0:0:0:
475,192,24872,1,0,0:0:0:0:
256,192,24899,1,0,0:0:0:0:
402,192,24926,1,0,0:0:0:0:
182,192,24952,1,0,0:0:0:0:
329,192,24979,1,0,0:0:0:0:
109,192,25006,1,0,0:0:0:0:
256,192,25033,1,0,0:0:0:0:
36,192,25060,1,0,0:0:0:0:
182,192,25086,1,0,0:0:0:0:
109,192,25113,1,0,0:0:0:0:
256,192,25140,1,0,0:0:0:0:
182,192,25167,1,0,0:0:0:0:
329,192,25194,1,0,0:0:0:0:
256,192,25220,1,0,0:0:0:0:
402,192,25247,1,0,0:0:0:0:
329,192,25274,1,0,0:0:0:0:
36,192,25274,1,0,0:0:0:0:
475,192,25301,1,0,0:0:0:0:
109,192,25301,1,0,0:0:0:0:
182,192,25327,1,0,0:0:0:0:
256,192,25354,1,0,0:0:0:0:
329,192,25381,1,0,0:0:0:0:
402,192,25408,1,0,0:0:0:0:
475,192,25435,1,0,0:0:0:0:
36,192,25461,1,0,0:0:0:0:
109,192,25488,1,0,0:0:0:0:
182,192,25488,1,0,0:0:0:0:
256,192,25515,1,0,0:0:0:0:
329,192,25542,1,0,0:0:0:0:
402,192,25569,1,0,0:0:0:0:
475,192,25595,1,0,0:0:0:0:
36,192,25595,1,0,0:0:0:0:
109,192,25622,1,0,0:0:0:0:
182,192,25649,1,0,0:0:0:0:
256,192,25676,1,0,0:0:0:0:
329,192,25702,1,0,0:0:0:0:
402,192,25702,1,0,0:0:0:0:
475,192,25729,1,0,0:0:0:0:
109,192,25756,1,0,0:0:0:0:
36,192,25783,1,0,0:0:0:0:
256,192,25810,1,0,0:0:0:0:
329,192,25810,1,0,0:0:0:0:
402,192,25836,1,0,0:0:0:0:
109,192,25863,1,0,0:0:0:0:
36,192,25890,1,0,0:0:0:0:
256,192,25917,1,0,0:0:0:0:
182,192,25917,1,0,0:0:0:0:
329,192,25944,1,0,0:0:0:0:
475,192,25970,1,0,0:0:0:0:
402,192,25997,1,0,0:0:0:0:
182,192,26024,1,0,0:0:0:0:
109,192,26024,1,0,0:0:0:0:
256,192,26051,1,0,0:0:0:0:
475,192,26077,1,0,0:0:0:0:
402,192,26104,1,0,0:0:0:0:
109,192,26131,1,0,0:0:0:0:
182,192,26131,1,0,0:0:0:0:
36,192,26158,1,0,0:0:0:0:
402,192,26185,1,0,0:0:0:0:
475,192,26211,1,0,0:0:0:0:
182,192,26238,1,0,0:0:0:0:
256,192,26238,1,0,0:0:0:0:
109,192,26265,1,0,0:0:0:0:
402,192,26292,1,0,0:0:0:0:
475,192,26319,1,0,0:0:0:0:
256,192,26345,1,0,0:0:0:0:
329,192,26345,1,0,0:0:0:0:
182,192,26372,1,0,0:0:0:0:
36,192,26399,1,0,0:0:0:0:
109,192,26426,1,0,0:0:0:0:
402,192,26452,1,0,0:0:0:0:
329,192,26452,1,0,0:0:0:0:
256,192,26479,1,0,0:0:0:0:
36,192,26506,1,0,0:0:0:0:
109,192,26533,1,0,0:0:0:0:
475,192,26560,128,0,26720:0:0:0:0:
402,192,26560,128,0,26720:0:0:0:0:
182,192,26560,128,0,26774:0:0:0:0:
402,192,26774,1,0,0:0:0:0:
475,192,26774,1,0,0:0:0:0:
256,192,26774,128,0,26881:0:0:0:0:
109,192,26774,128,0,26881:0:0:0:0:
329,192,26774,1,0,0:0:0:0:
402,192,26881,1,0,0:0:0:0:
475,192,26881,1,0,0:0:0:0:
182,192,26881,128,0,26988:0:0:0:0:
329,192,26881,128,0,26988:0:0:0:0:
475,192,26988,128,0,27202:0:0:0:0:
402,192,26988,128,0,27202:0:0:0:0:
109,192,26988,128,0,27149:0:0:0:0:
36,192,26988,128,0,27149:0:0:0:0:
109,192,27202,1,0,0:0:0:0:
36,192,27202,1,0,0:0:0:0:
402,192,27256,1,0,0:0:0:0:
475,192,27256,1,0,0:0:0:0:
109,192,27310,1,0,0:0:0:0:
36,192,27310,1,0,0:0:0:0:
402,192,27363,1,0,0:0:0:0:
475,192,27363,1,0,0:0:0:0:
182,192,27417,1,0,0:0:0:0:
109,192,27417,1,0,0:0:0:0:
329,192,27470,1,0,0:0:0:0:
402,192,27470,1,0,0:0:0:0:
109,192,27524,1,0,0:0:0:0:
182,192,27524,1,0,0:0:0:0:
329,192,27577,1,0,0:0:0:0:
402,192,27577,1,0,0:0:0:0:
256,192,27631,1,0,0:0:0:0:
182,192,27631,1,0,0:0:0:0:
402,192,27685,1,0,0:0:0:0:
475,192,27685,1,0,0:0:0:0:
256,192,27738,1,0,0:0:0:0:
182,192,27738,1,0,0:0:0:0:
475,192,27792,1,0,0:0:0:0:
402,192,27792,1,0,0:0:0:0:
182,192,27845,1,0,0:0:0:0:
109,192,27845,1,0,0:0:0:0:
329,192,27899,1,0,0:0:0:0:
402,192,27899,1,0,0:0:0:0:
182,192,27952,1,0,0:0:0:0:
109,192,27952,1,0,0:0:0:0:
329,192,28006,1,0,0:0:0:0:
402,192,28006,1,0,0:0:0:0:
109,192,28060,1,0,0:0:0:0:
36,192,28060,1,0,0:0:0:0:
256,192,28113,1,0,0:0:0:0:
329,192,28113,1,0,0:0:0:0:
109,192,28167,1,0,0:0:0:0:
36,192,28167,1,0,0:0:0:0:
256,192,28220,1,0,0:0:0:0:
329,192,28220,1,0,0:0:0:0:
182,192,28274,128,0,28301:0:0:0:0:
329,192,28327,128,0,28354:0:0:0:0:
182,192,28381,128,0,28408:0:0:0:0:
329,192,28435,128,0,28461:0:0:0:0:
109,192,28488,128,0,28515:0:0:0:0:
402,192,28542,128,0,28569:0:0:0:0:
109,192,28595,128,0,28622:0:0:0:0:
402,192,28649,128,0,28676:0:0:0:0:
36,192,28702,128,0,28716:0:0:0:0:
475,192,28756,128,0,28769:0:0:0:0:
36,192,28810,128,0,28823:0:0:0:0:
475,192,28863,128,0,28877:0:0:0:0:
36,192,28917,128,0,28930:0:0:0:0:
475,192,28970,128,0,28984:0:0:0:0:
36,192,29024,1,0,0:0:0:0:
475,192,29077,1,0,0:0:0:0:
402,192,29131,128,0,29381:0:0:0:0:
329,192,29149,128,0,29381:0:0:0:0:
256,192,29167,128,0,29381:0:0:0:0:
182,192,29185,128,0,29381:0:0:0:0:
109,192,29202,128,0,29381:0:0:0:0:
109,192,29452,1,0,0:0:0:0:
256,192,29452,1,0,0:0:0:0:
402,192,29452,1,0,0:0:0:0:
36,192,29452,1,0,0:0:0:0:
475,192,29452,1,0,0:0:0:0:
329,192,29506,1,0,0:0:0:0:
182,192,29506,1,0,0:0:0:0:
256,192,29560,1,0,0:0:0:0:
109,192,29560,1,0,0:0:0:0:
36,192,29560,1,0,0:0:0:0:
475,192,29560,1,0,0:0:0:0:
402,192,29560,1,0,0:0:0:0:
329,192,29613,1,0,0:0:0:0:
182,192,29613,1,0,0:0:0:0:
109,192,29667,1,0,0:0:0:0:
402,192,29667,1,0,0:0:0:0:
36,192,29720,1,0,0:0:0:0:
475,192,29720,1,0,0:0:0:0:
109,192,29774,1,0,0:0:0:0:
402,192,29774,1,0,0:0:0:0:
329,192,29881,1,0,0:0:0:0:
182,192,29881,1,0,0:0:0:0:
256,192,29881,1,0,0:0:0:0:
402,192,29988,1,0,0:0:0:0:
475,192,29988,1,0,0:0:0:0:
256,192,29988,1,0,0:0:0:0:
109,192,29988,1,0,0:0:0:0:
36,192,29988,1,0,0:0:0:0:
182,192,30042,1,0,0:0:0:0:
475,192,30095,1,0,0:0:0:0:
329,192,30095,1,0,0:0:0:0:
109,192,30095,1,0,0:0:0:0:
36,192,30149,1,0,0:0:0:0:
402,192,30202,1,0,0:0:0:0:
256,192,30202,1,0,0:0:0:0:
475,192,30202,128,0,30363:0:0:0:0:
329,192,30256,1,0,0:0:0:0:
182,192,30256,1,0,0:0:0:0:
256,192,30310,1,0,0:0:0:0:
109,192,30310,1,0,0:0:0:0:
182,192,30363,1,0,0:0:0:0:
36,192,30363,1,0,0:0:0:0:
329,192,30417,1,0,0:0:0:0:
402,192,30417,1,0,0:0:0:0:
475,192,30417,1,0,0:0:0:0:
109,192,30470,1,0,0:0:0:0:
256,192,30470,1,0,0:0:0:0:
182,192,30524,1,0,0:0:0:0:
329,192,30524,1,0,0:0:0:0:
256,192,30577,1,0,0:0:0:0:
402,192,30577,1,0,0:0:0:0:
36,192,30631,128,0,30792:0:0:0:0:
109,192,30631,1,0,0:0:0:0:
329,192,30631,1,0,0:0:0:0:
475,192,30658,1,0,0:0:0:0:
182,192,30685,1,0,0:0:0:0:
402,192,30685,1,0,0:0:0:0:
329,192,30738,1,0,0:0:0:0:
256,192,30738,1,0,0:0:0:0:
36,192,30845,1,0,0:0:0:0:
256,192,30845,1,0,0:0:0:0:
402,192,30845,1,0,0:0:0:0:
475,192,30845,1,0,0:0:0:0:
109,192,30872,1,0,0:0:0:0:
182,192,30899,1,0,0:0:0:0:
329,192,30899,1,0,0:0:0:0:
182,192,31060,1,0,0:0:0:0:
475,192,31060,1,0,0:0:0:0:
256,192,31060,1,0,0:0:0:0:
109,192,31060,1,0,0:0:0:0:
36,192,31060,1,0,0:0:0:0:
402,192,31086,1,0,0:0:0:0:
329,192,31113,1,0,0:0:0:0:
109,192,31167,1,0,0:0:0:0:
182,192,31167,1,0,0:0:0:0:
329,192,31274,1,0,0:0:0:0:
256,192,31274,1,0,0:0:0:0:
36,192,31274,1,0,0:0:0:0:
475,192,31274,1,0,0:0:0:0:
109,192,31301,1,0,0:0:0:0:
182,192,31327,1,0,0:0:0:0:
402,192,31327,1,0,0:0:0:0:
329,192,31381,1,0,0:0:0:0:
256,192,31435,1,0,0:0:0:0:
475,192,31488,1,0,0:0:0:0:
182,192,31488,1,0,0:0:0:0:
109,192,31488,1,0,0:0:0:0:
402,192,31515,1,0,0:0:0:0:
329,192,31542,1,0,0:0:0:0:
256,192,31542,1,0,0:0:0:0:
36,192,31595,1,0,0:0:0:0:
109,192,31595,1,0,0:0:0:0:
329,192,31649,1,0,0:0:0:0:
402,192,31649,1,0,0:0:0:0:
182,192,31702,1,0,0:0:0:0:
109,192,31702,1,0,0:0:0:0:
402,192,31738,1,0,0:0:0:0:
329,192,31738,1,0,0:0:0:0:
109,192,31774,1,0,0:0:0:0:
182,192,31774,1,0,0:0:0:0:
329,192,31810,1,0,0:0:0:0:
402,192,31810,1,0,0:0:0:0:
182,192,31845,1,0,0:0:0:0:
109,192,31845,1,0,0:0:0:0:
402,192,31881,1,0,0:0:0:0:
329,192,31881,1,0,0:0:0:0:
109,192,31917,1,0,0:0:0:0:
182,192,31917,1,0,0:0:0:0:
402,192,31952,1,0,0:0:0:0:
329,192,31952,1,0,0:0:0:0:
109,192,31988,1,0,0:0:0:0:
182,192,31988,1,0,0:0:0:0:
329,192,32024,1,0,0:0:0:0:
402,192,32024,1,0,0:0:0:0:
182,192,32060,1,0,0:0:0:0:
109,192,32060,1,0,0:0:0:0:
329,192,32095,1,0,0:0:0:0:
402,192,32095,1,0,0:0:0:0:
256,192,32131,1,0,0:0:0:0:
109,192,32345,128,0,32417:0:0:0:0:
182,192,32345,128,0,32417:0:0:0:0:
36,192,32345,128,0,32417:0:0:0:0:
329,192,32345,128,0,32417:0:0:0:0:
402,192,32345,128,0,32417:0:0:0:0:
475,192,32345,128,0,32417:0:0:0:0:
109,192,32560,128,0,32595:0:0:0:0:
182,192,32560,128,0,32595:0:0:0:0:
36,192,32560,128,0,32595:0:0:0:0:
329,192,32560,128,0,32595:0:0:0:0:
402,192,32560,128,0,32595:0:0:0:0:
475,192,32560,128,0,32595:0:0:0:0:
182,192,32988,128,0,33024:0:0:0:0:
256,192,32988,128,0,33024:0:0:0:0:
109,192,32988,128,0,33024:0:0:0:0:
329,192,32988,128,0,33024:0:0:0:0:
402,192,32988,128,0,33024:0:0:0:0:
256,192,33417,128,0,33452:0:0:0:0:
329,192,33417,128,0,33452:0:0:0:0:
182,192,33417,128,0,33452:0:0:0:0:
329,192,33845,128,0,33881:0:0:0:0:
402,192,33845,128,0,33881:0:0:0:0:
182,192,33845,128,0,33881:0:0:0:0:
109,192,33845,128,0,33881:0:0:0:0:
182,192,34060,128,0,34131:0:0:0:0:
109,192,34060,128,0,34131:0:0:0:0:
36,192,34060,128,0,34131:0:0:0:0:
329,192,34060,128,0,34131:0:0:0:0:
402,192,34060,128,0,34131:0:0:0:0:
475,192,34060,128,0,34131:0:0:0:0:
402,192,34274,128,0,34310:0:0:0:0:
475,192,34274,128,0,34310:0:0:0:0:
256,192,34274,1,0,0:0:0:0:
182,192,34381,1,0,0:0:0:0:
109,192,34488,1,0,0:0:0:0:
36,192,34595,1,0,0:0:0:0:
109,192,34702,1,0,0:0:0:0:
329,192,34702,128,0,34738:0:0:0:0:
402,192,34702,128,0,34738:0:0:0:0:
182,192,34810,1,0,0:0:0:0:
256,192,34917,1,0,0:0:0:0:
329,192,35024,1,0,0:0:0:0:
182,192,35131,128,0,35167:0:0:0:0:
256,192,35131,128,0,35167:0:0:0:0:
402,192,35131,1,0,0:0:0:0:
475,192,35238,1,0,0:0:0:0:
402,192,35345,1,0,0:0:0:0:
329,192,35452,1,0,0:0:0:0:
182,192,35560,128,0,35595:0:0:0:0:
109,192,35560,128,0,35595:0:0:0:0:
256,192,35560,128,0,35667:0:0:0:0:
329,192,35667,128,0,35774:0:0:0:0:
402,192,35774,128,0,35881:0:0:0:0:
475,192,35881,128,0,35988:0:0:0:0:
109,192,35988,128,0,36024:0:0:0:0:
36,192,35988,128,0,36024:0:0:0:0:
329,192,35988,128,0,36095:0:0:0:0:
182,192,35988,1,0,0:0:0:0:
402,192,36095,128,0,36202:0:0:0:0:
475,192,36202,128,0,36310:0:0:0:0:
182,192,36202,1,0,0:0:0:0:
402,192,36310,128,0,36417:0:0:0:0:
329,192,36417,128,0,36524:0:0:0:0:
182,192,36417,128,0,36452:0:0:0:0:
109,192,36417,128,0,36452:0:0:0:0:
36,192,36417,1,0,0:0:0:0:
256,192,36524,128,0,36631:0:0:0:0:
182,192,36631,128,0,36738:0:0:0:0:
402,192,36631,1,0,0:0:0:0:
109,192,36738,128,0,36845:0:0:0:0:
475,192,36738,1,0,0:0:0:0:
182,192,36845,128,0,36881:0:0:0:0:
256,192,36845,128,0,36881:0:0:0:0:
475,192,36845,1,0,0:0:0:0:
36,192,36952,128,0,37060:0:0:0:0:
402,192,36952,1,0,0:0:0:0:
109,192,37060,128,0,37167:0:0:0:0:
329,192,37060,1,0,0:0:0:0:
182,192,37167,128,0,37274:0:0:0:0:
256,192,37167,128,0,37202:0:0:0:0:
329,192,37167,128,0,37202:0:0:0:0:
256,192,37274,128,0,37381:0:0:0:0:
329,192,37381,128,0,37488:0:0:0:0:
182,192,37381,1,0,0:0:0:0:
402,192,37488,128,0,37595:0:0:0:0:
109,192,37488,1,0,0:0:0:0:
475,192,37595,128,0,37702:0:0:0:0:
36,192,37595,1,0,0:0:0:0:
36,192,37702,1,0,0:0:0:0:
402,192,37702,128,0,37810:0:0:0:0:
182,192,37702,128,0,37738:0:0:0:0:
329,192,37702,128,0,37738:0:0:0:0:
109,192,37810,1,0,0:0:0:0:
329,192,37810,128,0,37917:0:0:0:0:
182,192,37917,1,0,0:0:0:0:
256,192,37917,128,0,38024:0:0:0:0:
182,192,38024,128,0,38131:0:0:0:0:
329,192,38024,1,0,0:0:0:0:
109,192,38131,128,0,38167:0:0:0:0:
402,192,38131,128,0,38167:0:0:0:0:
475,192,38131,1,0,0:0:0:0:
36,192,38131,128,0,38238:0:0:0:0:
109,192,38238,128,0,38345:0:0:0:0:
402,192,38238,1,0,0:0:0:0:
182,192,38345,128,0,38452:0:0:0:0:
329,192,38345,1,0,0:0:0:0:
256,192,38452,1,0,0:0:0:0:
329,192,38452,128,0,38560:0:0:0:0:
36,192,38560,128,0,38595:0:0:0:0:
475,192,38560,128,0,38595:0:0:0:0:
182,192,38560,1,0,0:0:0:0:
109,192,38613,128,0,38774:0:0:0:0:
402,192,38613,128,0,38774:0:0:0:0:
182,192,38667,128,0,38827:0:0:0:0:
329,192,38667,128,0,38827:0:0:0:0:
256,192,38720,128,0,38881:0:0:0:0:
36,192,38774,128,0,38935:0:0:0:0:
475,192,38774,128,0,38935:0:0:0:0:
109,192,38827,128,0,38988:0:0:0:0:
402,192,38827,128,0,38988:0:0:0:0:
182,192,38881,128,0,39042:0:0:0:0:
329,192,38881,128,0,38935:0:0:0:0:
256,192,38935,128,0,39095:0:0:0:0:
329,192,38988,1,0,0:0:0:0:
475,192,38988,128,0,39149:0:0:0:0:
36,192,38988,128,0,39149:0:0:0:0:
402,192,39042,128,0,39202:0:0:0:0:
109,192,39042,128,0,39202:0:0:0:0:
329,192,39095,128,0,39256:0:0:0:0:
182,192,39095,128,0,39256:0:0:0:0:
256,192,39149,128,0,39310:0:0:0:0:
36,192,39202,128,0,39363:0:0:0:0:
475,192,39202,128,0,39363:0:0:0:0:
109,192,39256,128,0,39363:0:0:0:0:
402,192,39256,128,0,39363:0:0:0:0:
182,192,39310,128,0,39363:0:0:0:0:
329,192,39310,128,0,39363:0:0:0:0:
256,192,39363,1,0,0:0:0:0:
109,192,39417,1,0,0:0:0:0:
402,192,39417,1,0,0:0:0:0:
475,192,39417,1,0,0:0:0:0:
36,192,39417,1,0,0:0:0:0:
329,192,39470,1,0,0:0:0:0:
256,192,39524,1,0,0:0:0:0:
109,192,39524,128,0,39845:0:0:0:0:
36,192,39524,128,0,39845:0:0:0:0:
182,192,39577,1,0,0:0:0:0:
256,192,39631,1,0,0:0:0:0:
329,192,39685,1,0,0:0:0:0:
402,192,39738,1,0,0:0:0:0:
475,192,39792,1,0,0:0:0:0:
182,192,39845,1,0,0:0:0:0:
256,192,39899,1,0,0:0:0:0:
329,192,39952,1,0,0:0:0:0:
402,192,40006,1,0,0:0:0:0:
475,192,40060,1,0,0:0:0:0:
402,192,40113,1,0,0:0:0:0:
329,192,40167,1,0,0:0:0:0:
256,192,40220,1,0,0:0:0:0:
36,192,40274,128,0,40702:0:0:0:0:
182,192,40274,1,0,0:0:0:0:
109,192,40327,1,0,0:0:0:0:
329,192,40381,1,0,0:0:0:0:
109,192,40435,1,0,0:0:0:0:
182,192,40488,1,0,0:0:0:0:
256,192,40542,1,0,0:0:0:0:
329,192,40595,1,0,0:0:0:0:
402,192,40649,1,0,0:0:0:0:
475,192,40702,128,0,41131:0:0:0:0:
109,192,40702,1,0,0:0:0:0:
182,192,40756,1,0,0:0:0:0:
256,192,40810,1,0,0:0:0:0:
329,192,40863,1,0,0:0:0:0:
402,192,40917,1,0,0:0:0:0:
329,192,40970,1,0,0:0:0:0:
256,192,41024,1,0,0:0:0:0:
182,192,41077,1,0,0:0:0:0:
109,192,41131,1,0,0:0:0:0:
402,192,41131,1,0,0:0:0:0:
329,192,41167,1,0,0:0:0:0:
256,192,41185,1,0,0:0:0:0:
182,192,41202,1,0,0:0:0:0:
475,192,41238,1,0,0:0:0:0:
109,192,41274,1,0,0:0:0:0:
329,192,41292,1,0,0:0:0:0:
182,192,41310,1,0,0:0:0:0:
402,192,41345,1,0,0:0:0:0:
36,192,41381,1,0,0:0:0:0:
256,192,41399,1,0,0:0:0:0:
182,192,41417,1,0,0:0:0:0:
475,192,41452,1,0,0:0:0:0:
109,192,41488,1,0,0:0:0:0:
329,192,41506,1,0,0:0:0:0:
256,192,41524,1,0,0:0:0:0:
402,192,41560,1,0,0:0:0:0:
182,192,41595,1,0,0:0:0:0:
36,192,41613,1,0,0:0:0:0:
329,192,41631,1,0,0:0:0:0:
475,192,41667,1,0,0:0:0:0:
256,192,41702,1,0,0:0:0:0:
109,192,41720,1,0,0:0:0:0:
182,192,41738,1,0,0:0:0:0:
402,192,41774,1,0,0:0:0:0:
329,192,41810,1,0,0:0:0:0:
36,192,41827,1,0,0:0:0:0:
256,192,41845,1,0,0:0:0:0:
182,192,41881,1,0,0:0:0:0:
475,192,41881,1,0,0:0:0:0:
402,192,41917,1,0,0:0:0:0:
36,192,41935,1,0,0:0:0:0:
329,192,41952,1,0,0:0:0:0:
256,192,41988,1,0,0:0:0:0:
475,192,41988,1,0,0:0:0:0:
182,192,42024,1,0,0:0:0:0:
109,192,42042,1,0,0:0:0:0:
36,192,42060,1,0,0:0:0:0:
329,192,42095,1,0,0:0:0:0:
256,192,42131,1,0,0:0:0:0:
182,192,42149,1,0,0:0:0:0:
109,192,42167,1,0,0:0:0:0:
402,192,42202,1,0,0:0:0:0:
329,192,42238,1,0,0:0:0:0:
256,192,42256,1,0,0:0:0:0:
182,192,42274,1,0,0:0:0:0:
475,192,42310,1,0,0:0:0:0:
109,192,42345,1,0,0:0:0:0:
329,192,42363,1,0,0:0:0:0:
182,192,42381,1,0,0:0:0:0:
402,192,42417,1,0,0:0:0:0:
36,192,42452,1,0,0:0:0:0:
256,192,42470,1,0,0:0:0:0:
109,192,42488,1,0,0:0:0:0:
329,192,42524,1,0,0:0:0:0:
402,192,42560,1,0,0:0:0:0:
182,192,42577,1,0,0:0:0:0:
475,192,42595,1,0,0:0:0:0:
256,192,42631,1,0,0:0:0:0:
329,192,42667,1,0,0:0:0:0:
109,192,42685,1,0,0:0:0:0:
402,192,42702,1,0,0:0:0:0:
182,192,42738,1,0,0:0:0:0:
256,192,42774,1,0,0:0:0:0:
36,192,42792,1,0,0:0:0:0:
329,192,42810,1,0,0:0:0:0:
109,192,42845,1,0,0:0:0:0:
402,192,42845,1,0,0:0:0:0:
475,192,42845,1,0,0:0:0:0:
182,192,42899,1,0,0:0:0:0:
256,192,42899,1,0,0:0:0:0:
329,192,42952,1,0,0:0:0:0:
402,192,42952,1,0,0:0:0:0:
475,192,42952,1,0,0:0:0:0:
256,192,43006,1,0,0:0:0:0:
182,192,43006,1,0,0:0:0:0:
402,192,43060,1,0,0:0:0:0:
329,192,43060,1,0,0:0:0:0:
475,192,43060,1,0,0:0:0:0:
182,192,43113,1,0,0:0:0:0:
109,192,43113,1,0,0:0:0:0:
402,192,43167,1,0,0:0:0:0:
475,192,43167,1,0,0:0:0:0:
329,192,43167,1,0,0:0:0:0:
109,192,43220,1,0,0:0:0:0:
182,192,43220,1,0,0:0:0:0:
475,192,43274,1,0,0:0:0:0:
402,192,43274,1,0,0:0:0:0:
329,192,43274,1,0,0:0:0:0:
329,192,43345,1,0,0:0:0:0:
256,192,43345,1,0,0:0:0:0:
402,192,43345,1,0,0:0:0:0:
329,192,43417,1,0,0:0:0:0:
256,192,43417,1,0,0:0:0:0:
182,192,43417,1,0,0:0:0:0:
256,192,43488,1,0,0:0:0:0:
182,192,43488,1,0,0:0:0:0:
109,192,43488,1,0,0:0:0:0:
329,192,43542,1,0,0:0:0:0:
402,192,43542,1,0,0:0:0:0:
256,192,43595,1,0,0:0:0:0:
182,192,43595,1,0,0:0:0:0:
109,192,43595,1,0,0:0:0:0:
329,192,43649,1,0,0:0:0:0:
402,192,43649,1,0,0:0:0:0:
182,192,43702,1,0,0:0:0:0:
109,192,43702,1,0,0:0:0:0:
36,192,43702,1,0,0:0:0:0:
182,192,43774,1,0,0:0:0:0:
256,192,43774,1,0,0:0:0:0:
329,192,43774,1,0,0:0:0:0:
329,192,43845,1,0,0:0:0:0:
402,192,43845,1,0,0:0:0:0:
475,192,43845,1,0,0:0:0:0:
475,192,43917,1,0,0:0:0:0:
256,192,43917,1,0,0:0:0:0:
182,192,43917,1,0,0:0:0:0:
109,192,43917,1,0,0:0:0:0:
36,192,43917,1,0,0:0:0:0:
36,192,44024,1,0,0:0:0:0:
329,192,44024,1,0,0:0:0:0:
256,192,44024,1,0,0:0:0:0:
402,192,44024,1,0,0:0:0:0:
475,192,44024,1,0,0:0:0:0:
329,192,44131,1,0,0:0:0:0:
402,192,44131,1,0,0:0:0:0:
182,192,44185,1,0,0:0:0:0:
109,192,44185,1,0,0:0:0:0:
329,192,44238,1,0,0:0:0:0:
402,192,44238,1,0,0:0:0:0:
182,192,44292,1,0,0:0:0:0:
109,192,44292,1,0,0:0:0:0:
329,192,44345,1,0,0:0:0:0:
402,192,44345,1,0,0:0:0:0:
475,192,44345,1,0,0:0:0:0:
109,192,44399,1,0,0:0:0:0:
182,192,44399,1,0,0:0:0:0:
36,192,44399,1,0,0:0:0:0:
329,192,44452,1,0,0:0:0:0:
402,192,44452,1,0,0:0:0:0:
475,192,44452,1,0,0:0:0:0:
182,192,44506,1,0,0:0:0:0:
109,192,44506,1,0,0:0:0:0:
36,192,44506,1,0,0:0:0:0:
329,192,44560,1,0,0:0:0:0:
402,192,44560,1,0,0:0:0:0:
475,192,44560,1,0,0:0:0:0:
256,192,44560,128,0,46274:0:0:0:0:
182,192,44988,128,0,46274:0:0:0:0:
329,192,44988,128,0,46274:0:0:0:0:
109,192,45417,128,0,46274:0:0:0:0:
402,192,45417,128,0,46274:0:0:0:0:
36,192,45845,128,0,46274:0:0:0:0:
475,192,45845,128,0,46274:0:0:0:0:
256,192,46917,128,0,46952:0:0:0:0:
36,192,47131,1,0,0:0:0:0:
402,192,47345,128,0,47381:0:0:0:0:
329,192,47560,128,0,47595:0:0:0:0:
256,192,47774,128,0,47810:0:0:0:0:
475,192,47988,1,0,0:0:0:0:
182,192,47988,128,0,48024:0:0:0:0:
109,192,48202,128,0,48238:0:0:0:0:
182,192,48417,128,0,48452:0:0:0:0:
256,192,48631,128,0,48667:0:0:0:0:
36,192,48845,1,0,0:0:0:0:
329,192,48845,128,0,48881:0:0:0:0:
402,192,49060,128,0,49095:0:0:0:0:
329,192,49274,128,0,49310:0:0:0:0:
256,192,49488,128,0,49524:0:0:0:0:
475,192,49702,1,0,0:0:0:0:
182,192,49702,128,0,49738:0:0:0:0:
109,192,49738,128,0,49774:0:0:0:0:
109,192,49917,128,0,49952:0:0:0:0:
182,192,50131,128,0,50167:0:0:0:0:
256,192,50345,128,0,50381:0:0:0:0:
36,192,50560,1,0,0:0:0:0:
329,192,50560,128,0,50595:0:0:0:0:
402,192,50774,128,0,50810:0:0:0:0:
329,192,50988,128,0,51024:0:0:0:0:
256,192,51202,128,0,51238:0:0:0:0:
475,192,51417,1,0,0:0:0:0:
182,192,51417,128,0,51452:0:0:0:0:
109,192,51631,128,0,51667:0:0:0:0:
182,192,51845,128,0,51881:0:0:0:0:
256,192,52060,128,0,52095:0:0:0:0:
36,192,52274,1,0,0:0:0:0:
329,192,52274,128,0,52310:0:0:0:0:
402,192,52488,128,0,52524:0:0:0:0:
329,192,52702,128,0,52738:0:0:0:0:
256,192,52917,128,0,52952:0:0:0:0:
182,192,52935,1,0,0:0:0:0:
109,192,52952,1,0,0:0:0:0:
36,192,52970,1,0,0:0:0:0:
402,192,52970,1,0,0:0:0:0:
329,192,52988,1,0,0:0:0:0:
256,192,53006,1,0,0:0:0:0:
182,192,53024,1,0,0:0:0:0:
109,192,53042,1,0,0:0:0:0:
475,192,53060,1,0,0:0:0:0:
402,192,53077,1,0,0:0:0:0:
329,192,53095,1,0,0:0:0:0:
256,192,53113,1,0,0:0:0:0:
475,192,53131,1,0,0:0:0:0:
182,192,53131,1,0,0:0:0:0:
256,192,53345,128,0,53381:0:0:0:0:
402,192,53452,1,0,0:0:0:0:
475,192,53506,1,0,0:0:0:0:
329,192,53560,1,0,0:0:0:0:
402,192,53595,1,0,0:0:0:0:
475,192,53631,1,0,0:0:0:0:
256,192,53640,1,0,0:0:0:0:
329,192,53667,1,0,0:0:0:0:
402,192,53694,1,0,0:0:0:0:
475,192,53720,1,0,0:0:0:0:
182,192,53747,1,0,0:0:0:0:
256,192,53774,1,0,0:0:0:0:
329,192,53792,1,0,0:0:0:0:
402,192,53810,1,0,0:0:0:0:
475,192,53827,1,0,0:0:0:0:
109,192,53845,1,0,0:0:0:0:
182,192,53863,1,0,0:0:0:0:
256,192,53881,1,0,0:0:0:0:
329,192,53899,1,0,0:0:0:0:
402,192,53917,1,0,0:0:0:0:
475,192,53935,1,0,0:0:0:0:
109,192,53948,1,0,0:0:0:0:
182,192,53961,1,0,0:0:0:0:
256,192,53975,1,0,0:0:0:0:
36,192,53988,1,0,0:0:0:0:
329,192,53988,1,0,0:0:0:0:
402,192,54002,1,0,0:0:0:0:
36,192,54122,1,0,0:0:0:0:
109,192,54136,1,0,0:0:0:0:
182,192,54149,1,0,0:0:0:0:
256,192,54162,1,0,0:0:0:0:
329,192,54176,1,0,0:0:0:0:
402,192,54202,128,0,54238:0:0:0:0:
109,192,54274,1,0,0:0:0:0:
182,192,54287,1,0,0:0:0:0:
256,192,54301,1,0,0:0:0:0:
329,192,54314,1,0,0:0:0:0:
402,192,54327,1,0,0:0:0:0:
182,192,54417,1,0,0:0:0:0:
109,192,54417,128,0,54452:0:0:0:0:
256,192,54430,1,0,0:0:0:0:
329,192,54444,1,0,0:0:0:0:
402,192,54457,1,0,0:0:0:0:
475,192,54470,1,0,0:0:0:0:
256,192,54564,1,0,0:0:0:0:
329,192,54577,1,0,0:0:0:0:
402,192,54591,1,0,0:0:0:0:
475,192,54604,1,0,0:0:0:0:
182,192,54631,128,0,54667:0:0:0:0:
329,192,54711,1,0,0:0:0:0:
402,192,54725,1,0,0:0:0:0:
475,192,54738,1,0,0:0:0:0:
475,192,54845,1,0,0:0:0:0:
182,192,54872,1,0,0:0:0:0:
402,192,54899,1,0,0:0:0:0:
109,192,54926,1,0,0:0:0:0:
329,192,54952,1,0,0:0:0:0:
36,192,54979,1,0,0:0:0:0:
256,192,55006,1,0,0:0:0:0:
109,192,55033,1,0,0:0:0:0:
402,192,55060,128,0,55095:0:0:0:0:
182,192,55086,1,0,0:0:0:0:
329,192,55113,1,0,0:0:0:0:
109,192,55140,1,0,0:0:0:0:
475,192,55167,1,0,0:0:0:0:
36,192,55167,1,0,0:0:0:0:
256,192,55167,1,0,0:0:0:0:
329,192,55274,1,0,0:0:0:0:
402,192,55274,128,0,55310:0:0:0:0:
256,192,55287,1,0,0:0:0:0:
182,192,55301,1,0,0:0:0:0:
109,192,55314,1,0,0:0:0:0:
36,192,55327,1,0,0:0:0:0:
256,192,55421,1,0,0:0:0:0:
182,192,55435,1,0,0:0:0:0:
109,192,55448,1,0,0:0:0:0:
36,192,55461,1,0,0:0:0:0:
329,192,55488,128,0,55524:0:0:0:0:
182,192,55569,1,0,0:0:0:0:
109,192,55582,1,0,0:0:0:0:
36,192,55595,1,0,0:0:0:0:
36,192,55702,1,0,0:0:0:0:
256,192,55702,128,0,55738:0:0:0:0:
329,192,55729,1,0,0:0:0:0:
109,192,55756,1,0,0:0:0:0:
402,192,55783,1,0,0:0:0:0:
182,192,55810,1,0,0:0:0:0:
475,192,55836,1,0,0:0:0:0:
256,192,55863,1,0,0:0:0:0:
402,192,55890,1,0,0:0:0:0:
109,192,55917,128,0,55952:0:0:0:0:
329,192,55944,1,0,0:0:0:0:
182,192,55970,1,0,0:0:0:0:
402,192,55997,1,0,0:0:0:0:
36,192,56024,1,0,0:0:0:0:
475,192,56024,1,0,0:0:0:0:
256,192,56024,1,0,0:0:0:0:
109,192,56131,1,0,0:0:0:0:
402,192,56131,1,0,0:0:0:0:
475,192,56131,1,0,0:0:0:0:
256,192,56158,1,0,0:0:0:0:
36,192,56158,1,0,0:0:0:0:
182,192,56185,1,0,0:0:0:0:
36,192,56211,128,0,56238:0:0:0:0:
329,192,56211,1,0,0:0:0:0:
109,192,56238,1,0,0:0:0:0:
475,192,56238,1,0,0:0:0:0:
256,192,56265,1,0,0:0:0:0:
182,192,56292,1,0,0:0:0:0:
402,192,56292,1,0,0:0:0:0:
109,192,56319,1,0,0:0:0:0:
329,192,56319,1,0,0:0:0:0:
36,192,56345,1,0,0:0:0:0:
475,192,56345,1,0,0:0:0:0:
256,192,56345,128,0,56381:0:0:0:0:
182,192,56399,1,0,0:0:0:0:
402,192,56399,1,0,0:0:0:0:
109,192,56452,1,0,0:0:0:0:
329,192,56452,1,0,0:0:0:0:
256,192,56506,1,0,0:0:0:0:
36,192,56506,1,0,0:0:0:0:
475,192,56560,1,0,0:0:0:0:
182,192,56560,1,0,0:0:0:0:
402,192,56560,1,0,0:0:0:0:
475,192,56774,128,0,56810:0:0:0:0:
329,192,56988,128,0,57095:0:0:0:0:
109,192,56988,128,0,57122:0:0:0:0:
475,192,56988,128,0,57015:0:0:0:0:
182,192,57024,128,0,57167:0:0:0:0:
256,192,57060,128,0,57238:0:0:0:0:
36,192,57095,128,0,57202:0:0:0:0:
402,192,57095,128,0,57202:0:0:0:0:
329,192,57131,128,0,57167:0:0:0:0:
109,192,57167,128,0,57202:0:0:0:0:
182,192,57202,128,0,57310:0:0:0:0:
475,192,57202,128,0,57310:0:0:0:0:
402,192,57238,128,0,57274:0:0:0:0:
36,192,57256,128,0,57283:0:0:0:0:
256,192,57274,128,0,57310:0:0:0:0:
329,192,57310,128,0,57417:0:0:0:0:
109,192,57310,128,0,57336:0:0:0:0:
475,192,57345,128,0,57381:0:0:0:0:
182,192,57363,128,0,57390:0:0:0:0:
402,192,57381,128,0,57417:0:0:0:0:
109,192,57417,128,0,57452:0:0:0:0:
36,192,57417,1,0,0:0:0:0:
256,192,57417,128,0,57444:0:0:0:0:
329,192,57452,1,0,0:0:0:0:
182,192,57488,1,0,0:0:0:0:
109,192,57524,1,0,0:0:0:0:
36,192,57560,1,0,0:0:0:0:
402,192,57560,1,0,0:0:0:0:
329,192,57595,1,0,0:0:0:0:
256,192,57631,1,0,0:0:0:0:
182,192,57631,1,0,0:0:0:0:
109,192,57667,1,0,0:0:0:0:
475,192,57667,1,0,0:0:0:0:
402,192,57702,1,0,0:0:0:0:
36,192,57702,1,0,0:0:0:0:
329,192,57738,1,0,0:0:0:0:
256,192,57738,1,0,0:0:0:0:
182,192,57774,1,0,0:0:0:0:
475,192,57810,1,0,0:0:0:0:
109,192,57810,1,0,0:0:0:0:
182,192,57845,128,0,57881:0:0:0:0:
329,192,57845,128,0,57881:0:0:0:0:
36,192,57845,1,0,0:0:0:0:
256,192,57881,1,0,0:0:0:0:
36,192,58060,128,0,58095:0:0:0:0:
109,192,58060,128,0,58095:0:0:0:0:
402,192,58060,128,0,58095:0:0:0:0:
475,192,58060,128,0,58095:0:0:0:0:
256,192,58060,128,0,58095:0:0:0:0:
329,192,58095,1,0,0:0:0:0:
182,192,58095,1,0,0:0:0:0:
109,192,58274,1,0,0:0:0:0:
402,192,58274,1,0,0:0:0:0:
475,192,58274,1,0,0:0:0:0:
36,192,58292,1,0,0:0:0:0:
329,192,58301,1,0,0:0:0:0:
256,192,58310,128,0,58363:0:0:0:0:
182,192,58327,128,0,58381:0:0:0:0:
109,192,58345,128,0,58399:0:0:0:0:
36,192,58363,1,0,0:0:0:0:
402,192,58381,1,0,0:0:0:0:
475,192,58399,1,0,0:0:0:0:
256,192,58417,128,0,58470:0:0:0:0:
329,192,58435,128,0,58488:0:0:0:0:
402,192,58452,128,0,58506:0:0:0:0:
475,192,58470,1,0,0:0:0:0:
36,192,58488,128,0,58631:0:0:0:0:
109,192,58506,128,0,58613:0:0:0:0:
182,192,58524,128,0,58595:0:0:0:0:
256,192,58542,128,0,58577:0:0:0:0:
475,192,58560,1,0,0:0:0:0:
402,192,58577,1,0,0:0:0:0:
329,192,58595,1,0,0:0:0:0:
256,192,58613,1,0,0:0:0:0:
182,192,58631,1,0,0:0:0:0:
109,192,58649,1,0,0:0:0:0:
36,192,58667,1,0,0:0:0:0:
256,192,58702,128,0,58738:0:0:0:0:
475,192,58702,128,0,58738:0:0:0:0:
182,192,58720,1,0,0:0:0:0:
402,192,58720,1,0,0:0:0:0:
109,192,58738,1,0,0:0:0:0:
329,192,58738,1,0,0:0:0:0:
256,192,58845,128,0,58881:0:0:0:0:
36,192,58845,128,0,58881:0:0:0:0:
109,192,58863,1,0,0:0:0:0:
329,192,58863,1,0,0:0:0:0:
402,192,58881,1,0,0:0:0:0:
182,192,58881,1,0,0:0:0:0:
256,192,58988,128,0,59024:0:0:0:0:
475,192,58988,128,0,59024:0:0:0:0:
182,192,59006,1,0,0:0:0:0:
402,192,59006,1,0,0:0:0:0:
329,192,59024,1,0,0:0:0:0:
109,192,59024,1,0,0:0:0:0:
36,192,59131,128,0,59167:0:0:0:0:
256,192,59131,128,0,59167:0:0:0:0:
109,192,59149,128,0,59185:0:0:0:0:
329,192,59149,128,0,59185:0:0:0:0:
182,192,59167,128,0,59202:0:0:0:0:
402,192,59167,128,0,59202:0:0:0:0:
475,192,59185,128,0,59220:0:0:0:0:
256,192,59238,128,0,59452:0:0:0:0:
256,192,59560,128,0,59595:0:0:0:0:
475,192,59560,128,0,59595:0:0:0:0:
402,192,59577,128,0,59613:0:0:0:0:
182,192,59577,128,0,59613:0:0:0:0:
109,192,59595,128,0,59631:0:0:0:0:
329,192,59595,128,0,59631:0:0:0:0:
36,192,59613,128,0,59649:0:0:0:0:
256,192,59667,128,0,59881:0:0:0:0:
256,192,59988,1,0,0:0:0:0:
36,192,59988,128,0,60417:0:0:0:0:
475,192,59988,128,0,60417:0:0:0:0:
402,192,59988,1,0,0:0:0:0:
109,192,59988,1,0,0:0:0:0:
182,192,60417,1,0,0:0:0:0:
329,192,60417,1,0,0:0:0:0:
36,192,60470,1,0,0:0:0:0:
475,192,60470,1,0,0:0:0:0:
256,192,60524,1,0,0:0:0:0:
109,192,60577,1,0,0:0:0:0:
402,192,60577,1,0,0:0:0:0:
329,192,60631,1,0,0:0:0:0:
182,192,60631,1,0,0:0:0:0:
36,192,60631,1,0,0:0:0:0:
475,192,60631,1,0,0:0:0:0:
256,192,60685,1,0,0:0:0:0:
36,192,60738,1,0,0:0:0:0:
475,192,60738,1,0,0:0:0:0:
109,192,60792,1,0,0:0:0:0:
402,192,60792,1,0,0:0:0:0:
36,192,60845,1,0,0:0:0:0:
329,192,60845,1,0,0:0:0:0:
182,192,60845,1,0,0:0:0:0:
475,192,60845,1,0,0:0:0:0:
256,192,60845,1,0,0:0:0:0:
109,192,60979,1,0,0:0:0:0:
402,192,60979,1,0,0:0:0:0:
256,192,60979,1,0,0:0:0:0:
36,192,60988,128,0,61060:0:0:0:0:
182,192,60988,128,0,61060:0:0:0:0:
329,192,60988,128,0,61060:0:0:0:0:
475,192,60988,128,0,61060:0:0:0:0:
182,192,61113,1,0,0:0:0:0:
329,192,61113,1,0,0:0:0:0:
109,192,61131,128,0,61202:0:0:0:0:
256,192,61131,128,0,61202:0:0:0:0:
402,192,61131,128,0,61202:0:0:0:0:
256,192,61247,1,0,0:0:0:0:
329,192,61274,128,0,61345:0:0:0:0:
182,192,61274,128,0,61345:0:0:0:0:
256,192,61417,128,0,61488:0:0:0:0:
256,192,61560,128,0,61631:0:0:0:0:
475,192,61702,128,0,61738:0:0:0:0:
402,192,61720,1,0,0:0:0:0:
329,192,61738,1,0,0:0:0:0:
256,192,61756,1,0,0:0:0:0:
182,192,61774,1,0,0:0:0:0:
109,192,61792,1,0,0:0:0:0:
36,192,61810,1,0,0:0:0:0:
109,192,61845,1,0,0:0:0:0:
182,192,61881,1,0,0:0:0:0:
256,192,61917,1,0,0:0:0:0:
402,192,61917,128,0,61952:0:0:0:0:
182,192,62104,1,0,0:0:0:0:
109,192,62104,1,0,0:0:0:0:
329,192,62131,128,0,62167:0:0:0:0:
36,192,62131,128,0,62202:0:0:0:0:
256,192,62131,128,0,62202:0:0:0:0:
36,192,62265,1,0,0:0:0:0:
256,192,62265,1,0,0:0:0:0:
109,192,62274,128,0,62345:0:0:0:0:
182,192,62274,128,0,62345:0:0:0:0:
256,192,62345,128,0,62381:0:0:0:0:
475,192,62372,1,0,0:0:0:0:
329,192,62417,128,0,62488:0:0:0:0:
402,192,62417,128,0,62488:0:0:0:0:
329,192,62533,1,0,0:0:0:0:
402,192,62533,1,0,0:0:0:0:
36,192,62560,128,0,62595:0:0:0:0:
256,192,62560,128,0,62631:0:0:0:0:
475,192,62560,128,0,62631:0:0:0:0:
109,192,62577,1,0,0:0:0:0:
182,192,62595,1,0,0:0:0:0:
329,192,62631,1,0,0:0:0:0:
402,192,62649,1,0,0:0:0:0:
36,192,62667,1,0,0:0:0:0:
182,192,62685,1,0,0:0:0:0:
256,192,62702,1,0,0:0:0:0:
329,192,62720,1,0,0:0:0:0:
402,192,62738,1,0,0:0:0:0:
475,192,62756,1,0,0:0:0:0:
109,192,62774,128,0,62810:0:0:0:0:
182,192,62988,128,0,63024:0:0:0:0:
109,192,63006,1,0,0:0:0:0:
36,192,63024,1,0,0:0:0:0:
402,192,63042,1,0,0:0:0:0:
329,192,63060,1,0,0:0:0:0:
256,192,63077,1,0,0:0:0:0:
182,192,63095,1,0,0:0:0:0:
109,192,63113,1,0,0:0:0:0:
475,192,63131,1,0,0:0:0:0:
402,192,63149,1,0,0:0:0:0:
329,192,63167,1,0,0:0:0:0:
182,192,63185,1,0,0:0:0:0:
256,192,63202,128,0,63238:0:0:0:0:
36,192,63220,1,0,0:0:0:0:
109,192,63238,1,0,0:0:0:0:
182,192,63256,1,0,0:0:0:0:
256,192,63274,1,0,0:0:0:0:
329,192,63292,1,0,0:0:0:0:
402,192,63310,1,0,0:0:0:0:
475,192,63327,1,0,0:0:0:0:
475,192,63417,1,0,0:0:0:0:
36,192,64274,1,0,0:0:0:0:
475,192,64274,128,0,64488:0:0:0:0:
329,192,64488,128,0,64702:0:0:0:0:
182,192,64702,128,0,64917:0:0:0:0:
256,192,64917,128,0,65131:0:0:0:0:
475,192,65131,1,0,0:0:0:0:
36,192,65131,128,0,65345:0:0:0:0:
329,192,65131,1,0,0:0:0:0:
402,192,65185,1,0,0:0:0:0:
329,192,65238,1,0,0:0:0:0:
182,192,65292,1,0,0:0:0:0:
256,192,65345,1,0,0:0:0:0:
109,192,65399,1,0,0:0:0:0:
36,192,65452,1,0,0:0:0:0:
182,192,65560,128,0,65774:0:0:0:0:
109,192,65613,1,0,0:0:0:0:
36,192,65667,1,0,0:0:0:0:
256,192,65720,1,0,0:0:0:0:
109,192,65774,1,0,0:0:0:0:
329,192,65827,1,0,0:0:0:0:
182,192,65881,1,0,0:0:0:0:
256,192,65935,1,0,0:0:0:0:
36,192,65988,1,0,0:0:0:0:
329,192,65988,128,0,66202:0:0:0:0:
475,192,65988,1,0,0:0:0:0:
182,192,66042,1,0,0:0:0:0:
402,192,66095,1,0,0:0:0:0:
109,192,66149,1,0,0:0:0:0:
256,192,66202,1,0,0:0:0:0:
475,192,66256,1,0,0:0:0:0:
329,192,66310,1,0,0:0:0:0:
402,192,66363,1,0,0:0:0:0:
475,192,66417,128,0,66631:0:0:0:0:
256,192,66470,1,0,0:0:0:0:
329,192,66524,1,0,0:0:0:0:
402,192,66577,1,0,0:0:0:0:
475,192,66845,128,0,66859:0:0:0:0:
402,192,66899,128,0,66917:0:0:0:0:
329,192,66952,128,0,66979:0:0:0:0:
256,192,67006,128,0,67042:0:0:0:0:
182,192,67060,128,0,67100:0:0:0:0:
36,192,67113,128,0,67167:0:0:0:0:
109,192,67167,128,0,67234:0:0:0:0:
182,192,67220,128,0,67292:0:0:0:0:
256,192,67274,128,0,67354:0:0:0:0:
329,192,67327,128,0,67417:0:0:0:0:
402,192,67381,128,0,67475:0:0:0:0:
109,192,67435,128,0,67542:0:0:0:0:
182,192,67488,128,0,67609:0:0:0:0:
256,192,67542,128,0,67667:0:0:0:0:
329,192,67595,128,0,67729:0:0:0:0:
402,192,67649,128,0,67792:0:0:0:0:
475,192,67702,1,0,0:0:0:0:
36,192,67702,1,0,0:0:0:0:
182,192,67702,1,0,0:0:0:0:
109,192,67702,1,0,0:0:0:0:
329,192,67756,1,0,0:0:0:0:
182,192,67810,1,0,0:0:0:0:
109,192,67810,1,0,0:0:0:0:
329,192,67836,1,0,0:0:0:0:
402,192,67863,1,0,0:0:0:0:
256,192,67863,1,0,0:0:0:0:
182,192,67890,1,0,0:0:0:0:
475,192,67890,1,0,0:0:0:0:
109,192,67917,1,0,0:0:0:0:
329,192,67917,1,0,0:0:0:0:
402,192,67944,1,0,0:0:0:0:
36,192,67944,1,0,0:0:0:0:
475,192,67970,1,0,0:0:0:0:
256,192,67970,1,0,0:0:0:0:
109,192,67997,1,0,0:0:0:0:
182,192,68024,1,0,0:0:0:0:
402,192,68024,1,0,0:0:0:0:
256,192,68051,1,0,0:0:0:0:
329,192,68051,1,0,0:0:0:0:
475,192,68077,1,0,0:0:0:0:
36,192,68077,1,0,0:0:0:0:
402,192,68104,1,0,0:0:0:0:
109,192,68104,1,0,0:0:0:0:
182,192,68131,1,0,0:0:0:0:
329,192,68131,1,0,0:0:0:0:
256,192,68158,1,0,0:0:0:0:
109,192,68185,1,0,0:0:0:0:
402,192,68185,1,0,0:0:0:0:
182,192,68211,1,0,0:0:0:0:
329,192,68211,1,0,0:0:0:0:
256,192,68238,1,0,0:0:0:0:
36,192,68238,1,0,0:0:0:0:
475,192,68238,1,0,0:0:0:0:
109,192,68265,1,0,0:0:0:0:
402,192,68265,1,0,0:0:0:0:
182,192,68292,1,0,0:0:0:0:
329,192,68292,1,0,0:0:0:0:
256,192,68319,1,0,0:0:0:0:
182,192,68345,1,0,0:0:0:0:
329,192,68345,1,0,0:0:0:0:
109,192,68372,1,0,0:0:0:0:
402,192,68372,1,0,0:0:0:0:
36,192,68399,1,0,0:0:0:0:
475,192,68399,1,0,0:0:0:0:
109,192,68426,1,0,0:0:0:0:
402,192,68426,1,0,0:0:0:0:
182,192,68452,1,0,0:0:0:0:
329,192,68452,1,0,0:0:0:0:
256,192,68479,1,0,0:0:0:0:
182,192,68506,1,0,0:0:0:0:
329,192,68506,1,0,0:0:0:0:
109,192,68533,1,0,0:0:0:0:
402,192,68533,1,0,0:0:0:0:
36,192,68560,1,0,0:0:0:0:
475,192,68560,1,0,0:0:0:0:
256,192,68613,1,0,0:0:0:0:
182,192,68667,1,0,0:0:0:0:
109,192,68720,1,0,0:0:0:0:
256,192,68774,1,0,0:0:0:0:
329,192,68827,1,0,0:0:0:0:
402,192,68881,1,0,0:0:0:0:
109,192,68935,1,0,0:0:0:0:
182,192,68988,1,0,0:0:0:0:
256,192,69042,1,0,0:0:0:0:
402,192,69095,1,0,0:0:0:0:
329,192,69149,1,0,0:0:0:0:
256,192,69202,1,0,0:0:0:0:
109,192,69256,1,0,0:0:0:0:
182,192,69310,1,0,0:0:0:0:
256,192,69363,1,0,0:0:0:0:
36,192,69417,128,0,69452:0:0:0:0:
475,192,69417,128,0,69452:0:0:0:0:
402,192,69417,128,0,69452:0:0:0:0:
109,192,69417,128,0,69452:0:0:0:0:
182,192,69452,128,0,69488:0:0:0:0:
329,192,69488,128,0,69524:0:0:0:0:
182,192,69524,128,0,69560:0:0:0:0:
329,192,69560,128,0,69595:0:0:0:0:
182,192,69595,128,0,69631:0:0:0:0:
329,192,69631,128,0,69667:0:0:0:0:
182,192,69667,128,0,69702:0:0:0:0:
329,192,69702,128,0,69774:0:0:0:0:
182,192,69738,128,0,69832:0:0:0:0:
402,192,69765,128,0,69886:0:0:0:0:
109,192,69792,128,0,69886:0:0:0:0:
329,192,69819,128,0,69952:0:0:0:0:
36,192,69845,128,0,69926:0:0:0:0:
256,192,69872,128,0,69993:0:0:0:0:
475,192,69899,128,0,70033:0:0:0:0:
182,192,69926,128,0,70033:0:0:0:0:
402,192,69952,128,0,70086:0:0:0:0:
109,192,69979,128,0,70073:0:0:0:0:
329,192,70006,128,0,70127:0:0:0:0:
36,192,70033,128,0,70113:0:0:0:0:
256,192,70060,128,0,70167:0:0:0:0:
475,192,70086,128,0,70207:0:0:0:0:
182,192,70113,128,0,70220:0:0:0:0:
402,192,70140,128,0,70234:0:0:0:0:
109,192,70167,128,0,70234:0:0:0:0:
329,192,70194,128,0,70247:0:0:0:0:
36,192,70220,128,0,70247:0:0:0:0:
256,192,70247,128,0,70274:0:0:0:0:
182,192,70274,1,0,0:0:0:0:
109,192,70274,1,0,0:0:0:0:
475,192,70274,1,0,0:0:0:0:
402,192,70274,1,0,0:0:0:0:
329,192,70274,1,0,0:0:0:0:
36,192,70274,1,0,0:0:0:0:
36,192,70542,128,0,70555:0:0:0:0:
109,192,70542,1,0,0:0:0:0:
256,192,70542,1,0,0:0:0:0:
402,192,70542,1,0,0:0:0:0:
475,192,70542,128,0,70555:0:0:0:0:
182,192,70555,128,0,70569:0:0:0:0:
329,192,70555,128,0,70569:0:0:0:0:
109,192,70582,1,0,0:0:0:0:
256,192,70582,128,0,70595:0:0:0:0:
402,192,70582,1,0,0:0:0:0:
36,192,70595,128,0,70609:0:0:0:0:
182,192,70595,1,0,0:0:0:0:
329,192,70595,1,0,0:0:0:0:
475,192,70595,128,0,70609:0:0:0:0:
402,192,70810,1,0,0:0:0:0:
36,192,70810,128,0,70823:0:0:0:0:
109,192,70810,1,0,0:0:0:0:
475,192,70810,128,0,70823:0:0:0:0:
256,192,70810,128,0,70827:0:0:0:0:
182,192,70823,128,0,70836:0:0:0:0:
329,192,70823,128,0,70836:0:0:0:0:
256,192,70845,128,0,70881:0:0:0:0:
402,192,70850,1,0,0:0:0:0:
109,192,70850,1,0,0:0:0:0:
475,192,70863,128,0,70877:0:0:0:0:
182,192,70863,1,0,0:0:0:0:
329,192,70863,1,0,0:0:0:0:
36,192,70863,128,0,70877:0:0:0:0:
182,192,71131,128,0,71158:0:0:0:0:
475,192,71131,1,0,0:0:0:0:
402,192,71131,1,0,0:0:0:0:
329,192,71131,1,0,0:0:0:0:
256,192,71131,1,0,0:0:0:0:
109,192,71158,128,0,71185:0:0:0:0:
36,192,71185,128,0,71211:0:0:0:0:
256,192,71211,128,0,71238:0:0:0:0:
182,192,71238,128,0,71265:0:0:0:0:
109,192,71265,128,0,71292:0:0:0:0:
36,192,71292,128,0,71319:0:0:0:0:
182,192,71319,128,0,71345:0:0:0:0:
256,192,71345,128,0,71372:0:0:0:0:
329,192,71372,128,0,71399:0:0:0:0:
109,192,71399,128,0,71426:0:0:0:0:
182,192,71426,128,0,71452:0:0:0:0:
256,192,71452,128,0,71479:0:0:0:0:
329,192,71479,128,0,71506:0:0:0:0:
402,192,71506,128,0,71533:0:0:0:0:
36,192,71506,128,0,71533:0:0:0:0:
182,192,71533,128,0,71560:0:0:0:0:
256,192,71560,128,0,71586:0:0:0:0:
329,192,71586,128,0,71613:0:0:0:0:
109,192,71613,128,0,71640:0:0:0:0:
475,192,71613,128,0,71640:0:0:0:0:
182,192,71640,128,0,71667:0:0:0:0:
329,192,71667,128,0,71694:0:0:0:0:
36,192,71694,128,0,71720:0:0:0:0:
402,192,71694,128,0,71720:0:0:0:0:
109,192,71720,128,0,71747:0:0:0:0:
256,192,71747,128,0,71774:0:0:0:0:
475,192,71774,128,0,71801:0:0:0:0:
402,192,71801,128,0,71827:0:0:0:0:
329,192,71827,128,0,71854:0:0:0:0:
182,192,71827,128,0,71854:0:0:0:0:
109,192,71854,128,0,71881:0:0:0:0:
36,192,71881,128,0,71908:0:0:0:0:
475,192,71881,128,0,71908:0:0:0:0:
402,192,71908,128,0,71935:0:0:0:0:
329,192,71935,128,0,71961:0:0:0:0:
256,192,71961,128,0,71988:0:0:0:0:
182,192,71988,1,0,0:0:0:0:
109,192,71988,1,0,0:0:0:0:
36,192,71988,1,0,0:0:0:0:
329,192,71988,1,0,0:0:0:0:
402,192,71988,1,0,0:0:0:0:
475,192,71988,1,0,0:0:0:0:
182,192,72256,128,0,72269:0:0:0:0:
109,192,72256,128,0,72269:0:0:0:0:
36,192,72256,128,0,72269:0:0:0:0:
329,192,72256,128,0,72269:0:0:0:0:
475,192,72256,128,0,72269:0:0:0:0:
402,192,72256,128,0,72269:0:0:0:0:
182,192,72551,128,0,72564:0:0:0:0:
109,192,72551,128,0,72564:0:0:0:0:
36,192,72551,128,0,72564:0:0:0:0:
329,192,72551,128,0,72564:0:0:0:0:
402,192,72551,128,0,72564:0:0:0:0:
475,192,72551,128,0,72564:0:0:0:0:
256,192,72845,128,0,72899:0:0:0:0:
402,192,72872,1,0,0:0:0:0:
182,192,72899,128,0,72952:0:0:0:0:
329,192,72926,128,0,72952:0:0:0:0:
109,192,72952,128,0,73006:0:0:0:0:
475,192,72952,128,0,73006:0:0:0:0:
256,192,72979,1,0,0:0:0:0:
36,192,73006,128,0,73060:0:0:0:0:
402,192,73006,128,0,73060:0:0:0:0:
182,192,73033,128,0,73060:0:0:0:0:
475,192,73060,1,0,0:0:0:0:
329,192,73060,128,0,73113:0:0:0:0:
109,192,73086,1,0,0:0:0:0:
256,192,73113,128,0,73167:0:0:0:0:
402,192,73113,128,0,73140:0:0:0:0:
36,192,73140,128,0,73167:0:0:0:0:
329,192,73167,1,0,0:0:0:0:
182,192,73167,128,0,73220:0:0:0:0:
475,192,73194,1,0,0:0:0:0:
109,192,73220,128,0,73274:0:0:0:0:
256,192,73220,128,0,73247:0:0:0:0:
402,192,73247,128,0,73274:0:0:0:0:
182,192,73274,1,0,0:0:0:0:
36,192,73274,128,0,73327:0:0:0:0:
329,192,73301,1,0,0:0:0:0:
109,192,73327,128,0,73381:0:0:0:0:
475,192,73327,128,0,73381:0:0:0:0:
256,192,73354,128,0,73381:0:0:0:0:
402,192,73381,128,0,73435:0:0:0:0:
36,192,73408,128,0,73435:0:0:0:0:
182,192,73435,128,0,73488:0:0:0:0:
329,192,73461,128,0,73488:0:0:0:0:
475,192,73488,128,0,73542:0:0:0:0:
109,192,73488,128,0,73542:0:0:0:0:
256,192,73515,128,0,73542:0:0:0:0:
36,192,73542,128,0,73595:0:0:0:0:
402,192,73542,128,0,73595:0:0:0:0:
182,192,73569,128,0,73595:0:0:0:0:
329,192,73595,128,0,73649:0:0:0:0:
475,192,73622,1,0,0:0:0:0:
109,192,73622,128,0,73649:0:0:0:0:
256,192,73649,128,0,73702:0:0:0:0:
402,192,73676,1,0,0:0:0:0:
182,192,73702,1,0,0:0:0:0:
36,192,73702,1,0,0:0:0:0:
329,192,73702,1,0,0:0:0:0:
475,192,73702,1,0,0:0:0:0:
109,192,73702,128,0,74131:0:0:0:0:
402,192,74131,128,0,74345:0:0:0:0:
109,192,74345,128,0,74399:0:0:0:0:
402,192,74452,128,0,74506:0:0:0:0:
256,192,74560,128,0,75363:0:0:0:0:
109,192,74774,128,0,75363:0:0:0:0:
402,192,74774,128,0,75363:0:0:0:0:
182,192,74988,128,0,75363:0:0:0:0:
329,192,74988,128,0,75363:0:0:0:0:
109,192,75417,128,0,75792:0:0:0:0:
182,192,75417,128,0,75819:0:0:0:0:
256,192,75417,128,0,75845:0:0:0:0:
329,192,75417,128,0,75819:0:0:0:0:
402,192,75417,128,0,75792:0:0:0:0:
402,192,75845,128,0,75872:0:0:0:0:
109,192,75845,128,0,75872:0:0:0:0:
182,192,75859,128,0,75886:0:0:0:0:
329,192,75859,128,0,75886:0:0:0:0:
256,192,75872,128,0,75899:0:0:0:0:
402,192,75988,128,0,76015:0:0:0:0:
109,192,75988,128,0,76015:0:0:0:0:
329,192,76002,128,0,76029:0:0:0:0:
182,192,76002,128,0,76029:0:0:0:0:
256,192,76015,128,0,76042:0:0:0:0:
109,192,76131,128,0,76158:0:0:0:0:
402,192,76131,128,0,76158:0:0:0:0:
182,192,76145,128,0,76172:0:0:0:0:
329,192,76145,128,0,76172:0:0:0:0:
256,192,76158,128,0,76185:0:0:0:0:
36,192,76274,128,0,76287:0:0:0:0:
109,192,76287,128,0,76301:0:0:0:0:
182,192,76301,1,0,0:0:0:0:
329,192,76301,128,0,76314:0:0:0:0:
402,192,76314,128,0,76327:0:0:0:0:
475,192,76327,1,0,0:0:0:0:
182,192,76345,1,0,0:0:0:0:
109,192,76345,1,0,0:0:0:0:
36,192,76345,1,0,0:0:0:0:
402,192,76381,1,0,0:0:0:0:
475,192,76381,1,0,0:0:0:0:
329,192,76381,1,0,0:0:0:0:
256,192,76417,128,0,76435:0:0:0:0:
182,192,76452,128,0,76488:0:0:0:0:
109,192,76488,128,0,76542:0:0:0:0:
182,192,76524,128,0,76595:0:0:0:0:
256,192,76560,128,0,76631:0:0:0:0:
329,192,76595,128,0,76613:0:0:0:0:
402,192,76631,128,0,76667:0:0:0:0:
329,192,76667,128,0,76702:0:0:0:0:
256,192,76702,1,0,0:0:0:0:
182,192,76702,1,0,0:0:0:0:
109,192,76702,128,0,76756:0:0:0:0:
36,192,76702,128,0,76756:0:0:0:0:
329,192,76738,1,0,0:0:0:0:
402,192,76738,1,0,0:0:0:0:
475,192,76738,128,0,76792:0:0:0:0:
109,192,76774,1,0,0:0:0:0:
36,192,76774,1,0,0:0:0:0:
182,192,76774,128,0,76827:0:0:0:0:
256,192,76774,128,0,76827:0:0:0:0:
475,192,76810,1,0,0:0:0:0:
329,192,76810,1,0,0:0:0:0:
402,192,76810,128,0,76863:0:0:0:0:
256,192,76845,1,0,0:0:0:0:
182,192,76845,1,0,0:0:0:0:
109,192,76845,128,0,76899:0:0:0:0:
36,192,76845,128,0,76899:0:0:0:0:
402,192,76881,1,0,0:0:0:0:
475,192,76881,1,0,0:0:0:0:
329,192,76881,128,0,76935:0:0:0:0:
109,192,76917,1,0,0:0:0:0:
36,192,76917,1,0,0:0:0:0:
256,192,76917,128,0,76970:0:0:0:0:
182,192,76917,128,0,76970:0:0:0:0:
329,192,76952,1,0,0:0:0:0:
475,192,76952,1,0,0:0:0:0:
402,192,76952,128,0,77006:0:0:0:0:
256,192,76988,1,0,0:0:0:0:
182,192,76988,1,0,0:0:0:0:
109,192,76988,128,0,77042:0:0:0:0:
329,192,77024,1,0,0:0:0:0:
402,192,77024,1,0,0:0:0:0:
475,192,77024,128,0,77077:0:0:0:0:
256,192,77060,1,0,0:0:0:0:
182,192,77060,128,0,77113:0:0:0:0:
329,192,77095,1,0,0:0:0:0:
402,192,77095,128,0,77131:0:0:0:0:
256,192,77131,1,0,0:0:0:0:
36,192,77131,128,0,77560:0:0:0:0:
329,192,77560,128,0,77613:0:0:0:0:
402,192,77560,128,0,77613:0:0:0:0:
475,192,77560,128,0,77613:0:0:0:0:
36,192,77613,1,0,0:0:0:0:
182,192,77613,128,0,77667:0:0:0:0:
109,192,77613,128,0,77667:0:0:0:0:
475,192,77667,1,0,0:0:0:0:
329,192,77667,128,0,77720:0:0:0:0:
402,192,77667,128,0,77720:0:0:0:0:
109,192,77720,1,0,0:0:0:0:
256,192,77720,128,0,77774:0:0:0:0:
182,192,77720,128,0,77774:0:0:0:0:
402,192,77774,1,0,0:0:0:0:
475,192,77774,1,0,0:0:0:0:
329,192,77774,128,0,77827:0:0:0:0:
329,192,77881,1,0,0:0:0:0:
182,192,77881,1,0,0:0:0:0:
256,192,77881,128,0,77935:0:0:0:0:
109,192,77881,128,0,77935:0:0:0:0:
402,192,77881,128,0,77935:0:0:0:0:
402,192,77988,1,0,0:0:0:0:
109,192,77988,1,0,0:0:0:0:
36,192,77988,128,0,78069:0:0:0:0:
475,192,77988,128,0,78069:0:0:0:0:
329,192,78015,1,0,0:0:0:0:
182,192,78015,1,0,0:0:0:0:
256,192,78042,1,0,0:0:0:0:
109,192,78069,128,0,78149:0:0:0:0:
402,192,78095,128,0,78176:0:0:0:0:
182,192,78122,128,0,78202:0:0:0:0:
329,192,78149,128,0,78229:0:0:0:0:
36,192,78176,128,0,78202:0:0:0:0:
256,192,78202,128,0,78256:0:0:0:0:
475,192,78202,128,0,78229:0:0:0:0:
109,192,78229,128,0,78256:0:0:0:0:
402,192,78256,128,0,78283:0:0:0:0:
182,192,78283,128,0,78310:0:0:0:0:
329,192,78310,128,0,78444:0:0:0:0:
256,192,78336,128,0,78470:0:0:0:0:
182,192,78363,128,0,78497:0:0:0:0:
402,192,78390,128,0,78444:0:0:0:0:
109,192,78417,128,0,78470:0:0:0:0:
475,192,78444,128,0,78497:0:0:0:0:
36,192,78470,128,0,78524:0:0:0:0:
402,192,78497,128,0,78551:0:0:0:0:
109,192,78524,128,0,78577:0:0:0:0:
329,192,78551,128,0,78577:0:0:0:0:
182,192,78577,128,0,78604:0:0:0:0:
256,192,78604,128,0,78685:0:0:0:0:
329,192,78631,128,0,78658:0:0:0:0:
109,192,78658,128,0,78685:0:0:0:0:
182,192,78685,128,0,78711:0:0:0:0:
329,192,78711,128,0,78738:0:0:0:0:
402,192,78738,128,0,78765:0:0:0:0:
36,192,78738,128,0,78765:0:0:0:0:
109,192,78765,128,0,78792:0:0:0:0:
256,192,78792,128,0,78819:0:0:0:0:
402,192,78819,128,0,78845:0:0:0:0:
109,192,78845,1,0,0:0:0:0:
36,192,78845,1,0,0:0:0:0:
182,192,78845,1,0,0:0:0:0:
329,192,78845,1,0,0:0:0:0:
475,192,78845,128,0,78872:0:0:0:0:
182,192,79131,1,0,0:0:0:0:
402,192,79131,1,0,0:0:0:0:
329,192,79131,128,0,79274:0:0:0:0:
475,192,79131,128,0,79274:0:0:0:0:
182,192,79274,1,0,0:0:0:0:
109,192,79274,1,0,0:0:0:0:
402,192,79274,128,0,79417:0:0:0:0:
256,192,79274,128,0,79417:0:0:0:0:
109,192,79417,1,0,0:0:0:0:
329,192,79417,1,0,0:0:0:0:
182,192,79417,128,0,79560:0:0:0:0:
36,192,79417,128,0,79560:0:0:0:0:
329,192,79560,1,0,0:0:0:0:
402,192,79560,1,0,0:0:0:0:
109,192,79560,128,0,79702:0:0:0:0:
256,192,79560,128,0,79702:0:0:0:0:
329,192,79702,1,0,0:0:0:0:
475,192,79702,1,0,0:0:0:0:
402,192,79702,1,0,0:0:0:0:
182,192,79702,128,0,79738:0:0:0:0:
109,192,79738,128,0,79810:0:0:0:0:
36,192,79756,128,0,79792:0:0:0:0:
182,192,79774,128,0,79827:0:0:0:0:
329,192,79792,128,0,79863:0:0:0:0:
256,192,79810,128,0,79845:0:0:0:0:
36,192,79827,1,0,0:0:0:0:
402,192,79845,128,0,79881:0:0:0:0:
109,192,79863,128,0,79899:0:0:0:0:
256,192,79881,1,0,0:0:0:0:
36,192,79899,1,0,0:0:0:0:
329,192,79917,128,0,79952:0:0:0:0:
475,192,79935,1,0,0:0:0:0:
109,192,79952,128,0,80024:0:0:0:0:
182,192,79970,128,0,80006:0:0:0:0:
256,192,79988,1,0,0:0:0:0:
36,192,80006,1,0,0:0:0:0:
402,192,80024,128,0,80060:0:0:0:0:
475,192,80042,1,0,0:0:0:0:
182,192,80060,1,0,0:0:0:0:
256,192,80077,128,0,80113:0:0:0:0:
36,192,80095,128,0,80292:0:0:0:0:
402,192,80113,128,0,80185:0:0:0:0:
329,192,80131,128,0,80167:0:0:0:0:
109,192,80149,128,0,80220:0:0:0:0:
256,192,80167,1,0,0:0:0:0:
475,192,80185,128,0,80256:0:0:0:0:
182,192,80202,128,0,80274:0:0:0:0:
329,192,80220,1,0,0:0:0:0:
256,192,80238,128,0,80274:0:0:0:0:
109,192,80274,128,0,80381:0:0:0:0:
402,192,80292,128,0,80345:0:0:0:0:
475,192,80310,1,0,0:0:0:0:
256,192,80327,1,0,0:0:0:0:
182,192,80345,128,0,80381:0:0:0:0:
36,192,80363,128,0,80488:0:0:0:0:
402,192,80381,1,0,0:0:0:0:
329,192,80399,128,0,80470:0:0:0:0:
256,192,80417,1,0,0:0:0:0:
475,192,80435,128,0,80560:0:0:0:0:
109,192,80452,128,0,80488:0:0:0:0:
182,192,80470,1,0,0:0:0:0:
402,192,80488,128,0,80560:0:0:0:0:
256,192,80506,128,0,80560:0:0:0:0:
109,192,80524,1,0,0:0:0:0:
329,192,80542,128,0,80560:0:0:0:0:
36,192,80560,128,0,80988:0:0:0:0:
182,192,80988,1,0,0:0:0:0:
329,192,80988,1,0,0:0:0:0:
402,192,80988,1,0,0:0:0:0:
109,192,80988,1,0,0:0:0:0:
475,192,80988,1,0,0:0:0:0:
256,192,81006,1,0,0:0:0:0:
256,192,81077,1,0,0:0:0:0:
36,192,81095,1,0,0:0:0:0:
109,192,81095,1,0,0:0:0:0:
182,192,81095,1,0,0:0:0:0:
329,192,81095,1,0,0:0:0:0:
402,192,81095,1,0,0:0:0:0:
475,192,81095,1,0,0:0:0:0:
402,192,81202,1,0,0:0:0:0:
256,192,81202,1,0,0:0:0:0:
109,192,81202,1,0,0:0:0:0:
36,192,81202,1,0,0:0:0:0:
475,192,81202,1,0,0:0:0:0:
402,192,81274,1,0,0:0:0:0:
182,192,81274,1,0,0:0:0:0:
109,192,81274,1,0,0:0:0:0:
329,192,81274,1,0,0:0:0:0:
402,192,81345,1,0,0:0:0:0:
256,192,81345,1,0,0:0:0:0:
36,192,81345,1,0,0:0:0:0:
109,192,81345,1,0,0:0:0:0:
475,192,81345,1,0,0:0:0:0:
36,192,81417,1,0,0:0:0:0:
256,192,81417,1,0,0:0:0:0:
329,192,81417,1,0,0:0:0:0:
182,192,81417,1,0,0:0:0:0:
475,192,81417,1,0,0:0:0:0:
109,192,81470,1,0,0:0:0:0:
402,192,81470,1,0,0:0:0:0:
109,192,81524,1,0,0:0:0:0:
402,192,81524,1,0,0:0:0:0:
329,192,81577,1,0,0:0:0:0:
182,192,81577,1,0,0:0:0:0:
256,192,81631,1,0,0:0:0:0:
182,192,81685,1,0,0:0:0:0:
329,192,81685,1,0,0:0:0:0:
109,192,81738,1,0,0:0:0:0:
402,192,81738,1,0,0:0:0:0:
36,192,81792,1,0,0:0:0:0:
475,192,81792,1,0,0:0:0:0:
109,192,81845,128,0,81970:0:0:0:0:
182,192,81845,128,0,81952:0:0:0:0:
256,192,81845,128,0,81935:0:0:0:0:
329,192,81845,128,0,81917:0:0:0:0:
402,192,81845,128,0,81899:0:0:0:0:
36,192,81845,128,0,82220:0:0:0:0:
182,192,81988,128,0,82095:0:0:0:0:
256,192,81988,128,0,82077:0:0:0:0:
329,192,81988,128,0,82060:0:0:0:0:
402,192,81988,128,0,82042:0:0:0:0:
475,192,81988,128,0,82024:0:0:0:0:
402,192,82131,128,0,82149:0:0:0:0:
329,192,82131,128,0,82167:0:0:0:0:
256,192,82131,128,0,82185:0:0:0:0:
182,192,82131,128,0,82202:0:0:0:0:
109,192,82131,128,0,82220:0:0:0:0:
475,192,82256,128,0,82274:0:0:0:0:
36,192,82274,128,0,82292:0:0:0:0:
402,192,82274,128,0,82595:0:0:0:0:
329,192,82292,128,0,82381:0:0:0:0:
256,192,82310,128,0,82381:0:0:0:0:
182,192,82327,128,0,82381:0:0:0:0:
109,192,82345,128,0,82381:0:0:0:0:
36,192,82381,128,0,82542:0:0:0:0:
109,192,82435,128,0,82595:0:0:0:0:
182,192,82488,128,0,82595:0:0:0:0:
256,192,82542,128,0,82595:0:0:0:0:
329,192,82595,128,0,82649:0:0:0:0:
36,192,82595,128,0,82756:0:0:0:0:
109,192,82622,128,0,82729:0:0:0:0:
402,192,82649,128,0,82702:0:0:0:0:
182,192,82649,128,0,82702:0:0:0:0:
256,192,82676,1,0,0:0:0:0:
475,192,82702,1,0,0:0:0:0:
329,192,82702,1,0,0:0:0:0:
256,192,82729,1,0,0:0:0:0:
182,192,82756,1,0,0:0:0:0:
402,192,82774,1,0,0:0:0:0:
256,192,82774,1,0,0:0:0:0:
109,192,82783,1,0,0:0:0:0:
36,192,82810,1,0,0:0:0:0:
475,192,82810,128,0,82997:0:0:0:0:
402,192,82836,128,0,82970:0:0:0:0:
109,192,82845,1,0,0:0:0:0:
256,192,82845,1,0,0:0:0:0:
329,192,82863,128,0,82944:0:0:0:0:
256,192,82890,128,0,82917:0:0:0:0:
182,192,82917,1,0,0:0:0:0:
109,192,82917,1,0,0:0:0:0:
36,192,82917,1,0,0:0:0:0:
256,192,82944,1,0,0:0:0:0:
329,192,82970,1,0,0:0:0:0:
36,192,82988,1,0,0:0:0:0:
182,192,82988,1,0,0:0:0:0:
402,192,82997,1,0,0:0:0:0:
475,192,83024,1,0,0:0:0:0:
109,192,83024,1,0,0:0:0:0:
182,192,83051,1,0,0:0:0:0:
256,192,83060,1,0,0:0:0:0:
329,192,83077,1,0,0:0:0:0:
402,192,83104,1,0,0:0:0:0:
475,192,83131,1,0,0:0:0:0:
36,192,83131,128,0,83238:0:0:0:0:
182,192,83131,128,0,83158:0:0:0:0:
109,192,83158,128,0,83185:0:0:0:0:
329,192,83158,128,0,83185:0:0:0:0:
256,192,83185,128,0,83211:0:0:0:0:
182,192,83211,128,0,83319:0:0:0:0:
109,192,83238,128,0,83319:0:0:0:0:
256,192,83265,128,0,83319:0:0:0:0:
36,192,83292,128,0,83319:0:0:0:0:
329,192,83319,1,0,0:0:0:0:
475,192,83345,128,0,83452:0:0:0:0:
402,192,83372,128,0,83399:0:0:0:0:
182,192,83372,128,0,83506:0:0:0:0:
256,192,83399,128,0,83426:0:0:0:0:
329,192,83426,128,0,83533:0:0:0:0:
402,192,83452,128,0,83533:0:0:0:0:
256,192,83479,128,0,83533:0:0:0:0:
475,192,83506,128,0,83533:0:0:0:0:
182,192,83533,1,0,0:0:0:0:
402,192,83560,1,0,0:0:0:0:
36,192,83560,1,0,0:0:0:0:
109,192,83573,1,0,0:0:0:0:
329,192,83586,1,0,0:0:0:0:
182,192,83600,1,0,0:0:0:0:
256,192,83613,1,0,0:0:0:0:
402,192,83627,1,0,0:0:0:0:
109,192,83640,1,0,0:0:0:0:
329,192,83653,1,0,0:0:0:0:
182,192,83667,1,0,0:0:0:0:
256,192,83680,1,0,0:0:0:0:
329,192,83694,1,0,0:0:0:0:
182,192,83707,1,0,0:0:0:0:
109,192,83720,1,0,0:0:0:0:
402,192,83720,1,0,0:0:0:0:
256,192,83734,1,0,0:0:0:0:
329,192,83747,1,0,0:0:0:0:
402,192,83761,1,0,0:0:0:0:
182,192,83761,1,0,0:0:0:0:
109,192,83774,1,0,0:0:0:0:
475,192,83774,1,0,0:0:0:0:
36,192,83801,1,0,0:0:0:0:
402,192,83801,1,0,0:0:0:0:
109,192,83827,1,0,0:0:0:0:
329,192,83827,1,0,0:0:0:0:
182,192,83841,1,0,0:0:0:0:
402,192,83854,1,0,0:0:0:0:
256,192,83868,1,0,0:0:0:0:
329,192,83881,1,0,0:0:0:0:
182,192,83894,1,0,0:0:0:0:
402,192,83908,1,0,0:0:0:0:
109,192,83908,1,0,0:0:0:0:
475,192,83935,1,0,0:0:0:0:
36,192,83935,1,0,0:0:0:0:
329,192,83948,1,0,0:0:0:0:
182,192,83948,1,0,0:0:0:0:
109,192,83961,1,0,0:0:0:0:
402,192,83975,1,0,0:0:0:0:
36,192,83988,1,0,0:0:0:0:
475,192,83988,1,0,0:0:0:0:
109,192,84202,128,0,84216:0:0:0:0:
256,192,84202,128,0,84216:0:0:0:0:
402,192,84202,128,0,84216:0:0:0:0:
36,192,84216,1,0,0:0:0:0:
182,192,84216,1,0,0:0:0:0:
329,192,84216,1,0,0:0:0:0:
475,192,84216,1,0,0:0:0:0:
36,192,84243,128,0,84256:0:0:0:0:
182,192,84243,128,0,84256:0:0:0:0:
329,192,84243,128,0,84256:0:0:0:0:
475,192,84243,128,0,84256:0:0:0:0:
109,192,84256,1,0,0:0:0:0:
256,192,84256,1,0,0:0:0:0:
402,192,84256,1,0,0:0:0:0:
256,192,84417,128,0,84430:0:0:0:0:
402,192,84417,128,0,84430:0:0:0:0:
109,192,84417,128,0,84430:0:0:0:0:
475,192,84430,1,0,0:0:0:0:
182,192,84430,1,0,0:0:0:0:
329,192,84430,1,0,0:0:0:0:
36,192,84430,1,0,0:0:0:0:
36,192,84457,128,0,84470:0:0:0:0:
182,192,84457,128,0,84470:0:0:0:0:
329,192,84457,128,0,84470:0:0:0:0:
475,192,84457,128,0,84470:0:0:0:0:
109,192,84470,1,0,0:0:0:0:
402,192,84470,1,0,0:0:0:0:
256,192,84470,1,0,0:0:0:0:
36,192,84524,1,0,0:0:0:0:
182,192,84524,1,0,0:0:0:0:
329,192,84524,1,0,0:0:0:0:
475,192,84524,1,0,0:0:0:0:
402,192,84560,1,0,0:0:0:0:
256,192,84560,1,0,0:0:0:0:
109,192,84560,1,0,0:0:0:0:
329,192,84595,1,0,0:0:0:0:
182,192,84595,1,0,0:0:0:0:
36,192,84595,1,0,0:0:0:0:
475,192,84595,1,0,0:0:0:0:
402,192,84631,1,0,0:0:0:0:
109,192,84631,1,0,0:0:0:0:
256,192,84631,1,0,0:0:0:0:
182,192,84685,1,0,0:0:0:0:
36,192,84685,1,0,0:0:0:0:
329,192,84685,1,0,0:0:0:0:
475,192,84685,1,0,0:0:0:0:
109,192,84752,1,0,0:0:0:0:
256,192,84752,1,0,0:0:0:0:
402,192,84752,1,0,0:0:0:0:
329,192,84819,1,0,0:0:0:0:
182,192,84819,1,0,0:0:0:0:
36,192,84819,1,0,0:0:0:0:
475,192,84819,1,0,0:0:0:0:
109,192,84845,128,0,85060:0:0:0:0:
256,192,84845,128,0,85060:0:0:0:0:
402,192,84845,128,0,85060:0:0:0:0:
329,192,85060,1,0,0:0:0:0:
475,192,85060,1,0,0:0:0:0:
182,192,85113,1,0,0:0:0:0:
36,192,85113,1,0,0:0:0:0:
329,192,85167,1,0,0:0:0:0:
475,192,85167,1,0,0:0:0:0:
109,192,85220,1,0,0:0:0:0:
182,192,85220,1,0,0:0:0:0:
36,192,85220,1,0,0:0:0:0:
329,192,85274,1,0,0:0:0:0:
402,192,85274,1,0,0:0:0:0:
475,192,85274,1,0,0:0:0:0:
109,192,85287,1,0,0:0:0:0:
256,192,85301,1,0,0:0:0:0:
36,192,85314,1,0,0:0:0:0:
182,192,85327,1,0,0:0:0:0:
329,192,85341,1,0,0:0:0:0:
109,192,85354,1,0,0:0:0:0:
256,192,85368,1,0,0:0:0:0:
402,192,85381,1,0,0:0:0:0:
36,192,85394,1,0,0:0:0:0:
182,192,85408,1,0,0:0:0:0:
256,192,85417,1,0,0:0:0:0:
329,192,85417,1,0,0:0:0:0:
402,192,85417,1,0,0:0:0:0:
475,192,85417,1,0,0:0:0:0:
109,192,85435,1,0,0:0:0:0:
36,192,85448,1,0,0:0:0:0:
256,192,85461,1,0,0:0:0:0:
182,192,85475,1,0,0:0:0:0:
109,192,85488,1,0,0:0:0:0:
36,192,85502,1,0,0:0:0:0:
329,192,85502,1,0,0:0:0:0:
256,192,85515,1,0,0:0:0:0:
182,192,85528,1,0,0:0:0:0:
109,192,85542,1,0,0:0:0:0:
36,192,85555,1,0,0:0:0:0:
182,192,85560,1,0,0:0:0:0:
329,192,85560,1,0,0:0:0:0:
475,192,85560,1,0,0:0:0:0:
256,192,85560,1,0,0:0:0:0:
402,192,85560,1,0,0:0:0:0:
109,192,85702,1,0,0:0:0:0:
182,192,85702,1,0,0:0:0:0:
256,192,85702,1,0,0:0:0:0:
402,192,85702,1,0,0:0:0:0:
475,192,85702,1,0,0:0:0:0:
329,192,85702,1,0,0:0:0:0:
36,192,85702,128,0,85917:0:0:0:0:
475,192,85917,128,0,86131:0:0:0:0:
256,192,86131,128,0,86345:0:0:0:0:
109,192,86345,128,0,86417:0:0:0:0:
256,192,86452,128,0,86524:0:0:0:0:
402,192,86560,128,0,86988:0:0:0:0:
402,192,87202,128,0,87220:0:0:0:0:
36,192,87202,1,0,0:0:0:0:
36,192,87216,1,0,0:0:0:0:
182,192,87216,1,0,0:0:0:0:
256,192,87220,128,0,87238:0:0:0:0:
182,192,87229,1,0,0:0:0:0:
329,192,87229,1,0,0:0:0:0:
109,192,87238,128,0,87256:0:0:0:0:
329,192,87243,1,0,0:0:0:0:
475,192,87243,1,0,0:0:0:0:
475,192,87256,1,0,0:0:0:0:
36,192,87256,128,0,87274:0:0:0:0:
402,192,87269,1,0,0:0:0:0:
182,192,87274,128,0,87292:0:0:0:0:
402,192,87283,1,0,0:0:0:0:
256,192,87283,1,0,0:0:0:0:
329,192,87292,128,0,87310:0:0:0:0:
256,192,87296,1,0,0:0:0:0:
109,192,87296,1,0,0:0:0:0:
475,192,87310,128,0,87327:0:0:0:0:
109,192,87310,1,0,0:0:0:0:
402,192,87417,1,0,0:0:0:0:
109,192,87417,1,0,0:0:0:0:
256,192,87417,1,0,0:0:0:0:
36,192,87417,128,0,87430:0:0:0:0:
475,192,87430,1,0,0:0:0:0:
329,192,87430,1,0,0:0:0:0:
182,192,87430,1,0,0:0:0:0:
182,192,87631,1,0,0:0:0:0:
36,192,87631,1,0,0:0:0:0:
109,192,87631,1,0,0:0:0:0:
256,192,87631,1,0,0:0:0:0:
329,192,87631,1,0,0:0:0:0:
475,192,87631,1,0,0:0:0:0:
402,192,87631,1,0,0:0:0:0:
402,192,87845,128,0,88060:0:0:0:0:
475,192,87845,128,0,87859:0:0:0:0:
182,192,88060,128,0,88167:0:0:0:0:
329,192,88167,128,0,88274:0:0:0:0:
475,192,88274,128,0,88488:0:0:0:0:
36,192,88274,128,0,88287:0:0:0:0:
182,192,88488,128,0,88702:0:0:0:0:
402,192,88488,128,0,88702:0:0:0:0:
109,192,88702,128,0,88917:0:0:0:0:
329,192,88702,128,0,88917:0:0:0:0:
475,192,88702,128,0,88716:0:0:0:0:
182,192,89131,1,0,0:0:0:0:
329,192,89131,1,0,0:0:0:0:
475,192,89131,1,0,0:0:0:0:
36,192,89131,128,0,89144:0:0:0:0:
402,192,89144,1,0,0:0:0:0:
256,192,89144,1,0,0:0:0:0:
109,192,89144,1,0,0:0:0:0:
475,192,89345,1,0,0:0:0:0:
402,192,89345,1,0,0:0:0:0:
329,192,89345,1,0,0:0:0:0:
256,192,89345,1,0,0:0:0:0:
182,192,89345,1,0,0:0:0:0:
36,192,89345,1,0,0:0:0:0:
109,192,89345,1,0,0:0:0:0:
475,192,89560,128,0,89573:0:0:0:0:
182,192,89560,128,0,89774:0:0:0:0:
402,192,89560,128,0,89774:0:0:0:0:
109,192,89774,128,0,89881:0:0:0:0:
329,192,89774,128,0,89881:0:0:0:0:
402,192,89881,128,0,89988:0:0:0:0:
256,192,89881,128,0,89988:0:0:0:0:
36,192,89988,128,0,90002:0:0:0:0:
182,192,89988,128,0,90095:0:0:0:0:
475,192,89988,128,0,90095:0:0:0:0:
402,192,90202,128,0,90310:0:0:0:0:
109,192,90202,128,0,90310:0:0:0:0:
475,192,90417,128,0,90430:0:0:0:0:
329,192,90417,128,0,90738:0:0:0:0:
36,192,90417,128,0,90738:0:0:0:0:
36,192,90845,128,0,90859:0:0:0:0:
475,192,90845,1,0,0:0:0:0:
329,192,90845,128,0,91060:0:0:0:0:
182,192,90845,128,0,91060:0:0:0:0:
402,192,90859,1,0,0:0:0:0:
256,192,90859,1,0,0:0:0:0:
109,192,90859,1,0,0:0:0:0:
402,192,91060,128,0,91274:0:0:0:0:
109,192,91060,128,0,91274:0:0:0:0:
475,192,91274,128,0,91287:0:0:0:0:
329,192,91274,128,0,91488:0:0:0:0:
182,192,91274,128,0,91506:0:0:0:0:
256,192,91488,128,0,91756:0:0:0:0:
329,192,91506,1,0,0:0:0:0:
182,192,91524,1,0,0:0:0:0:
36,192,91702,128,0,91716:0:0:0:0:
182,192,91702,1,0,0:0:0:0:
329,192,91702,1,0,0:0:0:0:
109,192,91702,128,0,91970:0:0:0:0:
402,192,91702,128,0,91970:0:0:0:0:
256,192,91917,1,0,0:0:0:0:
475,192,91917,128,0,92077:0:0:0:0:
36,192,91917,128,0,92077:0:0:0:0:
475,192,92131,128,0,92144:0:0:0:0:
36,192,92131,1,0,0:0:0:0:
256,192,92131,128,0,92345:0:0:0:0:
182,192,92345,128,0,92506:0:0:0:0:
329,192,92345,128,0,92506:0:0:0:0:
36,192,92560,128,0,92573:0:0:0:0:
329,192,92560,1,0,0:0:0:0:
475,192,92560,1,0,0:0:0:0:
402,192,92560,128,0,92935:0:0:0:0:
109,192,92573,1,0,0:0:0:0:
182,192,92573,1,0,0:0:0:0:
256,192,92573,1,0,0:0:0:0:
329,192,92774,128,0,93399:0:0:0:0:
475,192,92774,128,0,92935:0:0:0:0:
475,192,92988,128,0,93002:0:0:0:0:
109,192,92988,128,0,93363:0:0:0:0:
182,192,92988,1,0,0:0:0:0:
36,192,92988,1,0,0:0:0:0:
36,192,93202,128,0,93363:0:0:0:0:
182,192,93202,128,0,93399:0:0:0:0:
36,192,93417,128,0,93430:0:0:0:0:
256,192,93417,128,0,93613:0:0:0:0:
402,192,93417,128,0,93613:0:0:0:0:
329,192,93417,1,0,0:0:0:0:
182,192,93417,1,0,0:0:0:0:
329,192,93631,128,0,93827:0:0:0:0:
475,192,93631,128,0,93827:0:0:0:0:
256,192,93631,1,0,0:0:0:0:
402,192,93631,1,0,0:0:0:0:
475,192,93845,128,0,93859:0:0:0:0:
329,192,93845,1,0,0:0:0:0:
402,192,93845,128,0,94287:0:0:0:0:
36,192,94274,128,0,94287:0:0:0:0:
256,192,94274,1,0,0:0:0:0:
182,192,94274,1,0,0:0:0:0:
329,192,94274,1,0,0:0:0:0:
109,192,94274,1,0,0:0:0:0:
475,192,94287,1,0,0:0:0:0:
402,192,94488,128,0,94716:0:0:0:0:
475,192,94502,1,0,0:0:0:0:
475,192,94702,128,0,94716:0:0:0:0:
329,192,94702,128,0,94930:0:0:0:0:
256,192,94716,1,0,0:0:0:0:
256,192,94917,128,0,95024:0:0:0:0:
182,192,94930,128,0,95024:0:0:0:0:
402,192,95024,128,0,95131:0:0:0:0:
329,192,95037,128,0,95131:0:0:0:0:
36,192,95131,128,0,95144:0:0:0:0:
182,192,95131,128,0,95305:0:0:0:0:
109,192,95144,128,0,95305:0:0:0:0:
329,192,95345,128,0,95560:0:0:0:0:
402,192,95345,128,0,95560:0:0:0:0:
475,192,95560,128,0,95573:0:0:0:0:
36,192,95988,128,0,96002:0:0:0:0:
109,192,95988,1,0,0:0:0:0:
182,192,96002,1,0,0:0:0:0:
256,192,96002,1,0,0:0:0:0:
329,192,96002,1,0,0:0:0:0:
402,192,96002,1,0,0:0:0:0:
475,192,96002,1,0,0:0:0:0:
36,192,96202,1,0,0:0:0:0:
109,192,96216,128,0,96430:0:0:0:0:
475,192,96417,128,0,96430:0:0:0:0:
256,192,96417,128,0,96577:0:0:0:0:
182,192,96430,128,0,96577:0:0:0:0:
182,192,96631,128,0,96658:0:0:0:0:
256,192,96631,128,0,96658:0:0:0:0:
329,192,96738,128,0,96765:0:0:0:0:
402,192,96738,128,0,96765:0:0:0:0:
36,192,96845,128,0,96859:0:0:0:0:
475,192,96845,128,0,97060:0:0:0:0:
402,192,97060,128,0,97274:0:0:0:0:
475,192,97274,128,0,97287:0:0:0:0:
329,192,97274,128,0,97702:0:0:0:0:
36,192,97702,128,0,97716:0:0:0:0:
329,192,97917,128,0,97930:0:0:0:0:
402,192,98131,128,0,98144:0:0:0:0:
475,192,98345,128,0,98359:0:0:0:0:
402,192,98560,128,0,98573:0:0:0:0:
329,192,98560,128,0,98573:0:0:0:0:
256,192,98774,128,0,98801:0:0:0:0:
182,192,98774,128,0,98787:0:0:0:0:
182,192,98961,128,0,98988:0:0:0:0:
256,192,98975,128,0,98988:0:0:0:0:
109,192,99189,1,0,0:0:0:0:
36,192,99189,128,0,99417:0:0:0:0:
329,192,99417,1,0,0:0:0:0:
475,192,99417,1,0,0:0:0:0:
402,192,99417,1,0,0:0:0:0:
256,192,99417,1,0,0:0:0:0:
402,192,99488,1,0,0:0:0:0:
329,192,99488,1,0,0:0:0:0:
256,192,99488,1,0,0:0:0:0:
182,192,99488,1,0,0:0:0:0:
109,192,99560,1,0,0:0:0:0:
182,192,99560,1,0,0:0:0:0:
256,192,99560,1,0,0:0:0:0:
329,192,99560,1,0,0:0:0:0:
256,192,99631,1,0,0:0:0:0:
329,192,99631,1,0,0:0:0:0:
402,192,99631,1,0,0:0:0:0:
475,192,99631,1,0,0:0:0:0:
402,192,99702,1,0,0:0:0:0:
329,192,99702,1,0,0:0:0:0:
182,192,99702,1,0,0:0:0:0:
256,192,99702,1,0,0:0:0:0:
109,192,99774,1,0,0:0:0:0:
182,192,99774,1,0,0:0:0:0:
329,192,99774,1,0,0:0:0:0:
256,192,99774,1,0,0:0:0:0:
256,192,99845,1,0,0:0:0:0:
329,192,99845,1,0,0:0:0:0:
475,192,99845,1,0,0:0:0:0:
402,192,99845,1,0,0:0:0:0:
36,192,99845,1,0,0:0:0:0:
109,192,99845,1,0,0:0:0:0:
36,192,99917,1,0,0:0:0:0:
109,192,99917,1,0,0:0:0:0:
256,192,99917,1,0,0:0:0:0:
182,192,99917,1,0,0:0:0:0:
329,192,99917,1,0,0:0:0:0:
182,192,99988,1,0,0:0:0:0:
256,192,99988,1,0,0:0:0:0:
109,192,99988,1,0,0:0:0:0:
329,192,99988,1,0,0:0:0:0:
402,192,99988,1,0,0:0:0:0:
256,192,100060,1,0,0:0:0:0:
182,192,100060,1,0,0:0:0:0:
329,192,100060,1,0,0:0:0:0:
402,192,100060,1,0,0:0:0:0:
475,192,100060,1,0,0:0:0:0:
36,192,100131,1,0,0:0:0:0:
329,192,100131,1,0,0:0:0:0:
402,192,100131,1,0,0:0:0:0:
475,192,100131,1,0,0:0:0:0:
256,192,100131,1,0,0:0:0:0:
182,192,100202,1,0,0:0:0:0:
256,192,100202,1,0,0:0:0:0:
329,192,100202,1,0,0:0:0:0:
402,192,100202,1,0,0:0:0:0:
36,192,100202,1,0,0:0:0:0:
36,192,100274,1,0,0:0:0:0:
109,192,100274,1,0,0:0:0:0:
182,192,100274,1,0,0:0:0:0:
256,192,100274,1,0,0:0:0:0:
329,192,100274,1,0,0:0:0:0:
475,192,100274,1,0,0:0:0:0:
256,192,100345,1,0,0:0:0:0:
182,192,100345,1,0,0:0:0:0:
109,192,100345,1,0,0:0:0:0:
402,192,100345,1,0,0:0:0:0:
329,192,100345,1,0,0:0:0:0:
182,192,100417,1,0,0:0:0:0:
329,192,100417,1,0,0:0:0:0:
475,192,100417,1,0,0:0:0:0:
402,192,100417,1,0,0:0:0:0:
256,192,100417,1,0,0:0:0:0:
329,192,100488,1,0,0:0:0:0:
256,192,100488,1,0,0:0:0:0:
182,192,100488,1,0,0:0:0:0:
109,192,100488,1,0,0:0:0:0:
402,192,100488,1,0,0:0:0:0:
36,192,100560,1,0,0:0:0:0:
256,192,100560,1,0,0:0:0:0:
329,192,100560,1,0,0:0:0:0:
182,192,100560,1,0,0:0:0:0:
109,192,100560,1,0,0:0:0:0:
256,192,100631,1,0,0:0:0:0:
109,192,100631,1,0,0:0:0:0:
182,192,100631,1,0,0:0:0:0:
329,192,100631,1,0,0:0:0:0:
402,192,100631,1,0,0:0:0:0:
475,192,100702,1,0,0:0:0:0:
329,192,100702,1,0,0:0:0:0:
402,192,100702,1,0,0:0:0:0:
182,192,100702,1,0,0:0:0:0:
256,192,100702,1,0,0:0:0:0:
402,192,100774,1,0,0:0:0:0:
109,192,100774,1,0,0:0:0:0:
182,192,100774,1,0,0:0:0:0:
329,192,100774,1,0,0:0:0:0:
475,192,100774,1,0,0:0:0:0:
36,192,100845,1,0,0:0:0:0:
402,192,100845,1,0,0:0:0:0:
109,192,100845,1,0,0:0:0:0:
256,192,100845,1,0,0:0:0:0:
329,192,100845,1,0,0:0:0:0:
475,192,100917,1,0,0:0:0:0:
329,192,100917,1,0,0:0:0:0:
182,192,100917,1,0,0:0:0:0:
36,192,100917,1,0,0:0:0:0:
256,192,100917,1,0,0:0:0:0:
109,192,100970,1,0,0:0:0:0:
402,192,100970,1,0,0:0:0:0:
182,192,100988,1,0,0:0:0:0:
36,192,100988,1,0,0:0:0:0:
475,192,100988,1,0,0:0:0:0:
329,192,100988,1,0,0:0:0:0:
256,192,101042,1,0,0:0:0:0:
329,192,101060,1,0,0:0:0:0:
182,192,101060,1,0,0:0:0:0:
109,192,101060,1,0,0:0:0:0:
402,192,101060,1,0,0:0:0:0:
36,192,101077,1,0,0:0:0:0:
475,192,101077,1,0,0:0:0:0:
182,192,101131,1,0,0:0:0:0:
329,192,101131,1,0,0:0:0:0:
475,192,101149,1,0,0:0:0:0:
256,192,101149,1,0,0:0:0:0:
36,192,101149,1,0,0:0:0:0:
402,192,101167,1,0,0:0:0:0:
109,192,101167,1,0,0:0:0:0:
36,192,101345,1,0,0:0:0:0:
109,192,101345,1,0,0:0:0:0:
182,192,101345,1,0,0:0:0:0:
256,192,101345,1,0,0:0:0:0:
402,192,101345,1,0,0:0:0:0:
475,192,101345,1,0,0:0:0:0:
329,192,101345,1,0,0:0:0:0:
256,192,101488,1,0,0:0:0:0:
182,192,101506,1,0,0:0:0:0:
329,192,101506,1,0,0:0:0:0:
109,192,101560,128,0,101774:0:0:0:0:
402,192,101560,128,0,101774:0:0:0:0:
36,192,101560,128,0,101667:0:0:0:0:
475,192,101560,128,0,101667:0:0:0:0:
256,192,101667,128,0,101720:0:0:0:0:
182,192,101774,128,0,101881:0:0:0:0:
329,192,101774,128,0,101881:0:0:0:0:
256,192,101827,1,0,0:0:0:0:
109,192,101845,1,0,0:0:0:0:
402,192,101845,1,0,0:0:0:0:
36,192,101881,128,0,101988:0:0:0:0:
475,192,101881,128,0,101988:0:0:0:0:
109,192,101988,128,0,102202:0:0:0:0:
402,192,101988,128,0,102202:0:0:0:0:
182,192,102095,128,0,102149:0:0:0:0:
329,192,102095,128,0,102149:0:0:0:0:
256,192,102122,1,0,0:0:0:0:
36,192,102149,1,0,0:0:0:0:
475,192,102176,1,0,0:0:0:0:
182,192,102202,128,0,102417:0:0:0:0:
329,192,102202,128,0,102417:0:0:0:0:
109,192,102310,1,0,0:0:0:0:
402,192,102310,1,0,0:0:0:0:
36,192,102310,128,0,102363:0:0:0:0:
475,192,102310,128,0,102363:0:0:0:0:
256,192,102417,128,0,102631:0:0:0:0:
109,192,102488,1,0,0:0:0:0:
402,192,102488,1,0,0:0:0:0:
36,192,102506,1,0,0:0:0:0:
475,192,102506,1,0,0:0:0:0:
329,192,102524,1,0,0:0:0:0:
182,192,102524,1,0,0:0:0:0:
109,192,102631,128,0,102685:0:0:0:0:
402,192,102631,128,0,102685:0:0:0:0:
329,192,102738,128,0,102792:0:0:0:0:
182,192,102738,128,0,102792:0:0:0:0:
109,192,102845,128,0,103060:0:0:0:0:
402,192,102845,128,0,103060:0:0:0:0:
256,192,102845,1,0,0:0:0:0:
182,192,102863,1,0,0:0:0:0:
329,192,102863,1,0,0:0:0:0:
256,192,102952,1,0,0:0:0:0:
36,192,102952,128,0,103006:0:0:0:0:
475,192,102952,128,0,103006:0:0:0:0:
182,192,103060,128,0,103274:0:0:0:0:
329,192,103060,128,0,103274:0:0:0:0:
256,192,103060,128,0,103113:0:0:0:0:
109,192,103149,1,0,0:0:0:0:
402,192,103149,1,0,0:0:0:0:
475,192,103167,1,0,0:0:0:0:
36,192,103167,1,0,0:0:0:0:
256,192,103194,1,0,0:0:0:0:
36,192,103274,128,0,103488:0:0:0:0:
475,192,103274,128,0,103488:0:0:0:0:
329,192,103363,1,0,0:0:0:0:
182,192,103381,1,0,0:0:0:0:
109,192,103381,128,0,103435:0:0:0:0:
402,192,103381,128,0,103435:0:0:0:0:
182,192,103488,128,0,103595:0:0:0:0:
329,192,103488,128,0,103595:0:0:0:0:
36,192,103560,1,0,0:0:0:0:
475,192,103560,1,0,0:0:0:0:
109,192,103595,128,0,103702:0:0:0:0:
402,192,103595,128,0,103702:0:0:0:0:
36,192,103702,128,0,103917:0:0:0:0:
475,192,103702,128,0,103917:0:0:0:0:
182,192,103702,128,0,103756:0:0:0:0:
329,192,103702,128,0,103756:0:0:0:0:
402,192,103810,128,0,103863:0:0:0:0:
109,192,103810,128,0,103863:0:0:0:0:
256,192,103863,1,0,0:0:0:0:
182,192,103881,1,0,0:0:0:0:
329,192,103899,1,0,0:0:0:0:
109,192,103917,128,0,104131:0:0:0:0:
402,192,103917,128,0,104131:0:0:0:0:
256,192,104024,128,0,104077:0:0:0:0:
329,192,104131,128,0,104345:0:0:0:0:
182,192,104131,128,0,104345:0:0:0:0:
36,192,104238,1,0,0:0:0:0:
402,192,104238,1,0,0:0:0:0:
109,192,104238,128,0,104292:0:0:0:0:
256,192,104256,1,0,0:0:0:0:
475,192,104274,1,0,0:0:0:0:
402,192,104345,128,0,104399:0:0:0:0:
329,192,104452,128,0,104506:0:0:0:0:
109,192,104560,128,0,104667:0:0:0:0:
402,192,104560,128,0,104667:0:0:0:0:
475,192,104560,1,0,0:0:0:0:
182,192,104577,1,0,0:0:0:0:
256,192,104595,1,0,0:0:0:0:
329,192,104667,128,0,104720:0:0:0:0:
329,192,104774,128,0,104881:0:0:0:0:
36,192,104774,128,0,104881:0:0:0:0:
256,192,104774,128,0,104827:0:0:0:0:
109,192,104881,1,0,0:0:0:0:
475,192,104881,128,0,104935:0:0:0:0:
182,192,104917,1,0,0:0:0:0:
256,192,104935,1,0,0:0:0:0:
329,192,104952,1,0,0:0:0:0:
109,192,104988,128,0,105095:0:0:0:0:
402,192,104988,128,0,105095:0:0:0:0:
36,192,104988,128,0,105042:0:0:0:0:
182,192,105095,128,0,105149:0:0:0:0:
182,192,105202,128,0,105310:0:0:0:0:
475,192,105202,128,0,105310:0:0:0:0:
256,192,105202,128,0,105310:0:0:0:0:
329,192,105238,1,0,0:0:0:0:
402,192,105256,1,0,0:0:0:0:
109,192,105274,1,0,0:0:0:0:
36,192,105310,128,0,105363:0:0:0:0:
402,192,105417,128,0,105524:0:0:0:0:
109,192,105417,128,0,105524:0:0:0:0:
329,192,105417,128,0,105470:0:0:0:0:
182,192,105524,128,0,105577:0:0:0:0:
329,192,105577,1,0,0:0:0:0:
36,192,105595,1,0,0:0:0:0:
256,192,105595,1,0,0:0:0:0:
182,192,105631,128,0,105738:0:0:0:0:
475,192,105631,128,0,105738:0:0:0:0:
402,192,105631,128,0,105685:0:0:0:0:
109,192,105738,128,0,105792:0:0:0:0:
402,192,105845,128,0,105952:0:0:0:0:
109,192,105845,128,0,105952:0:0:0:0:
256,192,105845,128,0,105899:0:0:0:0:
329,192,105917,1,0,0:0:0:0:
36,192,105917,1,0,0:0:0:0:
182,192,105935,1,0,0:0:0:0:
475,192,105952,128,0,106060:0:0:0:0:
329,192,106060,128,0,106167:0:0:0:0:
36,192,106060,128,0,106167:0:0:0:0:
256,192,106060,128,0,106113:0:0:0:0:
402,192,106167,128,0,106274:0:0:0:0:
109,192,106167,128,0,106220:0:0:0:0:
329,192,106256,1,0,0:0:0:0:
256,192,106274,128,0,106381:0:0:0:0:
109,192,106274,128,0,106381:0:0:0:0:
182,192,106274,1,0,0:0:0:0:
475,192,106274,1,0,0:0:0:0:
329,192,106381,128,0,106488:0:0:0:0:
36,192,106381,128,0,106435:0:0:0:0:
182,192,106488,128,0,106595:0:0:0:0:
36,192,106488,128,0,106595:0:0:0:0:
402,192,106488,128,0,106542:0:0:0:0:
329,192,106577,1,0,0:0:0:0:
256,192,106595,128,0,106702:0:0:0:0:
475,192,106595,1,0,0:0:0:0:
109,192,106613,1,0,0:0:0:0:
109,192,106702,128,0,106810:0:0:0:0:
475,192,106702,128,0,106810:0:0:0:0:
402,192,106702,128,0,106756:0:0:0:0:
182,192,106810,128,0,106917:0:0:0:0:
36,192,106810,128,0,106863:0:0:0:0:
36,192,106917,128,0,107024:0:0:0:0:
402,192,106917,128,0,107024:0:0:0:0:
475,192,106917,128,0,106970:0:0:0:0:
329,192,106935,1,0,0:0:0:0:
182,192,106952,1,0,0:0:0:0:
256,192,106970,1,0,0:0:0:0:
109,192,107024,128,0,107131:0:0:0:0:
329,192,107024,128,0,107077:0:0:0:0:
329,192,107131,128,0,107238:0:0:0:0:
475,192,107131,128,0,107238:0:0:0:0:
182,192,107131,128,0,107185:0:0:0:0:
182,192,107238,128,0,107345:0:0:0:0:
329,192,107274,1,0,0:0:0:0:
36,192,107292,1,0,0:0:0:0:
109,192,107310,1,0,0:0:0:0:
402,192,107345,128,0,107452:0:0:0:0:
256,192,107345,128,0,107452:0:0:0:0:
475,192,107345,128,0,107399:0:0:0:0:
109,192,107452,128,0,107560:0:0:0:0:
182,192,107452,128,0,107506:0:0:0:0:
182,192,107560,128,0,107667:0:0:0:0:
329,192,107560,128,0,107667:0:0:0:0:
475,192,107560,128,0,107613:0:0:0:0:
256,192,107613,1,0,0:0:0:0:
109,192,107631,1,0,0:0:0:0:
402,192,107649,1,0,0:0:0:0:
36,192,107667,128,0,107774:0:0:0:0:
109,192,107774,128,0,107881:0:0:0:0:
256,192,107774,128,0,107881:0:0:0:0:
402,192,107774,128,0,107827:0:0:0:0:
329,192,107881,128,0,107935:0:0:0:0:
182,192,107881,128,0,107935:0:0:0:0:
36,192,107988,128,0,108202:0:0:0:0:
182,192,107988,128,0,108417:0:0:0:0:
475,192,107988,1,0,0:0:0:0:
402,192,108006,1,0,0:0:0:0:
256,192,108024,1,0,0:0:0:0:
109,192,108095,128,0,108202:0:0:0:0:
402,192,108095,128,0,108256:0:0:0:0:
329,192,108202,128,0,108417:0:0:0:0:
475,192,108202,128,0,108631:0:0:0:0:
109,192,108310,1,0,0:0:0:0:
36,192,108310,128,0,108363:0:0:0:0:
256,192,108327,1,0,0:0:0:0:
402,192,108345,1,0,0:0:0:0:
36,192,108417,128,0,108631:0:0:0:0:
109,192,108417,128,0,108524:0:0:0:0:
256,192,108524,128,0,108577:0:0:0:0:
402,192,108631,128,0,108738:0:0:0:0:
109,192,108631,128,0,108738:0:0:0:0:
329,192,108631,1,0,0:0:0:0:
256,192,108649,1,0,0:0:0:0:
182,192,108667,1,0,0:0:0:0:
256,192,108738,128,0,108845:0:0:0:0:
475,192,108738,128,0,108952:0:0:0:0:
109,192,108845,128,0,109060:0:0:0:0:
402,192,108845,128,0,108952:0:0:0:0:
329,192,108845,128,0,109060:0:0:0:0:
256,192,109006,1,0,0:0:0:0:
182,192,109024,1,0,0:0:0:0:
36,192,109042,1,0,0:0:0:0:
475,192,109060,128,0,109488:0:0:0:0:
402,192,109060,128,0,109167:0:0:0:0:
256,192,109167,128,0,109488:0:0:0:0:
182,192,109167,128,0,109274:0:0:0:0:
329,192,109167,128,0,109488:0:0:0:0:
36,192,109274,128,0,109488:0:0:0:0:
109,192,109363,1,0,0:0:0:0:
402,192,109381,1,0,0:0:0:0:
182,192,109399,1,0,0:0:0:0:
402,192,109488,128,0,109595:0:0:0:0:
109,192,109488,128,0,109595:0:0:0:0:
256,192,109595,128,0,109702:0:0:0:0:
109,192,109702,128,0,109917:0:0:0:0:
475,192,109702,128,0,109917:0:0:0:0:
36,192,109702,128,0,109810:0:0:0:0:
329,192,109720,1,0,0:0:0:0:
182,192,109738,1,0,0:0:0:0:
402,192,109756,1,0,0:0:0:0:
256,192,109810,128,0,109917:0:0:0:0:
402,192,109917,128,0,110345:0:0:0:0:
36,192,109917,128,0,110024:0:0:0:0:
182,192,109917,128,0,109970:0:0:0:0:
109,192,110024,1,0,0:0:0:0:
329,192,110042,1,0,0:0:0:0:
182,192,110060,1,0,0:0:0:0:
36,192,110131,128,0,110345:0:0:0:0:
256,192,110131,128,0,110238:0:0:0:0:
475,192,110131,128,0,110185:0:0:0:0:
109,192,110238,1,0,0:0:0:0:
182,192,110238,128,0,110345:0:0:0:0:
109,192,110345,128,0,110452:0:0:0:0:
329,192,110345,128,0,110452:0:0:0:0:
256,192,110381,1,0,0:0:0:0:
475,192,110399,1,0,0:0:0:0:
36,192,110417,1,0,0:0:0:0:
182,192,110452,128,0,110560:0:0:0:0:
402,192,110452,128,0,110560:0:0:0:0:
256,192,110560,128,0,110988:0:0:0:0:
475,192,110560,128,0,110774:0:0:0:0:
109,192,110560,128,0,110667:0:0:0:0:
36,192,110667,128,0,110720:0:0:0:0:
329,192,110738,1,0,0:0:0:0:
402,192,110756,1,0,0:0:0:0:
36,192,110774,128,0,110988:0:0:0:0:
182,192,110774,1,0,0:0:0:0:
109,192,110774,128,0,110988:0:0:0:0:
329,192,110881,128,0,110988:0:0:0:0:
402,192,110988,128,0,111095:0:0:0:0:
475,192,110988,128,0,111095:0:0:0:0:
109,192,111095,128,0,111202:0:0:0:0:
182,192,111095,128,0,111202:0:0:0:0:
256,192,111113,1,0,0:0:0:0:
36,192,111113,1,0,0:0:0:0:
329,192,111131,1,0,0:0:0:0:
475,192,111202,128,0,111310:0:0:0:0:
402,192,111202,128,0,111310:0:0:0:0:
36,192,111310,128,0,111417:0:0:0:0:
182,192,111310,128,0,111417:0:0:0:0:
475,192,111417,128,0,111631:0:0:0:0:
402,192,111417,128,0,111845:0:0:0:0:
329,192,111417,1,0,0:0:0:0:
109,192,111435,1,0,0:0:0:0:
256,192,111452,1,0,0:0:0:0:
182,192,111524,1,0,0:0:0:0:
36,192,111524,128,0,111631:0:0:0:0:
256,192,111631,128,0,111845:0:0:0:0:
329,192,111631,128,0,111738:0:0:0:0:
182,192,111738,1,0,0:0:0:0:
36,192,111756,1,0,0:0:0:0:
475,192,111756,1,0,0:0:0:0:
109,192,111845,128,0,112274:0:0:0:0:
182,192,111845,128,0,112060:0:0:0:0:
329,192,111845,128,0,111952:0:0:0:0:
402,192,111952,128,0,112006:0:0:0:0:
36,192,112060,128,0,112274:0:0:0:0:
329,192,112060,128,0,112274:0:0:0:0:
475,192,112060,128,0,112167:0:0:0:0:
256,192,112095,1,0,0:0:0:0:
402,192,112113,1,0,0:0:0:0:
182,192,112167,128,0,112220:0:0:0:0:
182,192,112274,128,0,112488:0:0:0:0:
475,192,112274,128,0,112488:0:0:0:0:
402,192,112274,128,0,112381:0:0:0:0:
36,192,112381,128,0,112488:0:0:0:0:
329,192,112435,1,0,0:0:0:0:
256,192,112452,1,0,0:0:0:0:
402,192,112488,128,0,112702:0:0:0:0:
109,192,112488,128,0,112702:0:0:0:0:
329,192,112595,1,0,0:0:0:0:
475,192,112595,128,0,112702:0:0:0:0:
182,192,112595,128,0,112649:0:0:0:0:
329,192,112702,128,0,112917:0:0:0:0:
36,192,112702,128,0,112917:0:0:0:0:
256,192,112702,128,0,112810:0:0:0:0:
109,192,112792,1,0,0:0:0:0:
475,192,112810,1,0,0:0:0:0:
182,192,112810,128,0,112863:0:0:0:0:
402,192,112827,1,0,0:0:0:0:
256,192,112917,128,0,113131:0:0:0:0:
109,192,112917,128,0,113024:0:0:0:0:
329,192,113024,1,0,0:0:0:0:
475,192,113024,128,0,113131:0:0:0:0:
36,192,113131,128,0,113238:0:0:0:0:
329,192,113131,128,0,113238:0:0:0:0:
182,192,113131,128,0,113238:0:0:0:0:
109,192,113149,1,0,0:0:0:0:
402,192,113167,1,0,0:0:0:0:
256,192,113238,128,0,113292:0:0:0:0:
109,192,113345,128,0,113452:0:0:0:0:
475,192,113345,128,0,113452:0:0:0:0:
256,192,113345,128,0,113452:0:0:0:0:
402,192,113435,1,0,0:0:0:0:
182,192,113452,1,0,0:0:0:0:
36,192,113452,128,0,113506:0:0:0:0:
329,192,113470,1,0,0:0:0:0:
182,192,113560,128,0,113667:0:0:0:0:
402,192,113560,128,0,113667:0:0:0:0:
36,192,113560,128,0,113667:0:0:0:0:
475,192,113560,128,0,113667:0:0:0:0:
329,192,113667,128,0,113720:0:0:0:0:
329,192,113774,128,0,113881:0:0:0:0:
36,192,113774,128,0,113881:0:0:0:0:
182,192,113774,128,0,113881:0:0:0:0:
109,192,113827,1,0,0:0:0:0:
402,192,113845,1,0,0:0:0:0:
475,192,113863,1,0,0:0:0:0:
256,192,113881,128,0,113935:0:0:0:0:
109,192,113988,128,0,114095:0:0:0:0:
402,192,113988,128,0,114095:0:0:0:0:
256,192,113988,128,0,114095:0:0:0:0:
475,192,113988,128,0,114095:0:0:0:0:
182,192,114095,128,0,114149:0:0:0:0:
36,192,114149,1,0,0:0:0:0:
329,192,114167,1,0,0:0:0:0:
402,192,114185,1,0,0:0:0:0:
182,192,114202,128,0,114310:0:0:0:0:
475,192,114202,128,0,114310:0:0:0:0:
402,192,114310,1,0,0:0:0:0:
36,192,114310,128,0,114417:0:0:0:0:
402,192,114417,128,0,114524:0:0:0:0:
109,192,114417,128,0,114524:0:0:0:0:
182,192,114488,1,0,0:0:0:0:
256,192,114506,1,0,0:0:0:0:
329,192,114524,1,0,0:0:0:0:
475,192,114524,128,0,114631:0:0:0:0:
329,192,114631,128,0,114738:0:0:0:0:
36,192,114631,128,0,114738:0:0:0:0:
182,192,114738,1,0,0:0:0:0:
109,192,114845,128,0,115060:0:0:0:0:
256,192,114845,1,0,0:0:0:0:
329,192,114845,1,0,0:0:0:0:
402,192,114845,1,0,0:0:0:0:
475,192,114845,1,0,0:0:0:0:
182,192,114952,128,0,115167:0:0:0:0:
36,192,114952,1,0,0:0:0:0:
475,192,115060,1,0,0:0:0:0:
402,192,115060,1,0,0:0:0:0:
329,192,115060,1,0,0:0:0:0:
256,192,115060,1,0,0:0:0:0:
36,192,115060,128,0,115381:0:0:0:0:
109,192,115167,128,0,115274:0:0:0:0:
329,192,115167,128,0,115381:0:0:0:0:
402,192,115167,128,0,115488:0:0:0:0:
475,192,115167,128,0,115595:0:0:0:0:
256,192,115167,128,0,115220:0:0:0:0:
182,192,115274,128,0,115488:0:0:0:0:
256,192,115274,128,0,115702:0:0:0:0:
109,192,115381,128,0,115488:0:0:0:0:
36,192,115488,128,0,116024:0:0:0:0:
329,192,115488,1,0,0:0:0:0:
182,192,115542,128,0,115595:0:0:0:0:
109,192,115595,128,0,115702:0:0:0:0:
402,192,115595,1,0,0:0:0:0:
402,192,115702,128,0,115917:0:0:0:0:
182,192,115702,128,0,115810:0:0:0:0:
475,192,115702,1,0,0:0:0:0:
329,192,115702,1,0,0:0:0:0:
256,192,115810,128,0,115917:0:0:0:0:
109,192,115810,128,0,115917:0:0:0:0:
329,192,115917,128,0,116131:0:0:0:0:
182,192,115917,128,0,116024:0:0:0:0:
475,192,115917,1,0,0:0:0:0:
109,192,116024,128,0,116131:0:0:0:0:
402,192,116024,1,0,0:0:0:0:
256,192,116131,128,0,116560:0:0:0:0:
36,192,116131,128,0,116238:0:0:0:0:
475,192,116131,1,0,0:0:0:0:
109,192,116238,128,0,116345:0:0:0:0:
402,192,116238,1,0,0:0:0:0:
182,192,116238,1,0,0:0:0:0:
475,192,116238,128,0,116452:0:0:0:0:
182,192,116345,128,0,116452:0:0:0:0:
329,192,116345,1,0,0:0:0:0:
109,192,116452,128,0,116560:0:0:0:0:
402,192,116452,1,0,0:0:0:0:
182,192,116560,128,0,116774:0:0:0:0:
36,192,116560,128,0,117202:0:0:0:0:
402,192,116560,128,0,116613:0:0:0:0:
475,192,116560,1,0,0:0:0:0:
329,192,116560,1,0,0:0:0:0:
256,192,116667,128,0,116774:0:0:0:0:
109,192,116774,128,0,116988:0:0:0:0:
329,192,116774,128,0,116827:0:0:0:0:
475,192,116774,1,0,0:0:0:0:
182,192,116881,128,0,116988:0:0:0:0:
402,192,116881,128,0,116935:0:0:0:0:
256,192,116988,128,0,117042:0:0:0:0:
475,192,116988,128,0,117310:0:0:0:0:
329,192,116988,1,0,0:0:0:0:
182,192,117095,128,0,117310:0:0:0:0:
109,192,117202,128,0,117310:0:0:0:0:
329,192,117202,128,0,117310:0:0:0:0:
402,192,117202,128,0,117310:0:0:0:0:
36,192,117310,128,0,117417:0:0:0:0:
256,192,117310,128,0,117417:0:0:0:0:
109,192,117417,128,0,117524:0:0:0:0:
182,192,117417,128,0,117524:0:0:0:0:
329,192,117417,128,0,117524:0:0:0:0:
402,192,117417,128,0,117524:0:0:0:0:
475,192,117417,128,0,117524:0:0:0:0:
329,192,117631,128,0,117738:0:0:0:0:
256,192,117631,128,0,117738:0:0:0:0:
402,192,117631,128,0,117738:0:0:0:0:
36,192,117631,128,0,117738:0:0:0:0:
109,192,117631,128,0,117738:0:0:0:0:
256,192,117845,128,0,117952:0:0:0:0:
402,192,117845,128,0,117952:0:0:0:0:
109,192,117845,128,0,117952:0:0:0:0:
475,192,117845,1,0,0:0:0:0:
36,192,117952,128,0,118060:0:0:0:0:
329,192,117952,128,0,118060:0:0:0:0:
182,192,117952,128,0,118060:0:0:0:0:
109,192,118060,128,0,118167:0:0:0:0:
256,192,118060,128,0,118167:0:0:0:0:
402,192,118060,128,0,118167:0:0:0:0:
182,192,118167,128,0,118274:0:0:0:0:
475,192,118167,128,0,118274:0:0:0:0:
329,192,118167,128,0,118274:0:0:0:0:
402,192,118274,128,0,118488:0:0:0:0:
256,192,118274,1,0,0:0:0:0:
109,192,118274,1,0,0:0:0:0:
36,192,118274,1,0,0:0:0:0:
329,192,118381,128,0,118595:0:0:0:0:
475,192,118381,1,0,0:0:0:0:
182,192,118381,128,0,118488:0:0:0:0:
36,192,118488,1,0,0:0:0:0:
109,192,118488,1,0,0:0:0:0:
256,192,118488,1,0,0:0:0:0:
475,192,118488,128,0,118810:0:0:0:0:
402,192,118595,128,0,118702:0:0:0:0:
182,192,118595,128,0,118810:0:0:0:0:
109,192,118595,128,0,118810:0:0:0:0:
36,192,118595,128,0,118810:0:0:0:0:
256,192,118595,128,0,118649:0:0:0:0:
329,192,118702,128,0,119024:0:0:0:0:
256,192,118702,128,0,119131:0:0:0:0:
402,192,118810,128,0,118917:0:0:0:0:
475,192,118917,128,0,119452:0:0:0:0:
182,192,118917,1,0,0:0:0:0:
109,192,118917,1,0,0:0:0:0:
36,192,118917,128,0,119131:0:0:0:0:
402,192,119024,128,0,119131:0:0:0:0:
182,192,119024,128,0,119131:0:0:0:0:
109,192,119131,128,0,119345:0:0:0:0:
329,192,119131,128,0,119238:0:0:0:0:
256,192,119238,128,0,119345:0:0:0:0:
182,192,119345,128,0,119560:0:0:0:0:
329,192,119345,128,0,119452:0:0:0:0:
36,192,119345,1,0,0:0:0:0:
402,192,119345,1,0,0:0:0:0:
402,192,119452,128,0,119560:0:0:0:0:
109,192,119452,1,0,0:0:0:0:
256,192,119560,128,0,119988:0:0:0:0:
475,192,119560,128,0,119667:0:0:0:0:
36,192,119560,1,0,0:0:0:0:
329,192,119560,1,0,0:0:0:0:
402,192,119667,128,0,119774:0:0:0:0:
109,192,119667,1,0,0:0:0:0:
329,192,119667,1,0,0:0:0:0:
36,192,119667,128,0,119881:0:0:0:0:
329,192,119774,128,0,119881:0:0:0:0:
182,192,119774,1,0,0:0:0:0:
475,192,119774,1,0,0:0:0:0:
402,192,119881,128,0,119988:0:0:0:0:
109,192,119881,1,0,0:0:0:0:
329,192,119988,128,0,120202:0:0:0:0:
475,192,119988,128,0,120631:0:0:0:0:
36,192,119988,1,0,0:0:0:0:
182,192,119988,1,0,0:0:0:0:
109,192,119988,128,0,120256:0:0:0:0:
256,192,120095,128,0,120202:0:0:0:0:
402,192,120202,128,0,120577:0:0:0:0:
36,192,120202,1,0,0:0:0:0:
182,192,120202,128,0,120363:0:0:0:0:
329,192,120310,128,0,120470:0:0:0:0:
109,192,120310,128,0,120577:0:0:0:0:
36,192,120417,128,0,120631:0:0:0:0:
182,192,120417,1,0,0:0:0:0:
256,192,120417,128,0,120685:0:0:0:0:
329,192,120524,128,0,120738:0:0:0:0:
402,192,120631,128,0,120738:0:0:0:0:
182,192,120631,128,0,120738:0:0:0:0:
109,192,120631,128,0,120738:0:0:0:0:
475,192,120738,128,0,120952:0:0:0:0:
256,192,120738,128,0,120952:0:0:0:0:
36,192,120738,1,0,0:0:0:0:
402,192,120845,128,0,120952:0:0:0:0:
329,192,120845,128,0,120952:0:0:0:0:
182,192,120845,128,0,120952:0:0:0:0:
109,192,120845,128,0,120952:0:0:0:0:
36,192,120845,128,0,120952:0:0:0:0:
182,192,121060,128,0,121220:0:0:0:0:
256,192,121060,128,0,121220:0:0:0:0:
109,192,121060,128,0,121220:0:0:0:0:
475,192,121060,128,0,121220:0:0:0:0:
402,192,121060,128,0,121220:0:0:0:0:
329,192,121060,1,0,0:0:0:0:
36,192,121060,1,0,0:0:0:0:
109,192,121274,1,0,0:0:0:0:
256,192,121274,1,0,0:0:0:0:
402,192,121274,1,0,0:0:0:0:
475,192,121274,1,0,0:0:0:0:
36,192,121274,1,0,0:0:0:0:
182,192,121381,1,0,0:0:0:0:
329,192,121381,1,0,0:0:0:0:
475,192,121381,1,0,0:0:0:0:
402,192,121488,1,0,0:0:0:0:
256,192,121488,1,0,0:0:0:0:
109,192,121488,1,0,0:0:0:0:
182,192,121595,1,0,0:0:0:0:
36,192,121595,1,0,0:0:0:0:
329,192,121595,1,0,0:0:0:0:
402,192,121702,128,0,121917:0:0:0:0:
329,192,121702,1,0,0:0:0:0:
256,192,121702,128,0,121810:0:0:0:0:
182,192,121702,128,0,121810:0:0:0:0:
109,192,121702,128,0,121810:0:0:0:0:
36,192,121702,128,0,121810:0:0:0:0:
475,192,121702,128,0,121756:0:0:0:0:
329,192,121810,128,0,122024:0:0:0:0:
475,192,121810,1,0,0:0:0:0:
36,192,121917,1,0,0:0:0:0:
109,192,121917,1,0,0:0:0:0:
182,192,121917,1,0,0:0:0:0:
256,192,121917,1,0,0:0:0:0:
475,192,121917,128,0,122238:0:0:0:0:
402,192,122024,128,0,122131:0:0:0:0:
182,192,122024,128,0,122292:0:0:0:0:
109,192,122024,128,0,122292:0:0:0:0:
36,192,122024,128,0,122292:0:0:0:0:
256,192,122024,128,0,122077:0:0:0:0:
329,192,122131,128,0,122292:0:0:0:0:
256,192,122131,128,0,122560:0:0:0:0:
402,192,122238,128,0,122345:0:0:0:0:
475,192,122345,128,0,122667:0:0:0:0:
36,192,122345,1,0,0:0:0:0:
182,192,122345,128,0,122667:0:0:0:0:
109,192,122345,128,0,122399:0:0:0:0:
329,192,122345,128,0,122452:0:0:0:0:
402,192,122452,128,0,122667:0:0:0:0:
109,192,122452,1,0,0:0:0:0:
109,192,122560,128,0,122774:0:0:0:0:
329,192,122560,128,0,122667:0:0:0:0:
36,192,122560,1,0,0:0:0:0:
256,192,122667,128,0,122774:0:0:0:0:
402,192,122774,1,0,0:0:0:0:
182,192,122774,128,0,122988:0:0:0:0:
329,192,122774,128,0,122881:0:0:0:0:
36,192,122774,1,0,0:0:0:0:
475,192,122774,128,0,122881:0:0:0:0:
402,192,122881,128,0,122988:0:0:0:0:
109,192,122881,1,0,0:0:0:0:
256,192,122988,128,0,123417:0:0:0:0:
475,192,122988,128,0,123095:0:0:0:0:
36,192,122988,1,0,0:0:0:0:
109,192,122988,128,0,123095:0:0:0:0:
329,192,123095,1,0,0:0:0:0:
182,192,123095,1,0,0:0:0:0:
402,192,123095,128,0,123202:0:0:0:0:
36,192,123095,128,0,123310:0:0:0:0:
329,192,123202,128,0,123310:0:0:0:0:
182,192,123202,1,0,0:0:0:0:
402,192,123310,128,0,123417:0:0:0:0:
109,192,123310,1,0,0:0:0:0:
329,192,123417,128,0,123631:0:0:0:0:
475,192,123417,128,0,124060:0:0:0:0:
182,192,123417,128,0,123524:0:0:0:0:
109,192,123417,128,0,123685:0:0:0:0:
36,192,123417,128,0,123577:0:0:0:0:
256,192,123524,128,0,123792:0:0:0:0:
402,192,123631,128,0,123845:0:0:0:0:
36,192,123631,1,0,0:0:0:0:
182,192,123631,128,0,123792:0:0:0:0:
329,192,123738,128,0,123845:0:0:0:0:
109,192,123738,128,0,123952:0:0:0:0:
36,192,123845,128,0,124167:0:0:0:0:
182,192,123845,1,0,0:0:0:0:
256,192,123845,128,0,124006:0:0:0:0:
329,192,123952,128,0,124167:0:0:0:0:
182,192,123952,1,0,0:0:0:0:
402,192,123952,1,0,0:0:0:0:
402,192,124060,128,0,124167:0:0:0:0:
182,192,124060,128,0,124167:0:0:0:0:
109,192,124060,128,0,124167:0:0:0:0:
256,192,124060,1,0,0:0:0:0:
475,192,124167,128,0,124274:0:0:0:0:
256,192,124167,128,0,124274:0:0:0:0:
402,192,124274,128,0,124381:0:0:0:0:
329,192,124274,128,0,124381:0:0:0:0:
182,192,124274,128,0,124381:0:0:0:0:
109,192,124274,128,0,124381:0:0:0:0:
36,192,124274,128,0,124381:0:0:0:0:
475,192,124381,1,0,0:0:0:0:
256,192,124381,1,0,0:0:0:0:
182,192,124488,128,0,124595:0:0:0:0:
256,192,124488,128,0,124595:0:0:0:0:
109,192,124488,128,0,124595:0:0:0:0:
475,192,124488,128,0,124595:0:0:0:0:
402,192,124488,128,0,124595:0:0:0:0:
329,192,124488,1,0,0:0:0:0:
36,192,124488,1,0,0:0:0:0:
36,192,124595,1,0,0:0:0:0:
329,192,124595,1,0,0:0:0:0:
256,192,124702,128,0,124810:0:0:0:0:
109,192,124702,128,0,124810:0:0:0:0:
402,192,124702,128,0,124810:0:0:0:0:
475,192,124702,1,0,0:0:0:0:
182,192,124702,1,0,0:0:0:0:
475,192,124810,128,0,124917:0:0:0:0:
182,192,124810,128,0,124917:0:0:0:0:
329,192,124810,128,0,124917:0:0:0:0:
402,192,124917,128,0,125024:0:0:0:0:
256,192,124917,128,0,125024:0:0:0:0:
109,192,124917,128,0,125024:0:0:0:0:
36,192,124917,1,0,0:0:0:0:
329,192,125024,128,0,125131:0:0:0:0:
36,192,125024,128,0,125131:0:0:0:0:
182,192,125024,128,0,125131:0:0:0:0:
109,192,125131,128,0,125345:0:0:0:0:
256,192,125131,1,0,0:0:0:0:
402,192,125131,128,0,125292:0:0:0:0:
475,192,125131,128,0,125238:0:0:0:0:
182,192,125238,128,0,125452:0:0:0:0:
36,192,125238,1,0,0:0:0:0:
329,192,125238,128,0,125345:0:0:0:0:
475,192,125345,1,0,0:0:0:0:
402,192,125345,1,0,0:0:0:0:
256,192,125345,1,0,0:0:0:0:
36,192,125345,128,0,125667:0:0:0:0:
109,192,125452,128,0,125560:0:0:0:0:
256,192,125452,128,0,125506:0:0:0:0:
329,192,125452,128,0,125667:0:0:0:0:
402,192,125452,128,0,125613:0:0:0:0:
475,192,125452,128,0,125506:0:0:0:0:
182,192,125560,128,0,125881:0:0:0:0:
256,192,125560,128,0,125988:0:0:0:0:
475,192,125560,128,0,125720:0:0:0:0:
109,192,125667,128,0,125774:0:0:0:0:
402,192,125667,128,0,125720:0:0:0:0:
36,192,125774,128,0,126310:0:0:0:0:
329,192,125774,1,0,0:0:0:0:
402,192,125774,1,0,0:0:0:0:
475,192,125774,128,0,125988:0:0:0:0:
109,192,125881,128,0,125988:0:0:0:0:
329,192,125881,128,0,125988:0:0:0:0:
402,192,125881,128,0,125935:0:0:0:0:
402,192,125988,128,0,126202:0:0:0:0:
182,192,125988,128,0,126095:0:0:0:0:
256,192,126095,128,0,126202:0:0:0:0:
329,192,126095,1,0,0:0:0:0:
475,192,126095,1,0,0:0:0:0:
109,192,126095,128,0,126149:0:0:0:0:
329,192,126202,128,0,126470:0:0:0:0:
182,192,126202,128,0,126310:0:0:0:0:
109,192,126202,1,0,0:0:0:0:
475,192,126202,128,0,126363:0:0:0:0:
109,192,126310,128,0,126417:0:0:0:0:
402,192,126310,128,0,126470:0:0:0:0:
256,192,126417,128,0,126845:0:0:0:0:
36,192,126417,128,0,126524:0:0:0:0:
182,192,126417,1,0,0:0:0:0:
475,192,126417,128,0,126470:0:0:0:0:
109,192,126524,128,0,126631:0:0:0:0:
182,192,126524,1,0,0:0:0:0:
329,192,126524,1,0,0:0:0:0:
402,192,126524,128,0,126631:0:0:0:0:
475,192,126524,128,0,126738:0:0:0:0:
182,192,126631,128,0,126738:0:0:0:0:
36,192,126631,1,0,0:0:0:0:
329,192,126631,128,0,126792:0:0:0:0:
109,192,126738,128,0,126845:0:0:0:0:
402,192,126738,1,0,0:0:0:0:
182,192,126845,128,0,127060:0:0:0:0:
36,192,126845,128,0,127488:0:0:0:0:
402,192,126845,128,0,127113:0:0:0:0:
329,192,126845,128,0,127006:0:0:0:0:
475,192,126845,128,0,127006:0:0:0:0:
256,192,126952,128,0,127060:0:0:0:0:
109,192,127060,128,0,127435:0:0:0:0:
329,192,127060,128,0,127220:0:0:0:0:
475,192,127060,128,0,127220:0:0:0:0:
182,192,127167,128,0,127327:0:0:0:0:
402,192,127167,128,0,127435:0:0:0:0:
256,192,127167,1,0,0:0:0:0:
475,192,127274,128,0,127488:0:0:0:0:
329,192,127274,1,0,0:0:0:0:
256,192,127274,128,0,127542:0:0:0:0:
182,192,127381,128,0,127595:0:0:0:0:
109,192,127488,128,0,127595:0:0:0:0:
329,192,127488,128,0,127595:0:0:0:0:
402,192,127488,128,0,127595:0:0:0:0:
36,192,127595,128,0,127810:0:0:0:0:
256,192,127595,128,0,127702:0:0:0:0:
475,192,127595,1,0,0:0:0:0:
182,192,127702,128,0,127810:0:0:0:0:
329,192,127702,128,0,127810:0:0:0:0:
475,192,127702,128,0,127810:0:0:0:0:
402,192,127702,1,0,0:0:0:0:
109,192,127702,1,0,0:0:0:0:
109,192,127810,128,0,127970:0:0:0:0:
402,192,127810,128,0,127970:0:0:0:0:
256,192,127810,1,0,0:0:0:0:
329,192,127917,128,0,128077:0:0:0:0:
256,192,127917,128,0,128077:0:0:0:0:
36,192,127917,128,0,128077:0:0:0:0:
182,192,127917,1,0,0:0:0:0:
475,192,127917,1,0,0:0:0:0:
109,192,128024,1,0,0:0:0:0:
402,192,128024,1,0,0:0:0:0:
329,192,128131,1,0,0:0:0:0:
182,192,128131,1,0,0:0:0:0:
256,192,128131,1,0,0:0:0:0:
36,192,128131,1,0,0:0:0:0:
475,192,128131,1,0,0:0:0:0:
402,192,128238,1,0,0:0:0:0:
256,192,128238,1,0,0:0:0:0:
109,192,128238,1,0,0:0:0:0:
36,192,128345,1,0,0:0:0:0:
182,192,128345,1,0,0:0:0:0:
329,192,128345,1,0,0:0:0:0:
475,192,128345,1,0,0:0:0:0:
402,192,128452,1,0,0:0:0:0:
256,192,128452,1,0,0:0:0:0:
109,192,128452,1,0,0:0:0:0:
36,192,128560,128,0,128586:0:0:0:0:
182,192,128560,128,0,128586:0:0:0:0:
329,192,128560,128,0,128586:0:0:0:0:
475,192,128560,128,0,128586:0:0:0:0:
109,192,128774,128,0,128801:0:0:0:0:
256,192,128774,128,0,128801:0:0:0:0:
402,192,128774,128,0,128801:0:0:0:0:
182,192,128988,1,0,0:0:0:0:
329,192,128988,1,0,0:0:0:0:
256,192,129202,1,0,0:0:0:0:
329,192,129310,1,0,0:0:0:0:
182,192,129310,1,0,0:0:0:0:
402,192,129417,128,0,129631:0:0:0:0:
109,192,129417,128,0,129631:0:0:0:0:
475,192,129631,128,0,129845:0:0:0:0:
36,192,129631,128,0,129845:0:0:0:0:
256,192,129845,128,0,130274:0:0:0:0:
182,192,129845,128,0,129863:0:0:0:0:
329,192,129845,128,0,129863:0:0:0:0:
109,192,129952,128,0,129970:0:0:0:0:
402,192,129952,128,0,129970:0:0:0:0:
475,192,130060,128,0,130077:0:0:0:0:
36,192,130060,128,0,130077:0:0:0:0:
109,192,130167,128,0,130185:0:0:0:0:
402,192,130167,128,0,130185:0:0:0:0:
182,192,130274,1,0,0:0:0:0:
329,192,130274,1,0,0:0:0:0:
402,192,130381,1,0,0:0:0:0:
109,192,130381,1,0,0:0:0:0:
329,192,130488,1,0,0:0:0:0:
182,192,130488,1,0,0:0:0:0:
36,192,130595,1,0,0:0:0:0:
475,192,130595,1,0,0:0:0:0:
109,192,130702,128,0,130729:0:0:0:0:
402,192,130702,128,0,130729:0:0:0:0:
256,192,130702,128,0,130944:0:0:0:0:
36,192,130917,128,0,130944:0:0:0:0:
329,192,130917,128,0,130944:0:0:0:0:
475,192,130917,128,0,130944:0:0:0:0:
182,192,130917,128,0,130944:0:0:0:0:
109,192,131024,128,0,131051:0:0:0:0:
256,192,131024,128,0,131051:0:0:0:0:
402,192,131024,128,0,131051:0:0:0:0:
182,192,131131,128,0,131345:0:0:0:0:
329,192,131131,128,0,131345:0:0:0:0:
109,192,131345,128,0,131560:0:0:0:0:
402,192,131345,128,0,131560:0:0:0:0:
36,192,131560,128,0,131774:0:0:0:0:
475,192,131560,128,0,131774:0:0:0:0:
256,192,131774,1,0,0:0:0:0:
36,192,131988,128,0,132202:0:0:0:0:
475,192,131988,128,0,132202:0:0:0:0:
109,192,132202,128,0,132417:0:0:0:0:
402,192,132202,128,0,132417:0:0:0:0:
182,192,132417,128,0,132631:0:0:0:0:
329,192,132417,128,0,132631:0:0:0:0:
256,192,132631,1,0,0:0:0:0:
402,192,132845,128,0,133060:0:0:0:0:
109,192,132845,128,0,133060:0:0:0:0:
182,192,133060,128,0,133274:0:0:0:0:
329,192,133060,128,0,133274:0:0:0:0:
256,192,133274,128,0,133488:0:0:0:0:
182,192,133488,1,0,0:0:0:0:
329,192,133488,1,0,0:0:0:0:
182,192,133702,1,0,0:0:0:0:
329,192,133702,1,0,0:0:0:0:
182,192,133716,1,0,0:0:0:0:
329,192,133716,1,0,0:0:0:0:
109,192,133917,1,0,0:0:0:0:
402,192,133917,1,0,0:0:0:0:
109,192,133930,1,0,0:0:0:0:
402,192,133930,1,0,0:0:0:0:
475,192,134131,1,0,0:0:0:0:
36,192,134131,1,0,0:0:0:0:
36,192,134144,1,0,0:0:0:0:
475,192,134144,1,0,0:0:0:0:
109,192,134345,1,0,0:0:0:0:
402,192,134345,1,0,0:0:0:0:
109,192,134359,1,0,0:0:0:0:
402,192,134359,1,0,0:0:0:0:
329,192,134560,128,0,134573:0:0:0:0:
182,192,134560,128,0,134573:0:0:0:0:
256,192,134560,128,0,134988:0:0:0:0:
402,192,134774,128,0,134787:0:0:0:0:
109,192,134774,128,0,134787:0:0:0:0:
475,192,134988,128,0,135002:0:0:0:0:
182,192,134988,128,0,135417:0:0:0:0:
329,192,134988,128,0,135417:0:0:0:0:
36,192,134988,128,0,135002:0:0:0:0:
109,192,135202,128,0,135216:0:0:0:0:
402,192,135202,128,0,135216:0:0:0:0:
256,192,135417,1,0,0:0:0:0:
329,192,135631,1,0,0:0:0:0:
182,192,135845,1,0,0:0:0:0:
402,192,136060,128,0,136113:0:0:0:0:
256,192,136167,128,0,136220:0:0:0:0:
109,192,136274,128,0,136327:0:0:0:0:
329,192,136488,128,0,136917:0:0:0:0:
182,192,136702,128,0,136917:0:0:0:0:
402,192,136917,1,0,0:0:0:0:
109,192,136917,1,0,0:0:0:0:
402,192,137131,128,0,137345:0:0:0:0:
475,192,137131,128,0,137238:0:0:0:0:
256,192,137131,128,0,137560:0:0:0:0:
109,192,137131,128,0,137774:0:0:0:0:
329,192,137238,128,0,137345:0:0:0:0:
182,192,137345,128,0,137452:0:0:0:0:
36,192,137452,128,0,137560:0:0:0:0:
402,192,137452,128,0,137560:0:0:0:0:
475,192,137560,128,0,137613:0:0:0:0:
182,192,137560,128,0,137774:0:0:0:0:
256,192,137667,128,0,137774:0:0:0:0:
329,192,137774,128,0,137827:0:0:0:0:
475,192,137774,128,0,137988:0:0:0:0:
109,192,137881,128,0,137988:0:0:0:0:
182,192,137988,128,0,138042:0:0:0:0:
36,192,137988,128,0,138202:0:0:0:0:
402,192,137988,128,0,138845:0:0:0:0:
256,192,138095,128,0,138202:0:0:0:0:
329,192,138202,128,0,138417:0:0:0:0:
109,192,138202,128,0,138256:0:0:0:0:
182,192,138310,128,0,138417:0:0:0:0:
256,192,138417,128,0,138845:0:0:0:0:
36,192,138417,128,0,138470:0:0:0:0:
329,192,138524,128,0,138631:0:0:0:0:
109,192,138631,128,0,138845:0:0:0:0:
182,192,138631,128,0,138685:0:0:0:0:
475,192,138738,128,0,138845:0:0:0:0:
329,192,138845,128,0,139488:0:0:0:0:
182,192,139060,128,0,139702:0:0:0:0:
36,192,139702,128,0,139774:0:0:0:0:
109,192,139917,128,0,139988:0:0:0:0:
182,192,140131,128,0,140202:0:0:0:0:
256,192,140345,128,0,140417:0:0:0:0:
329,192,140560,128,0,140988:0:0:0:0:
402,192,140988,128,0,141417:0:0:0:0:
475,192,141417,128,0,141810:0:0:0:0:
475,192,141845,128,0,141859:0:0:0:0:
36,192,142274,1,0,0:0:0:0:
109,192,142274,1,0,0:0:0:0:
256,192,142274,1,0,0:0:0:0:
182,192,142274,1,0,0:0:0:0:
329,192,142274,1,0,0:0:0:0:
402,192,142274,1,0,0:0:0:0:
475,192,142274,1,0,0:0:0:0:
