osu file format v14

[General]
AudioFilename: LeaF-Style SuperShredder 3.mp3
AudioLeadIn: 0
PreviewTime: 41078
Countdown: 0
SampleSet: Soft
StackLeniency: 0.2
Mode: 0
LetterboxInBreaks: 0
WidescreenStoryboard: 1

[Editor]
Bookmarks: 28155,95562,96485,131562
DistanceSpacing: 1
BeatDivisor: 4
GridSize: 4
TimelineZoom: 2.8

[Metadata]
Title:LeaF-Style Super Shredder 3
TitleUnicode:LeaF-Style Super〆Shredder 3
Artist:LeaF
ArtistUnicode:LeaF
Creator:ZyRiiu
Version:Complexification
Source:
Tags:Hardcore Breakcore Speedcore Mashcore reading
BeatmapID:1093511
BeatmapSetID:514881

[Difficulty]
HPDrainRate:5
CircleSize:4
OverallDifficulty:9
ApproachRate:10
SliderMultiplier:1.9
SliderTickRate:1

[Events]
//Background and Video events
0,0,"bg.jpg",0,0
//Break Periods
//Storyboard Layer 0 (Background)
//Storyboard Layer 1 (Fail)
//Storyboard Layer 2 (Pass)
//Storyboard Layer 3 (Foreground)
//Storyboard Sound Samples

[TimingPoints]
480,230.769230769231,4,2,0,35,1,0
653,-100,4,2,0,5,0,0
710,-100,4,2,0,35,0,0
1114,-100,4,2,0,5,0,0
1172,-33.3333333333333,4,2,0,35,0,0
1230,-100,4,2,0,5,0,0
1287,-66.6666666666667,4,2,0,35,0,0
1345,-100,4,2,0,5,0,0
1403,-100,4,2,0,35,0,0
1633,-50,4,2,0,35,0,0
1691,-100,4,2,0,5,0,0
1749,-50,4,2,0,35,0,0
1806,-100,4,2,0,5,0,0
1864,-100,4,2,0,35,0,0
2095,-66.6666666666667,4,2,0,35,0,0
2268,-100,4,2,0,5,0,0
2326,-100,4,2,0,35,0,0
2499,-100,4,2,0,5,0,0
2556,-100,4,2,0,35,0,0
2730,-100,4,2,0,5,0,0
2787,-100,4,2,0,35,0,0
3191,-100,4,2,0,5,0,0
3249,-100,4,2,0,35,0,0
3941,-66.6666666666667,4,2,0,35,0,0
4114,-100,4,2,0,35,0,0
4172,-100,4,2,0,35,0,0
4345,-100,4,2,0,5,0,0
4403,-100,4,2,0,35,0,0
4576,-100,4,2,0,5,0,0
4633,-100,4,2,0,35,0,0
4806,-100,4,2,0,5,0,0
4864,-100,4,2,0,35,0,0
5037,-100,4,2,0,5,0,0
5095,-100,4,2,0,35,0,0
5268,-100,4,2,0,5,0,0
5326,-100,4,2,0,35,0,0
5499,-100,4,2,0,5,0,0
5556,-100,4,2,0,35,0,0
5960,-100,4,2,0,5,0,0
6018,-100,4,2,0,35,0,0
6191,-100,4,2,0,5,0,0
6249,-100,4,2,0,35,0,0
6306,-100,4,2,0,5,0,0
6364,-100,4,2,0,35,0,0
6537,-100,4,2,0,5,0,0
6595,-100,4,2,0,35,0,0
6653,-100,4,2,0,5,0,0
6710,-100,4,2,0,35,0,0
6883,-100,4,2,0,5,0,0
6941,-100,4,2,0,35,0,0
7576,-100,4,2,0,5,0,0
7633,-133.333333333333,4,2,0,35,0,0
7806,-100,4,2,0,5,0,0
7864,-100,4,2,0,35,0,0
8037,-100,4,2,0,5,0,0
8095,-100,4,2,0,35,0,0
8268,-100,4,2,0,5,0,0
8326,-100,4,2,0,35,0,0
8556,-333.333333333333,4,2,0,35,0,0
8730,-100,4,2,0,5,0,0
8787,-100,4,2,0,35,0,0
9018,-66.6666666666667,4,2,0,35,0,0
9249,-100,4,2,0,35,0,0
10056,-50,4,2,0,35,0,0
10114,-100,4,2,0,5,0,0
10172,-200,4,2,0,35,0,0
10403,-100,4,2,0,35,0,0
10576,-100,4,2,0,5,0,0
10633,-100,4,2,0,35,0,0
11037,-100,4,2,0,5,0,0
11095,-50,4,2,0,35,0,0
11153,-100,4,2,0,5,0,0
11210,-100,4,2,0,35,0,0
11326,-300.0300030003,4,2,0,35,0,0
11499,-100,4,2,0,5,0,0
11556,-100,4,2,0,35,0,0
12018,-100,4,2,0,35,0,0
12191,-100,4,2,0,5,0,0
12249,-54.5553737043099,4,2,0,35,0,0
12422,-100,4,2,0,5,0,0
12480,-100,4,2,0,35,0,0
12653,-100,4,2,0,5,0,0
12710,-150.15015015015,4,2,0,35,0,0
12883,-100,4,2,0,5,0,0
12941,-100,4,2,0,35,0,0
13287,-41.6666666666667,4,2,0,35,0,0
13345,-100,4,2,0,5,0,0
13403,-100,4,2,0,35,0,0
14037,-100,4,2,0,5,0,0
14095,-100,4,2,0,35,0,0
14268,-100,4,2,0,5,0,0
14326,-100,4,2,0,35,0,0
14383,-100,4,2,0,5,0,0
14556,-100,4,2,0,35,0,0
14614,-100,4,2,0,5,0,0
14787,-100,4,2,0,35,0,0
15191,-100,4,2,0,5,0,0
15249,-100,4,2,0,35,0,0
15653,-100,4,2,0,5,0,0
15710,-100,4,2,0,35,0,0
16114,-100,4,2,0,5,0,0
16172,-100,4,2,0,35,0,0
17268,-100,4,2,0,5,0,0
17326,-100,4,2,0,35,0,0
17960,-100,4,2,0,5,0,0
18018,-50,4,2,0,35,0,0
18710,-200,4,2,0,35,0,0
19056,-100,4,2,0,35,0,0
20499,-100,4,2,0,5,0,0
20556,-100,4,2,0,35,0,0
20960,-100,4,2,0,5,0,0
21018,-100,4,2,0,35,0,0
21653,-100,4,2,0,5,0,0
21710,-100,4,2,0,35,0,0
21883,-100,4,2,0,5,0,0
21941,-100,4,2,0,35,0,0
22345,-100,4,2,0,5,0,0
22403,-133.333333333333,4,2,0,35,0,0
22576,-100,4,2,0,5,0,0
22633,-100,4,2,0,35,0,0
25345,-100,4,2,0,5,0,0
25403,-100,4,2,0,35,0,0
25576,-100,4,2,0,5,0,0
25633,-100,4,2,0,35,0,0
25806,-100,4,2,0,5,0,0
25864,-100,4,2,0,35,0,0
26268,-100,4,2,0,5,0,0
26326,-100,4,2,0,35,0,0
26672,-100,4,2,0,5,0,0
26710,-100,4,2,0,35,0,0
26903,-100,4,2,0,5,0,0
26941,-100,4,2,0,35,0,0
26980,-100,4,2,0,5,0,0
27018,-100,4,2,0,35,0,0
27133,-100,4,2,0,5,0,0
27172,-100,4,2,0,35,0,0
27287,-100,4,2,0,5,0,0
27403,-100,4,2,0,35,0,0
27595,-100,4,2,0,5,0,0
27633,-100,4,2,0,35,0,0
27864,-100,4,2,0,5,0,0
27941,-100,4,2,0,35,0,0
28095,-100,4,2,0,5,0,0
28172,-100,4,2,0,35,0,0
29037,-100,4,2,0,5,0,0
29095,-100,4,2,0,35,0,0
29499,-100,4,2,0,5,0,0
29556,-100,4,2,0,35,0,0
29960,-100,4,2,0,5,0,0
30018,-100,4,2,0,35,0,0
30364,-100,4,2,0,5,0,0
30403,-100,4,2,0,35,0,0
30441,-100,4,2,0,5,0,0
30480,-100,4,2,0,35,0,0
30595,-100,4,2,0,5,0,0
30633,-100,4,2,0,35,0,0
30710,-100,4,2,0,35,0,0
30826,-100,4,2,0,5,0,0
30864,-100,4,2,0,35,0,0
31287,-100,4,2,0,5,0,0
31326,-100,4,2,0,35,0,0
31364,-100,4,2,0,5,0,0
31403,-100,4,2,0,35,0,0
31576,-100,4,2,0,5,0,0
31633,-100,4,2,0,35,0,0
31864,-100,4,2,0,35,0,0
32326,-100,4,2,0,35,0,0
32499,-100,4,2,0,5,0,0
32556,-100,4,2,0,35,0,0
32730,-100,4,2,0,5,0,0
32787,-100,4,2,0,35,0,0
32903,-100,4,2,0,5,0,0
32941,-100,4,2,0,35,0,0
33095,-100,4,2,0,5,0,0
33133,-100,4,2,0,35,0,0
33403,-100,4,2,0,5,0,0
33480,-100,4,2,0,35,0,0
33653,-100,4,2,0,5,0,0
33710,-100,4,2,0,35,0,1
33883,-100,4,2,0,5,0,1
33941,-100,4,2,0,35,0,1
34114,-100,4,2,0,5,0,1
34172,-100,4,2,0,35,0,1
34460,-100,4,2,0,5,0,1
34556,-66.6666666666667,4,2,0,35,0,1
34595,-100,4,2,0,5,0,1
34633,-66.6666666666667,4,2,0,35,0,1
34710,-100,4,2,0,5,0,1
34864,-100,4,2,0,35,0,1
35249,-75.187969924812,4,2,0,35,0,1
35403,-100,4,2,0,5,0,1
35480,-100,4,2,0,35,0,1
35903,-100,4,2,0,5,0,1
35941,-100,4,2,0,35,0,1
35980,-100,4,2,0,5,0,1
36018,-100,4,2,0,35,0,1
36133,-100,4,2,0,5,0,1
36172,-100,4,2,0,35,0,1
36364,-100,4,2,0,5,0,1
36403,-50,4,2,0,35,0,1
36633,-100,4,2,0,5,0,1
36710,-50,4,2,0,35,0,1
36826,-100,4,2,0,5,0,1
36864,-100,4,2,0,35,0,1
37326,-50,4,2,0,35,0,1
37403,-100,4,2,0,5,0,1
37441,-100,4,2,0,35,0,1
37595,-100,4,2,0,5,0,1
37633,-100,4,2,0,35,0,1
37826,-100,4,2,0,5,0,1
37864,-100,4,2,0,35,0,1
38210,-100,4,2,0,5,0,1
38249,-50,4,2,0,35,0,1
38326,-100,4,2,0,5,0,1
38364,-100,4,2,0,35,0,1
38556,-100,4,2,0,5,0,1
38595,-50,4,2,0,35,0,1
38672,-100,4,2,0,5,0,1
38710,-100,4,2,0,35,0,1
38903,-100,4,2,0,5,0,1
38941,-60.0240096038415,4,2,0,35,0,1
39095,-100,4,2,0,5,0,1
39172,-100,4,2,0,35,0,1
39595,-100,4,2,0,5,0,1
39633,-100,4,2,0,35,0,1
39826,-100,4,2,0,5,0,1
39864,-100,4,2,0,35,0,1
40095,-100,4,2,0,5,0,1
40172,-133.333333333333,4,2,0,35,0,0
40632,4000.4,4,2,0,35,1,0
40632,-100,4,2,0,35,0,0
41008,-100,4,2,0,5,0,0
41101,230.769230769231,4,2,0,35,1,0
41101,-200,4,2,0,35,0,0
41504,-100,4,2,0,5,0,0
41562,-100,4,2,0,35,0,0
42024,-200,4,2,0,35,0,0
42427,-100,4,2,0,5,0,0
42485,-100,4,2,0,35,0,0
42947,-200,4,2,0,35,0,0
43120,-100,4,2,0,5,0,0
43177,-200,4,2,0,35,0,0
43351,-100,4,2,0,5,0,0
43408,-100,4,2,0,35,0,0
43524,-200,4,2,0,35,0,0
43812,-100,4,2,0,5,0,0
43870,-200,4,2,0,35,0,0
44158,-100,4,2,0,5,0,0
44216,-200,4,2,0,35,0,0
44504,-100,4,2,0,5,0,0
44562,-100,4,2,0,35,0,0
44793,-200,4,2,0,35,0,0
45658,-100,4,2,0,5,0,0
45716,-200,4,2,0,35,0,0
45889,-100,4,2,0,5,0,0
45947,-100,4,2,0,35,0,0
46408,-200,4,2,0,35,0,0
46581,-100,4,2,0,5,0,0
46639,-200,4,2,0,35,0,0
46927,-100,4,2,0,5,0,0
46985,-100,4,2,0,35,0,0
47101,-200,4,2,0,35,0,0
47274,-100,4,2,0,5,0,0
47331,-200,4,2,0,35,0,0
47504,-100,4,2,0,5,0,0
47562,-100,4,2,0,35,0,0
47966,-100,4,2,0,5,0,0
48024,-100,4,2,0,35,0,0
48427,-100,4,2,0,5,0,0
48485,-100,4,2,0,35,0,1
48658,-100,4,2,0,5,0,1
48716,-100,4,2,0,35,0,1
49120,-100,4,2,0,5,0,1
49177,-100,4,2,0,35,0,1
49581,-100,4,2,0,5,0,1
49639,-100,4,2,0,35,0,1
49812,-100,4,2,0,5,0,1
49870,-100,4,2,0,35,0,1
50043,-100,4,2,0,5,0,1
50101,-100,4,2,0,35,0,1
50735,-100,4,2,0,5,0,1
50793,-100,4,2,0,35,0,1
51081,-100,4,2,0,5,0,1
51139,-100,4,2,0,35,0,1
51197,-100,4,2,0,5,0,1
51254,-100,4,2,0,35,0,1
51312,-100,4,2,0,5,0,1
51370,-100,4,2,0,35,0,1
51427,-100,4,2,0,5,0,1
51485,-100,4,2,0,35,0,1
51543,-100,4,2,0,5,0,1
51601,-100,4,2,0,35,0,1
51658,-100,4,2,0,5,0,1
51716,-100,4,2,0,35,0,1
51774,-100,4,2,0,5,0,1
51831,-100,4,2,0,35,0,1
51889,-100,4,2,0,5,0,1
51947,-100,4,2,0,35,0,1
52351,-100,4,2,0,5,0,1
52408,-100,4,2,0,35,0,1
52581,-100,4,2,0,5,0,1
52639,-100,4,2,0,35,0,1
52812,-100,4,2,0,5,0,1
52870,-100,4,2,0,35,0,1
53735,-100,4,2,0,5,0,1
53793,-100,4,2,0,35,0,1
54197,-100,4,2,0,5,0,1
54254,-100,4,2,0,35,0,1
54427,-100,4,2,0,5,0,1
54485,-100,4,2,0,35,0,1
54658,-100,4,2,0,5,0,1
54716,-100,4,2,0,35,0,1
55812,-100,4,2,0,5,0,1
55870,-100,4,2,0,35,0,1
56043,-100,4,2,0,5,0,1
56101,-100,4,2,0,35,0,1
56274,-100,4,2,0,5,0,1
56331,-100,4,2,0,35,0,1
56504,-100,4,2,0,5,0,1
56562,-100,4,2,0,35,0,1
56966,-100,4,2,0,5,0,1
57024,-100,4,2,0,35,0,1
57197,-100,4,2,0,5,0,1
57254,-100,4,2,0,35,0,1
57427,-100,4,2,0,5,0,1
57485,-100,4,2,0,35,0,1
57889,-100,4,2,0,5,0,1
57947,-100,4,2,0,35,0,1
58120,-100,4,2,0,5,0,1
58177,-100,4,2,0,35,0,1
58351,-100,4,2,0,5,0,1
58408,-100,4,2,0,35,0,1
58812,-100,4,2,0,5,0,1
58870,-100,4,2,0,35,0,1
58927,-100,4,2,0,5,0,1
58985,-100,4,2,0,35,0,1
59043,-100,4,2,0,5,0,1
59101,-100,4,2,0,35,0,1
59735,-100,4,2,0,5,0,1
59793,-100,4,2,0,35,0,1
59966,-100,4,2,0,5,0,1
60024,-100,4,2,0,35,0,1
60197,-100,4,2,0,5,0,1
60254,-66.6666666666667,4,2,0,35,0,1
60485,-100,4,2,0,35,0,1
61120,-100,4,2,0,5,0,1
61177,-100,4,2,0,35,0,1
62101,-66.6666666666667,4,2,0,35,0,1
62331,-133.333333333333,4,2,0,35,0,1
62793,-60.0240096038415,4,2,0,35,0,1
62966,-100,4,2,0,5,0,1
63024,-66.6666666666667,4,2,0,35,0,1
63197,-100,4,2,0,5,0,1
63254,-100,4,2,0,35,0,1
63427,-100,4,2,0,5,0,1
63485,-100,4,2,0,35,0,1
63658,-100,4,2,0,5,0,1
63716,-100,4,2,0,35,0,1
63889,-100,4,2,0,5,0,1
63947,-133.333333333333,4,2,0,35,0,1
64870,-75.0187546886722,4,2,0,35,0,1
65043,-100,4,2,0,5,0,1
65101,-100,4,2,0,35,0,1
65274,-100,4,2,0,5,0,1
65331,-100,4,2,0,35,0,1
65562,-50,4,2,0,35,0,1
65735,-100,4,2,0,5,0,1
65793,-66.6666666666667,4,2,0,35,0,1
66081,-100,4,2,0,5,0,1
66139,-66.6666666666667,4,2,0,35,0,1
66197,-100,4,2,0,5,0,1
66254,-66.6666666666667,4,2,0,35,0,1
66312,-100,4,2,0,5,0,1
66370,-66.6666666666667,4,2,0,35,0,1
66427,-100,4,2,0,5,0,1
66485,-200,4,2,0,35,0,1
66658,-100,4,2,0,5,0,1
66716,-50,4,2,0,35,0,1
66889,-100,4,2,0,5,0,1
66947,-100,4,2,0,35,0,1
67120,-100,4,2,0,5,0,1
67177,-100,4,2,0,35,0,1
67408,-66.6666666666667,4,2,0,35,0,1
67581,-100,4,2,0,5,0,1
67639,-100,4,2,0,35,0,1
67870,-75.0187546886722,4,2,0,35,0,1
68043,-100,4,2,0,5,0,1
68101,-50,4,2,0,35,0,1
68562,-100,4,2,0,35,0,1
68966,-100,4,2,0,5,0,1
69024,-100,4,2,0,35,0,1
69197,-100,4,2,0,5,0,1
69254,-100,4,2,0,35,0,1
69427,-100,4,2,0,5,0,1
69485,-100,4,2,0,35,0,1
69543,-100,4,2,0,5,0,1
69601,-100,4,2,0,35,0,1
69658,-100,4,2,0,5,0,1
69716,-66.6666666666667,4,2,0,35,0,1
69774,-100,4,2,0,5,0,1
69831,-66.6666666666667,4,2,0,35,0,1
69889,-100,4,2,0,5,0,1
69947,-66.6666666666667,4,2,0,35,0,1
70004,-100,4,2,0,5,0,1
70062,-66.6666666666667,4,2,0,35,0,1
70120,-100,4,2,0,5,0,1
70177,-100,4,2,0,35,0,1
70581,-100,4,2,0,5,0,1
70639,-100,4,2,0,35,0,1
70870,-50,4,2,0,35,0,1
71043,-100,4,2,0,5,0,1
71101,-100,4,2,0,35,0,1
71331,-200,4,2,0,35,0,1
71504,-100,4,2,0,5,0,1
71562,-100,4,2,0,35,0,1
71966,-100,4,2,0,5,0,1
72024,-66.6666666666667,4,2,0,35,0,1
72081,-100,4,2,0,5,0,1
72139,-100,4,2,0,35,0,1
72312,-100,4,2,0,5,0,1
72370,-100,4,2,0,35,0,1
72658,-100,4,2,0,5,0,1
72716,-100,4,2,0,35,0,1
73120,-100,4,2,0,5,0,1
73177,-100,4,2,0,35,0,1
73408,-66.6666666666667,4,2,0,35,0,1
73466,-100,4,2,0,5,0,1
73524,-66.6666666666667,4,2,0,35,0,1
73581,-100,4,2,0,5,0,1
73639,-66.6666666666667,4,2,0,35,0,1
73697,-100,4,2,0,5,0,1
73754,-66.6666666666667,4,2,0,35,0,1
73812,-100,4,2,0,5,0,1
73870,-100,4,2,0,35,0,1
74101,-133.333333333333,4,2,0,35,0,1
74274,-100,4,2,0,5,0,1
74331,-100,4,2,0,35,0,1
74504,-100,4,2,0,5,0,1
74562,-100,4,2,0,35,0,1
75197,-100,4,2,0,5,0,1
75254,-100,4,2,0,35,0,1
75370,-66.6666666666667,4,2,0,35,0,1
75543,-100,4,2,0,5,0,1
75601,-100,4,2,0,35,0,1
75947,-100,4,2,0,35,0,1
76120,-100,4,2,0,5,0,1
76177,-100,4,2,0,35,0,1
76351,-100,4,2,0,5,0,1
76408,-66.6666666666667,4,2,0,35,0,1
76524,-100,4,2,0,35,0,1
76812,-100,4,2,0,5,0,1
76870,-66.6666666666667,4,2,0,35,0,1
77562,-100,4,2,0,35,0,1
77966,-100,4,2,0,5,0,1
78024,-100,4,2,0,35,0,1
78197,-100,4,2,0,5,0,1
78254,-100,4,2,0,35,0,1
78485,-66.6666666666667,4,2,0,35,0,1
78658,-100,4,2,0,5,0,1
78716,-50,4,2,0,35,0,1
78774,-100,4,2,0,5,0,1
78831,-100,4,2,0,35,0,1
79004,-100,4,2,0,5,0,1
79062,-100,4,2,0,35,0,1
79120,-100,4,2,0,5,0,1
79177,-100,4,2,0,35,0,1
79235,-100,4,2,0,5,0,1
79293,-100,4,2,0,35,0,1
79351,-100,4,2,0,5,0,1
79408,-100,4,2,0,35,0,1
79581,-100,4,2,0,5,0,1
79639,-100,4,2,0,35,0,1
80043,-100,4,2,0,5,0,1
80101,-100,4,2,0,35,0,1
80504,-100,4,2,0,5,0,1
80562,-100,4,2,0,35,0,1
80735,-100,4,2,0,5,0,1
80793,-100,4,2,0,35,0,1
80966,-100,4,2,0,5,0,1
81024,-100,4,2,0,35,0,1
81197,-100,4,2,0,5,0,1
81254,-100,4,2,0,35,0,1
81427,-100,4,2,0,5,0,1
81485,-100,4,2,0,35,0,1
81658,-100,4,2,0,5,0,1
81716,-100,4,2,0,35,0,1
81889,-100,4,2,0,5,0,1
81947,-100,4,2,0,35,0,1
82524,-66.6666666666667,4,2,0,35,0,1
82754,-100,4,2,0,35,0,1
83447,-100,4,2,0,5,0,1
83562,-100,4,2,0,35,0,1
84197,-100,4,2,0,5,0,1
84254,-100,4,2,0,35,0,1
84427,-100,4,2,0,5,0,1
84485,-66.6666666666667,4,2,0,35,0,1
84543,-100,4,2,0,5,0,1
84601,-66.6666666666667,4,2,0,35,0,1
84658,-100,4,2,0,5,0,1
84716,-66.6666666666667,4,2,0,35,0,1
84774,-100,4,2,0,5,0,1
84831,-66.6666666666667,4,2,0,35,0,1
84889,-100,4,2,0,5,0,1
84947,-100,4,2,0,35,0,1
85351,-100,4,2,0,5,0,1
85408,-100,4,2,0,35,0,1
86274,-100,4,2,0,5,0,1
86331,-100,4,2,0,35,0,1
87197,-100,4,2,0,5,0,1
87254,-100,4,2,0,5,0,1
88120,-100,4,2,0,5,0,1
88177,-100,4,2,0,35,0,1
89966,-100,4,2,0,5,0,1
90024,-100,4,2,0,35,0,1
90889,-100,4,2,0,5,0,1
90947,-100,4,2,0,35,0,1
91812,-100,4,2,0,5,0,1
91870,-133.333333333333,4,2,0,35,0,1
92274,-100,4,2,0,5,0,1
92331,-133.333333333333,4,2,0,35,0,1
92735,-100,4,2,0,5,0,1
92793,-100,4,2,0,35,0,1
95504,-100,4,2,0,5,0,0
95562,-100,4,2,0,35,0,0
96427,-100,4,2,0,5,0,0
96485,-100,4,2,0,35,0,0
96658,-100,4,2,0,5,0,0
96716,-100,4,2,0,35,0,0
96889,-100,4,2,0,5,0,0
96947,-100,4,2,0,35,0,0
97120,-100,4,2,0,5,0,0
97177,-100,4,2,0,35,0,0
97351,-100,4,2,0,5,0,0
97408,-100,4,2,0,35,0,0
97581,-100,4,2,0,5,0,0
97639,-100,4,2,0,35,0,0
97812,-100,4,2,0,5,0,0
97870,-100,4,2,0,35,0,0
98274,-100,4,2,0,5,0,0
98331,-100,4,2,0,35,0,0
101735,-100,4,2,0,5,0,0
101793,-100,4,2,0,35,0,0
102197,-100,4,2,0,5,0,0
102254,-100,4,2,0,35,0,0
102427,-100,4,2,0,5,0,0
102485,-100,4,2,0,35,0,0
102658,-100,4,2,0,5,0,0
102716,-100,4,2,0,35,0,0
103120,-100,4,2,0,5,0,0
103177,-100,4,2,0,35,0,0
103581,-100,4,2,0,5,0,0
103639,-100,4,2,0,35,0,0
103927,-100,4,2,0,5,0,0
103985,-100,4,2,0,35,0,0
104043,-100,4,2,0,5,0,0
104101,-100,4,2,0,35,0,0
104158,-100,4,2,0,5,0,0
104216,-100,4,2,0,35,0,0
104274,-100,4,2,0,5,0,0
104331,-100,4,2,0,35,0,0
104504,-100,4,2,0,5,0,0
104562,-100,4,2,0,35,0,0
105427,-100,4,2,0,5,0,0
105485,-100,4,2,0,35,0,0
105543,-100,4,2,0,5,0,0
105601,-100,4,2,0,35,0,0
105658,-100,4,2,0,5,0,0
105716,-100,4,2,0,35,0,0
106120,-100,4,2,0,5,0,0
106177,-66.6666666666667,4,2,0,35,0,0
106351,-100,4,2,0,5,0,0
106408,-66.6666666666667,4,2,0,35,0,0
106581,-100,4,2,0,5,0,0
106639,-100,4,2,0,35,0,0
107043,-100,4,2,0,5,0,0
107101,-100,4,2,0,35,0,0
107966,-100,4,2,0,5,0,0
108024,-100,4,2,0,35,0,0
108197,-100,4,2,0,5,0,0
108254,-100,4,2,0,35,0,0
108658,-100,4,2,0,5,0,0
108716,-66.6666666666667,4,2,0,35,0,0
108947,-100,4,2,0,35,0,0
109177,-66.6666666666667,4,2,0,35,0,0
109466,-100,4,2,0,5,0,0
109524,-66.6666666666667,4,2,0,35,0,0
109581,-100,4,2,0,5,0,0
109639,-100,4,2,0,35,0,0
111197,-100,4,2,0,5,0,0
111254,-100,4,2,0,35,0,0
111427,-100,4,2,0,5,0,0
111485,-100,4,2,0,35,0,0
111774,-100,4,2,0,5,0,0
111831,-100,4,2,0,35,0,0
112120,-100,4,2,0,5,0,0
112177,-100,4,2,0,35,0,0
113274,-100,4,2,0,5,0,0
113331,-100,4,2,0,35,0,0
113504,-100,4,2,0,5,0,0
113562,-100,4,2,0,35,0,0
113851,-100,4,2,0,5,0,0
113908,-100,4,2,0,35,0,0
113966,-100,4,2,0,5,0,0
114024,-100,4,2,0,35,0,0
114197,-100,4,2,0,5,0,0
114254,-100,4,2,0,35,0,0
114427,-100,4,2,0,5,0,0
114485,-100,4,2,0,35,0,0
114774,-100,4,2,0,5,0,0
114831,-100,4,2,0,35,0,0
114889,-100,4,2,0,5,0,0
114947,-100,4,2,0,35,0,0
115120,-100,4,2,0,5,0,0
115177,-100,4,2,0,35,0,0
115351,-100,4,2,0,5,0,0
115408,-100,4,2,0,35,0,0
115581,-100,4,2,0,5,0,0
115639,-100,4,2,0,35,0,0
115812,-100,4,2,0,5,0,0
115870,-100,4,2,0,35,0,0
116043,-100,4,2,0,5,0,0
116101,-100,4,2,0,35,0,0
116274,-100,4,2,0,5,0,0
116331,-100,4,2,0,35,0,0
116620,-100,4,2,0,5,0,0
116677,-100,4,2,0,35,0,0
116735,-100,4,2,0,5,0,0
116793,-100,4,2,0,35,0,0
116966,-100,4,2,0,5,0,0
117024,-100,4,2,0,35,0,0
117197,-100,4,2,0,5,0,0
117254,-100,4,2,0,35,0,0
117543,-100,4,2,0,5,0,0
117601,-100,4,2,0,35,0,0
117658,-100,4,2,0,5,0,0
117716,-100,4,2,0,35,0,0
117889,-100,4,2,0,5,0,0
117947,-100,4,2,0,35,0,0
118120,-100,4,2,0,5,0,0
118177,-100,4,2,0,35,0,0
118235,-100,4,2,0,5,0,0
118293,-100,4,2,0,35,0,0
118351,-100,4,2,0,5,0,0
118408,-100,4,2,0,35,0,0
118812,-100,4,2,0,5,0,0
118870,-100,4,2,0,35,0,0
119043,-100,4,2,0,5,0,0
119101,-100,4,2,0,35,0,0
119158,-100,4,2,0,5,0,0
119216,-100,4,2,0,35,0,0
119274,-100,4,2,0,5,0,0
119331,-100,4,2,0,35,0,0
119735,-100,4,2,0,5,0,0
119793,-100,4,2,0,35,0,0
119966,-100,4,2,0,5,0,0
120024,-100,4,2,0,35,0,0
120081,-100,4,2,0,5,0,0
120139,-100,4,2,0,35,0,0
120197,-100,4,2,0,5,0,0
120254,-100,4,2,0,35,0,0
120485,-100,4,2,0,35,0,0
120658,-100,4,2,0,5,0,0
120716,-100,4,2,0,35,0,0
120889,-100,4,2,0,5,0,0
120947,-100,4,2,0,35,0,0
121408,-100,4,2,0,5,0,0
121466,-100,4,2,0,35,0,0
127870,-100,4,2,0,5,0,0
127927,-168.918918918919,4,2,0,35,0,0
127985,-168.918918918919,4,2,0,5,0,0

[HitObjects]
92,64,480,6,0,P|108:116|212:180,1,142.5
220,164,710,5,0,0:0:0:0:
210,117,768,1,0,0:0:0:0:
180,81,826,1,0,0:0:0:0:
137,61,883,1,0,0:0:0:0:
90,63,941,6,0,P|108:112|128:136,3,47.5
105,108,1172,6,0,P|156:164|248:148,1,142.5
268,116,1287,2,0,P|292:168|264:224,1,71.2500027179719
256,284,1403,5,0,0:0:0:0:
444,192,1518,1,0,0:0:0:0:
444,192,1633,2,0,P|402:170|378:130,1,95
392,60,1749,2,0,P|433:81|457:121,1,95
444,192,1864,5,0,0:0:0:0:
220,154,1980,1,0,0:0:0:0:
172,324,2095,2,0,B|72:312|68:220|68:220|128:196,1,213.750008153916
292,184,2326,6,0,P|344:232|344:308,1,142.5
276,264,2556,2,0,B|212:216|212:216|224:128,1,142.5
244,44,2787,1,0,0:0:0:0:
292,184,2903,1,0,0:0:0:0:
347,300,3018,6,0,P|343:230|292:184,1,142.5
160,300,3249,5,0,0:0:0:0:
20,368,3480,1,0,0:0:0:0:
256,108,3710,1,0,0:0:0:0:
347,300,3941,2,0,B|296:344|296:344|296:240|176:256,1,213.750008153916
216,332,4172,6,0,P|280:264|268:208,1,142.5
205,253,4403,2,0,B|148:176|148:176|224:176,1,142.5
337,176,4633,2,0,L|193:176,1,142.5
124,176,4864,2,0,P|156:116|232:116,1,142.5
264,176,5095,2,0,L|336:304,1,142.5
372,360,5326,2,0,P|404:308|364:236,1,142.5
338,177,5556,5,0,0:0:0:0:
333,300,5672,1,0,0:0:0:0:
305,237,5787,6,0,L|160:236,1,142.5
80,236,6018,2,0,P|108:180|184:160,1,142.5
208,225,6249,2,0,L|152:238,1,47.5
207,224,6364,2,0,P|179:280|103:300,1,142.5
80,235,6595,2,0,L|135:222,1,47.5
248,184,6710,2,0,B|312:148|312:148|400:192,1,142.5
324,240,6941,5,0,0:0:0:0:
282,262,6999,1,0,0:0:0:0:
240,285,7056,1,0,0:0:0:0:
198,308,7114,1,0,0:0:0:0:
208,316,7172,5,0,0:0:0:0:
254,304,7230,1,0,0:0:0:0:
300,293,7287,1,0,0:0:0:0:
346,282,7345,1,0,0:0:0:0:
351,297,7403,6,0,L|223:361,1,142.5
120,332,7633,2,0,P|132:272|176:228,1,106.875004076958
340,124,7864,6,0,P|324:64|252:36,1,142.5
225,110,8095,2,0,L|160:238,1,142.5
160,312,8326,1,0,0:0:0:0:
204,295,8383,1,0,0:0:0:0:
249,279,8441,1,0,0:0:0:0:
293,262,8499,1,0,0:0:0:0:
338,246,8556,2,0,L|380:228,1,42.7499986953736
488,180,8787,5,0,0:0:0:0:
340,60,8903,1,0,0:0:0:0:
264,192,9018,2,0,L|188:324,1,142.5
100,352,9249,6,0,L|68:304,1,47.5
112,316,9364,2,0,L|92:268,1,47.5
120,236,9480,1,0,0:0:0:0:
156,208,9537,1,0,0:0:0:0:
204,200,9595,1,0,0:0:0:0:
248,216,9653,1,0,0:0:0:0:
280,284,9710,5,0,0:0:0:0:
356,224,9826,1,0,0:0:0:0:
404,144,9941,1,0,0:0:0:0:
364,60,10056,2,0,P|300:104|296:136,1,95
343,203,10172,2,0,L|363:235,3,23.75
408,292,10403,2,0,B|420:312|420:312|360:356|296:312,1,142.5
232,256,10633,5,0,0:0:0:0:
196,225,10691,1,0,0:0:0:0:
193,179,10749,1,0,0:0:0:0:
261,95,10864,2,0,P|309:127|343:207,1,142.5
311,285,11095,6,0,P|264:288|231:253,1,95
246,210,11210,1,0,0:0:0:0:
294,202,11268,1,0,0:0:0:0:
342,202,11326,2,0,P|364:208|376:236,1,47.5
312,284,11556,6,0,P|256:296|188:236,1,142.5
164,136,11787,1,0,0:0:0:0:
248,68,11903,1,0,0:0:0:0:
332,136,12018,2,0,P|344:148|340:172,6,23.75
256,192,12249,6,0,B|236:208|208:208|208:208|208:264|144:264|108:264|108:264|108:224|168:192,1,261.25
212,136,12480,2,0,P|272:124|324:180,1,142.5
264,260,12710,2,0,P|208:244|188:208,1,95
256,192,12941,6,0,L|200:208,1,47.5
244,228,13056,2,0,L|196:216,1,47.5
216,252,13172,2,0,L|176:216,1,47.5
180,260,13287,2,0,P|239:233|256:191,1,114
212,136,13403,5,0,0:0:0:0:
288,192,13518,1,0,0:0:0:0:
364,248,13633,1,0,0:0:0:0:
444,72,13864,6,0,L|328:168,1,142.5
264,140,14095,2,0,P|336:92|400:124,1,142.5
364,248,14326,2,0,L|288:292,1,47.5
160,360,14556,2,0,L|220:328,1,47.5
314,219,14787,6,0,P|266:99|234:243,1,332.5
256,172,15249,5,0,0:0:0:0:
256,314,15480,2,0,L|256:166,1,142.5
256,100,15710,5,0,0:0:0:0:
300,113,15768,1,0,0:0:0:0:
327,152,15826,1,0,0:0:0:0:
324,198,15883,1,0,0:0:0:0:
256,244,15941,2,0,P|204:224|188:144,1,142.5
220,108,16172,5,0,0:0:0:0:
64,108,16287,1,0,0:0:0:0:
140,256,16403,2,0,P|176:292|260:312,1,95
336,336,16633,6,0,L|380:300,1,47.5
339,300,16749,2,0,L|368:251,1,47.5
329,266,16864,2,0,L|339:210,1,47.5
308,238,16980,2,0,L|298:181,1,47.5
292,112,17095,6,0,B|272:96|272:96|208:96|184:160,1,142.5
184,236,17326,2,0,P|216:228|220:227,6,23.75
72,268,17556,1,0,0:0:0:0:
108,164,17787,6,0,P|136:104|220:96,1,142.5
340,224,18018,6,0,P|380:192|396:148,1,95
320,64,18133,2,0,P|280:96|264:140,1,95
372,212,18249,2,0,P|395:166|391:119,1,95
287,75,18364,2,0,P|264:121|268:168,1,95
340,224,18480,6,0,B|216:304|216:304|112:176,1,285
144,124,18710,2,0,L|192:176,1,71.25
256,244,18941,5,0,0:0:0:0:
340,304,19056,2,0,P|404:276|408:216,1,95
484,84,19403,1,0,0:0:0:0:
484,84,19518,1,0,0:0:0:0:
328,120,19633,2,0,P|336:200|296:244,1,142.5
248,164,19864,6,0,L|352:192,1,95
464,220,20095,1,0,0:0:0:0:
368,356,20210,1,0,0:0:0:0:
256,260,20326,2,0,P|184:224|156:168,1,142.5
232,36,20556,1,0,0:0:0:0:
36,96,20672,1,0,0:0:0:0:
156,172,20787,6,0,L|156:320,1,142.5
256,260,21018,1,0,0:0:0:0:
336,192,21133,1,0,0:0:0:0:
284,136,21249,1,0,0:0:0:0:
364,68,21364,1,0,0:0:0:0:
364,68,21480,2,0,P|404:136|412:216,1,142.5
380,264,21710,6,0,P|316:256|268:176,1,142.5
364,68,21941,1,0,0:0:0:0:
196,64,22056,1,0,0:0:0:0:
64,144,22172,2,0,P|104:208|164:232,1,142.5
64,144,22403,2,0,P|136:156|164:172,1,106.875004076958
256,192,22633,12,0,25345,0:0:0:0:
180,192,25403,6,0,P|224:124|288:124,1,142.5
256,196,25633,2,0,B|312:192|312:192|396:256,1,142.5
472,320,25864,1,0,0:0:0:0:
304,320,25980,1,0,0:0:0:0:
128,320,26095,2,0,P|140:248|190:185,1,142.5
388,192,26326,5,0,0:0:0:0:
288,72,26480,1,0,0:0:0:0:
272,72,26556,2,0,P|239:78|184:140,1,95
101,91,26787,2,0,L|199:118,1,95
270,70,27018,2,0,P|237:104|192:116,1,95
92,152,27172,2,0,P|92:196|152:240,1,95
160,168,27403,5,0,0:0:0:0:
180,160,27480,2,0,P|224:156|300:112,1,126.666666666667
316,104,27710,2,0,L|280:232,1,126.666666666667
260,304,27941,2,0,P|328:288|376:220,1,126.666666666667
392,96,28172,6,0,P|372:40|296:24,1,142.5
260,56,28403,1,0,0:0:0:0:
241,98,28460,1,0,0:0:0:0:
252,144,28518,1,0,0:0:0:0:
288,173,28576,1,0,0:0:0:0:
336,176,28633,2,0,B|416:156|428:204|452:228|440:272|416:304|376:308|376:308|328:316|288:256,1,332.5
196,128,29095,5,0,0:0:0:0:
116,264,29210,1,0,0:0:0:0:
256,192,29326,2,0,P|276:128|232:56,1,142.5
136,64,29556,1,0,0:0:0:0:
56,232,29787,2,0,L|188:304,1,142.5
288,356,30018,5,0,0:0:0:0:
400,228,30172,1,0,0:0:0:0:
384,220,30249,2,0,L|300:168,1,95
136,64,30480,2,0,P|128:112|88:164,1,95
56,232,30633,1,0,0:0:0:0:
181,300,30710,2,0,P|228:346|288:357,1,126.666666666667
327,191,31095,5,0,0:0:0:0:
352,168,31172,2,0,P|388:140|456:132,1,95
469,197,31326,2,0,P|449:203|414:199,1,31.6666666666667
432,204,31403,6,0,B|368:232|360:280|360:280|320:292|320:292,1,142.5
276,336,31633,2,0,P|260:272|308:220,1,142.5
352,168,31864,5,0,0:0:0:0:
308,156,31922,1,0,0:0:0:0:
260,168,31980,1,0,0:0:0:0:
224,200,32037,1,0,0:0:0:0:
200,244,32095,1,0,0:0:0:0:
192,292,32153,1,0,0:0:0:0:
200,340,32210,1,0,0:0:0:0:
232,376,32268,1,0,0:0:0:0:
188,360,32326,6,0,L|120:212,1,142.5
108,156,32556,2,0,P|168:160|228:92,1,142.5
148,88,32787,2,0,P|88:80|36:116,1,126.666666666667
224,105,33018,2,0,L|292:105,1,63.3333333333333
372,100,33172,1,0,0:0:0:0:
400,112,33249,2,0,P|380:164|304:200,1,126.666666666667
320,120,33480,2,0,P|264:144|248:220,1,142.5
320,198,33710,6,0,P|308:262|228:290,1,142.5
122,287,33941,2,0,L|254:214,1,142.5
40,192,34172,1,0,0:0:0:0:
224,105,34287,2,0,P|280:132|326:229,1,142.5
244,296,34556,6,0,P|200:276|180:240,1,47.5000018119813
164,182,34633,2,0,P|177:128|212:106,1,95.0000036239625
308,40,34864,1,0,0:0:0:0:
120,40,35018,1,0,0:0:0:0:
4,168,35095,1,0,0:0:0:0:
173,167,35249,2,0,B|105:171|101:215|101:215|149:223|181:151,1,189.524992191811
308,40,35480,5,0,0:0:0:0:
268,160,35556,1,0,0:0:0:0:
320,296,35710,2,0,P|363:339|448:312,1,158.333333333333
504,256,35941,2,0,P|488:244|464:240,1,31.6666666666667
391,268,36018,2,0,P|359:231|305:223,1,95
232,283,36172,2,0,B|174:270|174:270|184:164,1,158.333333333333
216,100,36403,6,0,B|268:164|268:164|320:128|384:160,2,190
108,20,36710,2,0,P|52:84|72:192,1,190
144,304,36864,5,0,0:0:0:0:
288,284,36941,1,0,0:0:0:0:
392,192,37095,1,0,0:0:0:0:
208,248,37171,1,0,0:0:0:0:
136,228,37326,2,0,P|188:176|244:176,1,126.666666666667
380,176,37441,5,0,0:0:0:0:
288,284,37556,2,0,L|252:272,1,31.6666666666667
136,228,37633,2,0,P|132:144|192:88,1,158.333333333333
256,64,37864,1,0,0:0:0:0:
256,168,38018,2,0,P|284:228|380:256,1,158.333333333333
425,312,38249,6,0,P|448:256|413:202,1,126.666666666667
356,160,38364,2,0,P|416:128|488:184,1,158.333333333333
416,204,38595,2,0,P|380:232|300:208,1,126.666666666667
256,168,38710,1,0,0:0:0:0:
144,96,38787,2,0,P|148:56|116:4,1,95
52,32,38941,2,0,B|68:76|68:76|56:104|56:104|80:192|184:176,1,211.026666312465
300,124,39172,5,0,0:0:0:0:
196,252,39249,1,0,0:0:0:0:
72,217,39403,2,0,P|84:137|150:94,1,158.333333333333
324,100,39633,5,0,0:0:0:0:
344,100,39710,2,0,P|384:132|384:176,1,95
368,252,39864,2,0,B|417:252|417:252|397:316|313:336,1,190
156,320,40172,6,0,P|120:284|112:232,1,95.0000036239625
225,173,40403,2,0,P|261:209|269:261,1,95.0000036239625
196,252,40632,2,0,L|184:232,1,17.812500679493
101,74,41101,6,0,P|164:100|228:188,1,166.25
256,244,41562,1,0,0:0:0:0:
480,148,41793,1,0,0:0:0:0:
260,112,42024,2,0,P|196:104|152:196,1,166.25
148,260,42485,5,0,0:0:0:0:
320,336,42716,1,0,0:0:0:0:
348,316,42831,1,0,0:0:0:0:
364,288,42947,2,0,P|380:240|376:200,1,71.25
324,168,43177,2,0,P|308:216|312:256,1,71.25
280,104,43408,5,0,0:0:0:0:
280,104,43524,2,0,B|232:144|168:112,1,118.75
100,88,43870,2,0,B|92:144|92:144|144:184,1,118.75
252,219,44216,6,0,L|282:95,1,118.75
372,36,44562,1,0,0:0:0:0:
400,56,44677,1,0,0:0:0:0:
412,88,44793,2,0,B|392:144|316:192|316:192|340:240|300:296|264:300|216:296|188:252,1,356.25
252,219,45716,6,0,P|248:184|276:136,1,71.25
232,80,45947,1,0,0:0:0:0:
203,102,46004,1,0,0:0:0:0:
188,134,46062,2,0,P|172:172|176:216,1,47.5
192,328,46177,1,0,0:0:0:0:
260,152,46408,2,0,P|300:112|304:80,1,71.25
352,44,46639,2,0,P|376:108|356:156,1,118.75
216,252,46985,5,0,0:0:0:0:
216,252,47101,2,0,L|164:176,1,71.25
144,128,47331,2,0,P|188:124|224:144,1,71.25
272,352,47562,6,0,P|376:320|468:128,1,332.5
452,52,48024,2,0,B|312:112|312:112|224:272,1,332.5
180,372,48485,6,0,B|148:328|148:328|148:224,1,142.5
184,136,48716,1,0,0:0:0:0:
145,109,48773,1,0,0:0:0:0:
106,86,48831,1,0,0:0:0:0:
24,168,48947,2,0,L|156:244,1,142.5
368,364,49177,5,0,0:0:0:0:
484,140,49293,1,0,0:0:0:0:
296,83,49408,2,0,P|236:79|183:136,1,142.5
152,240,49639,2,0,B|228:208|228:208|272:136,1,142.5
296,83,49870,2,0,P|334:129|319:205,1,142.5
232,304,50101,5,0,0:0:0:0:
192,272,50158,1,0,0:0:0:0:
151,239,50216,1,0,0:0:0:0:
4,116,50331,1,0,0:0:0:0:
296,84,50447,1,0,0:0:0:0:
53,342,50562,2,0,L|153:237,1,142.5
216,169,50793,2,0,L|147:243,1,95
308,185,51024,6,0,L|355:196,1,47.5
200,156,51139,2,0,L|149:142,1,47.5
304,146,51254,2,0,L|347:125,1,47.5
203,194,51369,2,0,L|155:216,1,47.5
277,119,51485,2,0,L|296:75,1,47.5
230,221,51600,2,0,L|207:268,1,47.5
239,116,51716,2,0,L|225:70,1,47.5
268,224,51831,2,0,L|281:275,1,47.5
392,224,51947,5,0,0:0:0:0:
256,360,52062,1,0,0:0:0:0:
101,256,52177,2,0,P|100:176|148:144,1,142.5
256,144,52408,2,0,B|332:144|332:144|408:184,1,142.5
512,236,52639,2,0,P|444:288|376:308,1,142.5
256,360,52870,5,0,0:0:0:0:
332,144,52985,2,0,P|380:164|408:200,1,95
124,272,53331,1,0,0:0:0:0:
46,152,53562,2,0,L|126:276,1,142.5
212,384,53793,5,0,0:0:0:0:
256,168,53908,1,0,0:0:0:0:
408,40,54024,2,0,B|440:108|440:108|416:176,1,142.5
392,248,54254,2,0,P|456:236|492:168,1,142.5
439,100,54485,2,0,P|375:112|339:180,1,142.5
340,296,54716,5,0,0:0:0:0:
228,184,54831,1,0,0:0:0:0:
116,84,54947,5,0,0:0:0:0:
439,100,55177,1,0,0:0:0:0:
340,296,55408,2,0,L|324:324,6,23.75
376,224,55639,2,0,P|416:272|392:352,1,142.5
148,348,55870,6,0,B|104:320|104:320|128:212,1,142.5
172,120,56101,2,0,P|240:144|288:204,1,142.5
399,345,56331,2,0,P|417:278|375:223,1,142.5
172,120,56562,5,0,0:0:0:0:
376,36,56677,1,0,0:0:0:0:
376,224,56793,2,0,P|328:260|248:268,1,142.5
120,184,57024,2,0,B|84:116|84:116|112:56,1,142.5
223,55,57254,2,0,P|251:119|227:184,1,142.5
116,272,57485,5,0,0:0:0:0:
227,351,57601,1,0,0:0:0:0:
332,208,57716,2,0,L|416:88,1,142.5
332,208,57947,2,0,P|288:136|232:108,1,142.5
127,105,58177,2,0,B|167:137|171:173|171:173|203:197|235:181,1,142.5
413,91,58408,5,0,0:0:0:0:
228,264,58524,1,0,0:0:0:0:
324,360,58639,1,0,0:0:0:0:
432,228,58754,6,0,L|384:196,1,47.5
240,108,58870,2,0,L|200:136,1,47.5
228,264,58985,2,0,L|272:240,1,47.5
464,132,59101,5,0,0:0:0:0:
324,360,59216,1,0,0:0:0:0:
508,336,59331,1,0,0:0:0:0:
292,176,59447,1,0,0:0:0:0:
172,64,59562,6,0,P|128:112|144:184,1,142.5
268,260,59793,2,0,B|340:244|340:244|383:190,1,142.5
462,72,60024,2,0,L|382:192,1,142.5
280,336,60254,6,0,P|216:316|204:272,1,71.2500027179719
200,232,60370,2,0,P|249:186|293:198,1,71.2500027179719
382,190,60485,6,0,L|424:128,1,47.5
382,190,60601,2,0,L|424:128,1,47.5
382,190,60716,2,0,L|424:128,1,47.5
462,72,60947,2,0,L|382:192,1,142.5
280,336,61177,5,0,0:0:0:0:
191,190,61293,1,0,0:0:0:0:
280,48,61408,1,0,0:0:0:0:
280,48,61524,1,0,0:0:0:0:
280,48,61639,1,0,0:0:0:0:
64,128,61870,6,0,L|83:180,1,47.5
64,128,61985,2,0,L|105:159,1,47.5
232,260,62101,2,0,L|287:304,1,71.2500027179719
348,344,62216,2,0,P|360:292|340:252,1,71.2500027179719
312,196,62331,6,0,L|352:184,1,35.625001358986
312,172,62447,2,0,L|345:147,1,35.625001358986
304,148,62562,2,0,L|326:113,1,35.625001358986
288,128,62677,2,0,L|297:87,1,35.625001358986
168,92,62793,6,0,B|184:75|127:70|121:112|121:112|137:149|137:149|104:149|117:184|117:184|88:186|88:186|85:239,1,237.404999601524
153,252,63024,2,0,P|100:297|15:211,1,213.750008153916
153,252,63254,6,0,B|224:304|224:304|288:304,1,142.5
448,304,63485,2,0,L|488:168,1,142.5
512,100,63716,2,0,P|444:108|420:196,1,142.5
413,169,63947,6,0,L|464:143,1,35.625001358986
416,148,64062,2,0,L|457:110,1,35.625001358986
412,128,64177,2,0,L|442:81,1,35.625001358986
340,156,64293,5,0,0:0:0:0:
340,156,64408,1,0,0:0:0:0:
340,156,64524,1,0,0:0:0:0:
264,168,64639,6,0,L|213:142,1,35.625001358986
261,146,64754,2,0,L|219:108,1,35.625001358986
260,124,64870,2,0,B|232:84|232:84|148:104|180:196,1,190
204,264,65101,6,0,P|256:324|320:316,1,142.5
400,280,65331,2,0,L|440:252,1,47.5
438,252,65447,2,0,L|400:280,1,47.5
313,319,65562,2,0,B|184:64,1,285
64,168,65793,5,0,0:0:0:0:
240,168,65908,1,0,0:0:0:0:
40,236,66024,2,0,L|112:212,1,71.2500027179719
240,168,66139,2,0,P|228:208|192:240,1,71.2500027179719
153,126,66254,2,0,P|165:86|201:54,1,71.2500027179719
240,168,66370,2,0,L|172:192,1,71.2500027179719
200,300,66485,6,0,P|252:284|272:256,1,71.25
366,192,66716,2,0,P|266:144|262:272,1,285
296,209,66947,6,0,P|308:152|384:124,1,142.5
412,140,67177,5,0,0:0:0:0:
434,175,67234,1,0,0:0:0:0:
431,217,67292,1,0,0:0:0:0:
404,249,67350,1,0,0:0:0:0:
364,260,67408,2,0,B|263:273|263:273|138:226,1,213.750008153916
132,212,67639,5,0,0:0:0:0:
157,191,67696,1,0,0:0:0:0:
189,182,67754,1,0,0:0:0:0:
221,187,67812,1,0,0:0:0:0:
264,256,67870,6,0,B|192:256|192:256|156:304|84:276,1,190
20,244,68101,2,0,P|56:212|116:212,1,95
19,244,68216,2,0,P|54:212|101:207,1,95
132,212,68331,5,0,0:0:0:0:
164,217,68389,1,0,0:0:0:0:
196,208,68447,1,0,0:0:0:0:
221,187,68504,1,0,0:0:0:0:
252,172,68562,2,0,L|304:152,1,47.5
260,148,68677,2,0,L|200:128,1,47.5
84,76,68793,6,0,L|215:133,1,142.5
362,182,69024,2,0,P|354:115|286:85,1,142.5
214,132,69254,2,0,B|171:210|171:210|160:262,1,142.5
304,336,69485,6,0,L|360:336,1,47.5
208,336,69601,2,0,L|160:336,1,47.5
352,264,69716,2,0,P|408:292|421:335,1,71.2500027179719
160,264,69831,2,0,P|104:292|91:335,1,71.2500027179719
352,264,69947,2,0,L|400:207,1,71.2500027179719
160,264,70062,2,0,L|112:207,1,71.2500027179719
256,204,70177,5,0,0:0:0:0:
256,167,70235,1,0,0:0:0:0:
256,131,70293,1,0,0:0:0:0:
256,95,70351,1,0,0:0:0:0:
256,61,70408,2,0,L|256:245,1,142.5
256,304,70639,5,0,0:0:0:0:
397,209,70754,1,0,0:0:0:0:
316,176,70870,2,0,B|268:108|176:144|212:224|212:224|228:256|228:256|276:168|276:168,1,285
297,189,71101,6,0,L|333:219,1,47.5
316,176,71216,2,0,L|333:220,1,47.5
368,269,71331,6,0,P|391:243|397:209,1,71.25
360,136,71562,5,0,0:0:0:0:
325,103,71619,1,0,0:0:0:0:
291,70,71677,1,0,0:0:0:0:
257,37,71735,1,0,0:0:0:0:
220,8,71793,2,0,P|216:60|268:132,1,142.5
316,176,72024,6,0,P|276:200|200:172,1,71.2500027179719
172,208,72139,2,0,P|192:152|267:131,1,142.5
408,128,72370,1,0,0:0:0:0:
360,128,72427,1,0,0:0:0:0:
312,128,72485,2,0,L|140:128,1,142.5
81,127,72716,5,0,0:0:0:0:
90,172,72773,1,0,0:0:0:0:
124,203,72831,1,0,0:0:0:0:
171,207,72889,1,0,0:0:0:0:
340,208,72947,6,0,B|388:264|388:264|344:316,1,142.5
276,384,73177,1,0,0:0:0:0:
171,207,73293,1,0,0:0:0:0:
256,44,73408,6,0,L|312:96,1,71.2500027179719
340,208,73524,2,0,L|288:160,1,71.2500027179719
256,44,73639,2,0,L|312:96,1,71.2500027179719
340,208,73755,2,0,L|288:160,1,71.2500027179719
236,108,73870,5,0,0:0:0:0:
213,148,73927,1,0,0:0:0:0:
219,195,73985,1,0,0:0:0:0:
250,229,74043,1,0,0:0:0:0:
288,160,74101,6,0,P|260:200|184:220,1,106.875004076958
112,220,74331,2,0,L|36:96,1,142.5
0,28,74562,5,0,0:0:0:0:
140,76,74677,1,0,0:0:0:0:
112,220,74793,6,0,L|123:237,7,11.875
208,220,75024,6,0,B|256:272|256:272|304:220,1,142.5
436,84,75254,1,0,0:0:0:0:
436,84,75370,2,0,L|281:245,1,213.750008153916
256,272,75601,2,0,L|240:256,3,11.875
208,220,75716,5,0,0:0:0:0:
328,112,75831,1,0,0:0:0:0:
428,212,75947,2,0,P|412:276|348:320,1,142.5
228,360,76177,6,0,L|104:272,1,142.5
56,232,76408,2,0,B|88:208|88:208|124:208,1,71.2500027179719
264,208,76524,2,0,B|308:276|352:236|368:212|320:188|320:188|264:144|292:88,1,237.5
224,72,76870,6,0,P|212:112|216:152,1,71.2500027179719
264,208,76985,2,0,P|304:220|344:216,1,71.2500027179719
472,220,77101,5,0,0:0:0:0:
456,204,77216,1,0,0:0:0:0:
440,188,77331,1,0,0:0:0:0:
256,40,77562,5,0,0:0:0:0:
221,72,77619,1,0,0:0:0:0:
209,117,77677,1,0,0:0:0:0:
223,162,77735,1,0,0:0:0:0:
256,196,77793,2,0,P|292:264|264:336,1,142.5
216,264,78024,6,0,P|284:260|328:196,1,142.5
304,136,78254,2,0,L|288:152,11,11.875
256,196,78485,2,0,L|80:364,1,213.750008153916
48,384,78716,6,0,P|40:324|60:292,1,95
92,265,78831,1,0,0:0:0:0:
126,234,78889,1,0,0:0:0:0:
161,202,78947,6,0,L|204:161,1,47.5
161,202,79062,2,0,L|204:161,1,47.5
161,202,79177,2,0,L|204:161,1,47.5
161,202,79293,2,0,L|204:161,1,47.5
264,124,79408,6,0,P|312:152|308:240,1,142.5
256,332,79639,1,0,0:0:0:0:
256,332,79754,1,0,0:0:0:0:
364,280,79870,6,0,P|382:223|324:164,1,142.5
296,165,80101,1,0,0:0:0:0:
264,185,80158,1,0,0:0:0:0:
246,218,80216,1,0,0:0:0:0:
249,255,80274,1,0,0:0:0:0:
268,288,80331,2,0,L|424:284,1,142.5
410,284,80562,2,0,L|268:288,1,142.5
136,288,80793,5,0,0:0:0:0:
168,256,80908,2,0,L|208:216,1,47.5
312,120,81024,2,0,B|340:100|340:100|344:104|344:104|344:100|344:100|348:104|348:104|348:100|348:100|352:104|352:104|352:100|352:100|356:104|356:104|356:100|356:100|360:104|360:104|360:100|360:100|364:104|364:104|364:100|364:100|368:104|368:104|368:100|368:100|372:104|372:104|372:100|372:100|376:104|376:104|376:100|376:100|380:104|380:104|380:100|380:100|384:104|384:104|384:100|384:100|388:104|388:104|388:100|388:100|392:104|392:104|392:100|392:100|396:104|396:104|396:100|396:100|400:104|400:104|400:100|400:100|404:104|404:104|404:100|404:100,1,142.5
368,176,81254,2,0,P|300:200|244:164,1,142.5
180,100,81485,5,0,0:0:0:0:
180,100,81601,2,0,L|156:140,1,47.5
128,212,81716,2,0,P|156:276|240:288,1,142.5
340,292,81947,2,0,L|388:280,1,47.5
340,292,82062,2,0,L|379:264,1,47.5
332,244,82177,5,0,0:0:0:0:
347,199,82234,1,0,0:0:0:0:
343,152,82292,1,0,0:0:0:0:
318,112,82350,1,0,0:0:0:0:
279,86,82407,1,0,0:0:0:0:
232,79,82465,1,0,0:0:0:0:
236,128,82524,2,0,P|260:160|304:172,1,71.2500027179719
428,236,82639,5,0,0:0:0:0:
288,171,82754,1,0,0:0:0:0:
266,213,82811,1,0,0:0:0:0:
226,236,82869,1,0,0:0:0:0:
179,233,82927,1,0,0:0:0:0:
100,232,82985,5,0,0:0:0:0:
100,232,83101,1,0,0:0:0:0:
100,232,83216,2,0,P|168:304|248:256,1,190
308,204,83562,6,0,L|348:220,1,23.75
320,188,83620,2,0,L|362:181,1,23.75
320,168,83677,2,0,L|286:141,1,23.75
316,148,83735,2,0,L|300:107,1,23.75
272,104,83793,5,0,0:0:0:0:
240,136,83851,1,0,0:0:0:0:
240,184,83908,1,0,0:0:0:0:
260,228,83966,1,0,0:0:0:0:
308,288,84024,6,0,P|264:340|196:328,1,142.5
239,271,84254,2,0,P|283:219|351:231,1,142.5
436,324,84485,6,0,P|456:288|464:244,1,71.2500027179719
377,165,84601,2,0,P|357:201|349:245,1,71.2500027179719
482,282,84716,2,0,P|472:242|448:204,1,71.2500027179719
330,206,84832,2,0,P|340:246|364:284,1,71.2500027179719
407,249,84947,5,0,0:0:0:0:
405,202,85004,1,0,0:0:0:0:
377,165,85062,1,0,0:0:0:0:
332,152,85120,1,0,0:0:0:0:
288,172,85177,2,0,B|256:240|256:240|168:272,1,142.5
32,272,85408,6,0,B|36:172|120:144|180:176|180:176|224:44|376:68|376:68|360:232|212:240,1,712.5
128,244,86331,2,0,B|196:320|196:320|248:312|280:300|280:300|312:288|348:284|348:284|392:264|408:224|408:224|400:152|400:152|456:120|456:120|408:48|312:52|248:112|296:172|280:180,1,712.5
276,224,87254,2,0,B|232:208|232:208|184:168|216:84|240:48|280:20|280:20|168:44|168:44|124:64|120:160|120:160|72:168|40:212|36:264|88:324,1,712.5
132,244,88177,6,0,L|184:228,1,47.5
232,100,88293,2,0,L|216:156,1,47.5
123,237,88408,2,0,L|177:227,1,47.5
240,106,88524,2,0,L|217:160,1,47.5
216,288,88639,5,0,0:0:0:0:
376,172,88754,1,0,0:0:0:0:
380,328,88870,1,0,0:0:0:0:
221,150,88985,1,0,0:0:0:0:
120,40,89101,6,0,B|-40:172|120:328|120:328|104:160|156:120|156:120|228:88|256:148|208:208|176:152,1,712.5
181,160,90024,2,0,P|184:232|280:56,1,712.5
184,52,90947,2,0,B|104:112|104:112|68:220|68:220|92:348|92:348|124:232|124:232|152:204|224:212|224:212|176:168|208:132|208:132|228:108|256:108,1,712.5
372,148,91870,6,0,P|348:264|224:344,1,249.375009512902
176,302,92331,2,0,L|397:127,1,249.375009512902
256,192,92793,12,0,95504,0:0:0:0:
256,192,95562,12,0,96427,0:0:0:0:
148,132,96485,6,0,B|108:188|108:188|132:276,1,142.5
356,132,96716,2,0,B|396:188|396:188|372:276,1,142.5
148,132,96947,6,0,L|124:276,1,142.5
356,132,97177,2,0,L|380:276,1,142.5
148,132,97408,6,0,P|112:200|128:260,1,142.5
356,132,97639,2,0,P|392:200|376:260,1,142.5
256,192,97870,5,0,0:0:0:0:
256,155,97928,1,0,0:0:0:0:
256,119,97986,1,0,0:0:0:0:
256,83,98044,1,0,0:0:0:0:
256,49,98101,2,0,L|256:233,1,142.5
256,192,98331,12,0,101735,0:0:0:0:
256,192,101793,5,0,0:0:0:0:
256,192,101908,1,0,0:0:0:0:
332,192,102024,2,0,P|300:132|232:120,1,142.5
256,192,102254,2,0,P|308:264|356:264,1,142.5
456,192,102485,2,0,L|348:88,1,142.5
216,44,102716,5,0,0:0:0:0:
184,56,102831,1,0,0:0:0:0:
164,84,102947,2,0,P|160:144|220:196,1,142.5
354,264,103177,5,0,0:0:0:0:
288,312,103293,1,0,0:0:0:0:
204,336,103408,2,0,P|216:272|288:232,1,142.5
428,164,103639,6,0,L|284:164,1,142.5
238,164,103870,2,0,L|290:164,1,47.5
238,164,103985,2,0,L|290:164,1,47.5
236,164,104101,2,0,L|288:164,1,47.5
238,164,104216,2,0,L|290:164,1,47.5
364,164,104331,6,0,P|336:220|256:236,1,142.5
156,212,104562,1,0,0:0:0:0:
104,120,104677,1,0,0:0:0:0:
228,52,104793,5,0,0:0:0:0:
144,240,104908,1,0,0:0:0:0:
228,52,105024,1,0,0:0:0:0:
228,52,105139,1,0,0:0:0:0:
176,168,105254,6,0,P|220:216|196:296,1,142.5
157,286,105485,2,0,L|205:286,1,47.5
157,286,105601,2,0,L|205:286,1,47.5
368,288,105716,6,0,P|472:192|360:68,1,332.5
288,72,106177,6,0,P|332:140|440:100,1,213.750008153916
372,68,106408,2,0,B|356:148|356:148|272:148|224:208,1,213.750008153916
172,316,106639,5,0,0:0:0:0:
16,192,106754,1,0,0:0:0:0:
200,116,106870,2,0,P|268:124|344:196,1,142.5
172,316,107101,6,0,L|112:380,2,71.25
326,166,107331,1,0,0:0:0:0:
351,140,107388,1,0,0:0:0:0:
376,115,107446,1,0,0:0:0:0:
401,90,107504,1,0,0:0:0:0:
448,36,107562,5,0,0:0:0:0:
200,116,107677,1,0,0:0:0:0:
92,272,107793,2,0,B|172:316|172:316|264:316,1,142.5
296,312,108024,2,0,P|256:252|184:244,1,142.5
139,204,108254,5,0,0:0:0:0:
159,174,108311,1,0,0:0:0:0:
180,145,108369,1,0,0:0:0:0:
200,116,108427,1,0,0:0:0:0:
244,48,108485,6,0,P|172:40|124:104,1,142.5
72,136,108716,2,0,P|56:88|68:48,2,71.2500027179719
190,242,108947,2,0,B|250:290|250:290|320:272,1,142.5
382,227,109177,6,0,L|198:115,1,213.750008153916
132,72,109408,2,0,B|164:48|164:48|236:40,1,71.2500027179719
265,82,109524,2,0,P|273:126|265:154,1,71.2500027179719
190,242,109639,1,0,0:0:0:0:
190,242,109754,6,0,L|244:284,1,47.5
190,242,109870,2,0,L|240:244,1,47.5
190,242,109985,2,0,L|216:300,1,47.5
190,242,110101,2,0,L|184:304,1,47.5
190,242,110216,2,0,L|229:214,1,47.5
184,172,110331,5,0,0:0:0:0:
141,190,110388,1,0,0:0:0:0:
120,231,110446,1,0,0:0:0:0:
130,277,110504,1,0,0:0:0:0:
190,242,110562,6,0,L|240:244,1,47.5
340,288,110677,2,0,L|324:236,1,47.5
288,128,110793,2,0,L|280:176,1,47.5
244,336,110908,2,0,L|256:280,1,47.5
288,128,111024,2,0,B|284:72|284:72|236:112|168:116,1,142.5
143,151,111254,6,0,P|138:83|190:38,1,142.5
296,56,111485,2,0,L|316:44,1,23.75
320,64,111543,2,0,L|343:63,1,23.75
340,76,111601,2,0,L|360:87,1,23.75
348,96,111658,2,0,P|352:152|320:192,1,95
264,216,111831,6,0,L|256:200,5,11.875
220,144,111947,2,0,P|184:208|232:284,1,142.5
296,320,112177,5,0,0:0:0:0:
296,320,112293,1,0,0:0:0:0:
296,320,112408,1,0,0:0:0:0:
312,304,112466,1,0,0:0:0:0:
328,288,112524,1,0,0:0:0:0:
392,216,112639,6,0,L|412:208,1,15.8333333333333
394,192,112677,2,0,L|412:180,1,15.8333333333333
392,168,112716,2,0,L|408:153,1,15.8333333333333
385,144,112754,2,0,L|399:127,1,15.8333333333333
375,122,112793,2,0,L|385:103,1,15.8333333333333
361,103,112831,2,0,L|368:82,1,15.8333333333333
336,104,112870,6,0,L|328:120,1,15.8333333333333
319,91,112908,2,0,L|314:108,1,15.8333333333333
301,81,112947,2,0,L|299:99,1,15.8333333333333
292,56,112985,6,0,L|316:44,1,15.8333333333333
315,64,113024,2,0,L|340:56,1,15.8333333333333
336,76,113062,2,0,L|363:73,1,15.8333333333333
408,32,113101,6,0,P|452:84|472:164,1,142.5
476,248,113331,2,0,B|440:292|440:292|336:288,1,142.5
252,288,113562,1,0,0:0:0:0:
92,192,113677,1,0,0:0:0:0:
192,112,113793,6,0,L|236:76,1,47.5
336,76,113908,2,0,L|292:108,1,47.5
188,196,114024,2,0,P|128:160|120:72,1,142.5
176,29,114254,2,0,L|321:118,1,142.5
388,160,114485,1,0,0:0:0:0:
176,29,114601,1,0,0:0:0:0:
184,148,114716,6,0,L|188:204,1,47.5
200,300,114831,2,0,P|236:312|256:312,1,47.5
328,320,114947,2,0,P|308:268|224:232,1,142.5
92,232,115177,2,0,L|237:232,1,142.5
298,257,115408,2,0,P|287:183|200:173,1,142.5
92,160,115639,5,0,0:0:0:0:
92,160,115754,2,0,L|136:112,1,47.5
180,48,115870,2,0,B|212:12|212:12|272:84,1,142.5
308,152,116101,2,0,P|288:212|208:236,1,142.5
116,236,116331,1,0,0:0:0:0:
308,152,116447,1,0,0:0:0:0:
324,292,116562,6,0,L|320:244,1,47.5
308,152,116677,2,0,L|352:184,1,47.5
164,176,116793,2,0,P|104:160|40:216,1,142.5
116,236,117024,2,0,P|92:160|136:104,1,142.5
256,112,117254,1,0,0:0:0:0:
196,256,117370,1,0,0:0:0:0:
346,179,117485,6,0,L|390:147,1,47.5
448,108,117601,2,0,P|460:156|452:188,1,47.5
396,240,117716,2,0,L|292:348,1,142.5
196,340,117947,2,0,P|136:312|120:232,1,142.5
192,156,118177,2,0,L|224:116,1,47.5
284,44,118293,2,0,B|304:64|304:64|308:124,1,47.5
304,212,118408,5,0,0:0:0:0:
117,242,118524,1,0,0:0:0:0:
48,136,118639,2,0,B|20:96|20:96|116:96,1,142.5
192,156,118870,2,0,L|344:232,1,142.5
349,256,119101,2,0,L|317:216,1,47.5
264,120,119216,2,0,L|216:144,1,47.5
104,200,119331,5,0,0:0:0:0:
72,336,119447,1,0,0:0:0:0:
288,284,119562,2,0,P|376:260|380:180,1,142.5
352,112,119793,2,0,B|320:84|320:84|216:64,1,142.5
140,64,120024,2,0,L|160:108,1,47.5
212,184,120139,2,0,L|257:167,1,47.5
352,112,120254,5,0,0:0:0:0:
460,192,120370,1,0,0:0:0:0:
256,168,120485,6,0,L|384:244,1,142.5
436,272,120716,2,0,B|380:312|380:312|292:264,1,142.5
268,248,120947,2,0,P|216:100|336:172,1,380
256,192,121466,12,0,127870,0:0:0:0:
321,366,127927,38,0,B|277:354|225:354|197:362|197:362|205:354|209:337|209:337|211:326|213:306|213:306|217:288|212:274|212:274|218:259|221:240|221:240|222:224|221:198|205:131|205:131|168:195|91:182|104:134|104:134|41:159|1:90|57:66|57:66|33:14|112:-2|140:41|140:41|169:38|169:38|192:1|248:13|265:42|265:42|297:10|349:6|373:34|373:34|401:50|401:50|430:-2|509:54|471:108|471:108|530:140|484:222|387:149|387:149|403:196|334:203|305:142|305:142|293:186|289:214|289:258|297:273|297:273|292:294|296:310|296:310|301:322|305:346|305:346|321:366,1,1771.27505405502
