osu file format v14

[General]
AudioFilename: Tempest.mp3
AudioLeadIn: 0
PreviewTime: 114284
Countdown: 0
SampleSet: None
StackLeniency: 0.7
Mode: 1
LetterboxInBreaks: 0
WidescreenStoryboard: 0

[Editor]
DistanceSpacing: 0.8
BeatDivisor: 16
GridSize: 32
TimelineZoom: 3.499998

[Metadata]
Title:LeaF Pack
TitleUnicode:LeaF Pack
Artist:LeaF
ArtistUnicode:LeaF
Creator:Q____X
Version:WoRLd Tempest
Source:
Tags:[_Chichinya_] Xoretra
BeatmapID:1507295
BeatmapSetID:517000

[Difficulty]
HPDrainRate:5
CircleSize:5
OverallDifficulty:5
ApproachRate:5
SliderMultiplier:1.4
SliderTickRate:1

[Events]
//Background and Video events
0,0,"war-at-the-stormy-sea-fantasy-hd-wallpaper-1920x1200-1472.jpg",0,0
//Break Periods
//Storyboard Layer 0 (Background)
//Storyboard Layer 1 (Fail)
//Storyboard Layer 2 (Pass)
//Storyboard Layer 3 (Foreground)
//Storyboard Sound Samples

[TimingPoints]
1142,285.714285714286,4,1,0,100,1,0
39999,-100,4,1,0,100,0,1
58570,-100,4,1,0,100,0,0
95999,-100,4,1,0,100,0,1
107142,-100,4,1,0,100,0,0
114284,-100,4,1,0,100,0,1
132713,-100,4,1,0,100,0,0

[HitObjects]
256,192,1142,5,2,0:0:0:0:
256,192,1284,1,0,0:0:0:0:
256,192,1427,1,0,0:0:0:0:
256,192,1570,1,2,0:0:0:0:
256,192,1713,1,0,0:0:0:0:
256,192,1856,1,0,0:0:0:0:
256,192,1999,1,2,0:0:0:0:
256,192,2142,1,0,0:0:0:0:
256,192,2284,1,2,0:0:0:0:
256,192,2427,1,0,0:0:0:0:
256,192,2570,1,2,0:0:0:0:
256,192,2713,1,0,0:0:0:0:
256,192,2856,1,2,0:0:0:0:
256,192,2999,1,0,0:0:0:0:
256,192,3142,1,2,0:0:0:0:
256,192,3284,1,2,0:0:0:0:
256,192,3427,1,2,0:0:0:0:
256,192,3570,1,0,0:0:0:0:
256,192,3713,1,2,0:0:0:0:
256,192,3856,1,2,0:0:0:0:
256,192,4284,1,2,0:0:0:0:
256,192,4427,1,0,0:0:0:0:
256,192,4570,1,2,0:0:0:0:
256,192,4713,1,0,0:0:0:0:
256,192,4856,1,2,0:0:0:0:
256,192,4999,1,0,0:0:0:0:
256,192,5142,1,2,0:0:0:0:
256,192,5284,1,0,0:0:0:0:
256,192,5427,1,2,0:0:0:0:
256,192,5570,1,2,0:0:0:0:
256,192,5713,1,0,0:0:0:0:
256,192,5999,1,0,0:0:0:0:
256,192,6142,1,2,0:0:0:0:
256,192,6570,1,0,0:0:0:0:
256,192,6856,1,2,0:0:0:0:
256,192,7142,1,0,0:0:0:0:
256,192,7284,1,2,0:0:0:0:
256,192,7713,1,0,0:0:0:0:
256,192,7999,1,2,0:0:0:0:
256,192,8284,1,0,0:0:0:0:
256,192,8427,1,2,0:0:0:0:
256,192,9142,1,2,0:0:0:0:
256,192,9284,1,0,0:0:0:0:
256,192,9570,1,2,0:0:0:0:
256,192,10284,1,2,0:0:0:0:
256,192,10427,1,0,0:0:0:0:
256,192,10570,1,0,0:0:0:0:
256,192,10713,1,2,0:0:0:0:
256,192,10856,1,0,0:0:0:0:
256,192,10999,1,0,0:0:0:0:
256,192,11142,1,2,0:0:0:0:
256,192,11284,1,0,0:0:0:0:
256,192,11427,1,2,0:0:0:0:
256,192,11570,1,0,0:0:0:0:
256,192,11713,1,2,0:0:0:0:
256,192,11856,1,0,0:0:0:0:
256,192,11999,1,2,0:0:0:0:
256,192,12142,1,0,0:0:0:0:
256,192,12284,1,2,0:0:0:0:
256,192,12427,1,0,0:0:0:0:
256,192,12570,1,2,0:0:0:0:
256,192,12713,1,0,0:0:0:0:
256,192,12856,1,2,0:0:0:0:
256,192,12999,1,2,0:0:0:0:
256,192,13284,1,0,0:0:0:0:
256,192,13427,1,2,0:0:0:0:
256,192,13713,1,0,0:0:0:0:
256,192,13999,1,2,0:0:0:0:
256,192,14284,1,0,0:0:0:0:
256,192,14570,1,2,0:0:0:0:
256,192,14856,1,0,0:0:0:0:
256,192,15284,1,2,0:0:0:0:
256,192,15713,1,0,0:0:0:0:
256,192,15999,1,2,0:0:0:0:
256,192,16427,1,0,0:0:0:0:
256,192,16856,1,2,0:0:0:0:
256,192,17142,1,2,0:0:0:0:
256,192,17284,1,0,0:0:0:0:
256,192,17427,1,0,0:0:0:0:
256,192,17570,1,2,0:0:0:0:
256,192,17713,1,0,0:0:0:0:
256,192,17856,1,0,0:0:0:0:
256,192,17999,1,2,0:0:0:0:
256,192,18284,1,2,0:0:0:0:
256,192,18427,1,0,0:0:0:0:
256,192,18570,1,0,0:0:0:0:
256,192,18713,1,2,0:0:0:0:
256,192,18856,1,0,0:0:0:0:
256,192,18999,1,0,0:0:0:0:
256,192,19142,1,2,0:0:0:0:
256,192,19284,1,0,0:0:0:0:
256,192,21142,1,2,0:0:0:0:
256,192,21213,1,0,0:0:0:0:
256,192,21284,1,0,0:0:0:0:
256,192,21356,1,0,0:0:0:0:
256,192,21427,1,0,0:0:0:0:
256,192,21499,1,0,0:0:0:0:
256,192,21570,1,0,0:0:0:0:
256,192,21642,1,0,0:0:0:0:
256,192,21713,1,2,0:0:0:0:
256,192,21856,1,0,0:0:0:0:
256,192,21999,1,2,0:0:0:0:
256,192,22142,1,2,0:0:0:0:
256,192,22284,1,0,0:0:0:0:
256,192,22427,1,0,0:0:0:0:
256,192,22499,1,0,0:0:0:0:
256,192,22570,1,2,0:0:0:0:
256,192,22713,1,0,0:0:0:0:
256,192,22784,1,0,0:0:0:0:
256,192,22856,1,2,0:0:0:0:
256,192,22999,1,0,0:0:0:0:
256,192,23142,1,2,0:0:0:0:
256,192,23213,1,2,0:0:0:0:
256,192,23284,1,0,0:0:0:0:
256,192,23427,1,2,0:0:0:0:
256,192,23499,1,2,0:0:0:0:
256,192,23570,1,0,0:0:0:0:
256,192,23713,1,2,0:0:0:0:
256,192,23856,1,2,0:0:0:0:
256,192,23999,1,6,0:0:0:0:
256,192,24142,1,0,0:0:0:0:
256,192,24284,1,2,0:0:0:0:
256,192,24427,1,2,0:0:0:0:
256,192,24570,1,0,0:0:0:0:
256,192,24713,1,0,0:0:0:0:
256,192,24784,1,0,0:0:0:0:
256,192,24856,1,2,0:0:0:0:
256,192,24999,1,0,0:0:0:0:
256,192,25070,1,0,0:0:0:0:
256,192,25142,1,2,0:0:0:0:
256,192,25284,1,0,0:0:0:0:
256,192,25427,1,2,0:0:0:0:
256,192,25499,1,2,0:0:0:0:
256,192,25570,1,0,0:0:0:0:
256,192,25713,1,2,0:0:0:0:
256,192,25784,1,2,0:0:0:0:
256,192,25856,1,0,0:0:0:0:
256,192,25999,1,2,0:0:0:0:
256,192,26142,1,2,0:0:0:0:
256,192,26284,1,6,0:0:0:0:
256,192,26427,1,0,0:0:0:0:
256,192,26570,1,2,0:0:0:0:
256,192,26713,1,2,0:0:0:0:
256,192,26856,1,0,0:0:0:0:
256,192,26999,1,0,0:0:0:0:
256,192,27070,1,0,0:0:0:0:
256,192,27142,1,2,0:0:0:0:
256,192,27284,1,0,0:0:0:0:
256,192,27356,1,0,0:0:0:0:
256,192,27427,1,2,0:0:0:0:
256,192,27570,1,0,0:0:0:0:
256,192,27713,1,2,0:0:0:0:
256,192,27856,1,2,0:0:0:0:
256,192,27999,1,0,0:0:0:0:
256,192,28142,1,0,0:0:0:0:
256,192,28284,1,2,0:0:0:0:
256,192,28427,1,0,0:0:0:0:
256,192,28570,1,6,0:0:0:0:
256,192,28713,1,0,0:0:0:0:
256,192,28856,1,2,0:0:0:0:
256,192,28927,1,2,0:0:0:0:
256,192,28999,1,2,0:0:0:0:
256,192,29070,1,0,0:0:0:0:
256,192,29142,1,0,0:0:0:0:
256,192,29213,1,0,0:0:0:0:
256,192,29284,1,0,0:0:0:0:
256,192,29332,1,2,0:0:0:0:
256,192,29380,1,2,0:0:0:0:
256,192,29427,1,2,0:0:0:0:
256,192,29570,1,0,0:0:0:0:
256,192,29713,1,2,0:0:0:0:
256,192,29784,1,2,0:0:0:0:
256,192,29856,1,0,0:0:0:0:
256,192,29927,1,0,0:0:0:0:
256,192,29999,1,2,0:0:0:0:
256,192,30070,1,2,0:0:0:0:
256,192,30142,1,0,0:0:0:0:
256,192,30284,1,0,0:0:0:0:
256,192,30427,1,4,0:0:0:0:
256,192,30856,1,2,0:0:0:0:
256,192,30999,1,0,0:0:0:0:
256,192,31070,1,0,0:0:0:0:
256,192,31142,1,0,0:0:0:0:
256,192,31284,1,2,0:0:0:0:
256,192,31427,1,0,0:0:0:0:
256,192,31499,1,0,0:0:0:0:
256,192,31570,1,0,0:0:0:0:
256,192,31713,1,2,0:0:0:0:
256,192,31856,1,0,0:0:0:0:
256,192,31927,1,0,0:0:0:0:
256,192,31999,1,2,0:0:0:0:
256,192,32142,1,0,0:0:0:0:
256,192,32284,1,2,0:0:0:0:
256,192,32356,1,2,0:0:0:0:
256,192,32427,1,0,0:0:0:0:
256,192,32570,1,2,0:0:0:0:
256,192,32713,1,0,0:0:0:0:
256,192,32856,1,2,0:0:0:0:
256,192,32999,1,0,0:0:0:0:
256,192,33142,1,2,0:0:0:0:
256,192,33284,1,0,0:0:0:0:
256,192,33427,1,2,0:0:0:0:
256,192,33499,1,2,0:0:0:0:
256,192,33570,1,2,0:0:0:0:
256,192,33713,1,0,0:0:0:0:
256,192,33856,1,0,0:0:0:0:
256,192,33927,1,2,0:0:0:0:
256,192,33999,1,2,0:0:0:0:
256,192,34070,1,0,0:0:0:0:
256,192,34142,1,0,0:0:0:0:
256,192,34284,1,2,0:0:0:0:
256,192,34475,1,0,0:0:0:0:
256,192,34665,1,0,0:0:0:0:
256,192,34856,1,2,0:0:0:0:
256,192,34999,1,0,0:0:0:0:
256,192,35142,1,8,0:0:0:0:
256,192,35213,1,8,0:0:0:0:
256,192,35284,1,0,0:0:0:0:
256,192,35332,1,0,0:0:0:0:
256,192,35380,1,0,0:0:0:0:
256,192,35427,1,2,0:0:0:0:
256,192,35570,1,0,0:0:0:0:
256,192,35642,1,0,0:0:0:0:
256,192,35713,1,2,0:0:0:0:
256,192,35856,1,0,0:0:0:0:
256,192,35999,1,2,0:0:0:0:
256,192,36142,1,0,0:0:0:0:
256,192,36284,1,8,0:0:0:0:
256,192,36427,1,0,0:0:0:0:
256,192,36570,1,2,0:0:0:0:
256,192,36713,1,0,0:0:0:0:
256,192,36761,1,0,0:0:0:0:
256,192,36808,1,0,0:0:0:0:
256,192,36856,1,2,0:0:0:0:
256,192,36999,1,0,0:0:0:0:
256,192,37046,1,0,0:0:0:0:
256,192,37094,1,0,0:0:0:0:
256,192,37142,1,2,0:0:0:0:
256,192,37284,1,0,0:0:0:0:
256,192,37427,1,2,0:0:0:0:
256,192,37570,1,0,0:0:0:0:
256,192,37713,1,2,0:0:0:0:
256,192,37856,1,0,0:0:0:0:
256,192,37999,1,0,0:0:0:0:
256,192,38142,1,2,0:0:0:0:
256,192,38284,1,0,0:0:0:0:
256,192,38427,1,2,0:0:0:0:
256,192,38570,1,2,0:0:0:0:
256,192,38713,1,0,0:0:0:0:
256,192,38856,1,2,0:0:0:0:
256,192,38999,1,0,0:0:0:0:
256,192,39142,1,2,0:0:0:0:
256,192,39284,1,0,0:0:0:0:
256,192,39427,1,2,0:0:0:0:
256,192,39570,1,0,0:0:0:0:
256,192,39642,1,0,0:0:0:0:
256,192,39713,1,2,0:0:0:0:
256,192,39856,1,0,0:0:0:0:
256,192,39999,1,2,0:0:0:0:
256,192,40142,1,0,0:0:0:0:
256,192,40213,1,0,0:0:0:0:
256,192,40284,1,2,0:0:0:0:
256,192,40427,1,2,0:0:0:0:
256,192,40570,1,0,0:0:0:0:
256,192,40642,1,0,0:0:0:0:
256,192,40713,1,2,0:0:0:0:
256,192,40856,1,2,0:0:0:0:
256,192,40999,1,0,0:0:0:0:
256,192,41142,1,2,0:0:0:0:
256,192,41284,1,0,0:0:0:0:
256,192,41427,1,2,0:0:0:0:
256,192,41570,1,2,0:0:0:0:
256,192,41713,1,2,0:0:0:0:
256,192,41784,1,0,0:0:0:0:
256,192,41856,1,2,0:0:0:0:
256,192,41927,1,0,0:0:0:0:
256,192,41999,1,2,0:0:0:0:
256,192,42142,1,2,0:0:0:0:
256,192,42213,1,0,0:0:0:0:
256,192,42284,1,2,0:0:0:0:
256,192,42427,1,0,0:0:0:0:
256,192,42570,1,2,0:0:0:0:
256,192,42713,1,2,0:0:0:0:
256,192,42856,1,0,0:0:0:0:
256,192,42999,1,2,0:0:0:0:
256,192,43142,1,2,0:0:0:0:
256,192,43284,1,0,0:0:0:0:
256,192,43427,1,2,0:0:0:0:
256,192,43499,1,0,0:0:0:0:
256,192,43570,1,2,0:0:0:0:
256,192,43642,1,0,0:0:0:0:
256,192,43713,1,2,0:0:0:0:
256,192,43784,1,0,0:0:0:0:
256,192,43856,1,2,0:0:0:0:
256,192,43999,1,2,0:0:0:0:
256,192,44070,1,0,0:0:0:0:
256,192,44142,1,2,0:0:0:0:
256,192,44284,1,2,0:0:0:0:
256,192,44427,1,2,0:0:0:0:
256,192,44499,1,2,0:0:0:0:
256,192,44570,1,0,0:0:0:0:
256,192,44713,1,0,0:0:0:0:
256,192,44856,1,0,0:0:0:0:
256,192,44999,1,2,0:0:0:0:
256,192,45142,1,0,0:0:0:0:
256,192,45284,1,0,0:0:0:0:
256,192,45356,1,0,0:0:0:0:
256,192,45427,1,2,0:0:0:0:
256,192,45570,1,0,0:0:0:0:
256,192,45713,1,2,0:0:0:0:
256,192,45856,1,0,0:0:0:0:
256,192,45999,1,0,0:0:0:0:
256,192,46142,1,2,0:0:0:0:
256,192,46284,1,0,0:0:0:0:
256,192,46427,1,0,0:0:0:0:
256,192,46499,1,0,0:0:0:0:
256,192,46570,1,2,0:0:0:0:
256,192,46713,1,0,0:0:0:0:
256,192,46856,1,2,0:0:0:0:
256,192,46999,1,0,0:0:0:0:
256,192,47142,1,0,0:0:0:0:
256,192,47284,1,2,0:0:0:0:
256,192,47356,1,0,0:0:0:0:
256,192,47427,1,2,0:0:0:0:
256,192,47499,1,0,0:0:0:0:
256,192,47570,1,0,0:0:0:0:
256,192,47642,1,0,0:0:0:0:
256,192,47713,1,2,0:0:0:0:
256,192,47856,1,0,0:0:0:0:
256,192,47999,1,4,0:0:0:0:
256,192,48142,1,4,0:0:0:0:
256,192,48427,1,4,0:0:0:0:
256,192,48713,1,4,0:0:0:0:
256,192,48856,1,0,0:0:0:0:
256,192,48927,1,0,0:0:0:0:
256,192,48999,1,0,0:0:0:0:
256,192,49070,1,0,0:0:0:0:
256,192,49142,1,2,0:0:0:0:
256,192,49427,1,2,0:0:0:0:
256,192,49570,1,0,0:0:0:0:
256,192,49713,1,0,0:0:0:0:
256,192,49856,1,2,0:0:0:0:
256,192,49927,1,2,0:0:0:0:
256,192,49999,1,2,0:0:0:0:
256,192,50070,1,2,0:0:0:0:
256,192,50142,1,0,0:0:0:0:
256,192,50213,1,0,0:0:0:0:
256,192,50284,1,2,0:0:0:0:
256,192,50427,1,0,0:0:0:0:
256,192,50570,1,2,0:0:0:0:
256,192,50713,1,0,0:0:0:0:
256,192,50856,1,2,0:0:0:0:
256,192,50927,1,0,0:0:0:0:
256,192,50999,1,2,0:0:0:0:
256,192,51070,1,0,0:0:0:0:
256,192,51142,1,2,0:0:0:0:
256,192,51284,1,2,0:0:0:0:
256,192,51332,1,0,0:0:0:0:
256,192,51380,1,0,0:0:0:0:
256,192,51427,1,2,0:0:0:0:
256,192,51570,1,0,0:0:0:0:
256,192,51713,1,2,0:0:0:0:
256,192,51856,1,2,0:0:0:0:
256,192,51999,1,0,0:0:0:0:
256,192,52142,1,2,0:0:0:0:
256,192,52284,1,0,0:0:0:0:
256,192,52427,1,0,0:0:0:0:
256,192,52570,1,2,0:0:0:0:
256,192,52642,1,0,0:0:0:0:
256,192,52713,1,2,0:0:0:0:
256,192,52784,1,0,0:0:0:0:
256,192,52856,1,2,0:0:0:0:
256,192,52999,1,0,0:0:0:0:
256,192,53142,1,0,0:0:0:0:
256,192,53213,1,0,0:0:0:0:
256,192,53284,1,2,0:0:0:0:
256,192,53427,1,2,0:0:0:0:
256,192,53570,1,2,0:0:0:0:
256,192,53642,1,2,0:0:0:0:
256,192,53713,1,0,0:0:0:0:
256,192,53856,1,0,0:0:0:0:
256,192,53999,1,2,0:0:0:0:
256,192,54142,1,0,0:0:0:0:
256,192,54284,1,0,0:0:0:0:
256,192,54427,1,0,0:0:0:0:
256,192,54499,1,0,0:0:0:0:
256,192,54570,1,2,0:0:0:0:
256,192,54713,1,0,0:0:0:0:
256,192,54856,1,2,0:0:0:0:
256,192,54999,1,0,0:0:0:0:
256,192,55142,1,2,0:0:0:0:
256,192,55284,1,0,0:0:0:0:
256,192,55427,1,2,0:0:0:0:
256,192,55570,1,0,0:0:0:0:
256,192,55642,1,0,0:0:0:0:
256,192,55713,1,2,0:0:0:0:
256,192,55856,1,2,0:0:0:0:
256,192,55999,1,2,0:0:0:0:
256,192,56070,1,2,0:0:0:0:
256,192,56142,1,0,0:0:0:0:
256,192,56213,1,0,0:0:0:0:
256,192,56284,1,2,0:0:0:0:
256,192,56356,1,2,0:0:0:0:
256,192,56427,1,0,0:0:0:0:
256,192,56499,1,2,0:0:0:0:
256,192,56570,1,0,0:0:0:0:
256,192,56642,1,2,0:0:0:0:
256,192,56713,1,2,0:0:0:0:
256,192,56784,1,0,0:0:0:0:
256,192,56856,1,2,0:0:0:0:
256,192,56927,1,0,0:0:0:0:
256,192,56999,1,2,0:0:0:0:
256,192,57070,1,2,0:0:0:0:
256,192,57142,1,0,0:0:0:0:
256,192,57213,1,0,0:0:0:0:
256,192,57284,1,2,0:0:0:0:
256,192,57356,1,0,0:0:0:0:
256,192,57427,1,2,0:0:0:0:
256,192,57499,1,0,0:0:0:0:
256,192,57570,1,2,0:0:0:0:
256,192,57642,1,0,0:0:0:0:
256,192,57713,1,2,0:0:0:0:
256,192,57784,1,2,0:0:0:0:
256,192,57856,1,0,0:0:0:0:
256,192,57927,1,0,0:0:0:0:
256,192,57999,1,2,0:0:0:0:
256,192,58070,1,0,0:0:0:0:
256,192,58142,1,2,0:0:0:0:
256,192,58213,1,0,0:0:0:0:
256,192,58284,2,0,L|224:192,5,23.3333333333333
256,192,58570,1,8,0:0:0:0:
256,192,58999,1,0,0:0:0:0:
256,192,59213,1,0,0:0:0:0:
256,192,59427,1,2,0:0:0:0:
256,192,59713,1,2,0:0:0:0:
256,192,59999,1,0,0:0:0:0:
256,192,60284,1,0,0:0:0:0:
256,192,60356,1,0,0:0:0:0:
256,192,60427,1,0,0:0:0:0:
256,192,60499,1,0,0:0:0:0:
256,192,60570,1,2,0:0:0:0:
256,192,60856,1,0,0:0:0:0:
256,192,60999,1,2,0:0:0:0:
256,192,61142,1,0,0:0:0:0:
256,192,61284,1,0,0:0:0:0:
256,192,61427,1,2,0:0:0:0:
256,192,61713,1,2,0:0:0:0:
256,192,61999,1,0,0:0:0:0:
256,192,62284,1,2,0:0:0:0:
256,192,62427,1,0,0:0:0:0:
256,192,62570,1,0,0:0:0:0:
256,192,62713,1,0,0:0:0:0:
256,192,62784,1,0,0:0:0:0:
256,192,62856,1,2,0:0:0:0:
256,192,63142,1,0,0:0:0:0:
256,192,63427,1,0,0:0:0:0:
256,192,63642,1,2,0:0:0:0:
256,192,63856,1,0,0:0:0:0:
256,192,63999,1,2,0:0:0:0:
256,192,64284,1,0,0:0:0:0:
256,192,64570,1,0,0:0:0:0:
256,192,64856,1,2,0:0:0:0:
256,192,64927,1,2,0:0:0:0:
256,192,64999,1,2,0:0:0:0:
256,192,65070,1,2,0:0:0:0:
256,192,65142,1,0,0:0:0:0:
256,192,65427,1,2,0:0:0:0:
256,192,65713,1,0,0:0:0:0:
256,192,65856,1,2,0:0:0:0:
256,192,65999,1,0,0:0:0:0:
256,192,66142,1,2,0:0:0:0:
256,192,66284,1,0,0:0:0:0:
256,192,66427,1,0,0:0:0:0:
256,192,66570,1,2,0:0:0:0:
256,192,66713,1,0,0:0:0:0:
256,192,66856,1,0,0:0:0:0:
256,192,66927,1,0,0:0:0:0:
256,192,66999,1,2,0:0:0:0:
256,192,67070,1,0,0:0:0:0:
256,192,67142,1,0,0:0:0:0:
256,192,67213,1,2,0:0:0:0:
256,192,67284,1,0,0:0:0:0:
256,192,67356,1,0,0:0:0:0:
256,192,67427,1,6,0:0:0:0:
256,192,67713,1,2,0:0:0:0:
256,192,67999,1,0,0:0:0:0:
256,192,68142,1,0,0:0:0:0:
256,192,68284,1,2,0:0:0:0:
256,192,68427,1,0,0:0:0:0:
256,192,68570,1,0,0:0:0:0:
256,192,68856,1,2,0:0:0:0:
256,192,69142,1,0,0:0:0:0:
256,192,69284,1,0,0:0:0:0:
256,192,69499,1,2,0:0:0:0:
256,192,69713,1,0,0:0:0:0:
256,192,69999,1,2,0:0:0:0:
256,192,70284,1,0,0:0:0:0:
256,192,70427,1,0,0:0:0:0:
256,192,70570,1,2,0:0:0:0:
256,192,70713,1,0,0:0:0:0:
256,192,70856,1,0,0:0:0:0:
256,192,71142,1,2,0:0:0:0:
256,192,71427,1,0,0:0:0:0:
256,192,71570,1,2,0:0:0:0:
256,192,71856,1,2,0:0:0:0:
256,192,71999,1,0,0:0:0:0:
256,192,72284,1,2,0:0:0:0:
256,192,72570,1,0,0:0:0:0:
256,192,72784,1,2,0:0:0:0:
256,192,72999,1,0,0:0:0:0:
256,192,73142,1,0,0:0:0:0:
256,192,73427,1,2,0:0:0:0:
256,192,73713,1,0,0:0:0:0:
256,192,73927,1,2,0:0:0:0:
256,192,74142,1,0,0:0:0:0:
256,192,74284,1,2,0:0:0:0:
256,192,74570,1,2,0:0:0:0:
256,192,74856,1,0,0:0:0:0:
256,192,74999,1,0,0:0:0:0:
256,192,75142,1,2,0:0:0:0:
256,192,75284,1,0,0:0:0:0:
256,192,75427,1,2,0:0:0:0:
256,192,75570,1,0,0:0:0:0:
256,192,75713,1,2,0:0:0:0:
256,192,75856,1,0,0:0:0:0:
256,192,75999,1,0,0:0:0:0:
256,192,76142,1,0,0:0:0:0:
256,192,76284,1,2,0:0:0:0:
256,192,76427,1,0,0:0:0:0:
256,192,76570,1,2,0:0:0:0:
256,192,76999,1,2,0:0:0:0:
256,192,77427,1,0,0:0:0:0:
256,192,77713,1,2,0:0:0:0:
256,192,78570,1,0,0:0:0:0:
256,192,78856,1,2,0:0:0:0:
256,192,79284,1,2,0:0:0:0:
256,192,79713,1,0,0:0:0:0:
256,192,79999,1,2,0:0:0:0:
256,192,80570,1,2,0:0:0:0:
256,192,80856,1,0,0:0:0:0:
256,192,80999,1,0,0:0:0:0:
256,192,81142,1,2,0:0:0:0:
256,192,81570,1,2,0:0:0:0:
256,192,81999,1,0,0:0:0:0:
256,192,82284,1,2,0:0:0:0:
256,192,82713,1,2,0:0:0:0:
256,192,83142,1,2,0:0:0:0:
256,192,83427,1,0,0:0:0:0:
256,192,83999,1,0,0:0:0:0:
256,192,84284,1,0,0:0:0:0:
256,192,84427,1,0,0:0:0:0:
256,192,84570,1,2,0:0:0:0:
256,192,85142,1,0,0:0:0:0:
256,192,85713,1,2,0:0:0:0:
256,192,85999,1,0,0:0:0:0:
256,192,86284,1,0,0:0:0:0:
256,192,86570,1,0,0:0:0:0:
256,192,86856,1,2,0:0:0:0:
256,192,87142,1,0,0:0:0:0:
256,192,87427,1,0,0:0:0:0:
256,192,87713,1,0,0:0:0:0:
256,192,87999,1,2,0:0:0:0:
256,192,88284,1,0,0:0:0:0:
256,192,88570,1,0,0:0:0:0:
256,192,88856,1,0,0:0:0:0:
256,192,89142,1,2,0:0:0:0:
256,192,89427,1,0,0:0:0:0:
256,192,89713,1,0,0:0:0:0:
256,192,89999,1,0,0:0:0:0:
256,192,90284,1,2,0:0:0:0:
256,192,90570,1,0,0:0:0:0:
256,192,90856,1,0,0:0:0:0:
256,192,91142,1,2,0:0:0:0:
256,192,91427,1,2,0:0:0:0:
256,192,91713,1,0,0:0:0:0:
256,192,91999,1,0,0:0:0:0:
256,192,92284,1,0,0:0:0:0:
256,192,92570,1,2,0:0:0:0:
256,192,92856,1,0,0:0:0:0:
256,192,93142,1,0,0:0:0:0:
256,192,93427,1,0,0:0:0:0:
256,192,93713,1,2,0:0:0:0:
256,192,93999,1,0,0:0:0:0:
256,192,94284,1,0,0:0:0:0:
256,192,94427,1,0,0:0:0:0:
256,192,94570,1,0,0:0:0:0:
256,192,94713,1,0,0:0:0:0:
256,192,94856,6,0,L|160:192,7,70
256,192,95999,5,2,0:0:0:0:
256,192,96070,1,0,0:0:0:0:
256,192,96142,1,0,0:0:0:0:
256,192,96213,1,0,0:0:0:0:
256,192,96284,1,2,0:0:0:0:
256,192,96427,1,2,0:0:0:0:
256,192,96499,1,0,0:0:0:0:
256,192,96570,1,0,0:0:0:0:
256,192,96642,1,0,0:0:0:0:
256,192,96713,1,2,0:0:0:0:
256,192,96856,1,2,0:0:0:0:
256,192,96999,1,0,0:0:0:0:
256,192,97070,1,0,0:0:0:0:
256,192,97142,1,2,0:0:0:0:
256,192,97284,1,0,0:0:0:0:
256,192,97427,1,2,0:0:0:0:
256,192,97570,1,0,0:0:0:0:
256,192,97713,1,2,0:0:0:0:
256,192,97784,1,0,0:0:0:0:
256,192,97856,1,2,0:0:0:0:
256,192,97927,1,0,0:0:0:0:
256,192,97999,1,2,0:0:0:0:
256,192,98142,1,2,0:0:0:0:
256,192,98213,1,0,0:0:0:0:
256,192,98284,1,2,0:0:0:0:
256,192,98427,1,0,0:0:0:0:
256,192,98570,1,2,0:0:0:0:
256,192,98713,1,2,0:0:0:0:
256,192,98784,1,0,0:0:0:0:
256,192,98856,1,0,0:0:0:0:
256,192,98999,1,2,0:0:0:0:
256,192,99142,1,2,0:0:0:0:
256,192,99213,1,0,0:0:0:0:
256,192,99284,1,0,0:0:0:0:
256,192,99356,1,0,0:0:0:0:
256,192,99427,1,2,0:0:0:0:
256,192,99570,1,0,0:0:0:0:
256,192,99713,1,2,0:0:0:0:
256,192,99856,1,2,0:0:0:0:
256,192,99999,1,2,0:0:0:0:
256,192,100070,1,2,0:0:0:0:
256,192,100142,1,2,0:0:0:0:
256,192,100213,1,0,0:0:0:0:
256,192,100284,1,2,0:0:0:0:
256,192,100356,1,0,0:0:0:0:
256,192,100427,1,0,0:0:0:0:
256,192,100499,1,0,0:0:0:0:
256,192,100570,1,2,0:0:0:0:
256,192,100713,1,0,0:0:0:0:
256,192,100856,1,2,0:0:0:0:
256,192,100927,1,0,0:0:0:0:
256,192,100999,1,2,0:0:0:0:
256,192,101142,1,0,0:0:0:0:
256,192,101284,1,2,0:0:0:0:
256,192,101356,1,0,0:0:0:0:
256,192,101427,1,2,0:0:0:0:
256,192,101570,1,0,0:0:0:0:
256,192,101713,1,2,0:0:0:0:
256,192,101856,1,0,0:0:0:0:
256,192,101999,1,2,0:0:0:0:
256,192,102142,1,2,0:0:0:0:
256,192,102284,1,0,0:0:0:0:
256,192,102427,1,2,0:0:0:0:
256,192,102499,1,0,0:0:0:0:
256,192,102570,1,2,0:0:0:0:
256,192,102713,1,0,0:0:0:0:
256,192,102856,1,2,0:0:0:0:
256,192,102927,1,2,0:0:0:0:
256,192,102999,1,0,0:0:0:0:
256,192,103070,1,0,0:0:0:0:
256,192,103142,1,2,0:0:0:0:
256,192,103213,1,0,0:0:0:0:
256,192,103284,1,2,0:0:0:0:
256,192,103427,1,0,0:0:0:0:
256,192,103570,1,2,0:0:0:0:
256,192,103713,1,2,0:0:0:0:
256,192,103856,1,0,0:0:0:0:
256,192,103999,1,2,0:0:0:0:
256,192,104070,1,0,0:0:0:0:
256,192,104142,1,0,0:0:0:0:
256,192,104284,1,2,0:0:0:0:
256,192,104427,1,0,0:0:0:0:
256,192,104570,1,2,0:0:0:0:
256,192,104642,1,2,0:0:0:0:
256,192,104713,1,0,0:0:0:0:
256,192,104784,1,0,0:0:0:0:
256,192,104856,1,2,0:0:0:0:
256,192,104927,1,2,0:0:0:0:
256,192,104999,1,0,0:0:0:0:
256,192,105070,1,0,0:0:0:0:
256,192,105142,1,2,0:0:0:0:
256,192,105213,1,0,0:0:0:0:
256,192,105284,1,0,0:0:0:0:
256,192,105356,1,0,0:0:0:0:
256,192,105427,1,2,0:0:0:0:
256,192,105570,1,2,0:0:0:0:
256,192,105642,1,0,0:0:0:0:
256,192,105713,1,0,0:0:0:0:
256,192,105784,1,0,0:0:0:0:
256,192,105856,1,2,0:0:0:0:
256,192,105999,1,2,0:0:0:0:
256,192,106070,1,0,0:0:0:0:
256,192,106142,1,0,0:0:0:0:
256,192,106213,1,0,0:0:0:0:
256,192,106284,1,2,0:0:0:0:
256,192,106427,1,0,0:0:0:0:
256,192,106570,1,2,0:0:0:0:
256,192,106713,1,2,0:0:0:0:
256,192,106856,1,2,0:0:0:0:
256,192,106927,1,0,0:0:0:0:
256,192,106999,1,2,0:0:0:0:
256,192,107070,1,0,0:0:0:0:
256,192,107142,1,2,0:0:0:0:
256,192,107284,1,2,0:0:0:0:
256,192,107427,1,4,0:0:0:0:
256,192,107713,1,4,0:0:0:0:
256,192,107856,1,4,0:0:0:0:
256,192,108142,1,4,0:0:0:0:
256,192,108427,1,4,0:0:0:0:
256,192,108713,1,2,0:0:0:0:
256,192,108784,1,0,0:0:0:0:
256,192,108856,1,2,0:0:0:0:
256,192,108927,1,0,0:0:0:0:
256,192,108999,1,2,0:0:0:0:
256,192,109070,1,0,0:0:0:0:
256,192,109142,1,2,0:0:0:0:
256,192,109213,1,0,0:0:0:0:
256,192,109284,1,2,0:0:0:0:
256,192,109356,1,2,0:0:0:0:
256,192,109427,1,2,0:0:0:0:
256,192,109499,1,0,0:0:0:0:
256,192,109570,1,2,0:0:0:0:
256,192,109713,1,2,0:0:0:0:
256,192,109784,1,0,0:0:0:0:
256,192,109856,1,0,0:0:0:0:
256,192,109999,1,2,0:0:0:0:
256,192,110142,1,2,0:0:0:0:
256,192,110213,1,0,0:0:0:0:
256,192,110284,1,0,0:0:0:0:
256,192,110427,1,2,0:0:0:0:
256,192,110570,1,2,0:0:0:0:
256,192,110713,1,0,0:0:0:0:
256,192,110784,1,0,0:0:0:0:
256,192,110856,1,2,0:0:0:0:
256,192,110999,1,0,0:0:0:0:
256,192,111142,1,2,0:0:0:0:
256,192,111284,1,0,0:0:0:0:
256,192,111356,1,0,0:0:0:0:
256,192,111427,1,2,0:0:0:0:
256,192,111570,1,0,0:0:0:0:
256,192,111713,1,2,0:0:0:0:
256,192,111856,1,0,0:0:0:0:
256,192,111927,1,0,0:0:0:0:
256,192,111999,1,2,0:0:0:0:
256,192,112142,1,0,0:0:0:0:
256,192,112284,1,0,0:0:0:0:
256,192,112356,1,0,0:0:0:0:
256,192,112427,1,2,0:0:0:0:
256,192,112570,1,0,0:0:0:0:
256,192,112713,1,2,0:0:0:0:
256,192,112856,1,2,0:0:0:0:
256,192,112927,1,0,0:0:0:0:
256,192,112999,1,2,0:0:0:0:
256,192,113070,1,0,0:0:0:0:
256,192,113142,1,2,0:0:0:0:
256,192,113284,1,0,0:0:0:0:
256,192,113427,1,2,0:0:0:0:
256,192,113570,1,0,0:0:0:0:
256,192,113713,1,2,0:0:0:0:
256,192,113784,1,2,0:0:0:0:
256,192,113856,1,0,0:0:0:0:
256,192,113927,1,0,0:0:0:0:
256,192,113999,1,2,0:0:0:0:
256,192,114070,1,2,0:0:0:0:
256,192,114142,1,0,0:0:0:0:
256,192,114213,1,0,0:0:0:0:
256,192,114284,1,2,0:0:0:0:
256,192,114356,1,0,0:0:0:0:
256,192,114427,1,0,0:0:0:0:
256,192,114499,1,0,0:0:0:0:
256,192,114570,1,2,0:0:0:0:
256,192,114642,1,0,0:0:0:0:
256,192,114713,1,2,0:0:0:0:
256,192,114784,1,0,0:0:0:0:
256,192,114856,1,0,0:0:0:0:
256,192,114927,1,0,0:0:0:0:
256,192,114999,1,2,0:0:0:0:
256,192,115070,1,0,0:0:0:0:
256,192,115142,1,2,0:0:0:0:
256,192,115213,1,0,0:0:0:0:
256,192,115284,1,0,0:0:0:0:
256,192,115356,1,0,0:0:0:0:
256,192,115427,1,2,0:0:0:0:
256,192,115499,1,0,0:0:0:0:
256,192,115570,1,0,0:0:0:0:
256,192,115642,1,0,0:0:0:0:
256,192,115713,1,2,0:0:0:0:
256,192,115784,1,0,0:0:0:0:
256,192,115856,1,2,0:0:0:0:
256,192,115927,1,0,0:0:0:0:
256,192,115999,1,2,0:0:0:0:
256,192,116070,1,0,0:0:0:0:
256,192,116142,1,2,0:0:0:0:
256,192,116213,1,0,0:0:0:0:
256,192,116284,1,2,0:0:0:0:
256,192,116356,1,0,0:0:0:0:
256,192,116427,1,2,0:0:0:0:
256,192,116499,1,0,0:0:0:0:
256,192,116570,1,2,0:0:0:0:
256,192,116713,1,0,0:0:0:0:
256,192,116856,1,2,0:0:0:0:
256,192,116927,1,0,0:0:0:0:
256,192,116999,1,2,0:0:0:0:
256,192,117070,1,2,0:0:0:0:
256,192,117142,1,0,0:0:0:0:
256,192,117284,1,2,0:0:0:0:
256,192,117427,1,2,0:0:0:0:
256,192,117499,1,0,0:0:0:0:
256,192,117570,1,2,0:0:0:0:
256,192,117642,1,0,0:0:0:0:
256,192,117713,1,2,0:0:0:0:
256,192,117856,1,0,0:0:0:0:
256,192,117999,1,2,0:0:0:0:
256,192,118142,1,2,0:0:0:0:
256,192,118284,1,2,0:0:0:0:
256,192,118356,1,2,0:0:0:0:
256,192,118427,1,2,0:0:0:0:
256,192,118499,1,0,0:0:0:0:
256,192,118570,1,2,0:0:0:0:
256,192,118642,1,0,0:0:0:0:
256,192,118713,1,0,0:0:0:0:
256,192,118784,1,0,0:0:0:0:
256,192,118856,1,2,0:0:0:0:
256,192,118999,1,2,0:0:0:0:
256,192,119070,1,0,0:0:0:0:
256,192,119142,1,2,0:0:0:0:
256,192,119284,1,2,0:0:0:0:
256,192,119427,1,0,0:0:0:0:
256,192,119499,1,0,0:0:0:0:
256,192,119570,1,0,0:0:0:0:
256,192,119713,1,2,0:0:0:0:
256,192,119856,1,0,0:0:0:0:
256,192,119999,1,2,0:0:0:0:
256,192,120142,1,2,0:0:0:0:
256,192,120213,1,0,0:0:0:0:
256,192,120284,1,2,0:0:0:0:
256,192,120427,1,2,0:0:0:0:
256,192,120570,1,0,0:0:0:0:
256,192,120713,1,0,0:0:0:0:
256,192,120784,1,0,0:0:0:0:
256,192,120856,1,2,0:0:0:0:
256,192,120999,1,0,0:0:0:0:
256,192,121142,1,2,0:0:0:0:
256,192,121213,1,2,0:0:0:0:
256,192,121284,1,0,0:0:0:0:
256,192,121356,1,0,0:0:0:0:
256,192,121427,1,2,0:0:0:0:
256,192,121499,1,0,0:0:0:0:
256,192,121570,1,2,0:0:0:0:
256,192,121642,1,2,0:0:0:0:
256,192,121713,1,0,0:0:0:0:
256,192,121784,1,0,0:0:0:0:
256,192,121856,1,2,0:0:0:0:
256,192,121927,1,0,0:0:0:0:
256,192,121999,1,2,0:0:0:0:
256,192,122142,1,0,0:0:0:0:
256,192,122284,1,2,0:0:0:0:
256,192,122356,1,0,0:0:0:0:
256,192,122427,1,0,0:0:0:0:
256,192,122499,1,0,0:0:0:0:
256,192,122570,1,2,0:0:0:0:
256,192,122713,1,2,0:0:0:0:
256,192,122856,1,2,0:0:0:0:
256,192,122927,1,2,0:0:0:0:
256,192,122999,1,0,0:0:0:0:
256,192,123070,1,0,0:0:0:0:
256,192,123142,1,2,0:0:0:0:
256,192,123213,1,2,0:0:0:0:
256,192,123284,1,0,0:0:0:0:
256,192,123356,1,0,0:0:0:0:
256,192,123427,1,2,0:0:0:0:
256,192,123570,1,0,0:0:0:0:
256,192,123642,1,0,0:0:0:0:
256,192,123713,1,2,0:0:0:0:
256,192,123784,1,0,0:0:0:0:
256,192,123856,1,2,0:0:0:0:
256,192,123927,1,0,0:0:0:0:
256,192,123999,1,0,0:0:0:0:
256,192,124070,1,0,0:0:0:0:
256,192,124142,1,2,0:0:0:0:
256,192,124213,1,0,0:0:0:0:
256,192,124284,1,2,0:0:0:0:
256,192,124356,1,0,0:0:0:0:
256,192,124427,1,0,0:0:0:0:
256,192,124499,1,0,0:0:0:0:
256,192,124570,1,2,0:0:0:0:
256,192,124642,1,0,0:0:0:0:
256,192,124713,1,0,0:0:0:0:
256,192,124784,1,0,0:0:0:0:
256,192,124856,1,2,0:0:0:0:
256,192,124927,1,0,0:0:0:0:
256,192,124999,1,2,0:0:0:0:
256,192,125070,1,0,0:0:0:0:
256,192,125142,1,2,0:0:0:0:
256,192,125213,1,0,0:0:0:0:
256,192,125284,1,2,0:0:0:0:
256,192,125356,1,0,0:0:0:0:
256,192,125427,1,2,0:0:0:0:
256,192,125499,1,0,0:0:0:0:
256,192,125570,1,2,0:0:0:0:
256,192,125713,1,4,0:0:0:0:
256,192,125856,1,4,0:0:0:0:
256,192,126142,1,4,0:0:0:0:
256,192,126427,1,4,0:0:0:0:
256,192,126713,1,4,0:0:0:0:
256,192,126999,1,2,0:0:0:0:
256,192,127070,1,0,0:0:0:0:
256,192,127142,1,2,0:0:0:0:
256,192,127213,1,0,0:0:0:0:
256,192,127284,1,2,0:0:0:0:
256,192,127427,1,2,0:0:0:0:
256,192,127570,1,2,0:0:0:0:
256,192,127713,1,0,0:0:0:0:
256,192,127856,1,2,0:0:0:0:
256,192,127999,1,2,0:0:0:0:
256,192,128070,1,2,0:0:0:0:
256,192,128142,1,0,0:0:0:0:
256,192,128213,1,0,0:0:0:0:
256,192,128284,1,2,0:0:0:0:
256,192,128356,1,0,0:0:0:0:
256,192,128427,1,2,0:0:0:0:
256,192,128499,1,0,0:0:0:0:
256,192,128570,1,0,0:0:0:0:
256,192,128642,1,0,0:0:0:0:
256,192,128713,1,0,0:0:0:0:
256,192,128784,1,0,0:0:0:0:
256,192,128856,1,2,0:0:0:0:
256,192,128927,1,0,0:0:0:0:
256,192,128999,1,0,0:0:0:0:
256,192,129070,1,0,0:0:0:0:
256,192,129142,1,2,0:0:0:0:
256,192,129213,1,0,0:0:0:0:
256,192,129284,1,0,0:0:0:0:
256,192,129356,1,0,0:0:0:0:
256,192,129427,1,2,0:0:0:0:
256,192,129499,1,0,0:0:0:0:
256,192,129570,1,2,0:0:0:0:
256,192,129642,1,0,0:0:0:0:
256,192,129713,1,2,0:0:0:0:
256,192,129784,1,0,0:0:0:0:
256,192,129856,1,0,0:0:0:0:
256,192,129927,1,0,0:0:0:0:
256,192,129999,1,2,0:0:0:0:
256,192,130070,1,0,0:0:0:0:
256,192,130142,1,0,0:0:0:0:
256,192,130284,1,2,0:0:0:0:
256,192,130380,1,0,0:0:0:0:
256,192,130475,1,0,0:0:0:0:
256,192,130570,1,2,0:0:0:0:
256,192,130665,1,0,0:0:0:0:
256,192,130761,1,0,0:0:0:0:
256,192,130856,1,2,0:0:0:0:
256,192,130951,1,0,0:0:0:0:
256,192,131046,1,0,0:0:0:0:
256,192,131142,1,2,0:0:0:0:
256,192,131237,1,0,0:0:0:0:
256,192,131332,1,0,0:0:0:0:
256,192,131427,1,2,0:0:0:0:
256,192,131618,1,0,0:0:0:0:
256,192,131714,1,2,0:0:0:0:
256,192,131903,1,0,0:0:0:0:
256,192,131999,1,2,0:0:0:0:
256,192,132189,1,0,0:0:0:0:
256,192,132284,1,0,0:0:0:0:
256,192,132356,1,0,0:0:0:0:
256,192,132427,1,0,0:0:0:0:
256,192,132499,1,0,0:0:0:0:
256,192,132570,1,2,0:0:0:0:
256,192,132713,12,0,135142,0:0:0:0:
