osu file format v14

[General]
AudioFilename: Rave-it!!Rave-it!! .mp3
AudioLeadIn: 0
PreviewTime: 96174
Countdown: 0
SampleSet: Normal
StackLeniency: 0.7
Mode: 1
LetterboxInBreaks: 0
WidescreenStoryboard: 0

[Editor]
DistanceSpacing: 0.8
BeatDivisor: 4
GridSize: 32
TimelineZoom: 4.499998

[Metadata]
Title:LeaF Pack
TitleUnicode:LeaF Pack
Artist:LeaF
ArtistUnicode:LeaF
Creator:Q____X
Version:Rave*it!!Rave*it!!
Source:
Tags:[_Chichinya_] Xoretra
BeatmapID:1239896
BeatmapSetID:517000

[Difficulty]
HPDrainRate:5
CircleSize:2
OverallDifficulty:5
ApproachRate:5
SliderMultiplier:1.3999999666214
SliderTickRate:1

[Events]
//Background and Video events
0,0,"Rave it.jpg",0,0
//Break Periods
//Storyboard Layer 0 (Background)
//Storyboard Layer 1 (Fail)
//Storyboard Layer 2 (Pass)
//Storyboard Layer 3 (Foreground)
//Storyboard Sound Samples

[TimingPoints]
607,214.285714285714,4,1,0,100,1,0
607,-125,4,1,0,100,0,0
2321,-100,4,1,0,100,0,0
2856,-66.6666666666667,4,1,0,100,0,0
2964,-50,4,1,0,100,0,0
3392,-66.6666666666667,4,1,0,100,0,0
3606,-100,4,1,0,100,0,0
11749,-142.857142857143,4,1,0,100,0,0
12178,-125,4,1,0,100,0,0
13464,-111.111111111111,4,1,0,100,0,0
13678,-100,4,1,0,100,0,0
13892,-90.9090909090909,4,1,0,100,0,0
14106,-83.3333333333333,4,1,0,100,0,0
14321,-76.9230769230769,4,1,0,100,0,0
14535,-71.4285714285714,4,1,0,100,0,0
14749,-66.6666666666667,4,1,0,100,0,0
15178,-142.857142857143,4,1,0,100,0,0
15392,-125,4,1,0,100,0,0
16892,-111.111111111111,4,1,0,100,0,0
17214,-100,4,1,0,100,0,0
17535,-90.909090909091,4,1,0,100,0,0
17749,-83.3333333333333,4,1,0,100,0,0
18821,-25,4,1,0,100,0,0
19464,-125,4,1,0,100,0,0
24606,-111.111111111111,4,1,0,100,0,0
26106,-100,4,1,0,100,0,1
32749,-100,4,1,0,100,0,0
32964,-100,4,1,0,100,0,1
39606,-100,4,1,0,100,0,0
40035,428.571428571429,4,1,0,100,1,0
40892,-50,4,1,0,100,0,0
41320,-90.9090909090909,4,1,0,100,0,0
42606,-33.3333333333333,4,1,0,100,0,0
43035,-83.3333333333333,4,1,0,100,0,0
44320,-76.9230769230769,4,1,0,100,0,0
45177,-71.4285714285714,4,1,0,100,0,0
46035,-66.6666666666667,4,1,0,100,0,0
46892,-50,4,1,0,100,0,0
47106,-47.6190476190476,4,1,0,100,0,0
47320,-45.4545454545455,4,1,0,100,0,0
47535,-43.4782608695652,4,1,0,100,0,0
47749,-41.6666666666667,4,1,0,100,0,0
47963,-40,4,1,0,100,0,0
48177,-38.4615384615385,4,1,0,100,0,0
48392,-37.037037037037,4,1,0,100,0,0
48606,214.285714285714,4,1,0,100,1,0
50321,-200,4,1,0,100,0,0
50749,-181.818181818182,4,1,0,100,0,0
50964,-166.666666666667,4,1,0,100,0,0
51178,-153.846153846154,4,1,0,100,0,0
51606,-142.857142857143,4,1,0,100,0,0
52035,-133.333333333333,4,1,0,100,0,0
52249,-125,4,1,0,100,0,0
52464,-117.647058823529,4,1,0,100,0,0
52678,-111.111111111111,4,1,0,100,0,0
52892,-105.263157894737,4,1,0,100,0,0
53214,-100,4,1,0,100,0,0
53321,-50,4,1,0,100,0,0
53535,-100,4,1,0,100,0,0
53749,428.571428571429,4,1,0,100,1,0
53963,214.285714285714,4,1,0,100,1,0
54177,428.571428571429,4,1,0,100,1,0
54391,-66.6666666666667,4,1,0,100,0,0
54605,-100,4,1,0,100,0,0
54819,-133.333333333333,4,1,0,100,0,0
55034,214.285714285714,4,1,0,100,1,0
55248,428.571428571429,4,1,0,100,1,0
55676,214.285714285714,4,1,0,100,1,0
56104,428.571428571429,4,1,0,100,1,0
56532,-66.6666666666667,4,1,0,100,0,0
56746,214.285714285714,4,1,0,100,1,0
57388,-142.857142857143,4,1,0,100,0,0
58031,-200,4,1,0,100,0,0
58246,-166.666666666667,4,1,0,100,0,0
58460,-142.857142857143,4,1,0,100,0,0
58674,-125,4,1,0,100,0,0
59316,-133.333333333333,4,1,0,100,0,0
59745,-40,4,1,0,100,0,0
60174,-100,4,1,0,100,0,0
60601,-83.3333333333333,4,1,0,100,0,0
60817,-100,4,1,0,100,0,0
61458,-111.111111111111,4,1,0,100,0,0
61888,-125,4,1,0,100,0,0
62031,-142.857142857143,4,1,0,100,0,0
62174,-166.666666666666,4,1,0,100,0,0
62317,-142.857142857143,4,1,0,100,0,0
63174,-166.666666666667,4,1,0,100,0,0
63388,-100,4,1,0,100,0,0
64031,-40,4,1,0,100,0,0
64245,-100,4,1,0,100,0,0
65531,-98.0392156862745,4,1,0,100,0,0
65567,-96.1538461538461,4,1,0,100,0,0
65603,-94.3396226415094,4,1,0,100,0,0
65638,-92.5925925925926,4,1,0,100,0,0
65674,-90.9090909090909,4,1,0,100,0,0
65710,-89.2857142857143,4,1,0,100,0,0
65745,-87.719298245614,4,1,0,100,0,0
67460,-111.111111111111,4,1,0,100,0,0
68210,-100,4,1,0,100,0,0
68424,-111.111111111111,4,1,0,100,0,0
68924,-100,4,1,0,100,0,0
69388,-111.111111111111,4,1,0,100,0,0
70888,-100,4,1,0,100,0,0
96174,-100,4,1,0,100,0,0
96388,-90.9090909090909,4,1,0,100,0,0
96603,-83.3333333333333,4,1,0,100,0,0
96817,-76.9230769230769,4,1,0,100,0,0
97031,-71.4285714285714,4,1,0,100,0,0
97888,-76.9230769230769,4,1,0,100,0,0
98103,-83.3333333333333,4,1,0,100,0,0
98317,-90.9090909090909,4,1,0,100,0,0
98531,-83.3333333333333,4,1,0,100,0,0
98745,-76.9230769230769,4,1,0,100,0,0
98960,-83.3333333333333,4,1,0,100,0,0
99174,-90.9090909090909,4,1,0,100,0,0
99603,-100,4,1,0,100,0,1
113317,-125,4,1,0,100,0,0
115031,428.571428571429,4,1,0,100,1,0
115245,214.285714285714,4,1,0,100,1,0
115459,428.571428571429,4,1,0,100,1,0
115673,214.285714285714,4,1,0,100,1,0
115887,-66.6666666666667,4,1,0,100,0,0

[HitObjects]
256,192,607,5,8,0:0:0:0:
256,192,714,1,8,0:0:0:0:
256,192,821,1,0,0:0:0:0:
256,192,928,1,0,0:0:0:0:
256,192,1035,1,8,0:0:0:0:
256,192,1142,1,8,0:0:0:0:
256,192,1249,1,0,0:0:0:0:
256,192,1356,1,0,0:0:0:0:
256,192,1464,1,8,0:0:0:0:
256,192,1571,1,0,0:0:0:0:
256,192,1678,1,8,0:0:0:0:
256,192,1785,1,0,0:0:0:0:
256,192,1892,1,8,0:0:0:0:
256,192,1999,1,8,0:0:0:0:
256,192,2106,1,0,0:0:0:0:
256,192,2213,1,0,0:0:0:0:
256,192,2321,1,12,0:0:0:0:
256,192,2749,1,8,0:0:0:0:
256,192,2856,1,8,0:0:0:0:
256,192,2964,1,0,0:0:0:0:
256,192,3178,1,8,0:0:0:0:
256,192,3392,1,8,0:0:0:0:
256,192,3606,1,0,0:0:0:0:
256,192,3660,1,0,0:0:0:0:
256,192,3714,1,0,0:0:0:0:
256,192,3821,1,8,0:0:0:0:
256,192,4892,1,8,0:0:0:0:
256,192,5106,1,0,0:0:0:0:
256,192,5214,1,8,0:0:0:0:
256,192,5428,1,0,0:0:0:0:
256,192,5535,1,8,0:0:0:0:
256,192,5642,1,0,0:0:0:0:
256,192,5696,1,0,0:0:0:0:
256,192,5749,1,8,0:0:0:0:
256,192,5856,1,0,0:0:0:0:
256,192,5964,1,8,0:0:0:0:
256,192,6071,1,0,0:0:0:0:
256,192,6178,1,8,0:0:0:0:
256,192,6214,1,8,0:0:0:0:
256,192,6285,1,0,0:0:0:0:
256,192,6392,1,8,0:0:0:0:
256,192,6499,1,0,0:0:0:0:
256,192,6535,1,0,0:0:0:0:
256,192,6606,1,8,0:0:0:0:
256,192,6714,1,0,0:0:0:0:
256,192,6821,1,8,0:0:0:0:
256,192,6928,1,0,0:0:0:0:
256,192,7035,1,8,0:0:0:0:
256,192,7142,1,8,0:0:0:0:
256,192,7249,1,0,0:0:0:0:
256,192,7303,1,0,0:0:0:0:
256,192,7356,1,8,0:0:0:0:
256,192,7464,1,8,0:0:0:0:
256,192,7571,1,0,0:0:0:0:
256,192,7678,1,8,0:0:0:0:
256,192,7785,1,0,0:0:0:0:
256,192,7892,1,8,0:0:0:0:
256,192,7999,1,0,0:0:0:0:
256,192,8053,1,0,0:0:0:0:
256,192,8106,1,8,0:0:0:0:
256,192,8321,1,8,0:0:0:0:
256,192,8535,1,0,0:0:0:0:
256,192,8643,1,8,0:0:0:0:
256,192,8857,1,0,0:0:0:0:
256,192,8964,1,8,0:0:0:0:
256,192,9071,1,0,0:0:0:0:
256,192,9125,1,0,0:0:0:0:
256,192,9178,1,8,0:0:0:0:
256,192,9285,1,0,0:0:0:0:
256,192,9393,1,8,0:0:0:0:
256,192,9500,1,0,0:0:0:0:
256,192,9607,1,8,0:0:0:0:
256,192,9643,1,8,0:0:0:0:
256,192,9714,1,0,0:0:0:0:
256,192,9821,1,8,0:0:0:0:
256,192,9928,1,0,0:0:0:0:
256,192,9964,1,0,0:0:0:0:
256,192,10035,1,12,0:0:0:0:
256,192,10356,1,4,0:0:0:0:
256,192,10464,1,8,0:0:0:0:
256,192,10678,1,0,0:0:0:0:
256,192,10785,1,0,0:0:0:0:
256,192,10839,1,0,0:0:0:0:
256,192,10892,1,8,0:0:0:0:
256,192,11106,1,0,0:0:0:0:
256,192,11321,1,8,0:0:0:0:
256,192,11535,1,8,0:0:0:0:
256,192,11749,1,0,0:0:0:0:
256,192,11964,1,0,0:0:0:0:
256,192,12178,1,8,0:0:0:0:
256,192,12392,1,0,0:0:0:0:
256,192,12606,1,8,0:0:0:0:
256,192,12642,1,8,0:0:0:0:
256,192,12714,1,0,0:0:0:0:
256,192,12821,1,8,0:0:0:0:
256,192,12928,1,0,0:0:0:0:
256,192,13035,1,8,0:0:0:0:
256,192,13142,1,0,0:0:0:0:
256,192,13196,1,0,0:0:0:0:
256,192,13249,1,0,0:0:0:0:
256,192,13356,1,0,0:0:0:0:
256,192,13464,1,12,0:0:0:0:
256,192,13678,1,4,0:0:0:0:
256,192,13892,1,12,0:0:0:0:
256,192,14106,1,12,0:0:0:0:
256,192,14321,1,4,0:0:0:0:
256,192,14535,1,4,0:0:0:0:
256,192,14749,1,12,0:0:0:0:
256,192,14964,1,0,0:0:0:0:
256,192,15071,1,8,0:0:0:0:
256,192,15178,1,4,0:0:0:0:
256,192,15392,1,0,0:0:0:0:
256,192,15606,1,8,0:0:0:0:
256,192,15821,1,0,0:0:0:0:
256,192,15928,1,0,0:0:0:0:
256,192,15964,1,0,0:0:0:0:
256,192,16035,1,8,0:0:0:0:
256,192,16142,1,0,0:0:0:0:
256,192,16249,1,0,0:0:0:0:
256,192,16464,1,8,0:0:0:0:
256,192,16678,1,0,0:0:0:0:
256,192,16892,1,12,0:0:0:0:
256,192,17214,1,12,0:0:0:0:
256,192,17535,1,4,0:0:0:0:
256,192,17749,1,12,0:0:0:0:
256,192,18178,1,0,0:0:0:0:
256,192,18606,1,8,0:0:0:0:
32,32,18821,2,0,B|512:32|512:32|32:96|32:96|0:128|0:128|544:128|544:128|512:256|512:256,1,1676.5626261017
256,192,19678,1,8,0:0:0:0:
256,192,19892,1,8,0:0:0:0:
256,192,20106,1,0,0:0:0:0:
256,192,20321,1,8,0:0:0:0:
256,192,20535,1,0,0:0:0:0:
256,192,20642,1,0,0:0:0:0:
256,192,20749,1,8,0:0:0:0:
256,192,20856,1,8,0:0:0:0:
256,192,20964,1,0,0:0:0:0:
256,192,21071,1,0,0:0:0:0:
256,192,21178,1,8,0:0:0:0:
256,192,21392,1,8,0:0:0:0:
256,192,21499,1,8,0:0:0:0:
256,192,21606,1,8,0:0:0:0:
256,192,21821,1,0,0:0:0:0:
256,192,22035,1,8,0:0:0:0:
256,192,22464,1,0,0:0:0:0:
256,192,22678,1,0,0:0:0:0:
256,192,22785,1,0,0:0:0:0:
256,192,22892,1,8,0:0:0:0:
256,192,23106,1,0,0:0:0:0:
256,192,23321,1,8,0:0:0:0:
256,192,23535,1,0,0:0:0:0:
256,192,23749,1,8,0:0:0:0:
256,192,23964,1,8,0:0:0:0:
256,192,24071,1,8,0:0:0:0:
256,192,24178,1,0,0:0:0:0:
256,192,24285,1,0,0:0:0:0:
256,192,24392,1,8,0:0:0:0:
256,192,24499,1,0,0:0:0:0:
256,192,24553,1,0,0:0:0:0:
256,192,24606,1,12,0:0:0:0:
256,192,24821,1,8,0:0:0:0:
256,192,24928,1,0,0:0:0:0:
256,192,24981,1,0,0:0:0:0:
256,192,25035,1,12,0:0:0:0:
256,192,25142,1,0,0:0:0:0:
256,192,25249,1,8,0:0:0:0:
256,192,25356,1,0,0:0:0:0:
256,192,25410,1,0,0:0:0:0:
256,192,25464,1,8,0:0:0:0:
256,192,25571,1,0,0:0:0:0:
256,192,25678,1,8,0:0:0:0:
256,192,25785,1,0,0:0:0:0:
256,192,25892,1,8,0:0:0:0:
256,192,26106,1,0,0:0:0:0:
256,192,26214,1,0,0:0:0:0:
256,192,26321,1,8,0:0:0:0:
256,192,26428,1,0,0:0:0:0:
256,192,26535,1,8,0:0:0:0:
256,192,26642,1,8,0:0:0:0:
256,192,26749,1,8,0:0:0:0:
256,192,26856,1,0,0:0:0:0:
256,192,26964,1,8,0:0:0:0:
256,192,27071,1,0,0:0:0:0:
256,192,27178,1,8,0:0:0:0:
256,192,27285,1,0,0:0:0:0:
256,192,27392,1,8,0:0:0:0:
256,192,27499,1,8,0:0:0:0:
256,192,27606,1,8,0:0:0:0:
256,192,27714,1,0,0:0:0:0:
256,192,27821,1,8,0:0:0:0:
256,192,27928,1,0,0:0:0:0:
256,192,28035,1,8,0:0:0:0:
256,192,28142,1,0,0:0:0:0:
256,192,28249,1,8,0:0:0:0:
256,192,28356,1,0,0:0:0:0:
256,192,28464,1,8,0:0:0:0:
256,192,28571,1,0,0:0:0:0:
256,192,28678,1,8,0:0:0:0:
256,192,28785,1,0,0:0:0:0:
256,192,28892,1,8,0:0:0:0:
256,192,28999,1,0,0:0:0:0:
256,192,29106,1,8,0:0:0:0:
256,192,29214,1,8,0:0:0:0:
256,192,29321,1,8,0:0:0:0:
256,192,29428,1,0,0:0:0:0:
256,192,29535,1,8,0:0:0:0:
256,192,29642,1,0,0:0:0:0:
256,192,29749,1,12,0:0:0:0:
256,192,29856,1,0,0:0:0:0:
256,192,29964,1,8,0:0:0:0:
256,192,30071,1,0,0:0:0:0:
256,192,30178,1,8,0:0:0:0:
256,192,30285,1,0,0:0:0:0:
256,192,30392,1,8,0:0:0:0:
256,192,30499,1,8,0:0:0:0:
256,192,30606,1,8,0:0:0:0:
256,192,30714,1,0,0:0:0:0:
256,192,30821,1,8,0:0:0:0:
256,192,30928,1,8,0:0:0:0:
256,192,31035,1,8,0:0:0:0:
256,192,31142,1,0,0:0:0:0:
256,192,31249,1,8,0:0:0:0:
256,192,31356,1,0,0:0:0:0:
256,192,31464,1,8,0:0:0:0:
256,192,31571,1,8,0:0:0:0:
256,192,31678,1,0,0:0:0:0:
256,192,31785,1,0,0:0:0:0:
256,192,31892,1,8,0:0:0:0:
256,192,31999,1,8,0:0:0:0:
256,192,32106,1,0,0:0:0:0:
256,192,32214,1,0,0:0:0:0:
256,192,32321,1,8,0:0:0:0:
256,192,32428,1,0,0:0:0:0:
256,192,32535,1,0,0:0:0:0:
256,192,32642,1,0,0:0:0:0:
256,192,32749,1,8,0:0:0:0:
256,192,32964,1,0,0:0:0:0:
256,192,33071,1,0,0:0:0:0:
256,192,33178,1,12,0:0:0:0:
256,192,33285,1,0,0:0:0:0:
256,192,33392,1,8,0:0:0:0:
256,192,33499,1,8,0:0:0:0:
256,192,33606,1,8,0:0:0:0:
256,192,33714,1,0,0:0:0:0:
256,192,33821,1,8,0:0:0:0:
256,192,33928,1,0,0:0:0:0:
256,192,34035,1,8,0:0:0:0:
256,192,34142,1,0,0:0:0:0:
256,192,34249,1,8,0:0:0:0:
256,192,34356,1,0,0:0:0:0:
256,192,34464,1,8,0:0:0:0:
256,192,34571,1,0,0:0:0:0:
256,192,34678,1,8,0:0:0:0:
256,192,34785,1,0,0:0:0:0:
256,192,34892,1,8,0:0:0:0:
256,192,34999,1,0,0:0:0:0:
256,192,35106,1,8,0:0:0:0:
256,192,35214,1,8,0:0:0:0:
256,192,35321,1,8,0:0:0:0:
256,192,35428,1,0,0:0:0:0:
256,192,35535,1,8,0:0:0:0:
256,192,35642,1,0,0:0:0:0:
256,192,35749,1,8,0:0:0:0:
256,192,35856,1,0,0:0:0:0:
256,192,35964,1,8,0:0:0:0:
256,192,36071,1,8,0:0:0:0:
256,192,36178,1,8,0:0:0:0:
256,192,36285,1,0,0:0:0:0:
256,192,36392,1,8,0:0:0:0:
256,192,36499,1,0,0:0:0:0:
256,192,36606,1,12,0:0:0:0:
256,192,36714,1,0,0:0:0:0:
256,192,36821,1,8,0:0:0:0:
256,192,36928,1,8,0:0:0:0:
256,192,37035,1,8,0:0:0:0:
256,192,37142,1,0,0:0:0:0:
256,192,37249,1,8,0:0:0:0:
256,192,37356,1,0,0:0:0:0:
256,192,37464,1,8,0:0:0:0:
256,192,37571,1,0,0:0:0:0:
256,192,37678,1,8,0:0:0:0:
256,192,37785,1,8,0:0:0:0:
256,192,37892,1,0,0:0:0:0:
256,192,37999,1,0,0:0:0:0:
256,192,38106,1,8,0:0:0:0:
256,192,38214,1,0,0:0:0:0:
256,192,38321,1,12,0:0:0:0:
256,192,38428,1,0,0:0:0:0:
256,192,38535,1,8,0:0:0:0:
256,192,38642,1,8,0:0:0:0:
256,192,38749,1,8,0:0:0:0:
256,192,38856,1,0,0:0:0:0:
256,192,38964,1,8,0:0:0:0:
256,192,39071,1,0,0:0:0:0:
256,192,39178,1,8,0:0:0:0:
256,192,39285,1,8,0:0:0:0:
256,192,39392,1,0,0:0:0:0:
256,192,39499,1,0,0:0:0:0:
256,192,39606,1,8,0:0:0:0:
256,192,39821,1,0,0:0:0:0:
256,192,40035,1,12,0:0:0:0:
256,192,40249,1,8,0:0:0:0:
256,192,40356,1,8,0:0:0:0:
256,192,40464,1,0,0:0:0:0:
256,192,40678,1,0,0:0:0:0:
256,192,40892,1,12,0:0:0:0:
256,192,41321,1,0,0:0:0:0:
256,192,41535,1,0,0:0:0:0:
256,192,41749,1,12,0:0:0:0:
256,192,41964,1,8,0:0:0:0:
256,192,42071,1,8,0:0:0:0:
256,192,42177,1,0,0:0:0:0:
256,192,42393,1,0,0:0:0:0:
256,192,42607,1,12,0:0:0:0:
256,192,43035,1,0,0:0:0:0:
256,192,43249,1,0,0:0:0:0:
256,192,43464,1,12,0:0:0:0:
256,192,43678,1,8,0:0:0:0:
256,192,43785,1,8,0:0:0:0:
256,192,43893,1,4,0:0:0:0:
256,192,44107,1,0,0:0:0:0:
256,192,44321,1,12,0:0:0:0:
256,192,44535,1,8,0:0:0:0:
256,192,44642,1,8,0:0:0:0:
256,192,44750,1,4,0:0:0:0:
256,192,44964,1,0,0:0:0:0:
256,192,45178,1,12,0:0:0:0:
256,192,45392,1,8,0:0:0:0:
256,192,45499,1,8,0:0:0:0:
256,192,45607,1,4,0:0:0:0:
256,192,45821,1,0,0:0:0:0:
256,192,46035,1,12,0:0:0:0:
256,192,46249,1,8,0:0:0:0:
256,192,46356,1,8,0:0:0:0:
256,192,46464,1,4,0:0:0:0:
256,192,46678,1,0,0:0:0:0:
256,192,46892,1,12,0:0:0:0:
256,192,47106,1,4,0:0:0:0:
256,192,47321,1,12,0:0:0:0:
256,192,47535,1,4,0:0:0:0:
256,192,47749,1,12,0:0:0:0:
256,192,47964,1,4,0:0:0:0:
256,192,48178,1,12,0:0:0:0:
256,192,48392,1,4,0:0:0:0:
256,192,48606,1,8,0:0:0:0:
256,192,48713,1,0,0:0:0:0:
256,192,48820,1,8,0:0:0:0:
256,192,48927,1,0,0:0:0:0:
256,192,49035,1,8,0:0:0:0:
256,192,49141,1,0,0:0:0:0:
256,192,49248,1,8,0:0:0:0:
256,192,49357,1,0,0:0:0:0:
256,192,49464,1,8,0:0:0:0:
256,192,49571,1,8,0:0:0:0:
256,192,49678,1,8,0:0:0:0:
256,192,49785,1,8,0:0:0:0:
256,192,49892,1,8,0:0:0:0:
256,192,49999,1,8,0:0:0:0:
256,192,50106,1,8,0:0:0:0:
256,192,50214,1,8,0:0:0:0:
256,192,50321,1,0,0:0:0:0:
256,192,50749,1,8,0:0:0:0:
256,192,50964,1,8,0:0:0:0:
256,192,51178,1,0,0:0:0:0:
256,192,51605,1,0,0:0:0:0:
256,192,52035,1,4,0:0:0:0:
256,192,52249,1,4,0:0:0:0:
256,192,52464,1,12,0:0:0:0:
256,192,52678,1,12,0:0:0:0:
256,192,52892,1,4,0:0:0:0:
256,192,53214,1,0,0:0:0:0:
256,192,53321,1,8,0:0:0:0:
256,192,53535,1,0,0:0:0:0:
256,192,53749,1,8,0:0:0:0:
256,192,53964,1,8,0:0:0:0:
256,192,54178,1,0,0:0:0:0:
256,192,54392,1,8,0:0:0:0:
256,192,54606,1,0,0:0:0:0:
256,192,54819,1,0,0:0:0:0:
256,192,55034,1,8,0:0:0:0:
256,192,55069,1,8,0:0:0:0:
256,192,55105,1,8,0:0:0:0:
256,192,55249,1,8,0:0:0:0:
256,192,55462,1,0,0:0:0:0:
256,192,55676,1,0,0:0:0:0:
256,192,55890,1,8,0:0:0:0:
256,192,56104,1,8,0:0:0:0:
256,192,56318,1,0,0:0:0:0:
256,192,56532,1,8,0:0:0:0:
256,192,56746,1,8,0:0:0:0:
256,192,56818,1,0,0:0:0:0:
256,192,56889,1,0,0:0:0:0:
256,192,56961,1,0,0:0:0:0:
256,192,57032,1,0,0:0:0:0:
256,192,57103,1,0,0:0:0:0:
256,192,57174,1,8,0:0:0:0:
256,192,57388,1,0,0:0:0:0:
256,192,57603,1,8,0:0:0:0:
256,192,57638,1,8,0:0:0:0:
256,192,57674,1,8,0:0:0:0:
256,192,57817,1,8,0:0:0:0:
256,192,58031,1,0,0:0:0:0:
256,192,58246,1,8,0:0:0:0:
256,192,58460,1,8,0:0:0:0:
256,192,58674,1,0,0:0:0:0:
256,192,58888,1,0,0:0:0:0:
256,192,58924,1,8,0:0:0:0:
256,192,59103,1,0,0:0:0:0:
256,192,59317,1,8,0:0:0:0:
256,192,59531,1,8,0:0:0:0:
256,192,59745,1,4,0:0:0:0:
256,192,60174,1,8,0:0:0:0:
256,192,60387,1,0,0:0:0:0:
256,192,60603,1,12,0:0:0:0:
256,192,60817,1,0,0:0:0:0:
256,192,60924,1,8,0:0:0:0:
256,192,61031,1,8,0:0:0:0:
256,192,61245,1,0,0:0:0:0:
256,192,61460,1,8,0:0:0:0:
256,192,61674,1,0,0:0:0:0:
256,192,61710,1,0,0:0:0:0:
256,192,61745,1,8,0:0:0:0:
256,192,61887,1,8,0:0:0:0:
256,192,62031,1,0,0:0:0:0:
256,192,62174,1,0,0:0:0:0:
256,192,62317,1,8,0:0:0:0:
256,192,62531,1,0,0:0:0:0:
256,192,62638,1,0,0:0:0:0:
256,192,62745,1,8,0:0:0:0:
256,192,62853,1,0,0:0:0:0:
256,192,62960,1,8,0:0:0:0:
256,192,63174,1,8,0:0:0:0:
256,192,63388,1,0,0:0:0:0:
256,192,63603,1,8,0:0:0:0:
256,192,63710,1,8,0:0:0:0:
256,192,63924,1,8,0:0:0:0:
256,192,64031,1,4,0:0:0:0:
256,192,64245,1,8,0:0:0:0:
256,192,64460,1,0,0:0:0:0:
256,192,64674,1,8,0:0:0:0:
256,192,64888,1,8,0:0:0:0:
256,192,65103,1,0,0:0:0:0:
256,192,65210,1,0,0:0:0:0:
256,192,65317,1,8,0:0:0:0:
256,192,65531,1,0,0:0:0:0:
256,192,65567,1,0,0:0:0:0:
256,192,65603,1,0,0:0:0:0:
256,192,65638,1,0,0:0:0:0:
256,192,65674,1,0,0:0:0:0:
256,192,65710,1,0,0:0:0:0:
256,192,65745,1,8,0:0:0:0:
256,192,65960,1,8,0:0:0:0:
256,192,66174,1,8,0:0:0:0:
256,192,66388,1,8,0:0:0:0:
256,192,66603,1,0,0:0:0:0:
256,192,66710,1,8,0:0:0:0:
256,192,66817,1,0,0:0:0:0:
256,192,66924,1,0,0:0:0:0:
256,192,67031,1,8,0:0:0:0:
256,192,67138,1,0,0:0:0:0:
256,192,67245,1,8,0:0:0:0:
256,192,67353,1,8,0:0:0:0:
256,192,67460,1,0,0:0:0:0:
256,192,67781,1,8,0:0:0:0:
256,192,67817,1,8,0:0:0:0:
256,192,67888,1,0,0:0:0:0:
256,192,67995,1,8,0:0:0:0:
256,192,68210,1,4,0:0:0:0:
256,192,68424,1,0,0:0:0:0:
256,192,68531,1,8,0:0:0:0:
256,192,68745,1,0,0:0:0:0:
256,192,68924,1,12,0:0:0:0:
256,192,69103,1,0,0:0:0:0:
256,192,69281,1,0,0:0:0:0:
256,192,69388,1,8,0:0:0:0:
256,192,69603,1,8,0:0:0:0:
256,192,69710,1,0,0:0:0:0:
256,192,69924,1,8,0:0:0:0:
256,192,70138,1,0,0:0:0:0:
256,192,70210,1,0,0:0:0:0:
256,192,70245,1,0,0:0:0:0:
256,192,70281,1,8,0:0:0:0:
256,192,70460,1,8,0:0:0:0:
256,192,70638,1,0,0:0:0:0:
256,192,70781,1,0,0:0:0:0:
256,192,70888,1,12,0:0:0:0:
256,192,71210,1,8,0:0:0:0:
256,192,71317,1,8,0:0:0:0:
256,192,71424,1,0,0:0:0:0:
256,192,71674,1,0,0:0:0:0:
256,192,71853,1,0,0:0:0:0:
256,192,71960,1,8,0:0:0:0:
256,192,72174,1,8,0:0:0:0:
256,192,72353,1,0,0:0:0:0:
256,192,72531,1,8,0:0:0:0:
256,192,72710,1,0,0:0:0:0:
256,192,72817,1,8,0:0:0:0:
256,192,73031,1,8,0:0:0:0:
256,192,73138,1,8,0:0:0:0:
256,192,73353,1,8,0:0:0:0:
256,192,73460,1,0,0:0:0:0:
256,192,73674,1,0,0:0:0:0:
256,192,73888,1,8,0:0:0:0:
256,192,73995,1,0,0:0:0:0:
256,192,74031,1,0,0:0:0:0:
256,192,74067,1,0,0:0:0:0:
256,192,74103,1,8,0:0:0:0:
256,192,74210,1,0,0:0:0:0:
256,192,74638,1,8,0:0:0:0:
256,192,74745,1,8,0:0:0:0:
256,192,74853,1,0,0:0:0:0:
256,192,75067,1,8,0:0:0:0:
256,192,75317,1,0,0:0:0:0:
256,192,75424,1,8,0:0:0:0:
256,192,75603,1,0,0:0:0:0:
256,192,75781,1,0,0:0:0:0:
256,192,75924,1,8,0:0:0:0:
256,192,76174,1,0,0:0:0:0:
256,192,76281,1,8,0:0:0:0:
256,192,76388,1,0,0:0:0:0:
256,192,76495,1,8,0:0:0:0:
256,192,76638,1,0,0:0:0:0:
256,192,76674,1,8,0:0:0:0:
256,192,76781,1,4,0:0:0:0:
256,192,76995,1,0,0:0:0:0:
256,192,77103,1,8,0:0:0:0:
256,192,77317,1,8,0:0:0:0:
256,192,77495,1,0,0:0:0:0:
256,192,77674,1,0,0:0:0:0:
256,192,77781,1,12,0:0:0:0:
256,192,78067,1,8,0:0:0:0:
256,192,78174,1,8,0:0:0:0:
256,192,78281,1,0,0:0:0:0:
256,192,78531,1,8,0:0:0:0:
256,192,78745,1,0,0:0:0:0:
256,192,78853,1,0,0:0:0:0:
256,192,78888,1,8,0:0:0:0:
256,192,79031,1,8,0:0:0:0:
256,192,79210,1,0,0:0:0:0:
256,192,79388,1,12,0:0:0:0:
256,192,79567,1,0,0:0:0:0:
256,192,79674,1,8,0:0:0:0:
256,192,79888,1,0,0:0:0:0:
256,192,79995,1,8,0:0:0:0:
256,192,80209,1,0,0:0:0:0:
256,192,80316,1,8,0:0:0:0:
256,192,80531,1,8,0:0:0:0:
256,192,80745,1,0,0:0:0:0:
256,192,81388,1,0,0:0:0:0:
256,192,81603,1,0,0:0:0:0:
256,192,81817,1,0,0:0:0:0:
256,192,82031,1,4,0:0:0:0:
256,192,82353,1,8,0:0:0:0:
256,192,82674,1,0,0:0:0:0:
256,192,82781,1,8,0:0:0:0:
256,192,82995,1,4,0:0:0:0:
256,192,83210,1,0,0:0:0:0:
256,192,83317,1,8,0:0:0:0:
256,192,83424,1,8,0:0:0:0:
256,192,83460,1,8,0:0:0:0:
256,192,83531,1,0,0:0:0:0:
256,192,83638,1,8,0:0:0:0:
256,192,83960,1,4,0:0:0:0:
256,192,84281,1,8,0:0:0:0:
256,192,84603,1,8,0:0:0:0:
256,192,84638,1,8,0:0:0:0:
256,192,84674,1,8,0:0:0:0:
256,192,84710,1,8,0:0:0:0:
256,192,84924,1,8,0:0:0:0:
256,192,85031,1,0,0:0:0:0:
256,192,85138,1,0,0:0:0:0:
256,192,85192,1,0,0:0:0:0:
256,192,85245,1,8,0:0:0:0:
256,192,85352,1,0,0:0:0:0:
256,192,85460,1,12,0:0:0:0:
256,192,85603,1,8,0:0:0:0:
256,192,85638,1,8,0:0:0:0:
256,192,85674,1,0,0:0:0:0:
256,192,85710,1,0,0:0:0:0:
256,192,85888,1,8,0:0:0:0:
256,192,85995,1,0,0:0:0:0:
256,192,86103,1,0,0:0:0:0:
256,192,86210,1,0,0:0:0:0:
256,192,86245,1,8,0:0:0:0:
256,192,86424,1,0,0:0:0:0:
256,192,86460,1,0,0:0:0:0:
256,192,86495,1,0,0:0:0:0:
256,192,86531,1,8,0:0:0:0:
256,192,86745,1,8,0:0:0:0:
256,192,86853,1,8,0:0:0:0:
256,192,86960,1,0,0:0:0:0:
256,192,87067,1,8,0:0:0:0:
256,192,87103,1,0,0:0:0:0:
256,192,87388,1,12,0:0:0:0:
256,192,87710,1,4,0:0:0:0:
256,192,88031,1,12,0:0:0:0:
256,192,88353,1,12,0:0:0:0:
256,192,88674,1,4,0:0:0:0:
256,192,88888,1,8,0:0:0:0:
256,192,89102,1,0,0:0:0:0:
256,192,89210,1,8,0:0:0:0:
256,192,89424,1,0,0:0:0:0:
256,192,89531,1,8,0:0:0:0:
256,192,89638,1,0,0:0:0:0:
256,192,89692,1,0,0:0:0:0:
256,192,89745,1,8,0:0:0:0:
256,192,89852,1,0,0:0:0:0:
256,192,89960,1,8,0:0:0:0:
256,192,90067,1,0,0:0:0:0:
256,192,90174,1,8,0:0:0:0:
256,192,90210,1,8,0:0:0:0:
256,192,90281,1,0,0:0:0:0:
256,192,90388,1,8,0:0:0:0:
256,192,90495,1,0,0:0:0:0:
256,192,90531,1,0,0:0:0:0:
256,192,90602,1,8,0:0:0:0:
256,192,90710,1,0,0:0:0:0:
256,192,90817,1,8,0:0:0:0:
256,192,90924,1,0,0:0:0:0:
256,192,91031,1,8,0:0:0:0:
256,192,91138,1,8,0:0:0:0:
256,192,91245,1,0,0:0:0:0:
256,192,91299,1,0,0:0:0:0:
256,192,91352,1,8,0:0:0:0:
256,192,91460,1,8,0:0:0:0:
256,192,91567,1,0,0:0:0:0:
256,192,91674,1,8,0:0:0:0:
256,192,91781,1,0,0:0:0:0:
256,192,91888,1,8,0:0:0:0:
256,192,91995,1,0,0:0:0:0:
256,192,92049,1,0,0:0:0:0:
256,192,92102,1,8,0:0:0:0:
256,192,92317,1,12,0:0:0:0:
256,192,92531,1,0,0:0:0:0:
256,192,92639,1,8,0:0:0:0:
256,192,92853,1,0,0:0:0:0:
256,192,92960,1,8,0:0:0:0:
256,192,93067,1,0,0:0:0:0:
256,192,93121,1,0,0:0:0:0:
256,192,93174,1,8,0:0:0:0:
256,192,93281,1,0,0:0:0:0:
256,192,93389,1,8,0:0:0:0:
256,192,93496,1,0,0:0:0:0:
256,192,93603,1,8,0:0:0:0:
256,192,93639,1,8,0:0:0:0:
256,192,93710,1,0,0:0:0:0:
256,192,93817,1,8,0:0:0:0:
256,192,93924,1,0,0:0:0:0:
256,192,93960,1,0,0:0:0:0:
256,192,94031,1,8,0:0:0:0:
256,192,94138,1,0,0:0:0:0:
256,192,94245,1,8,0:0:0:0:
256,192,94352,1,0,0:0:0:0:
256,192,94459,1,8,0:0:0:0:
256,192,94566,1,8,0:0:0:0:
256,192,94673,1,0,0:0:0:0:
256,192,94727,1,0,0:0:0:0:
256,192,94780,1,8,0:0:0:0:
256,192,94888,1,8,0:0:0:0:
256,192,94995,1,0,0:0:0:0:
256,192,95102,1,8,0:0:0:0:
256,192,95209,1,0,0:0:0:0:
256,192,95317,1,8,0:0:0:0:
256,192,95531,1,8,0:0:0:0:
256,192,95745,12,0,95960,0:0:0:0:
256,192,96174,5,12,0:0:0:0:
256,192,96388,1,12,0:0:0:0:
256,192,96603,1,4,0:0:0:0:
256,192,96817,1,4,0:0:0:0:
256,192,97031,1,12,0:0:0:0:
256,192,97460,1,4,0:0:0:0:
256,192,97888,1,12,0:0:0:0:
256,192,98103,1,12,0:0:0:0:
256,192,98317,1,4,0:0:0:0:
256,192,98531,1,4,0:0:0:0:
256,192,98745,1,12,0:0:0:0:
256,192,98960,1,4,0:0:0:0:
256,192,99174,1,4,0:0:0:0:
256,192,99388,1,0,0:0:0:0:
256,192,99603,1,8,0:0:0:0:
256,192,99817,1,0,0:0:0:0:
256,192,99925,1,8,0:0:0:0:
256,192,100031,1,8,0:0:0:0:
256,192,100085,1,8,0:0:0:0:
256,192,100139,1,0,0:0:0:0:
256,192,100246,1,8,0:0:0:0:
256,192,100353,1,0,0:0:0:0:
256,192,100407,1,0,0:0:0:0:
256,192,100460,1,8,0:0:0:0:
256,192,100567,1,0,0:0:0:0:
256,192,100675,1,8,0:0:0:0:
256,192,100782,1,0,0:0:0:0:
256,192,100889,1,8,0:0:0:0:
256,192,100925,1,8,0:0:0:0:
256,192,100996,1,0,0:0:0:0:
256,192,101103,1,8,0:0:0:0:
256,192,101210,1,0,0:0:0:0:
256,192,101246,1,0,0:0:0:0:
256,192,101317,1,8,0:0:0:0:
256,192,101425,1,0,0:0:0:0:
256,192,101532,1,8,0:0:0:0:
256,192,101639,1,0,0:0:0:0:
256,192,101746,1,8,0:0:0:0:
256,192,101853,1,8,0:0:0:0:
256,192,101960,1,0,0:0:0:0:
256,192,102014,1,0,0:0:0:0:
256,192,102067,1,8,0:0:0:0:
256,192,102175,1,8,0:0:0:0:
256,192,102282,1,0,0:0:0:0:
256,192,102389,1,8,0:0:0:0:
256,192,102496,1,0,0:0:0:0:
256,192,102603,1,8,0:0:0:0:
256,192,102710,1,0,0:0:0:0:
256,192,102764,1,0,0:0:0:0:
256,192,102817,1,8,0:0:0:0:
256,192,102870,1,0,0:0:0:0:
256,192,102924,1,0,0:0:0:0:
256,192,102978,1,0,0:0:0:0:
256,192,103032,1,12,0:0:0:0:
256,192,103138,1,0,0:0:0:0:
256,192,103246,1,0,0:0:0:0:
256,192,103354,1,8,0:0:0:0:
256,192,103460,1,0,0:0:0:0:
256,192,103568,1,0,0:0:0:0:
256,192,103675,1,8,0:0:0:0:
256,192,103782,1,0,0:0:0:0:
256,192,103836,1,0,0:0:0:0:
256,192,103889,1,8,0:0:0:0:
256,192,103996,1,0,0:0:0:0:
256,192,104104,1,8,0:0:0:0:
256,192,104211,1,0,0:0:0:0:
256,192,104318,1,8,0:0:0:0:
256,192,104354,1,8,0:0:0:0:
256,192,104425,1,0,0:0:0:0:
256,192,104532,1,8,0:0:0:0:
256,192,104639,1,0,0:0:0:0:
256,192,104675,1,0,0:0:0:0:
256,192,104746,1,8,0:0:0:0:
256,192,104853,1,0,0:0:0:0:
256,192,104960,1,8,0:0:0:0:
256,192,105067,1,0,0:0:0:0:
256,192,105174,1,8,0:0:0:0:
256,192,105281,1,8,0:0:0:0:
256,192,105388,1,0,0:0:0:0:
256,192,105442,1,0,0:0:0:0:
256,192,105495,1,8,0:0:0:0:
256,192,105603,1,8,0:0:0:0:
256,192,105710,1,0,0:0:0:0:
256,192,105817,1,8,0:0:0:0:
256,192,105924,1,0,0:0:0:0:
256,192,106032,1,8,0:0:0:0:
256,192,106138,1,8,0:0:0:0:
256,192,106246,1,8,0:0:0:0:
256,192,106353,1,8,0:0:0:0:
256,192,106460,1,4,0:0:0:0:
256,192,106674,1,0,0:0:0:0:
256,192,106782,1,8,0:0:0:0:
256,192,106888,1,8,0:0:0:0:
256,192,106942,1,8,0:0:0:0:
256,192,106996,1,0,0:0:0:0:
256,192,107103,1,8,0:0:0:0:
256,192,107210,1,0,0:0:0:0:
256,192,107264,1,0,0:0:0:0:
256,192,107317,1,8,0:0:0:0:
256,192,107424,1,0,0:0:0:0:
256,192,107532,1,8,0:0:0:0:
256,192,107639,1,0,0:0:0:0:
256,192,107746,1,8,0:0:0:0:
256,192,107782,1,8,0:0:0:0:
256,192,107853,1,0,0:0:0:0:
256,192,107960,1,8,0:0:0:0:
256,192,108067,1,0,0:0:0:0:
256,192,108103,1,0,0:0:0:0:
256,192,108174,1,8,0:0:0:0:
256,192,108282,1,0,0:0:0:0:
256,192,108389,1,8,0:0:0:0:
256,192,108496,1,0,0:0:0:0:
256,192,108603,1,8,0:0:0:0:
256,192,108710,1,8,0:0:0:0:
256,192,108817,1,0,0:0:0:0:
256,192,108871,1,0,0:0:0:0:
256,192,108924,1,8,0:0:0:0:
256,192,109032,1,8,0:0:0:0:
256,192,109139,1,0,0:0:0:0:
256,192,109246,1,8,0:0:0:0:
256,192,109353,1,0,0:0:0:0:
256,192,109460,1,8,0:0:0:0:
256,192,109567,1,0,0:0:0:0:
256,192,109621,1,0,0:0:0:0:
256,192,109674,1,8,0:0:0:0:
256,192,109728,1,0,0:0:0:0:
256,192,109781,1,0,0:0:0:0:
256,192,109835,1,0,0:0:0:0:
256,192,109889,1,12,0:0:0:0:
256,192,110103,1,0,0:0:0:0:
256,192,110211,1,8,0:0:0:0:
256,192,110317,1,8,0:0:0:0:
256,192,110370,1,8,0:0:0:0:
256,192,110425,1,0,0:0:0:0:
256,192,110532,1,8,0:0:0:0:
256,192,110639,1,0,0:0:0:0:
256,192,110693,1,0,0:0:0:0:
256,192,110746,1,8,0:0:0:0:
256,192,110853,1,0,0:0:0:0:
256,192,110961,1,8,0:0:0:0:
256,192,111068,1,0,0:0:0:0:
256,192,111175,1,8,0:0:0:0:
256,192,111211,1,8,0:0:0:0:
256,192,111282,1,0,0:0:0:0:
256,192,111389,1,8,0:0:0:0:
256,192,111496,1,0,0:0:0:0:
256,192,111532,1,0,0:0:0:0:
256,192,111603,1,12,0:0:0:0:
256,192,111710,1,0,0:0:0:0:
256,192,111817,1,8,0:0:0:0:
256,192,111924,1,0,0:0:0:0:
256,192,112031,1,8,0:0:0:0:
256,192,112138,1,8,0:0:0:0:
256,192,112245,1,0,0:0:0:0:
256,192,112299,1,0,0:0:0:0:
256,192,112352,1,8,0:0:0:0:
256,192,112460,1,8,0:0:0:0:
256,192,112567,1,0,0:0:0:0:
256,192,112674,1,8,0:0:0:0:
256,192,112781,1,0,0:0:0:0:
256,192,112889,1,8,0:0:0:0:
256,192,113103,1,8,0:0:0:0:
256,192,113317,1,0,0:0:0:0:
256,192,113531,1,0,0:0:0:0:
256,192,113638,1,0,0:0:0:0:
256,192,113745,1,8,0:0:0:0:
256,192,113960,1,8,0:0:0:0:
256,192,114174,1,4,0:0:0:0:
256,192,114495,1,0,0:0:0:0:
256,192,114603,1,8,0:0:0:0:
256,32,114817,5,0,0:0:0:0:
32,192,115031,5,12,0:0:0:0:
480,192,115245,5,12,0:0:0:0:
256,352,115459,1,4,0:0:0:0:
256,192,115674,1,4,0:0:0:0:
256,192,115887,1,12,0:0:0:0:
