osu file format v14

[General]
AudioFilename: Exclusive Utopia.mp3
AudioLeadIn: 0
PreviewTime: 28553
Countdown: 0
SampleSet: Normal
StackLeniency: 0.7
Mode: 1
LetterboxInBreaks: 0
WidescreenStoryboard: 0

[Editor]
DistanceSpacing: 0.8
BeatDivisor: 4
GridSize: 32
TimelineZoom: 3.499998

[Metadata]
Title:LeaF Pack
TitleUnicode:LeaF Pack
Artist:LeaF
ArtistUnicode:LeaF
Creator:Q____X
Version:Exclusive Utopia
Source:
Tags:[_Chichinya_] Xoretra
BeatmapID:1245910
BeatmapSetID:517000

[Difficulty]
HPDrainRate:5
CircleSize:5
OverallDifficulty:5
ApproachRate:5
SliderMultiplier:1.39823950540927
SliderTickRate:1

[Events]
//Background and Video events
0,0,"Utopia.jpg",0,0
//Break Periods
//Storyboard Layer 0 (Background)
//Storyboard Layer 1 (Fail)
//Storyboard Layer 2 (Pass)
//Storyboard Layer 3 (Foreground)
//Storyboard Sound Samples

[TimingPoints]
1125,285.714285714286,4,1,0,100,1,0
26267,-100,4,1,0,100,0,1
26839,-100,4,1,0,100,0,0
27125,-100,4,1,0,100,0,1
27839,-100,4,1,0,100,0,0
28553,-100,4,1,0,100,0,1
36553,-100,4,1,0,100,0,0
42267,-100,4,1,0,100,0,1
46839,-111.111111111111,4,1,0,100,0,0
47696,-90.9090909090909,4,1,0,100,0,0
47982,-111.111111111111,4,1,0,100,0,0
48839,-90.9090909090909,4,1,0,100,0,0
49125,-111.111111111111,4,1,0,100,0,0
49982,-83.3333333333333,4,1,0,100,0,0
50267,-111.111111111111,4,1,0,100,0,0
50696,-99.9999999999999,4,1,0,100,0,0
51410,-111.111111111111,4,1,0,100,0,0
52267,-76.9230769230769,4,1,0,100,0,0
52553,-111.111111111111,4,1,0,100,0,0
53410,-76.9230769230769,4,1,0,100,0,0
53696,-111.111111111111,4,1,0,100,0,0
53982,-100,4,1,0,100,0,0
54125,-90.9090909090909,4,1,0,100,0,0
54267,-83.3333333333333,4,1,0,100,0,0
54553,-76.9230769230769,4,1,0,100,0,0
54839,-83.3333333333333,4,1,0,100,0,0
55125,-90.9090909090909,4,1,0,100,0,0
55410,-100,4,1,0,100,0,0
56839,-90.9090909090909,4,1,0,100,0,0
57696,-86.9565217391304,4,1,0,100,0,0
57982,-89.2857142857143,4,1,0,100,0,0
58125,-90.0900900900901,4,1,0,100,0,0
58267,-90.9090909090909,4,1,0,100,0,0
58839,-86.9565217391304,4,1,0,100,0,0
60553,-83.3333333333333,4,1,0,100,0,0
64053,-86.9565217391304,4,1,0,100,0,0
64125,-90.9090909090909,4,1,0,100,0,0
64196,-91.743119266055,4,1,0,100,0,0
64267,-92.5925925925926,4,1,0,100,0,0
64339,-93.4579439252336,4,1,0,100,0,0
64410,-94.3396226415094,4,1,0,100,0,0
64482,-95.2380952380952,4,1,0,100,0,0
64553,-96.1538461538461,4,1,0,100,0,0
64625,-97.0873786407767,4,1,0,100,0,0
64696,-98.0392156862745,4,1,0,100,0,0
64767,-99.009900990099,4,1,0,100,0,0
64839,-100,4,1,0,100,0,0
66267,-100,4,1,0,100,0,1
84553,-90.9090909090909,4,1,0,100,0,0
84982,-83.3333333333333,4,1,0,100,0,0
85410,-80,4,1,0,100,0,0
86839,-76.9230769230769,4,1,0,100,0,0
87267,-74.0740740740741,4,1,0,100,0,0
87696,-71.4285714285714,4,1,0,100,0,0
88839,-76.9230769230769,4,1,0,100,0,0
88982,-80,4,1,0,100,0,0
89125,-83.3333333333333,4,1,0,100,0,0
89553,-76.9230769230769,4,1,0,100,0,0
89982,-71.4285714285714,4,1,0,100,0,0
91410,-68.9655172413793,4,1,0,100,0,0
93698,-71.4285714285714,4,1,0,100,0,0
93839,-74.0740740740741,4,1,0,100,0,0
93982,-76.9230769230769,4,1,0,100,0,0
94125,-80,4,1,0,100,0,0
94839,-83.3333333333333,4,1,0,100,0,0
94982,-86.9565217391304,4,1,0,100,0,0
95125,-90.9090909090909,4,1,0,100,0,0
95267,-95.2380952380952,4,1,0,100,0,0
95410,-100,4,1,0,100,0,0
96696,-25,4,1,0,100,0,0
97053,-100,4,1,0,100,0,0
97267,-25,4,1,0,100,0,0
97625,-100,4,1,0,100,0,0
98482,-25,4,1,0,100,0,0
98696,-100,4,1,0,100,0,0
110410,-25,4,1,0,100,0,0
110767,-100,4,1,0,100,0,0
110982,-25,4,1,0,100,0,0
111910,-100,4,1,0,100,0,0
113267,-25,4,1,0,100,0,0

[HitObjects]
256,192,1125,5,0,0:0:0:0:
256,192,1410,1,0,0:0:0:0:
256,192,1696,1,8,0:0:0:0:
256,192,1982,1,0,0:0:0:0:
256,192,2267,1,8,0:0:0:0:
256,192,2553,1,0,0:0:0:0:
256,192,2839,1,8,0:0:0:0:
256,192,3125,1,8,0:0:0:0:
256,192,3267,1,8,0:0:0:0:
256,192,3410,1,0,0:0:0:0:
256,192,3696,1,8,0:0:0:0:
256,192,3982,1,0,0:0:0:0:
256,192,4267,1,8,0:0:0:0:
256,192,4553,1,0,0:0:0:0:
256,192,4839,1,8,0:0:0:0:
256,192,5125,1,8,0:0:0:0:
256,192,5410,1,0,0:0:0:0:
256,192,5696,1,0,0:0:0:0:
256,192,5839,1,0,0:0:0:0:
256,192,5982,1,8,0:0:0:0:
256,192,6267,1,0,0:0:0:0:
256,192,6553,1,8,0:0:0:0:
256,192,6696,1,0,0:0:0:0:
256,192,6839,1,8,0:0:0:0:
256,192,6982,1,0,0:0:0:0:
256,192,7125,1,8,0:0:0:0:
256,192,7196,1,8,0:0:0:0:
256,192,7267,1,0,0:0:0:0:
256,192,7339,1,0,0:0:0:0:
256,192,7410,1,8,0:0:0:0:
256,192,7482,1,8,0:0:0:0:
256,192,7553,1,0,0:0:0:0:
256,192,7625,1,0,0:0:0:0:
256,192,7696,1,8,0:0:0:0:
256,192,7767,1,0,0:0:0:0:
256,192,7839,1,8,0:0:0:0:
256,192,7910,1,0,0:0:0:0:
256,192,7982,1,8,0:0:0:0:
256,192,8053,1,0,0:0:0:0:
256,192,8125,1,0,0:0:0:0:
256,192,8196,1,0,0:0:0:0:
256,192,8267,1,8,0:0:0:0:
256,192,8339,1,0,0:0:0:0:
256,192,8410,1,0,0:0:0:0:
256,192,8482,1,0,0:0:0:0:
256,192,8553,1,8,0:0:0:0:
256,192,8625,1,0,0:0:0:0:
256,192,8696,1,0,0:0:0:0:
256,192,8767,1,0,0:0:0:0:
256,192,8839,1,8,0:0:0:0:
256,192,8910,1,0,0:0:0:0:
256,192,8982,1,8,0:0:0:0:
256,192,9053,1,0,0:0:0:0:
256,192,9125,1,8,0:0:0:0:
256,192,9196,1,8,0:0:0:0:
256,192,9267,1,0,0:0:0:0:
256,192,9339,1,0,0:0:0:0:
256,192,9410,1,8,0:0:0:0:
256,192,9482,1,8,0:0:0:0:
256,192,9553,1,0,0:0:0:0:
256,192,9625,1,0,0:0:0:0:
256,192,9696,1,8,0:0:0:0:
256,192,9767,1,8,0:0:0:0:
256,192,9839,1,8,0:0:0:0:
256,192,9910,1,0,0:0:0:0:
256,192,9982,1,12,0:0:0:0:
256,192,10267,1,0,0:0:0:0:
256,192,10553,1,8,0:0:0:0:
256,192,10696,1,0,0:0:0:0:
256,192,10839,1,8,0:0:0:0:
256,192,10934,1,8,0:0:0:0:
256,192,11029,1,0,0:0:0:0:
256,192,11125,1,8,0:0:0:0:
256,192,11220,1,0,0:0:0:0:
256,192,11315,1,0,0:0:0:0:
256,192,11410,1,8,0:0:0:0:
256,192,11625,1,8,0:0:0:0:
256,192,11839,1,0,0:0:0:0:
256,192,11982,1,8,0:0:0:0:
256,192,12267,2,0,P|192:192|128:128,1,139.823950540927
256,192,12648,1,8,0:0:0:0:
256,192,12744,1,0,0:0:0:0:
256,192,12839,1,8,0:0:0:0:
256,192,12934,1,8,0:0:0:0:
256,192,13029,1,0,0:0:0:0:
256,192,13077,1,0,0:0:0:0:
256,192,13125,1,8,0:0:0:0:
256,192,13410,1,0,0:0:0:0:
256,192,13553,1,8,0:0:0:0:
256,192,13696,1,0,0:0:0:0:
256,192,13839,1,8,0:0:0:0:
256,192,13982,1,8,0:0:0:0:
256,192,14125,1,0,0:0:0:0:
256,192,14267,1,8,0:0:0:0:
256,192,14553,1,8,0:0:0:0:
256,192,14696,1,0,0:0:0:0:
256,192,14791,1,0,0:0:0:0:
256,192,14839,1,12,0:0:0:0:
256,192,15125,1,0,0:0:0:0:
256,192,15267,1,8,0:0:0:0:
256,192,15410,1,8,0:0:0:0:
256,192,15505,1,0,0:0:0:0:
256,192,15601,1,0,0:0:0:0:
256,192,15696,1,8,0:0:0:0:
256,192,15791,1,0,0:0:0:0:
256,192,15886,1,0,0:0:0:0:
256,192,15982,1,8,0:0:0:0:
256,192,16196,1,0,0:0:0:0:
256,192,16267,1,0,0:0:0:0:
256,192,16482,1,0,0:0:0:0:
256,192,16553,1,0,0:0:0:0:
256,192,16839,1,8,0:0:0:0:
256,192,17125,1,0,0:0:0:0:
256,192,17339,1,8,0:0:0:0:
256,192,17553,1,8,0:0:0:0:
256,192,17625,1,8,0:0:0:0:
256,192,17696,1,0,0:0:0:0:
256,192,17982,1,0,0:0:0:0:
256,192,18125,1,8,0:0:0:0:
256,192,18267,1,0,0:0:0:0:
256,192,18410,1,0,0:0:0:0:
256,192,18553,1,8,0:0:0:0:
256,192,18696,1,8,0:0:0:0:
256,192,18839,1,0,0:0:0:0:
256,192,19125,1,8,0:0:0:0:
256,192,19267,1,0,0:0:0:0:
256,192,19339,1,0,0:0:0:0:
256,192,19410,1,12,0:0:0:0:
256,192,19696,1,0,0:0:0:0:
256,192,19982,1,8,0:0:0:0:
256,192,20077,1,0,0:0:0:0:
256,192,20172,1,8,0:0:0:0:
256,192,20267,1,8,0:0:0:0:
256,192,20363,1,0,0:0:0:0:
256,192,20458,1,0,0:0:0:0:
256,192,20553,1,8,0:0:0:0:
256,192,20767,1,0,0:0:0:0:
256,192,20839,1,8,0:0:0:0:
256,192,20982,1,0,0:0:0:0:
256,192,21125,1,8,0:0:0:0:
256,192,21410,1,8,0:0:0:0:
256,192,21505,1,0,0:0:0:0:
256,192,21601,1,0,0:0:0:0:
256,192,21696,1,0,0:0:0:0:
256,192,21910,1,0,0:0:0:0:
256,192,21982,1,8,0:0:0:0:
256,192,22196,1,0,0:0:0:0:
256,192,22267,1,8,0:0:0:0:
256,192,22553,1,0,0:0:0:0:
256,192,22839,1,8,0:0:0:0:
256,192,23053,1,0,0:0:0:0:
256,192,23125,1,8,0:0:0:0:
256,192,23339,1,0,0:0:0:0:
256,192,23410,1,8,0:0:0:0:
256,192,23696,1,0,0:0:0:0:
256,192,23839,1,0,0:0:0:0:
256,192,23910,1,0,0:0:0:0:
256,192,23982,1,8,0:0:0:0:
256,192,24053,12,0,24839,0:0:0:0:
256,192,25125,5,0,0:0:0:0:
256,192,25267,1,0,0:0:0:0:
256,192,25410,1,8,0:0:0:0:
256,192,25482,1,0,0:0:0:0:
256,192,25553,1,0,0:0:0:0:
256,192,25625,1,0,0:0:0:0:
256,192,25696,1,8,0:0:0:0:
256,192,25767,1,8,0:0:0:0:
256,192,25839,1,0,0:0:0:0:
256,192,25910,1,0,0:0:0:0:
256,192,25982,1,8,0:0:0:0:
256,192,26053,1,0,0:0:0:0:
256,192,26125,1,0,0:0:0:0:
256,192,26196,1,0,0:0:0:0:
256,192,26267,1,12,0:0:0:0:
256,192,26410,1,12,0:0:0:0:
256,192,26553,1,4,0:0:0:0:
256,192,26696,1,12,0:0:0:0:
256,192,26839,1,8,0:0:0:0:
256,192,26910,1,8,0:0:0:0:
256,192,26982,1,0,0:0:0:0:
256,192,27125,1,4,0:0:0:0:
256,192,27267,1,12,0:0:0:0:
256,192,27410,1,0,0:0:0:0:
256,192,27553,1,12,0:0:0:0:
256,192,27696,1,12,0:0:0:0:
256,192,27839,1,0,0:0:0:0:
256,192,27982,1,0,0:0:0:0:
256,192,28053,1,0,0:0:0:0:
256,192,28125,1,0,0:0:0:0:
256,192,28196,1,0,0:0:0:0:
256,192,28267,1,8,0:0:0:0:
256,192,28553,1,8,0:0:0:0:
256,192,28696,1,0,0:0:0:0:
256,192,28839,1,8,0:0:0:0:
256,192,28982,1,0,0:0:0:0:
256,192,29053,1,0,0:0:0:0:
256,192,29125,1,8,0:0:0:0:
256,192,29196,1,0,0:0:0:0:
256,192,29267,1,0,0:0:0:0:
256,192,29410,1,8,0:0:0:0:
256,192,29553,1,8,0:0:0:0:
256,192,29696,1,0,0:0:0:0:
256,192,29839,1,0,0:0:0:0:
256,192,29982,1,8,0:0:0:0:
256,192,30125,1,0,0:0:0:0:
256,192,30196,1,8,0:0:0:0:
256,192,30339,1,8,0:0:0:0:
256,192,30410,1,0,0:0:0:0:
256,192,30553,1,8,0:0:0:0:
256,192,30696,1,0,0:0:0:0:
256,192,30839,1,8,0:0:0:0:
256,192,30982,1,0,0:0:0:0:
256,192,31125,1,8,0:0:0:0:
256,192,31267,1,0,0:0:0:0:
256,192,31339,1,0,0:0:0:0:
256,192,31410,1,8,0:0:0:0:
256,192,31482,1,0,0:0:0:0:
256,192,31553,1,0,0:0:0:0:
256,192,31696,1,8,0:0:0:0:
256,192,31839,1,8,0:0:0:0:
256,192,31982,1,0,0:0:0:0:
256,192,32125,1,0,0:0:0:0:
256,192,32267,1,8,0:0:0:0:
256,192,32410,1,0,0:0:0:0:
256,192,32482,1,8,0:0:0:0:
256,192,32625,1,8,0:0:0:0:
256,192,32696,1,0,0:0:0:0:
256,192,32839,1,8,0:0:0:0:
256,192,32982,1,0,0:0:0:0:
256,192,33125,1,12,0:0:0:0:
256,192,33267,1,8,0:0:0:0:
256,192,33410,1,0,0:0:0:0:
256,192,33553,1,8,0:0:0:0:
256,192,33696,1,8,0:0:0:0:
256,192,33767,1,0,0:0:0:0:
256,192,33839,1,8,0:0:0:0:
256,192,33910,1,8,0:0:0:0:
256,192,33982,1,0,0:0:0:0:
256,192,34125,1,8,0:0:0:0:
256,192,34267,1,0,0:0:0:0:
256,192,34410,1,8,0:0:0:0:
256,192,34553,1,8,0:0:0:0:
256,192,34696,1,0,0:0:0:0:
256,192,34839,1,0,0:0:0:0:
256,192,34910,1,8,0:0:0:0:
256,192,34982,1,0,0:0:0:0:
256,192,35053,1,0,0:0:0:0:
256,192,35125,1,8,0:0:0:0:
256,192,35267,1,8,0:0:0:0:
256,192,35410,1,4,0:0:0:0:
256,192,35553,1,8,0:0:0:0:
256,192,35696,1,8,0:0:0:0:
256,192,35839,1,0,0:0:0:0:
256,192,35982,1,8,0:0:0:0:
256,192,36053,1,8,0:0:0:0:
256,192,36125,1,0,0:0:0:0:
256,192,36196,1,0,0:0:0:0:
256,192,36267,1,8,0:0:0:0:
256,192,36410,1,0,0:0:0:0:
256,192,36553,1,8,0:0:0:0:
256,192,36839,1,4,0:0:0:0:
256,192,37125,1,4,0:0:0:0:
256,192,37410,1,4,0:0:0:0:
256,192,37696,1,8,0:0:0:0:
256,192,37839,1,0,0:0:0:0:
256,192,37982,1,8,0:0:0:0:
256,192,38125,1,0,0:0:0:0:
256,192,38196,1,8,0:0:0:0:
256,192,38267,1,0,0:0:0:0:
256,192,38339,1,8,0:0:0:0:
256,192,38410,1,0,0:0:0:0:
256,192,38553,1,8,0:0:0:0:
256,192,38696,1,8,0:0:0:0:
256,192,38839,1,0,0:0:0:0:
256,192,38982,1,0,0:0:0:0:
256,192,39125,1,8,0:0:0:0:
256,192,39267,1,0,0:0:0:0:
256,192,39339,1,8,0:0:0:0:
256,192,39482,1,8,0:0:0:0:
256,192,39553,1,0,0:0:0:0:
256,192,39696,1,8,0:0:0:0:
256,192,39839,1,0,0:0:0:0:
256,192,39982,1,8,0:0:0:0:
256,192,40125,1,0,0:0:0:0:
256,192,40267,1,8,0:0:0:0:
256,192,40410,1,0,0:0:0:0:
256,192,40482,1,8,0:0:0:0:
256,192,40553,1,0,0:0:0:0:
256,192,40625,1,8,0:0:0:0:
256,192,40696,1,0,0:0:0:0:
256,192,40839,1,8,0:0:0:0:
256,192,40982,1,8,0:0:0:0:
256,192,41125,1,0,0:0:0:0:
256,192,41267,1,0,0:0:0:0:
256,192,41410,1,8,0:0:0:0:
256,192,41553,1,0,0:0:0:0:
256,192,41625,1,8,0:0:0:0:
256,192,41767,1,8,0:0:0:0:
256,192,41839,1,0,0:0:0:0:
256,192,41982,1,8,0:0:0:0:
256,192,42125,1,0,0:0:0:0:
256,192,42267,1,8,0:0:0:0:
256,192,42339,1,8,0:0:0:0:
256,192,42410,1,0,0:0:0:0:
256,192,42482,1,0,0:0:0:0:
256,192,42553,1,8,0:0:0:0:
256,192,42625,1,0,0:0:0:0:
256,192,42696,1,0,0:0:0:0:
256,192,42767,1,8,0:0:0:0:
256,192,42839,1,0,0:0:0:0:
256,192,42910,1,8,0:0:0:0:
256,192,42982,1,0,0:0:0:0:
256,192,43053,1,0,0:0:0:0:
256,192,43125,1,8,0:0:0:0:
256,192,43196,1,0,0:0:0:0:
256,192,43267,1,8,0:0:0:0:
256,192,43339,1,0,0:0:0:0:
256,192,43410,1,8,0:0:0:0:
256,192,43482,1,8,0:0:0:0:
256,192,43553,1,0,0:0:0:0:
256,192,43625,1,0,0:0:0:0:
256,192,43696,1,8,0:0:0:0:
256,192,43767,1,0,0:0:0:0:
256,192,43839,1,0,0:0:0:0:
256,192,43910,1,8,0:0:0:0:
256,192,43982,1,0,0:0:0:0:
256,192,44053,1,8,0:0:0:0:
256,192,44125,1,8,0:0:0:0:
256,192,44196,1,0,0:0:0:0:
256,192,44267,1,8,0:0:0:0:
256,192,44339,1,0,0:0:0:0:
256,192,44410,1,0,0:0:0:0:
256,192,44482,1,0,0:0:0:0:
256,192,44553,1,8,0:0:0:0:
256,192,44625,1,0,0:0:0:0:
256,192,44696,1,0,0:0:0:0:
256,192,44767,1,0,0:0:0:0:
256,192,44839,1,8,0:0:0:0:
256,192,44910,1,0,0:0:0:0:
256,192,44982,1,0,0:0:0:0:
256,192,45053,1,8,0:0:0:0:
256,192,45125,1,0,0:0:0:0:
256,192,45196,1,8,0:0:0:0:
256,192,45267,1,0,0:0:0:0:
256,192,45339,1,0,0:0:0:0:
256,192,45410,1,8,0:0:0:0:
256,192,45482,1,0,0:0:0:0:
256,192,45553,1,8,0:0:0:0:
256,192,45625,1,0,0:0:0:0:
256,192,45696,1,8,0:0:0:0:
256,192,45767,1,8,0:0:0:0:
256,192,45839,1,0,0:0:0:0:
256,192,45910,1,0,0:0:0:0:
256,192,45982,1,8,0:0:0:0:
256,192,46053,1,0,0:0:0:0:
256,192,46125,1,0,0:0:0:0:
256,192,46196,1,8,0:0:0:0:
256,192,46267,1,0,0:0:0:0:
256,192,46339,1,8,0:0:0:0:
256,192,46410,1,8,0:0:0:0:
256,192,46482,1,0,0:0:0:0:
256,192,46553,1,8,0:0:0:0:
256,192,46625,1,0,0:0:0:0:
256,192,46696,1,0,0:0:0:0:
256,192,46767,1,0,0:0:0:0:
256,192,46839,1,8,0:0:0:0:
256,192,47267,1,0,0:0:0:0:
256,192,47410,1,8,0:0:0:0:
256,192,47696,1,8,0:0:0:0:
256,192,47982,1,0,0:0:0:0:
256,192,48125,1,8,0:0:0:0:
256,192,48410,1,0,0:0:0:0:
256,192,48553,1,8,0:0:0:0:
256,192,48839,1,8,0:0:0:0:
256,192,49125,1,0,0:0:0:0:
256,192,49267,1,8,0:0:0:0:
256,192,49553,1,0,0:0:0:0:
256,192,49696,1,8,0:0:0:0:
256,192,49982,1,8,0:0:0:0:
256,192,50267,1,0,0:0:0:0:
256,192,50410,1,8,0:0:0:0:
256,192,50696,1,0,0:0:0:0:
256,192,50839,1,8,0:0:0:0:
256,192,50982,1,0,0:0:0:0:
256,192,51125,1,8,0:0:0:0:
256,192,51267,1,0,0:0:0:0:
256,192,51339,1,0,0:0:0:0:
256,192,51410,1,8,0:0:0:0:
256,192,51839,1,0,0:0:0:0:
256,192,52267,1,8,0:0:0:0:
256,192,52553,1,0,0:0:0:0:
256,192,52696,1,8,0:0:0:0:
256,192,52982,1,0,0:0:0:0:
256,192,53410,1,8,0:0:0:0:
256,192,53696,1,0,0:0:0:0:
256,192,53982,1,12,0:0:0:0:
256,192,54125,1,0,0:0:0:0:
256,192,54267,1,0,0:0:0:0:
256,192,54553,1,8,0:0:0:0:
256,192,54839,1,0,0:0:0:0:
256,192,55125,1,8,0:0:0:0:
256,192,55410,1,0,0:0:0:0:
256,192,55696,1,8,0:0:0:0:
256,192,55982,1,0,0:0:0:0:
256,192,56267,1,0,0:0:0:0:
256,192,56553,1,0,0:0:0:0:
256,192,56839,1,8,0:0:0:0:
256,192,57125,1,0,0:0:0:0:
256,192,57410,1,0,0:0:0:0:
256,192,57696,1,8,0:0:0:0:
256,192,57982,1,0,0:0:0:0:
256,192,58125,1,0,0:0:0:0:
256,192,58267,1,8,0:0:0:0:
256,192,58553,1,0,0:0:0:0:
256,192,58839,1,8,0:0:0:0:
256,192,59125,1,0,0:0:0:0:
256,192,59410,1,8,0:0:0:0:
256,192,59696,1,8,0:0:0:0:
256,192,59982,1,0,0:0:0:0:
256,192,60267,1,8,0:0:0:0:
256,192,60553,1,8,0:0:0:0:
256,192,60696,1,0,0:0:0:0:
256,192,60839,1,8,0:0:0:0:
256,192,60982,1,0,0:0:0:0:
256,192,61125,1,8,0:0:0:0:
256,192,61267,1,0,0:0:0:0:
256,192,61410,1,8,0:0:0:0:
256,192,61553,1,0,0:0:0:0:
256,192,61696,1,8,0:0:0:0:
256,192,61839,1,0,0:0:0:0:
256,192,61982,1,8,0:0:0:0:
256,192,62125,1,0,0:0:0:0:
256,192,62267,1,8,0:0:0:0:
256,192,62410,1,0,0:0:0:0:
256,192,62553,1,8,0:0:0:0:
256,192,62696,1,8,0:0:0:0:
256,192,62839,1,8,0:0:0:0:
256,192,62910,1,8,0:0:0:0:
256,192,62982,1,0,0:0:0:0:
256,192,63053,1,0,0:0:0:0:
256,192,63125,1,8,0:0:0:0:
256,192,63196,1,0,0:0:0:0:
256,192,63267,1,0,0:0:0:0:
256,192,63339,1,0,0:0:0:0:
256,192,63410,1,8,0:0:0:0:
256,192,63482,1,0,0:0:0:0:
256,192,63553,1,0,0:0:0:0:
256,192,63625,1,0,0:0:0:0:
256,192,63696,1,8,0:0:0:0:
256,192,63767,1,0,0:0:0:0:
256,192,63839,1,0,0:0:0:0:
256,192,63910,1,0,0:0:0:0:
256,192,63982,1,8,0:0:0:0:
256,192,64053,1,8,0:0:0:0:
256,192,64125,1,0,0:0:0:0:
256,192,64196,1,0,0:0:0:0:
256,192,64267,1,8,0:0:0:0:
256,192,64339,1,8,0:0:0:0:
256,192,64410,1,0,0:0:0:0:
256,192,64482,1,0,0:0:0:0:
256,192,64553,1,8,0:0:0:0:
256,192,64625,1,8,0:0:0:0:
256,192,64696,1,0,0:0:0:0:
256,192,64767,1,0,0:0:0:0:
256,192,64839,1,8,0:0:0:0:
256,192,65125,1,12,0:0:0:0:
256,192,65220,1,0,0:0:0:0:
256,192,65315,1,8,0:0:0:0:
256,192,65410,1,8,0:0:0:0:
256,192,65505,1,0,0:0:0:0:
256,192,65601,1,8,0:0:0:0:
256,192,65696,1,8,0:0:0:0:
256,192,65767,1,0,0:0:0:0:
256,192,65839,1,0,0:0:0:0:
256,192,65910,1,0,0:0:0:0:
256,192,65982,1,8,0:0:0:0:
256,192,66267,1,4,0:0:0:0:
256,192,66410,1,0,0:0:0:0:
256,192,66553,1,8,0:0:0:0:
256,192,66696,1,0,0:0:0:0:
256,192,66767,1,8,0:0:0:0:
256,192,66839,1,0,0:0:0:0:
256,192,66910,1,8,0:0:0:0:
256,192,66982,1,0,0:0:0:0:
256,192,67125,1,8,0:0:0:0:
256,192,67267,1,8,0:0:0:0:
256,192,67410,1,0,0:0:0:0:
256,192,67553,1,0,0:0:0:0:
256,192,67696,1,8,0:0:0:0:
256,192,67839,1,0,0:0:0:0:
256,192,67910,1,8,0:0:0:0:
256,192,68053,1,8,0:0:0:0:
256,192,68125,1,0,0:0:0:0:
256,192,68267,1,8,0:0:0:0:
256,192,68410,1,8,0:0:0:0:
256,192,68553,1,0,0:0:0:0:
256,192,68696,1,0,0:0:0:0:
256,192,68839,1,8,0:0:0:0:
256,192,68982,1,0,0:0:0:0:
256,192,69053,1,8,0:0:0:0:
256,192,69125,1,0,0:0:0:0:
256,192,69196,1,8,0:0:0:0:
256,192,69267,1,0,0:0:0:0:
256,192,69410,1,8,0:0:0:0:
256,192,69553,1,8,0:0:0:0:
256,192,69696,1,0,0:0:0:0:
256,192,69839,1,0,0:0:0:0:
256,192,69982,1,8,0:0:0:0:
256,192,70125,1,0,0:0:0:0:
256,192,70196,1,8,0:0:0:0:
256,192,70339,1,8,0:0:0:0:
256,192,70410,1,0,0:0:0:0:
256,192,70553,1,8,0:0:0:0:
256,192,70696,1,0,0:0:0:0:
256,192,70839,1,8,0:0:0:0:
256,192,70982,1,0,0:0:0:0:
256,192,71125,1,8,0:0:0:0:
256,192,71267,1,0,0:0:0:0:
256,192,71339,1,8,0:0:0:0:
256,192,71410,1,0,0:0:0:0:
256,192,71482,1,8,0:0:0:0:
256,192,71553,1,0,0:0:0:0:
256,192,71696,1,8,0:0:0:0:
256,192,71839,1,8,0:0:0:0:
256,192,71982,1,0,0:0:0:0:
256,192,72125,1,0,0:0:0:0:
256,192,72267,1,8,0:0:0:0:
256,192,72410,1,0,0:0:0:0:
256,192,72482,1,8,0:0:0:0:
256,192,72625,1,8,0:0:0:0:
256,192,72696,1,0,0:0:0:0:
256,192,72839,1,8,0:0:0:0:
256,192,72982,1,0,0:0:0:0:
256,192,73125,1,8,0:0:0:0:
256,192,73267,1,0,0:0:0:0:
256,192,73410,1,8,0:0:0:0:
256,192,73553,1,0,0:0:0:0:
256,192,73625,1,8,0:0:0:0:
256,192,73696,1,0,0:0:0:0:
256,192,73767,1,8,0:0:0:0:
256,192,73839,1,0,0:0:0:0:
256,192,73982,1,8,0:0:0:0:
256,192,74125,1,8,0:0:0:0:
256,192,74267,1,0,0:0:0:0:
256,192,74410,1,0,0:0:0:0:
256,192,74553,1,8,0:0:0:0:
256,192,74696,1,0,0:0:0:0:
256,192,74767,1,8,0:0:0:0:
256,192,74910,1,8,0:0:0:0:
256,192,74982,1,0,0:0:0:0:
256,192,75125,1,8,0:0:0:0:
256,192,75267,1,8,0:0:0:0:
256,192,75410,1,0,0:0:0:0:
256,192,75553,1,0,0:0:0:0:
256,192,75696,1,8,0:0:0:0:
256,192,75839,1,0,0:0:0:0:
256,192,75910,1,8,0:0:0:0:
256,192,75982,1,0,0:0:0:0:
256,192,76053,1,8,0:0:0:0:
256,192,76125,1,0,0:0:0:0:
256,192,76267,1,8,0:0:0:0:
256,192,76410,1,8,0:0:0:0:
256,192,76553,1,0,0:0:0:0:
256,192,76696,1,0,0:0:0:0:
256,192,76839,1,8,0:0:0:0:
256,192,76982,1,0,0:0:0:0:
256,192,77053,1,8,0:0:0:0:
256,192,77196,1,8,0:0:0:0:
256,192,77267,1,0,0:0:0:0:
256,192,77410,1,8,0:0:0:0:
256,192,77553,1,0,0:0:0:0:
256,192,77696,1,8,0:0:0:0:
256,192,77839,1,0,0:0:0:0:
256,192,77982,1,8,0:0:0:0:
256,192,78125,1,0,0:0:0:0:
256,192,78196,1,8,0:0:0:0:
256,192,78267,1,0,0:0:0:0:
256,192,78339,1,8,0:0:0:0:
256,192,78410,1,0,0:0:0:0:
256,192,78553,1,8,0:0:0:0:
256,192,78696,1,8,0:0:0:0:
256,192,78839,1,0,0:0:0:0:
256,192,78982,1,0,0:0:0:0:
256,192,79125,1,8,0:0:0:0:
256,192,79267,1,0,0:0:0:0:
256,192,79339,1,8,0:0:0:0:
256,192,79482,1,8,0:0:0:0:
256,192,79553,1,0,0:0:0:0:
256,192,79696,1,8,0:0:0:0:
256,192,79839,1,0,0:0:0:0:
256,192,79982,1,8,0:0:0:0:
256,192,80053,1,8,0:0:0:0:
256,192,80125,1,0,0:0:0:0:
256,192,80196,1,0,0:0:0:0:
256,192,80267,1,8,0:0:0:0:
256,192,80339,1,0,0:0:0:0:
256,192,80410,1,0,0:0:0:0:
256,192,80482,1,8,0:0:0:0:
256,192,80553,1,0,0:0:0:0:
256,192,80625,1,8,0:0:0:0:
256,192,80696,1,0,0:0:0:0:
256,192,80767,1,0,0:0:0:0:
256,192,80839,1,8,0:0:0:0:
256,192,80910,1,0,0:0:0:0:
256,192,80982,1,8,0:0:0:0:
256,192,81053,1,0,0:0:0:0:
256,192,81125,1,8,0:0:0:0:
256,192,81196,1,8,0:0:0:0:
256,192,81267,1,0,0:0:0:0:
256,192,81339,1,0,0:0:0:0:
256,192,81410,1,8,0:0:0:0:
256,192,81482,1,0,0:0:0:0:
256,192,81553,1,0,0:0:0:0:
256,192,81625,1,8,0:0:0:0:
256,192,81696,1,0,0:0:0:0:
256,192,81767,1,8,0:0:0:0:
256,192,81839,1,8,0:0:0:0:
256,192,81910,1,0,0:0:0:0:
256,192,81982,1,8,0:0:0:0:
256,192,82053,1,0,0:0:0:0:
256,192,82125,1,0,0:0:0:0:
256,192,82196,1,0,0:0:0:0:
256,192,82267,1,8,0:0:0:0:
256,192,82339,1,0,0:0:0:0:
256,192,82410,1,0,0:0:0:0:
256,192,82482,1,0,0:0:0:0:
256,192,82553,1,8,0:0:0:0:
256,192,82625,1,0,0:0:0:0:
256,192,82696,1,0,0:0:0:0:
256,192,82767,1,8,0:0:0:0:
256,192,82839,1,0,0:0:0:0:
256,192,82910,1,8,0:0:0:0:
256,192,82982,1,0,0:0:0:0:
256,192,83053,1,0,0:0:0:0:
256,192,83125,1,8,0:0:0:0:
256,192,83196,1,0,0:0:0:0:
256,192,83267,1,8,0:0:0:0:
256,192,83339,1,0,0:0:0:0:
256,192,83410,1,8,0:0:0:0:
256,192,83482,1,8,0:0:0:0:
256,192,83553,1,0,0:0:0:0:
256,192,83625,1,0,0:0:0:0:
256,192,83696,1,8,0:0:0:0:
256,192,83767,1,0,0:0:0:0:
256,192,83839,1,0,0:0:0:0:
256,192,83910,1,8,0:0:0:0:
256,192,83982,1,0,0:0:0:0:
256,192,84053,1,8,0:0:0:0:
256,192,84125,1,8,0:0:0:0:
256,192,84196,1,0,0:0:0:0:
256,192,84267,1,8,0:0:0:0:
256,192,84339,1,0,0:0:0:0:
256,192,84410,1,0,0:0:0:0:
256,192,84482,1,0,0:0:0:0:
256,192,84553,1,12,0:0:0:0:
256,192,84839,1,0,0:0:0:0:
256,192,84982,1,12,0:0:0:0:
256,192,85267,1,0,0:0:0:0:
256,192,85410,1,12,0:0:0:0:
256,192,85696,1,0,0:0:0:0:
256,192,85839,1,12,0:0:0:0:
256,192,86125,1,0,0:0:0:0:
256,192,86267,1,12,0:0:0:0:
256,192,86553,1,12,0:0:0:0:
256,192,86839,1,12,0:0:0:0:
256,192,87125,1,0,0:0:0:0:
256,192,87267,1,12,0:0:0:0:
256,192,87553,1,0,0:0:0:0:
256,192,87696,1,12,0:0:0:0:
256,192,87982,1,0,0:0:0:0:
256,192,88125,1,12,0:0:0:0:
256,192,88410,1,0,0:0:0:0:
256,192,88553,1,12,0:0:0:0:
256,192,88839,1,0,0:0:0:0:
256,192,88910,1,0,0:0:0:0:
256,192,88982,1,0,0:0:0:0:
256,192,89053,1,0,0:0:0:0:
256,192,89125,1,8,0:0:0:0:
256,192,89410,1,0,0:0:0:0:
256,192,89553,1,8,0:0:0:0:
256,192,89839,1,0,0:0:0:0:
256,192,89982,1,8,0:0:0:0:
256,192,90267,1,0,0:0:0:0:
256,192,90410,1,8,0:0:0:0:
256,192,90482,1,8,0:0:0:0:
256,192,90553,1,0,0:0:0:0:
256,192,90696,1,0,0:0:0:0:
256,192,90839,1,8,0:0:0:0:
256,192,91125,1,8,0:0:0:0:
256,192,91410,1,8,0:0:0:0:
256,192,91553,1,0,0:0:0:0:
256,192,91625,1,0,0:0:0:0:
256,192,91696,1,8,0:0:0:0:
256,192,91839,1,0,0:0:0:0:
256,192,92125,1,0,0:0:0:0:
256,192,92267,1,8,0:0:0:0:
256,192,92553,1,0,0:0:0:0:
256,192,92696,1,8,0:0:0:0:
256,192,92767,1,8,0:0:0:0:
256,192,92839,1,0,0:0:0:0:
256,192,92982,1,0,0:0:0:0:
256,192,93125,1,8,0:0:0:0:
256,192,93410,1,8,0:0:0:0:
256,192,93482,1,8,0:0:0:0:
256,192,93553,1,0,0:0:0:0:
256,192,93625,1,0,0:0:0:0:
256,192,93696,1,8,0:0:0:0:
256,192,93839,1,8,0:0:0:0:
256,192,93982,1,8,0:0:0:0:
256,192,94125,1,0,0:0:0:0:
256,192,94267,1,0,0:0:0:0:
256,192,94339,1,0,0:0:0:0:
256,192,94410,1,8,0:0:0:0:
256,192,94553,1,8,0:0:0:0:
256,192,94625,1,0,0:0:0:0:
256,192,94696,1,8,0:0:0:0:
256,192,94767,1,0,0:0:0:0:
256,192,94839,1,12,0:0:0:0:
256,192,94982,1,12,0:0:0:0:
256,192,95125,1,4,0:0:0:0:
256,192,95267,1,4,0:0:0:0:
256,192,95410,1,12,0:0:0:0:
256,192,95696,1,0,0:0:0:0:
256,192,95982,1,8,0:0:0:0:
256,192,96267,1,0,0:0:0:0:
256,192,96553,1,8,0:0:0:0:
256,192,96696,2,0,B|-32:192|-32:192|-32:0|-32:0|192:0,1,699.119752704635
256,192,97125,1,0,0:0:0:0:
192,0,97267,2,0,B|480:0|480:0|480:192|480:192|260:192,1,699.119752704635
256,192,97696,1,8,0:0:0:0:
256,192,97982,1,0,0:0:0:0:
256,192,98267,1,8,0:0:0:0:
160,32,98482,2,0,L|160:192,1,139.823950540927
256,32,98625,2,0,L|256:192,1,139.823950540927
256,192,98767,1,0,0:0:0:0:
256,192,98839,1,8,0:0:0:0:
256,192,99125,1,0,0:0:0:0:
256,192,99410,1,8,0:0:0:0:
256,192,99625,1,0,0:0:0:0:
256,192,99696,1,8,0:0:0:0:
256,192,99910,1,0,0:0:0:0:
256,192,99982,1,0,0:0:0:0:
256,192,100267,1,0,0:0:0:0:
256,192,100339,1,0,0:0:0:0:
256,192,100410,1,0,0:0:0:0:
256,192,100482,1,0,0:0:0:0:
256,192,100553,1,8,0:0:0:0:
256,192,100839,1,0,0:0:0:0:
256,192,101125,1,8,0:0:0:0:
256,192,101410,1,0,0:0:0:0:
256,192,101696,1,8,0:0:0:0:
256,192,101982,1,0,0:0:0:0:
256,192,102267,1,8,0:0:0:0:
256,192,102553,1,0,0:0:0:0:
256,192,102839,1,8,0:0:0:0:
256,192,103125,1,0,0:0:0:0:
256,192,103410,1,8,0:0:0:0:
256,192,103696,1,0,0:0:0:0:
256,192,103982,1,8,0:0:0:0:
256,192,104196,1,0,0:0:0:0:
256,192,104267,1,8,0:0:0:0:
256,192,104482,1,0,0:0:0:0:
256,192,104553,1,0,0:0:0:0:
256,192,104839,1,0,0:0:0:0:
256,192,104910,1,0,0:0:0:0:
256,192,104982,1,0,0:0:0:0:
256,192,105053,1,0,0:0:0:0:
256,192,105125,1,8,0:0:0:0:
256,192,105410,1,0,0:0:0:0:
256,192,105696,1,8,0:0:0:0:
256,192,105982,1,0,0:0:0:0:
256,192,106267,1,8,0:0:0:0:
256,192,106553,1,0,0:0:0:0:
256,192,106839,1,8,0:0:0:0:
256,192,107125,1,0,0:0:0:0:
256,192,107410,1,8,0:0:0:0:
256,192,107696,1,0,0:0:0:0:
256,192,107910,1,0,0:0:0:0:
256,192,107982,1,8,0:0:0:0:
256,192,108267,1,0,0:0:0:0:
256,192,108553,1,8,0:0:0:0:
256,192,108767,1,0,0:0:0:0:
256,192,108839,1,8,0:0:0:0:
256,192,109053,1,0,0:0:0:0:
256,192,109125,1,0,0:0:0:0:
256,192,109410,1,8,0:0:0:0:
256,192,109696,1,0,0:0:0:0:
256,192,109982,1,8,0:0:0:0:
256,192,110267,1,0,0:0:0:0:
256,192,110410,2,0,B|256:32|256:32|64:224|64:224|352:224|352:224|384:224,1,699.119752704635
256,192,110839,1,8,0:0:0:0:
32,32,110982,2,0,B|32:384|32:384|480:384|480:384|480:-32|480:-32|64:-32|64:-32|64:128,1,1677.88740649112
256,192,111982,1,0,0:0:0:0:
256,192,112053,12,0,112767,0:0:0:0:
256,192,112553,5,0,0:0:0:0:
256,192,113125,5,8,0:0:0:0:
256,192,113267,12,0,113696,0:0:0:0:
256,192,113839,12,0,116196,0:0:0:0:
256,192,116553,6,0,L|0:192,1,139.823950540927
256,192,116982,6,0,L|0:192,1,139.823950540927
256,192,117553,6,0,L|0:192,1,139.823950540927
