osu file format v14

[General]
AudioFilename: Calamity.mp3
AudioLeadIn: 0
PreviewTime: 102090
Countdown: 0
SampleSet: Normal
StackLeniency: 0.7
Mode: 1
LetterboxInBreaks: 0
WidescreenStoryboard: 0

[Editor]
DistanceSpacing: 0.8
BeatDivisor: 4
GridSize: 32
TimelineZoom: 3.499998

[Metadata]
Title:LeaF Pack
TitleUnicode:LeaF Pack
Artist:LeaF
ArtistUnicode:LeaF
Creator:Q____X
Version:Calamity Fortune
Source:
Tags:[_Chichinya_] Xoretra
BeatmapID:1240070
BeatmapSetID:517000

[Difficulty]
HPDrainRate:5
CircleSize:2
OverallDifficulty:5
ApproachRate:5
SliderMultiplier:1.39753527423635
SliderTickRate:1

[Events]
//Background and Video events
0,0,"Calamity.jpg",0,0
//Break Periods
//Storyboard Layer 0 (Background)
//Storyboard Layer 1 (Fail)
//Storyboard Layer 2 (Pass)
//Storyboard Layer 3 (Foreground)
//Storyboard Sound Samples

[TimingPoints]
1290,300,4,1,0,100,1,0
12090,-83.3333333333333,4,1,0,100,0,1
20040,-84.7457627118644,4,1,0,100,0,1
20190,-86.2068965517241,4,1,0,100,0,1
20340,-87.719298245614,4,1,0,100,0,1
20490,-89.2857142857143,4,1,0,100,0,0
20640,-90.9090909090909,4,1,0,100,0,0
20790,-92.5925925925926,4,1,0,100,0,0
20940,-94.3396226415094,4,1,0,100,0,0
21090,-96.1538461538461,4,1,0,100,0,0
21240,-98.0392156862745,4,1,0,100,0,0
21315,-100,4,1,0,10,0,0
21690,-100,4,1,0,100,0,0
22665,-100,4,1,0,10,0,0
23040,-100,4,1,0,100,0,0
23790,-100,4,1,0,10,0,0
24090,-100,4,1,0,100,0,0
25065,-100,4,1,0,10,0,0
25440,-100,4,1,0,100,0,0
26490,-96.1538461538461,4,1,0,100,0,0
26565,-95.2380952380952,4,1,0,100,0,0
26640,-94.3396226415094,4,1,0,100,0,0
26715,-93.4579439252336,4,1,0,100,0,0
26790,-92.5925925925926,4,1,0,100,0,0
26865,-91.743119266055,4,1,0,100,0,0
26940,-90.9090909090909,4,1,0,100,0,0
27015,-90.0900900900901,4,1,0,100,0,0
27090,-89.2857142857143,4,1,0,100,0,0
27165,-88.4955752212389,4,1,0,100,0,0
27240,-87.719298245614,4,1,0,100,0,0
27315,-86.9565217391304,4,1,0,100,0,0
27390,-86.2068965517241,4,1,0,100,0,0
27465,-85.4700854700855,4,1,0,100,0,0
27540,-84.7457627118644,4,1,0,100,0,0
27615,-84.0336134453781,4,1,0,100,0,0
27690,-83.3333333333333,4,1,0,100,0,0
36240,-86.9565217391304,4,1,0,100,0,0
36390,-90.9090909090909,4,1,0,100,0,0
36540,-95.2380952380952,4,1,0,100,0,0
36690,-100,4,1,0,100,0,0
39465,-100,4,1,0,10,0,0
39690,-100,4,1,0,100,0,0
41640,-102.040816326531,4,1,0,100,0,0
41715,-104.166666666667,4,1,0,100,0,0
41790,-106.382978723404,4,1,0,100,0,0
41865,-105.263157894737,4,1,0,100,0,0
41940,-104.166666666667,4,1,0,100,0,0
42015,-102.040816326531,4,1,0,100,0,0
42090,-100,4,1,0,100,0,0
43290,-66.6666666666667,4,1,0,100,0,0
43590,-62.5,4,1,0,100,0,0
43890,-66.6666666666667,4,1,0,100,0,0
44190,-71.4285714285714,4,1,0,100,0,0
44490,-100,4,1,0,100,0,0
51690,-90.9090909090909,4,1,0,100,0,0
57690,-83.3333333333333,4,1,0,100,0,1
75240,-86.9565217391304,4,1,0,100,0,0
75315,-90.9090909090909,4,1,0,100,0,0
75390,-95.2380952380952,4,1,0,100,0,0
75465,-100,4,1,0,100,0,0
86565,-100,4,1,0,10,0,0
86790,-100,4,1,0,100,0,0
86865,-100,4,1,0,10,0,0
87090,-100,4,1,0,100,0,0
87465,-100,4,1,0,10,0,0
87690,-100,4,1,0,100,0,0
101565,-25,4,1,0,100,0,0
102090,-83.3333333333333,4,1,0,100,0,1
121290,-100,4,1,0,100,0,0
121515,-133.333333333333,4,1,0,100,0,0
127890,-125,4,1,0,100,0,0
128040,-117.647058823529,4,1,0,100,0,0
128190,-111.111111111111,4,1,0,100,0,0
128340,-105.263157894737,4,1,0,100,0,0
128491,-100,4,1,0,100,0,0
130940,-100,4,1,0,100,0,0
130965,6,4,1,0,10,1,0
134415,600,4,1,0,100,1,0
134415,-40,4,1,0,100,0,0

[HitObjects]
256,192,1290,5,0,0:0:0:0:
256,192,1440,1,0,0:0:0:0:
256,192,1515,1,0,0:0:0:0:
256,192,1590,1,8,0:0:0:0:
256,192,1740,1,8,0:0:0:0:
256,192,1815,1,8,0:0:0:0:
256,192,1890,1,0,0:0:0:0:
256,192,1965,1,8,0:0:0:0:
256,192,2040,1,8,0:0:0:0:
256,192,2115,1,0,0:0:0:0:
256,192,2190,1,8,0:0:0:0:
256,192,2340,1,8,0:0:0:0:
256,192,2490,1,0,0:0:0:0:
256,192,2640,1,0,0:0:0:0:
256,192,2715,1,0,0:0:0:0:
256,192,2790,1,8,0:0:0:0:
256,192,2940,1,0,0:0:0:0:
256,192,3090,1,0,0:0:0:0:
256,192,3240,1,0,0:0:0:0:
256,192,3315,1,0,0:0:0:0:
256,192,3390,1,8,0:0:0:0:
256,192,3540,1,0,0:0:0:0:
256,192,3690,1,0,0:0:0:0:
256,192,3765,1,8,0:0:0:0:
256,192,3840,1,0,0:0:0:0:
256,192,3990,1,8,0:0:0:0:
256,192,4065,1,0,0:0:0:0:
256,192,4140,1,0,0:0:0:0:
256,192,4215,1,8,0:0:0:0:
256,192,4290,1,0,0:0:0:0:
256,192,4365,1,8,0:0:0:0:
256,192,4440,1,0,0:0:0:0:
256,192,4515,1,0,0:0:0:0:
256,192,4590,1,8,0:0:0:0:
256,192,4890,1,0,0:0:0:0:
256,192,5040,1,0,0:0:0:0:
256,192,5190,1,8,0:0:0:0:
256,192,5340,1,0,0:0:0:0:
256,192,5490,1,0,0:0:0:0:
256,192,5640,1,0,0:0:0:0:
256,192,5790,1,8,0:0:0:0:
256,192,6090,1,8,0:0:0:0:
256,192,6240,1,8,0:0:0:0:
256,192,6390,1,0,0:0:0:0:
256,192,6540,1,0,0:0:0:0:
256,192,6690,1,8,0:0:0:0:
256,192,7140,1,0,0:0:0:0:
256,192,7215,1,0,0:0:0:0:
256,192,7290,1,12,0:0:0:0:
256,192,7440,1,0,0:0:0:0:
256,192,7590,1,8,0:0:0:0:
256,192,7740,1,0,0:0:0:0:
256,192,7890,1,0,0:0:0:0:
256,192,8040,1,0,0:0:0:0:
256,192,8190,1,8,0:0:0:0:
256,192,8340,1,0,0:0:0:0:
256,192,8490,1,0,0:0:0:0:
256,192,8640,1,0,0:0:0:0:
256,192,8790,1,8,0:0:0:0:
256,192,9090,1,0,0:0:0:0:
256,192,9390,1,0,0:0:0:0:
256,192,9690,1,12,0:0:0:0:
256,192,9915,1,0,0:0:0:0:
256,192,9990,1,12,0:0:0:0:
256,192,10140,1,12,0:0:0:0:
256,192,10290,1,12,0:0:0:0:
256,192,10590,1,12,0:0:0:0:
256,192,10740,1,0,0:0:0:0:
256,192,10890,1,12,0:0:0:0:
256,192,11040,1,12,0:0:0:0:
256,192,11190,1,12,0:0:0:0:
256,192,11490,1,4,0:0:0:0:
256,192,11790,1,8,0:0:0:0:
256,192,11865,1,8,0:0:0:0:
256,192,11940,1,0,0:0:0:0:
256,192,12015,1,0,0:0:0:0:
256,192,12090,1,8,0:0:0:0:
256,192,12315,1,8,0:0:0:0:
256,192,12390,1,0,0:0:0:0:
256,192,12540,1,8,0:0:0:0:
256,192,12690,1,8,0:0:0:0:
256,192,12840,1,0,0:0:0:0:
256,192,12990,1,8,0:0:0:0:
256,192,13140,1,0,0:0:0:0:
256,192,13215,1,0,0:0:0:0:
256,192,13290,1,8,0:0:0:0:
256,192,13515,1,8,0:0:0:0:
256,192,13590,1,0,0:0:0:0:
256,192,13740,1,8,0:0:0:0:
256,192,13890,1,0,0:0:0:0:
256,192,14040,1,8,0:0:0:0:
256,192,14190,1,8,0:0:0:0:
256,192,14265,1,8,0:0:0:0:
256,192,14340,1,0,0:0:0:0:
256,192,14415,1,0,0:0:0:0:
256,192,14490,1,8,0:0:0:0:
256,192,14715,1,8,0:0:0:0:
256,192,14790,1,0,0:0:0:0:
256,192,14940,1,8,0:0:0:0:
256,192,15090,1,8,0:0:0:0:
256,192,15240,1,0,0:0:0:0:
256,192,15390,1,8,0:0:0:0:
256,192,15540,1,0,0:0:0:0:
256,192,15690,1,8,0:0:0:0:
256,192,15840,1,8,0:0:0:0:
256,192,15915,1,0,0:0:0:0:
256,192,15990,1,8,0:0:0:0:
256,192,16140,1,0,0:0:0:0:
256,192,16215,1,0,0:0:0:0:
256,192,16290,1,8,0:0:0:0:
256,192,16440,1,0,0:0:0:0:
256,192,16590,1,8,0:0:0:0:
256,192,16665,1,8,0:0:0:0:
256,192,16740,1,0,0:0:0:0:
256,192,16815,1,0,0:0:0:0:
256,192,16890,1,8,0:0:0:0:
256,192,17115,1,8,0:0:0:0:
256,192,17190,1,0,0:0:0:0:
256,192,17340,1,8,0:0:0:0:
256,192,17490,1,8,0:0:0:0:
256,192,17640,1,0,0:0:0:0:
256,192,17790,1,8,0:0:0:0:
256,192,17865,1,0,0:0:0:0:
256,192,17940,1,8,0:0:0:0:
256,192,18015,1,0,0:0:0:0:
256,192,18090,1,8,0:0:0:0:
256,192,18315,1,8,0:0:0:0:
256,192,18390,1,0,0:0:0:0:
256,192,18540,1,8,0:0:0:0:
256,192,18690,1,8,0:0:0:0:
256,192,18840,1,0,0:0:0:0:
256,192,18990,1,8,0:0:0:0:
256,192,19065,1,8,0:0:0:0:
256,192,19140,1,0,0:0:0:0:
256,192,19215,1,0,0:0:0:0:
256,192,19290,1,8,0:0:0:0:
256,192,19515,1,8,0:0:0:0:
256,192,19590,1,0,0:0:0:0:
256,192,19740,1,8,0:0:0:0:
256,192,19890,1,8,0:0:0:0:
256,192,20040,1,0,0:0:0:0:
256,192,20190,1,8,0:0:0:0:
256,192,20340,1,0,0:0:0:0:
256,192,20490,1,8,0:0:0:0:
256,192,20640,1,8,0:0:0:0:
256,192,20790,1,0,0:0:0:0:
256,192,20940,1,0,0:0:0:0:
256,192,21090,1,8,0:0:0:0:
256,192,21240,1,0,0:0:0:0:
256,192,21315,12,0,21540,0:0:0:0:
256,192,21690,5,8,0:0:0:0:
256,192,21840,1,8,0:0:0:0:
256,192,21990,1,0,0:0:0:0:
256,192,22140,1,0,0:0:0:0:
256,192,22290,1,8,0:0:0:0:
256,192,22440,1,0,0:0:0:0:
256,192,22515,1,0,0:0:0:0:
256,192,22590,1,8,0:0:0:0:
256,192,22665,12,0,22890,0:0:0:0:
256,192,23040,5,8,0:0:0:0:
256,192,23190,1,8,0:0:0:0:
256,192,23340,1,0,0:0:0:0:
256,192,23490,1,8,0:0:0:0:
256,192,23565,1,8,0:0:0:0:
256,192,23640,1,0,0:0:0:0:
256,192,23715,1,0,0:0:0:0:
256,192,23790,12,0,23940,0:0:0:0:
256,192,24090,5,8,0:0:0:0:
256,192,24240,1,0,0:0:0:0:
256,192,24390,1,8,0:0:0:0:
256,192,24540,1,8,0:0:0:0:
256,192,24690,1,0,0:0:0:0:
256,192,24840,1,8,0:0:0:0:
256,192,24915,1,8,0:0:0:0:
256,192,24990,1,0,0:0:0:0:
256,192,25065,12,0,25290,0:0:0:0:
256,192,25440,5,0,0:0:0:0:
256,192,25590,1,8,0:0:0:0:
256,192,25740,1,0,0:0:0:0:
256,192,25890,1,0,0:0:0:0:
256,192,25965,1,8,0:0:0:0:
256,192,26040,1,0,0:0:0:0:
256,192,26190,1,8,0:0:0:0:
256,192,26490,5,0,0:0:0:0:
256,192,26565,1,0,0:0:0:0:
256,192,26640,1,8,0:0:0:0:
256,192,26715,1,8,0:0:0:0:
256,192,26790,1,0,0:0:0:0:
256,192,26865,1,0,0:0:0:0:
256,192,26940,1,8,0:0:0:0:
256,192,27015,1,8,0:0:0:0:
256,192,27090,1,0,0:0:0:0:
256,192,27165,1,8,0:0:0:0:
256,192,27240,1,8,0:0:0:0:
256,192,27315,1,0,0:0:0:0:
256,192,27390,1,8,0:0:0:0:
256,192,27465,1,0,0:0:0:0:
256,192,27540,1,8,0:0:0:0:
256,192,27615,1,8,0:0:0:0:
256,192,27690,1,0,0:0:0:0:
256,192,27915,1,8,0:0:0:0:
256,192,28140,1,0,0:0:0:0:
256,192,28290,1,8,0:0:0:0:
256,192,28440,1,8,0:0:0:0:
256,192,28515,1,0,0:0:0:0:
256,192,28590,1,8,0:0:0:0:
256,192,28740,1,0,0:0:0:0:
256,192,28890,1,8,0:0:0:0:
256,192,29115,1,8,0:0:0:0:
256,192,29340,1,8,0:0:0:0:
256,192,29490,1,0,0:0:0:0:
256,192,29640,1,8,0:0:0:0:
256,192,29715,1,8,0:0:0:0:
256,192,29790,1,0,0:0:0:0:
256,192,29940,1,8,0:0:0:0:
256,192,30090,1,0,0:0:0:0:
256,192,30315,1,8,0:0:0:0:
256,192,30540,1,8,0:0:0:0:
256,192,30690,1,0,0:0:0:0:
256,192,30840,1,8,0:0:0:0:
256,192,30915,1,0,0:0:0:0:
256,192,30990,1,8,0:0:0:0:
256,192,31140,1,0,0:0:0:0:
256,192,31290,1,8,0:0:0:0:
256,192,31440,1,0,0:0:0:0:
256,192,31590,1,8,0:0:0:0:
256,192,31740,1,0,0:0:0:0:
256,192,31890,1,8,0:0:0:0:
256,192,31965,1,8,0:0:0:0:
256,192,32040,1,0,0:0:0:0:
256,192,32190,1,8,0:0:0:0:
256,192,32340,1,0,0:0:0:0:
256,192,32490,1,8,0:0:0:0:
256,192,32715,1,8,0:0:0:0:
256,192,32940,1,0,0:0:0:0:
256,192,33090,1,8,0:0:0:0:
256,192,33240,1,0,0:0:0:0:
256,192,33315,1,0,0:0:0:0:
256,192,33390,1,8,0:0:0:0:
256,192,33540,1,0,0:0:0:0:
256,192,33690,1,8,0:0:0:0:
256,192,33840,1,0,0:0:0:0:
256,192,33915,1,0,0:0:0:0:
256,192,33990,1,8,0:0:0:0:
256,192,34065,1,8,0:0:0:0:
256,192,34140,1,0,0:0:0:0:
256,192,34215,1,0,0:0:0:0:
256,192,34290,1,8,0:0:0:0:
256,192,34440,1,0,0:0:0:0:
256,192,34590,1,8,0:0:0:0:
256,192,34740,1,0,0:0:0:0:
256,192,34890,1,12,0:0:0:0:
256,192,35115,1,0,0:0:0:0:
256,192,35190,1,12,0:0:0:0:
256,192,35340,1,12,0:0:0:0:
256,192,35490,1,12,0:0:0:0:
256,192,35790,1,0,0:0:0:0:
256,192,35940,1,0,0:0:0:0:
256,192,36090,1,12,0:0:0:0:
256,192,36240,1,12,0:0:0:0:
256,192,36390,1,12,0:0:0:0:
256,192,36540,1,12,0:0:0:0:
256,192,36690,1,4,0:0:0:0:
256,192,36990,1,8,0:0:0:0:
256,192,37065,1,8,0:0:0:0:
256,192,37140,1,8,0:0:0:0:
256,192,37215,1,8,0:0:0:0:
256,192,37290,1,0,0:0:0:0:
256,192,37440,1,0,0:0:0:0:
256,192,37590,1,8,0:0:0:0:
256,192,37740,1,0,0:0:0:0:
256,192,37890,1,0,0:0:0:0:
256,192,38040,1,0,0:0:0:0:
256,192,38190,1,8,0:0:0:0:
256,192,38340,1,0,0:0:0:0:
256,192,38490,1,8,0:0:0:0:
256,192,38640,1,0,0:0:0:0:
256,192,38715,1,0,0:0:0:0:
256,192,38790,1,8,0:0:0:0:
256,192,38940,1,0,0:0:0:0:
256,192,39015,1,8,0:0:0:0:
256,192,39090,1,0,0:0:0:0:
256,192,39165,1,8,0:0:0:0:
256,192,39240,1,0,0:0:0:0:
256,192,39390,1,8,0:0:0:0:
256,192,39465,12,8,39540,0:0:0:0:
256,192,39690,5,12,0:0:0:0:
256,192,39840,1,0,0:0:0:0:
256,192,39990,1,8,0:0:0:0:
256,192,40140,1,0,0:0:0:0:
256,192,40215,1,8,0:0:0:0:
256,192,40290,1,0,0:0:0:0:
256,192,40365,1,0,0:0:0:0:
256,192,40440,1,0,0:0:0:0:
256,192,40590,1,8,0:0:0:0:
256,192,40740,1,0,0:0:0:0:
256,192,40890,1,0,0:0:0:0:
256,192,40965,1,8,0:0:0:0:
256,192,41115,1,8,0:0:0:0:
256,192,41190,1,0,0:0:0:0:
256,192,41340,1,0,0:0:0:0:
256,192,41490,1,8,0:0:0:0:
256,192,41640,1,8,0:0:0:0:
256,192,41715,1,8,0:0:0:0:
256,192,41790,1,8,0:0:0:0:
256,192,41865,1,0,0:0:0:0:
256,192,41940,1,0,0:0:0:0:
256,192,42015,1,0,0:0:0:0:
256,192,42090,1,8,0:0:0:0:
256,192,42240,1,0,0:0:0:0:
256,192,42390,1,8,0:0:0:0:
256,192,42540,1,0,0:0:0:0:
256,192,42690,1,0,0:0:0:0:
256,192,42840,1,0,0:0:0:0:
256,192,42990,1,8,0:0:0:0:
256,192,43140,1,0,0:0:0:0:
256,192,43215,1,0,0:0:0:0:
256,192,43290,1,8,0:0:0:0:
256,192,43590,1,8,0:0:0:0:
256,192,43890,1,0,0:0:0:0:
256,192,44190,1,8,0:0:0:0:
256,192,44490,1,8,0:0:0:0:
256,192,44565,1,0,0:0:0:0:
256,192,44640,1,0,0:0:0:0:
256,192,44715,1,0,0:0:0:0:
256,192,44790,1,8,0:0:0:0:
256,192,44865,1,0,0:0:0:0:
256,192,44940,1,0,0:0:0:0:
256,192,45015,1,0,0:0:0:0:
256,192,45090,1,8,0:0:0:0:
256,192,45165,1,8,0:0:0:0:
256,192,45240,1,0,0:0:0:0:
256,192,45315,1,0,0:0:0:0:
256,192,45390,1,8,0:0:0:0:
256,192,45465,1,0,0:0:0:0:
256,192,45540,1,0,0:0:0:0:
256,192,45615,1,0,0:0:0:0:
256,192,45690,1,8,0:0:0:0:
256,192,45840,1,8,0:0:0:0:
256,192,45915,1,8,0:0:0:0:
256,192,45990,1,8,0:0:0:0:
256,192,46140,1,0,0:0:0:0:
256,192,46215,1,8,0:0:0:0:
256,192,46365,1,8,0:0:0:0:
256,192,46515,1,0,0:0:0:0:
256,192,46590,1,8,0:0:0:0:
256,192,46740,1,8,0:0:0:0:
256,192,46890,1,4,0:0:0:0:
256,192,47490,1,8,0:0:0:0:
256,192,47715,1,8,0:0:0:0:
256,192,47940,1,8,0:0:0:0:
256,192,48090,1,0,0:0:0:0:
256,192,48690,1,0,0:0:0:0:
256,192,48915,1,8,0:0:0:0:
256,192,49140,1,0,0:0:0:0:
256,192,49290,1,8,0:0:0:0:
256,192,49590,1,0,0:0:0:0:
256,192,49890,1,8,0:0:0:0:
256,192,50190,1,0,0:0:0:0:
256,192,50490,1,0,0:0:0:0:
256,192,51690,1,12,0:0:0:0:
256,192,52290,1,8,0:0:0:0:
256,192,52515,1,8,0:0:0:0:
256,192,52740,1,8,0:0:0:0:
256,192,52890,1,0,0:0:0:0:
256,192,53490,1,0,0:0:0:0:
256,192,53715,1,8,0:0:0:0:
256,192,53940,1,0,0:0:0:0:
256,192,54090,1,8,0:0:0:0:
256,192,54390,1,0,0:0:0:0:
256,192,54690,1,8,0:0:0:0:
256,192,54990,1,8,0:0:0:0:
256,192,55290,1,4,0:0:0:0:
256,192,55590,1,12,0:0:0:0:
256,192,55740,1,12,0:0:0:0:
256,192,55890,1,4,0:0:0:0:
256,192,56190,1,12,0:0:0:0:
256,192,56490,1,0,0:0:0:0:
256,192,56640,1,0,0:0:0:0:
256,192,56715,1,0,0:0:0:0:
256,192,56790,1,8,0:0:0:0:
256,192,56940,1,0,0:0:0:0:
256,192,57015,1,0,0:0:0:0:
256,192,57090,1,8,0:0:0:0:
256,192,57165,1,0,0:0:0:0:
256,192,57240,1,0,0:0:0:0:
256,192,57390,1,8,0:0:0:0:
256,192,57690,1,0,0:0:0:0:
256,192,57840,1,0,0:0:0:0:
256,192,57890,1,0,0:0:0:0:
256,192,57940,1,0,0:0:0:0:
256,192,57990,1,8,0:0:0:0:
256,192,58140,1,0,0:0:0:0:
256,192,58215,1,8,0:0:0:0:
256,192,58290,1,0,0:0:0:0:
256,192,58365,1,8,0:0:0:0:
256,192,58440,1,0,0:0:0:0:
256,192,58590,1,8,0:0:0:0:
256,192,58640,1,0,0:0:0:0:
256,192,58690,1,0,0:0:0:0:
256,192,58740,1,8,0:0:0:0:
256,192,58890,1,0,0:0:0:0:
256,192,59040,1,0,0:0:0:0:
256,192,59115,1,0,0:0:0:0:
256,192,59190,1,8,0:0:0:0:
256,192,59240,1,8,0:0:0:0:
256,192,59340,1,0,0:0:0:0:
256,192,59415,1,0,0:0:0:0:
256,192,59490,1,8,0:0:0:0:
256,192,59565,1,0,0:0:0:0:
256,192,59715,1,0,0:0:0:0:
256,192,59790,1,8,0:0:0:0:
256,192,59840,1,8,0:0:0:0:
256,192,59890,1,0,0:0:0:0:
256,192,59940,1,8,0:0:0:0:
256,192,60090,1,0,0:0:0:0:
256,192,60240,1,0,0:0:0:0:
256,192,60390,1,8,0:0:0:0:
256,192,60540,1,0,0:0:0:0:
256,192,60615,1,8,0:0:0:0:
256,192,60690,1,0,0:0:0:0:
256,192,60765,1,8,0:0:0:0:
256,192,60840,1,0,0:0:0:0:
256,192,60990,1,8,0:0:0:0:
256,192,61065,1,8,0:0:0:0:
256,192,61140,1,0,0:0:0:0:
256,192,61215,1,0,0:0:0:0:
256,192,61290,1,8,0:0:0:0:
256,192,61440,1,8,0:0:0:0:
256,192,61490,1,8,0:0:0:0:
256,192,61540,1,8,0:0:0:0:
256,192,61590,1,0,0:0:0:0:
256,192,61740,1,8,0:0:0:0:
256,192,61890,1,0,0:0:0:0:
256,192,62040,1,8,0:0:0:0:
256,192,62190,1,8,0:0:0:0:
256,192,62265,1,8,0:0:0:0:
256,192,62340,1,0,0:0:0:0:
256,192,62415,1,0,0:0:0:0:
256,192,62490,1,12,0:0:0:0:
256,192,62640,1,0,0:0:0:0:
256,192,62715,1,0,0:0:0:0:
256,192,62790,1,8,0:0:0:0:
256,192,62940,1,0,0:0:0:0:
256,192,63015,1,8,0:0:0:0:
256,192,63090,1,0,0:0:0:0:
256,192,63165,1,8,0:0:0:0:
256,192,63240,1,0,0:0:0:0:
256,192,63390,1,8,0:0:0:0:
256,192,63440,1,0,0:0:0:0:
256,192,63490,1,0,0:0:0:0:
256,192,63540,1,8,0:0:0:0:
256,192,63690,1,0,0:0:0:0:
256,192,63840,1,0,0:0:0:0:
256,192,63915,1,0,0:0:0:0:
256,192,63990,1,8,0:0:0:0:
256,192,64040,1,8,0:0:0:0:
256,192,64140,1,0,0:0:0:0:
256,192,64215,1,0,0:0:0:0:
256,192,64290,1,8,0:0:0:0:
256,192,64365,1,0,0:0:0:0:
256,192,64515,1,0,0:0:0:0:
256,192,64590,1,8,0:0:0:0:
256,192,64640,1,8,0:0:0:0:
256,192,64690,1,0,0:0:0:0:
256,192,64740,1,8,0:0:0:0:
256,192,64890,1,0,0:0:0:0:
256,192,65040,1,0,0:0:0:0:
256,192,65190,1,8,0:0:0:0:
256,192,65340,1,0,0:0:0:0:
256,192,65415,1,8,0:0:0:0:
256,192,65490,1,0,0:0:0:0:
256,192,65565,1,8,0:0:0:0:
256,192,65640,1,0,0:0:0:0:
256,192,65790,1,8,0:0:0:0:
256,192,65865,1,8,0:0:0:0:
256,192,65940,1,0,0:0:0:0:
256,192,66015,1,0,0:0:0:0:
256,192,66090,1,8,0:0:0:0:
256,192,66240,1,8,0:0:0:0:
256,192,66290,1,8,0:0:0:0:
256,192,66340,1,8,0:0:0:0:
256,192,66390,1,0,0:0:0:0:
256,192,66540,1,8,0:0:0:0:
256,192,66690,1,0,0:0:0:0:
256,192,66840,1,8,0:0:0:0:
256,192,66990,1,8,0:0:0:0:
256,192,67065,1,8,0:0:0:0:
256,192,67140,1,0,0:0:0:0:
256,192,67215,1,0,0:0:0:0:
256,192,67290,1,12,0:0:0:0:
256,192,67440,1,0,0:0:0:0:
256,192,67515,1,0,0:0:0:0:
256,192,67590,1,8,0:0:0:0:
256,192,67665,1,0,0:0:0:0:
256,192,67740,1,0,0:0:0:0:
256,192,67815,1,8,0:0:0:0:
256,192,67890,1,0,0:0:0:0:
256,192,67965,1,8,0:0:0:0:
256,192,68040,1,0,0:0:0:0:
256,192,68190,1,8,0:0:0:0:
256,192,68240,1,0,0:0:0:0:
256,192,68290,1,0,0:0:0:0:
256,192,68340,1,8,0:0:0:0:
256,192,68490,1,0,0:0:0:0:
256,192,68640,1,0,0:0:0:0:
256,192,68715,1,0,0:0:0:0:
256,192,68790,1,8,0:0:0:0:
256,192,68840,1,8,0:0:0:0:
256,192,68940,1,0,0:0:0:0:
256,192,69015,1,0,0:0:0:0:
256,192,69090,1,8,0:0:0:0:
256,192,69165,1,0,0:0:0:0:
256,192,69315,1,0,0:0:0:0:
256,192,69390,1,8,0:0:0:0:
256,192,69440,1,8,0:0:0:0:
256,192,69490,1,0,0:0:0:0:
256,192,69540,1,8,0:0:0:0:
256,192,69690,1,0,0:0:0:0:
256,192,69840,1,0,0:0:0:0:
256,192,69990,1,8,0:0:0:0:
256,192,70140,1,0,0:0:0:0:
256,192,70215,1,8,0:0:0:0:
256,192,70290,1,0,0:0:0:0:
256,192,70365,1,8,0:0:0:0:
256,192,70440,1,0,0:0:0:0:
256,192,70590,1,8,0:0:0:0:
256,192,70665,1,8,0:0:0:0:
256,192,70740,1,0,0:0:0:0:
256,192,70815,1,0,0:0:0:0:
256,192,70890,1,8,0:0:0:0:
256,192,71040,1,8,0:0:0:0:
256,192,71090,1,8,0:0:0:0:
256,192,71140,1,8,0:0:0:0:
256,192,71190,1,0,0:0:0:0:
256,192,71340,1,8,0:0:0:0:
256,192,71490,1,0,0:0:0:0:
256,192,71640,1,8,0:0:0:0:
256,192,71790,1,8,0:0:0:0:
256,192,71865,1,8,0:0:0:0:
256,192,71940,1,0,0:0:0:0:
256,192,72015,1,0,0:0:0:0:
256,192,72090,1,12,0:0:0:0:
256,192,72240,1,0,0:0:0:0:
256,192,72315,1,0,0:0:0:0:
256,192,72390,1,8,0:0:0:0:
256,192,72465,1,0,0:0:0:0:
256,192,72540,1,0,0:0:0:0:
256,192,72615,1,8,0:0:0:0:
256,192,72690,1,0,0:0:0:0:
256,192,72765,1,8,0:0:0:0:
256,192,72840,1,0,0:0:0:0:
256,192,72915,1,0,0:0:0:0:
256,192,72990,1,8,0:0:0:0:
256,192,73040,1,0,0:0:0:0:
256,192,73090,1,0,0:0:0:0:
256,192,73140,1,8,0:0:0:0:
256,192,73290,1,0,0:0:0:0:
256,192,73440,1,0,0:0:0:0:
256,192,73515,1,0,0:0:0:0:
256,192,73590,1,8,0:0:0:0:
256,192,73640,1,8,0:0:0:0:
256,192,73740,1,0,0:0:0:0:
256,192,73815,1,0,0:0:0:0:
256,192,73890,1,8,0:0:0:0:
256,192,73965,1,0,0:0:0:0:
256,192,74115,1,0,0:0:0:0:
256,192,74190,1,8,0:0:0:0:
256,192,74240,1,8,0:0:0:0:
256,192,74290,1,0,0:0:0:0:
256,192,74340,1,8,0:0:0:0:
256,192,74490,1,0,0:0:0:0:
256,192,74640,1,0,0:0:0:0:
256,192,74790,1,8,0:0:0:0:
256,192,74940,1,0,0:0:0:0:
256,192,75090,1,8,0:0:0:0:
256,192,75240,1,8,0:0:0:0:
256,192,75315,1,8,0:0:0:0:
256,192,75390,1,0,0:0:0:0:
256,192,75465,1,0,0:0:0:0:
256,192,75540,1,8,0:0:0:0:
256,192,75840,1,8,0:0:0:0:
256,192,75890,1,8,0:0:0:0:
256,192,76140,1,0,0:0:0:0:
256,192,76190,1,0,0:0:0:0:
256,192,76290,1,8,0:0:0:0:
256,192,76440,1,0,0:0:0:0:
256,192,76490,1,0,0:0:0:0:
256,192,76540,1,0,0:0:0:0:
256,192,76590,1,8,0:0:0:0:
256,192,76740,1,0,0:0:0:0:
256,192,76890,1,8,0:0:0:0:
256,192,77190,1,8,0:0:0:0:
256,192,77490,1,0,0:0:0:0:
256,192,77790,1,8,0:0:0:0:
256,192,77940,1,0,0:0:0:0:
256,192,78015,1,0,0:0:0:0:
256,192,78090,1,8,0:0:0:0:
256,192,78240,1,0,0:0:0:0:
256,192,78390,1,8,0:0:0:0:
256,192,78540,1,0,0:0:0:0:
256,192,78690,1,8,0:0:0:0:
256,192,78990,1,0,0:0:0:0:
256,192,79290,1,8,0:0:0:0:
256,192,79440,1,8,0:0:0:0:
256,192,79515,1,8,0:0:0:0:
256,192,79590,1,0,0:0:0:0:
256,192,79740,1,0,0:0:0:0:
256,192,79890,1,8,0:0:0:0:
256,192,80040,1,0,0:0:0:0:
256,192,80115,1,0,0:0:0:0:
256,192,80190,1,8,0:0:0:0:
256,192,80340,1,0,0:0:0:0:
256,192,80490,1,8,0:0:0:0:
256,192,80640,1,0,0:0:0:0:
256,192,80790,1,8,0:0:0:0:
256,192,81090,1,0,0:0:0:0:
256,192,81240,1,8,0:0:0:0:
256,192,81390,1,8,0:0:0:0:
256,192,81540,1,0,0:0:0:0:
256,192,81590,1,0,0:0:0:0:
256,192,81640,1,0,0:0:0:0:
256,192,81690,1,8,0:0:0:0:
256,192,81840,1,0,0:0:0:0:
256,192,81990,1,8,0:0:0:0:
256,192,82140,1,0,0:0:0:0:
256,192,82215,1,0,0:0:0:0:
256,192,82290,1,8,0:0:0:0:
256,192,82440,1,0,0:0:0:0:
256,192,82590,1,8,0:0:0:0:
256,192,82740,1,8,0:0:0:0:
256,192,82890,1,0,0:0:0:0:
256,192,83040,1,0,0:0:0:0:
256,192,83190,1,8,0:0:0:0:
256,192,83340,1,0,0:0:0:0:
256,192,83490,1,8,0:0:0:0:
256,192,83565,1,0,0:0:0:0:
256,192,83640,1,8,0:0:0:0:
256,192,83715,1,0,0:0:0:0:
256,192,83790,1,8,0:0:0:0:
256,192,83940,1,0,0:0:0:0:
256,192,84090,1,8,0:0:0:0:
256,192,84240,1,0,0:0:0:0:
256,192,84315,1,0,0:0:0:0:
256,192,84390,1,8,0:0:0:0:
256,192,84540,1,0,0:0:0:0:
256,192,84615,1,0,0:0:0:0:
256,192,84690,1,8,0:0:0:0:
256,192,84765,1,0,0:0:0:0:
256,192,84840,1,8,0:0:0:0:
256,192,84915,1,0,0:0:0:0:
256,192,84990,1,8,0:0:0:0:
256,192,85140,1,0,0:0:0:0:
256,192,85290,1,8,0:0:0:0:
256,192,85440,1,0,0:0:0:0:
256,192,85515,1,0,0:0:0:0:
256,192,85590,1,8,0:0:0:0:
256,192,85740,1,0,0:0:0:0:
256,192,85815,1,0,0:0:0:0:
256,192,85890,1,8,0:0:0:0:
256,192,85965,1,8,0:0:0:0:
256,192,86040,1,0,0:0:0:0:
256,192,86115,1,0,0:0:0:0:
256,192,86190,1,8,0:0:0:0:
256,192,86265,1,0,0:0:0:0:
256,192,86340,1,8,0:0:0:0:
256,192,86415,1,0,0:0:0:0:
256,192,86490,1,8,0:0:0:0:
256,192,86565,12,0,86640,0:0:0:0:
256,192,86790,5,8,0:0:0:0:
256,192,86865,12,0,87015,0:0:0:0:
256,192,87090,5,8,0:0:0:0:
256,192,87165,1,8,0:0:0:0:
256,192,87240,1,0,0:0:0:0:
256,192,87315,1,0,0:0:0:0:
256,192,87390,1,8,0:0:0:0:
256,192,87465,12,0,87615,0:0:0:0:
256,192,87690,5,12,0:0:0:0:
256,192,87840,1,0,0:0:0:0:
256,192,87915,1,0,0:0:0:0:
256,192,87990,1,12,0:0:0:0:
256,192,88140,1,0,0:0:0:0:
256,192,88215,1,12,0:0:0:0:
256,192,88365,1,8,0:0:0:0:
256,192,88515,1,0,0:0:0:0:
256,192,88590,1,8,0:0:0:0:
256,192,88740,1,0,0:0:0:0:
256,192,88890,1,8,0:0:0:0:
256,192,89040,12,0,93390,0:0:0:0:
256,192,93690,5,0,0:0:0:0:
256,192,93765,1,0,0:0:0:0:
256,192,93840,1,0,0:0:0:0:
256,192,93915,1,0,0:0:0:0:
256,192,93990,1,0,0:0:0:0:
256,192,94065,1,0,0:0:0:0:
256,192,94140,1,0,0:0:0:0:
256,192,94215,1,0,0:0:0:0:
256,192,94290,1,0,0:0:0:0:
256,192,94365,1,0,0:0:0:0:
256,192,94440,1,0,0:0:0:0:
256,192,94515,1,0,0:0:0:0:
256,192,94590,1,8,0:0:0:0:
256,192,94890,1,0,0:0:0:0:
256,192,94965,1,0,0:0:0:0:
256,192,95040,1,0,0:0:0:0:
256,192,95115,1,0,0:0:0:0:
256,192,95190,1,0,0:0:0:0:
256,192,95265,1,0,0:0:0:0:
256,192,95340,1,0,0:0:0:0:
256,192,95415,1,0,0:0:0:0:
256,192,95490,1,0,0:0:0:0:
256,192,95565,1,0,0:0:0:0:
256,192,95640,1,0,0:0:0:0:
256,192,95715,1,0,0:0:0:0:
256,192,95790,1,8,0:0:0:0:
256,192,96090,1,0,0:0:0:0:
256,192,96165,1,0,0:0:0:0:
256,192,96240,1,0,0:0:0:0:
256,192,96315,1,0,0:0:0:0:
256,192,96390,1,8,0:0:0:0:
256,192,96690,1,0,0:0:0:0:
256,192,96765,1,0,0:0:0:0:
256,192,96840,1,0,0:0:0:0:
256,192,96915,1,0,0:0:0:0:
256,192,96990,1,8,0:0:0:0:
256,192,97290,1,4,0:0:0:0:
256,192,97590,1,8,0:0:0:0:
256,192,97740,1,8,0:0:0:0:
256,192,97890,1,0,0:0:0:0:
256,192,98190,1,0,0:0:0:0:
256,192,98490,1,12,0:0:0:0:
256,192,98790,1,8,0:0:0:0:
256,192,98865,1,8,0:0:0:0:
256,192,98940,1,0,0:0:0:0:
256,192,99015,1,0,0:0:0:0:
256,192,99090,1,8,0:0:0:0:
256,192,99165,1,8,0:0:0:0:
256,192,99240,1,0,0:0:0:0:
256,192,99315,1,0,0:0:0:0:
256,192,99390,1,8,0:0:0:0:
256,192,99465,1,8,0:0:0:0:
256,192,99540,1,0,0:0:0:0:
256,192,99615,1,0,0:0:0:0:
256,192,99690,1,8,0:0:0:0:
256,192,99840,1,0,0:0:0:0:
256,192,99915,1,0,0:0:0:0:
256,192,99990,1,8,0:0:0:0:
256,192,100140,1,0,0:0:0:0:
256,192,100215,1,0,0:0:0:0:
256,192,100290,1,8,0:0:0:0:
256,192,100365,1,8,0:0:0:0:
256,192,100440,1,0,0:0:0:0:
256,192,100515,1,0,0:0:0:0:
256,192,100590,1,8,0:0:0:0:
256,192,100665,1,8,0:0:0:0:
256,192,100740,1,0,0:0:0:0:
256,192,100790,1,0,0:0:0:0:
256,192,100840,1,0,0:0:0:0:
256,192,100890,1,8,0:0:0:0:
256,192,100965,1,8,0:0:0:0:
256,192,101040,1,0,0:0:0:0:
256,192,101115,1,0,0:0:0:0:
256,192,101190,1,8,0:0:0:0:
256,192,101490,1,8,0:0:0:0:
32,32,101565,2,0,B|480:32|480:32|64:32|64:32,1,838.52116454181
256,192,102090,5,8,0:0:0:0:
256,192,102315,1,8,0:0:0:0:
256,192,102390,1,0,0:0:0:0:
256,192,102540,1,0,0:0:0:0:
256,192,102615,1,0,0:0:0:0:
256,192,102690,1,8,0:0:0:0:
256,192,102840,1,0,0:0:0:0:
256,192,102990,1,8,0:0:0:0:
256,192,103140,1,0,0:0:0:0:
256,192,103290,1,8,0:0:0:0:
256,192,103515,1,8,0:0:0:0:
256,192,103740,1,8,0:0:0:0:
256,192,103790,1,0,0:0:0:0:
256,192,103840,1,0,0:0:0:0:
256,192,103890,1,8,0:0:0:0:
256,192,104040,1,8,0:0:0:0:
256,192,104190,1,0,0:0:0:0:
256,192,104340,1,8,0:0:0:0:
256,192,104490,1,8,0:0:0:0:
256,192,104715,1,8,0:0:0:0:
256,192,104940,1,0,0:0:0:0:
256,192,105015,1,0,0:0:0:0:
256,192,105090,1,8,0:0:0:0:
256,192,105240,1,8,0:0:0:0:
256,192,105390,1,0,0:0:0:0:
256,192,105540,1,0,0:0:0:0:
256,192,105690,1,8,0:0:0:0:
256,192,105915,1,0,0:0:0:0:
256,192,105990,1,8,0:0:0:0:
256,192,106140,1,0,0:0:0:0:
256,192,106190,1,0,0:0:0:0:
256,192,106240,1,0,0:0:0:0:
256,192,106290,1,8,0:0:0:0:
256,192,106440,1,0,0:0:0:0:
256,192,106515,1,0,0:0:0:0:
256,192,106590,1,8,0:0:0:0:
256,192,106890,1,8,0:0:0:0:
256,192,107115,1,8,0:0:0:0:
256,192,107190,1,0,0:0:0:0:
256,192,107340,1,0,0:0:0:0:
256,192,107415,1,0,0:0:0:0:
256,192,107490,1,8,0:0:0:0:
256,192,107640,1,0,0:0:0:0:
256,192,107790,1,8,0:0:0:0:
256,192,107940,1,0,0:0:0:0:
256,192,108090,1,8,0:0:0:0:
256,192,108315,1,8,0:0:0:0:
256,192,108540,1,8,0:0:0:0:
256,192,108590,1,0,0:0:0:0:
256,192,108640,1,0,0:0:0:0:
256,192,108690,1,8,0:0:0:0:
256,192,108840,1,8,0:0:0:0:
256,192,108990,1,0,0:0:0:0:
256,192,109140,1,8,0:0:0:0:
256,192,109290,1,8,0:0:0:0:
256,192,109515,1,8,0:0:0:0:
256,192,109740,1,0,0:0:0:0:
256,192,109815,1,0,0:0:0:0:
256,192,109890,1,8,0:0:0:0:
256,192,110040,1,8,0:0:0:0:
256,192,110190,1,0,0:0:0:0:
256,192,110340,1,0,0:0:0:0:
256,192,110490,1,8,0:0:0:0:
256,192,110565,1,8,0:0:0:0:
256,192,110640,1,0,0:0:0:0:
256,192,110790,1,8,0:0:0:0:
256,192,110940,1,0,0:0:0:0:
256,192,111015,1,12,0:0:0:0:
256,192,111165,1,12,0:0:0:0:
256,192,111315,1,0,0:0:0:0:
256,192,111390,1,12,0:0:0:0:
256,192,111540,1,0,0:0:0:0:
256,192,111690,1,8,0:0:0:0:
256,192,111915,1,8,0:0:0:0:
256,192,111990,1,0,0:0:0:0:
256,192,112140,1,0,0:0:0:0:
256,192,112215,1,0,0:0:0:0:
256,192,112290,1,8,0:0:0:0:
256,192,112440,1,0,0:0:0:0:
256,192,112590,1,8,0:0:0:0:
256,192,112740,1,0,0:0:0:0:
256,192,112890,1,8,0:0:0:0:
256,192,113115,1,8,0:0:0:0:
256,192,113340,1,8,0:0:0:0:
256,192,113390,1,0,0:0:0:0:
256,192,113440,1,0,0:0:0:0:
256,192,113490,1,8,0:0:0:0:
256,192,113640,1,8,0:0:0:0:
256,192,113790,1,0,0:0:0:0:
256,192,113940,1,8,0:0:0:0:
256,192,114090,1,8,0:0:0:0:
256,192,114315,1,8,0:0:0:0:
256,192,114540,1,0,0:0:0:0:
256,192,114615,1,0,0:0:0:0:
256,192,114690,1,8,0:0:0:0:
256,192,114840,1,8,0:0:0:0:
256,192,114990,1,0,0:0:0:0:
256,192,115140,1,0,0:0:0:0:
256,192,115290,1,8,0:0:0:0:
256,192,115515,1,0,0:0:0:0:
256,192,115590,1,8,0:0:0:0:
256,192,115740,1,0,0:0:0:0:
256,192,115790,1,0,0:0:0:0:
256,192,115840,1,0,0:0:0:0:
256,192,115890,1,8,0:0:0:0:
256,192,116040,1,0,0:0:0:0:
256,192,116115,1,0,0:0:0:0:
256,192,116190,1,8,0:0:0:0:
256,192,116490,1,8,0:0:0:0:
256,192,116715,1,8,0:0:0:0:
256,192,116940,1,0,0:0:0:0:
256,192,117015,1,0,0:0:0:0:
256,192,117090,1,8,0:0:0:0:
256,192,117240,1,0,0:0:0:0:
256,192,117390,1,8,0:0:0:0:
256,192,117540,1,0,0:0:0:0:
256,192,117690,1,8,0:0:0:0:
256,192,117915,1,8,0:0:0:0:
256,192,118140,1,8,0:0:0:0:
256,192,118190,1,0,0:0:0:0:
256,192,118240,1,0,0:0:0:0:
256,192,118290,1,8,0:0:0:0:
256,192,118440,1,8,0:0:0:0:
256,192,118590,1,0,0:0:0:0:
256,192,118740,1,8,0:0:0:0:
256,192,118890,1,8,0:0:0:0:
256,192,119115,1,8,0:0:0:0:
256,192,119340,1,0,0:0:0:0:
256,192,119415,1,0,0:0:0:0:
256,192,119490,1,8,0:0:0:0:
256,192,119640,1,8,0:0:0:0:
256,192,119790,1,0,0:0:0:0:
256,192,119940,1,0,0:0:0:0:
256,192,120090,1,8,0:0:0:0:
256,192,120165,1,8,0:0:0:0:
256,192,120240,1,0,0:0:0:0:
256,192,120290,1,0,0:0:0:0:
256,192,120340,1,0,0:0:0:0:
256,192,120390,1,8,0:0:0:0:
256,192,120540,1,0,0:0:0:0:
256,192,120615,1,8,0:0:0:0:
256,192,120765,1,8,0:0:0:0:
256,192,120915,1,0,0:0:0:0:
256,192,120990,1,8,0:0:0:0:
256,192,121140,1,0,0:0:0:0:
256,192,121290,1,12,0:0:0:0:
256,192,121515,1,0,0:0:0:0:
256,192,121740,1,0,0:0:0:0:
256,192,121890,1,8,0:0:0:0:
256,192,122040,1,0,0:0:0:0:
256,192,122190,1,0,0:0:0:0:
256,192,122340,1,0,0:0:0:0:
256,192,122490,1,8,0:0:0:0:
256,192,122715,1,0,0:0:0:0:
256,192,122940,1,0,0:0:0:0:
256,192,123090,1,8,0:0:0:0:
256,192,123240,1,8,0:0:0:0:
256,192,123390,1,0,0:0:0:0:
256,192,123540,1,0,0:0:0:0:
256,192,123690,1,8,0:0:0:0:
256,192,123915,1,0,0:0:0:0:
256,192,124140,1,0,0:0:0:0:
256,192,124290,1,8,0:0:0:0:
256,192,124440,1,0,0:0:0:0:
256,192,124590,1,0,0:0:0:0:
256,192,124740,1,0,0:0:0:0:
256,192,124890,1,8,0:0:0:0:
256,192,125115,1,0,0:0:0:0:
256,192,125190,1,8,0:0:0:0:
256,192,125415,1,0,0:0:0:0:
256,192,125490,1,8,0:0:0:0:
256,192,125790,1,0,0:0:0:0:
256,192,126090,1,8,0:0:0:0:
256,192,126315,1,0,0:0:0:0:
256,192,126540,1,0,0:0:0:0:
256,192,126690,1,8,0:0:0:0:
256,192,126840,1,0,0:0:0:0:
256,192,126990,1,0,0:0:0:0:
256,192,127140,1,0,0:0:0:0:
256,192,127290,1,8,0:0:0:0:
256,192,127515,1,0,0:0:0:0:
256,192,127740,1,8,0:0:0:0:
256,192,127890,1,8,0:0:0:0:
256,192,128040,1,0,0:0:0:0:
256,192,128190,1,0,0:0:0:0:
256,192,128340,1,8,0:0:0:0:
256,192,128490,1,8,0:0:0:0:
256,192,128565,1,0,0:0:0:0:
256,192,128640,1,0,0:0:0:0:
256,192,128715,1,0,0:0:0:0:
256,192,128790,1,8,0:0:0:0:
256,192,128865,1,8,0:0:0:0:
256,192,128940,1,0,0:0:0:0:
256,192,129015,1,0,0:0:0:0:
256,192,129090,1,8,0:0:0:0:
256,192,129165,1,8,0:0:0:0:
256,192,129240,1,0,0:0:0:0:
256,192,129315,1,0,0:0:0:0:
256,192,129390,1,8,0:0:0:0:
256,192,129465,1,0,0:0:0:0:
256,192,129540,1,8,0:0:0:0:
256,192,129615,1,8,0:0:0:0:
256,192,129690,1,8,0:0:0:0:
256,192,129765,1,0,0:0:0:0:
256,192,129840,1,0,0:0:0:0:
256,192,129915,1,0,0:0:0:0:
256,192,129990,1,8,0:0:0:0:
256,192,130065,1,8,0:0:0:0:
256,192,130140,1,0,0:0:0:0:
256,192,130215,1,0,0:0:0:0:
256,192,130290,1,8,0:0:0:0:
256,192,130365,1,8,0:0:0:0:
256,192,130440,1,0,0:0:0:0:
256,192,130515,1,0,0:0:0:0:
256,192,130590,1,8,0:0:0:0:
256,192,130665,1,0,0:0:0:0:
256,192,130740,1,0,0:0:0:0:
256,192,130815,1,0,0:0:0:0:
256,192,130890,1,12,0:0:0:0:
256,192,130965,2,0,B|0:192|0:192|0:0|0:0|512:0|512:0|512:352|512:352|0:352|0:352|0:256|0:256|448:256|448:256|448:32|448:32|32:32|32:32|32:128|32:128|32:64|32:64|416:64|416:64|416:128|416:128|64:128|64:128|64:192|64:192|416:192|480:192|480:192|480:288|480:288|32:288|32:288,15,4984.54247810965
256,192,134415,5,8,0:0:0:0:
