osu file format v14

[General]
AudioFilename: Arianrhod.mp3
AudioLeadIn: 0
PreviewTime: 90711
Countdown: 0
SampleSet: Normal
StackLeniency: 0.7
Mode: 1
LetterboxInBreaks: 0
WidescreenStoryboard: 0

[Editor]
DistanceSpacing: 0.8
BeatDivisor: 4
GridSize: 32
TimelineZoom: 4.499998

[Metadata]
Title:LeaF Pack
TitleUnicode:LeaF Pack
Artist:LeaF
ArtistUnicode:LeaF
Creator:Q____X
Version:Arianrhod
Source:
Tags:[_Chichinya_] Xoretra
BeatmapID:1239894
BeatmapSetID:517000

[Difficulty]
HPDrainRate:5
CircleSize:2
OverallDifficulty:5
ApproachRate:5
SliderMultiplier:1.4
SliderTickRate:1

[Events]
//Background and Video events
0,0,"Arianrhod.jpg",0,80
//Break Periods
//Storyboard Layer 0 (Background)
//Storyboard Layer 1 (Fail)
//Storyboard Layer 2 (Pass)
//Storyboard Layer 3 (Foreground)
//Storyboard Sound Samples

[TimingPoints]
2211,375,4,1,0,100,1,0
2211,-76.9230769230769,4,1,0,100,0,0
17211,-66.6666666666667,4,1,0,100,0,1
29211,-76.9230769230769,4,1,0,100,0,0
56211,-71.4285714285714,4,1,0,100,0,0
62211,-66.6666666666667,4,1,0,100,0,0
62961,-62.5,4,1,0,100,0,1
63711,-66.6666666666667,4,1,0,100,0,0
64461,-62.5,4,1,0,100,0,1
65211,-66.6666666666667,4,1,0,100,0,0
66242,-71.4285714285714,4,1,0,100,0,0
66711,-76.9230769230769,4,1,0,100,0,0
90711,-66.6666666666667,4,1,0,100,0,1
101961,-76.9230769230769,4,1,0,100,0,0
104211,-71.4285714285714,4,1,0,100,0,0
107211,-66.6666666666667,4,1,0,100,0,0
110211,-62.5,4,1,0,100,0,0
113023,-66.6666666666667,4,1,0,100,0,0
116679,-66.6666666666667,4,1,0,5,0,0

[HitObjects]
256,192,2211,5,8,0:0:0:0:
256,192,2398,1,8,0:0:0:0:
256,192,2586,1,0,0:0:0:0:
256,192,2679,1,0,0:0:0:0:
256,192,2773,1,8,0:0:0:0:
256,192,2961,1,8,0:0:0:0:
256,192,3148,1,8,0:0:0:0:
256,192,3242,1,8,0:0:0:0:
256,192,3336,1,0,0:0:0:0:
256,192,3429,1,0,0:0:0:0:
256,192,3523,1,8,0:0:0:0:
256,192,3617,1,0,0:0:0:0:
256,192,3711,1,8,0:0:0:0:
256,192,4086,1,8,0:0:0:0:
256,192,4461,1,8,0:0:0:0:
256,192,4648,1,0,0:0:0:0:
256,192,4836,1,8,0:0:0:0:
256,192,4929,1,8,0:0:0:0:
256,192,5023,1,8,0:0:0:0:
256,192,5086,1,0,0:0:0:0:
256,192,5148,1,0,0:0:0:0:
256,192,5211,1,8,0:0:0:0:
256,192,5398,1,0,0:0:0:0:
256,192,5586,1,8,0:0:0:0:
256,192,5773,1,0,0:0:0:0:
256,192,5867,1,0,0:0:0:0:
256,192,5961,1,8,0:0:0:0:
256,192,6148,1,0,0:0:0:0:
256,192,6336,1,8,0:0:0:0:
256,192,6523,1,0,0:0:0:0:
256,192,6617,1,0,0:0:0:0:
256,192,6711,1,8,0:0:0:0:
256,192,6898,1,0,0:0:0:0:
256,192,7086,1,8,0:0:0:0:
256,192,7273,1,0,0:0:0:0:
256,192,7461,1,8,0:0:0:0:
256,192,7648,1,8,0:0:0:0:
256,192,7836,1,8,0:0:0:0:
256,192,7929,1,8,0:0:0:0:
256,192,8023,1,8,0:0:0:0:
256,192,8211,1,8,0:0:0:0:
256,192,8398,1,0,0:0:0:0:
256,192,8586,1,8,0:0:0:0:
256,192,8773,1,0,0:0:0:0:
256,192,8867,1,0,0:0:0:0:
256,192,8961,1,8,0:0:0:0:
256,192,9148,1,0,0:0:0:0:
256,192,9336,1,8,0:0:0:0:
256,192,9523,1,0,0:0:0:0:
256,192,9617,1,0,0:0:0:0:
256,192,9711,1,8,0:0:0:0:
256,192,9898,1,0,0:0:0:0:
256,192,10086,1,8,0:0:0:0:
256,192,10273,1,0,0:0:0:0:
256,192,10461,1,8,0:0:0:0:
256,192,10648,1,8,0:0:0:0:
256,192,10836,1,0,0:0:0:0:
256,192,11086,1,0,0:0:0:0:
256,192,11211,1,8,0:0:0:0:
256,192,11336,1,8,0:0:0:0:
256,192,11461,1,0,0:0:0:0:
256,192,11586,1,8,0:0:0:0:
256,192,11711,1,8,0:0:0:0:
256,192,11836,1,0,0:0:0:0:
256,192,11961,1,8,0:0:0:0:
256,192,12086,1,8,0:0:0:0:
256,192,12211,1,0,0:0:0:0:
256,192,12336,1,8,0:0:0:0:
256,192,12461,1,8,0:0:0:0:
256,192,12586,1,0,0:0:0:0:
256,192,12711,1,8,0:0:0:0:
256,192,12804,1,8,0:0:0:0:
256,192,12898,1,0,0:0:0:0:
256,192,12992,1,0,0:0:0:0:
256,192,13086,1,8,0:0:0:0:
256,192,13179,1,8,0:0:0:0:
256,192,13273,1,0,0:0:0:0:
256,192,13367,1,0,0:0:0:0:
256,192,13461,1,8,0:0:0:0:
256,192,13648,1,8,0:0:0:0:
256,192,13836,1,8,0:0:0:0:
256,192,13929,1,8,0:0:0:0:
256,192,14023,1,8,0:0:0:0:
256,192,14211,1,0,0:0:0:0:
256,192,14398,1,8,0:0:0:0:
256,192,14586,1,0,0:0:0:0:
256,192,14773,1,8,0:0:0:0:
256,192,14961,1,0,0:0:0:0:
256,192,15148,1,8,0:0:0:0:
256,192,15336,1,8,0:0:0:0:
256,192,15429,1,8,0:0:0:0:
256,192,15523,1,8,0:0:0:0:
256,192,15617,1,0,0:0:0:0:
256,192,15711,1,8,0:0:0:0:
256,192,15898,1,8,0:0:0:0:
256,192,16086,1,0,0:0:0:0:
256,192,16273,1,8,0:0:0:0:
256,192,16461,1,0,0:0:0:0:
256,192,16836,1,8,0:0:0:0:
256,192,17023,1,0,0:0:0:0:
256,192,17211,1,12,0:0:0:0:
256,192,17398,1,0,0:0:0:0:
256,192,17461,1,0,0:0:0:0:
256,192,17523,1,0,0:0:0:0:
256,192,17586,1,8,0:0:0:0:
256,192,17773,1,0,0:0:0:0:
256,192,17961,1,8,0:0:0:0:
256,192,18148,1,0,0:0:0:0:
256,192,18336,1,8,0:0:0:0:
256,192,18429,1,0,0:0:0:0:
256,192,18523,1,8,0:0:0:0:
256,192,18617,1,0,0:0:0:0:
256,192,18711,1,8,0:0:0:0:
256,192,18898,1,0,0:0:0:0:
256,192,18961,1,0,0:0:0:0:
256,192,19023,1,0,0:0:0:0:
256,192,19086,1,8,0:0:0:0:
256,192,19273,1,8,0:0:0:0:
256,192,19336,1,0,0:0:0:0:
256,192,19398,1,0,0:0:0:0:
256,192,19461,1,8,0:0:0:0:
256,192,19648,1,0,0:0:0:0:
256,192,19836,1,8,0:0:0:0:
256,192,20023,1,0,0:0:0:0:
256,192,20117,1,0,0:0:0:0:
256,192,20211,1,8,0:0:0:0:
256,192,20398,1,0,0:0:0:0:
256,192,20461,1,0,0:0:0:0:
256,192,20523,1,0,0:0:0:0:
256,192,20586,1,8,0:0:0:0:
256,192,20773,1,0,0:0:0:0:
256,192,20961,1,8,0:0:0:0:
256,192,21148,1,0,0:0:0:0:
256,192,21336,1,8,0:0:0:0:
256,192,21429,1,8,0:0:0:0:
256,192,21523,1,8,0:0:0:0:
256,192,21617,1,0,0:0:0:0:
256,192,21711,1,8,0:0:0:0:
256,192,21898,1,0,0:0:0:0:
256,192,21961,1,0,0:0:0:0:
256,192,22023,1,0,0:0:0:0:
256,192,22086,1,8,0:0:0:0:
256,192,22273,1,0,0:0:0:0:
256,192,22461,1,8,0:0:0:0:
256,192,22648,1,0,0:0:0:0:
256,192,22836,1,8,0:0:0:0:
256,192,23023,1,0,0:0:0:0:
256,192,23117,1,0,0:0:0:0:
256,192,23211,1,12,0:0:0:0:
256,192,23398,1,0,0:0:0:0:
256,192,23461,1,0,0:0:0:0:
256,192,23523,1,0,0:0:0:0:
256,192,23586,1,8,0:0:0:0:
256,192,23773,1,0,0:0:0:0:
256,192,23961,1,8,0:0:0:0:
256,192,24148,1,0,0:0:0:0:
256,192,24242,1,0,0:0:0:0:
256,192,24336,1,8,0:0:0:0:
256,192,24429,1,8,0:0:0:0:
256,192,24523,1,0,0:0:0:0:
256,192,24617,1,0,0:0:0:0:
256,192,24711,1,8,0:0:0:0:
256,192,24898,1,0,0:0:0:0:
256,192,24961,1,0,0:0:0:0:
256,192,25023,1,0,0:0:0:0:
256,192,25086,1,8,0:0:0:0:
256,192,25273,1,8,0:0:0:0:
256,192,25336,1,0,0:0:0:0:
256,192,25398,1,0,0:0:0:0:
256,192,25461,1,8,0:0:0:0:
256,192,25648,1,0,0:0:0:0:
256,192,25836,1,8,0:0:0:0:
256,192,26023,1,0,0:0:0:0:
256,192,26117,1,0,0:0:0:0:
256,192,26211,1,12,0:0:0:0:
256,192,26398,1,0,0:0:0:0:
256,192,26461,1,0,0:0:0:0:
256,192,26523,1,0,0:0:0:0:
256,192,26586,1,8,0:0:0:0:
256,192,26773,1,0,0:0:0:0:
256,192,26961,1,8,0:0:0:0:
256,192,27148,1,0,0:0:0:0:
256,192,27336,1,0,0:0:0:0:
256,192,27461,1,8,0:0:0:0:
256,192,27586,1,0,0:0:0:0:
256,192,27648,1,0,0:0:0:0:
256,192,27711,1,8,0:0:0:0:
256,192,27836,1,0,0:0:0:0:
256,192,27961,1,0,0:0:0:0:
256,192,28023,1,0,0:0:0:0:
256,192,28086,1,8,0:0:0:0:
256,192,28211,1,8,0:0:0:0:
256,192,28336,1,0,0:0:0:0:
256,192,28461,1,8,0:0:0:0:
256,192,28836,1,0,0:0:0:0:
256,192,29023,1,0,0:0:0:0:
256,192,29086,1,0,0:0:0:0:
256,192,29148,1,0,0:0:0:0:
256,192,29211,1,12,0:0:0:0:
256,192,29398,1,0,0:0:0:0:
256,192,29492,1,0,0:0:0:0:
256,192,29586,1,8,0:0:0:0:
256,192,29773,1,0,0:0:0:0:
256,192,29867,1,0,0:0:0:0:
256,192,29961,1,8,0:0:0:0:
256,192,30148,1,0,0:0:0:0:
256,192,30242,1,0,0:0:0:0:
256,192,30336,1,8,0:0:0:0:
256,192,30523,1,0,0:0:0:0:
256,192,30711,1,8,0:0:0:0:
256,192,30804,1,8,0:0:0:0:
256,192,30898,1,0,0:0:0:0:
256,192,30992,1,0,0:0:0:0:
256,192,31086,1,8,0:0:0:0:
256,192,31179,1,8,0:0:0:0:
256,192,31273,1,0,0:0:0:0:
256,192,31367,1,0,0:0:0:0:
256,192,31461,1,8,0:0:0:0:
256,192,31586,1,0,0:0:0:0:
256,192,31836,1,8,0:0:0:0:
256,192,31961,1,0,0:0:0:0:
256,192,32023,1,8,0:0:0:0:
256,192,32211,1,4,0:0:0:0:
256,192,32336,1,4,0:0:0:0:
256,192,32461,1,4,0:0:0:0:
256,192,32586,1,4,0:0:0:0:
256,192,32773,1,0,0:0:0:0:
256,192,32867,1,0,0:0:0:0:
256,192,32961,1,8,0:0:0:0:
256,192,33148,1,0,0:0:0:0:
256,192,33242,1,0,0:0:0:0:
256,192,33336,1,8,0:0:0:0:
256,192,33523,1,0,0:0:0:0:
256,192,33617,1,0,0:0:0:0:
256,192,33711,1,8,0:0:0:0:
256,192,33992,1,0,0:0:0:0:
256,192,34086,1,8,0:0:0:0:
256,192,34273,1,0,0:0:0:0:
256,192,34461,1,8,0:0:0:0:
256,192,34648,1,8,0:0:0:0:
256,192,34836,12,0,35023,0:0:0:0:
256,192,35211,5,12,0:0:0:0:
256,192,35398,1,0,0:0:0:0:
256,192,35492,1,0,0:0:0:0:
256,192,35586,1,8,0:0:0:0:
256,192,35773,1,0,0:0:0:0:
256,192,35867,1,0,0:0:0:0:
256,192,35961,1,8,0:0:0:0:
256,192,36148,1,0,0:0:0:0:
256,192,36242,1,0,0:0:0:0:
256,192,36336,1,8,0:0:0:0:
256,192,36523,1,8,0:0:0:0:
256,192,36898,1,4,0:0:0:0:
256,192,37086,1,8,0:0:0:0:
256,192,37273,1,0,0:0:0:0:
256,192,37461,1,0,0:0:0:0:
256,192,37554,1,8,0:0:0:0:
256,192,37648,1,0,0:0:0:0:
256,192,37711,1,0,0:0:0:0:
256,192,37773,1,0,0:0:0:0:
256,192,37836,1,8,0:0:0:0:
256,192,38023,1,0,0:0:0:0:
256,192,38117,1,0,0:0:0:0:
256,192,38211,1,8,0:0:0:0:
256,192,38398,1,8,0:0:0:0:
256,192,38461,1,0,0:0:0:0:
256,192,38523,1,0,0:0:0:0:
256,192,38586,1,8,0:0:0:0:
256,192,38773,1,0,0:0:0:0:
256,192,38836,1,0,0:0:0:0:
256,192,38898,1,0,0:0:0:0:
256,192,38961,1,8,0:0:0:0:
256,192,39148,1,8,0:0:0:0:
256,192,39211,1,0,0:0:0:0:
256,192,39273,1,0,0:0:0:0:
256,192,39336,1,8,0:0:0:0:
256,192,39523,1,0,0:0:0:0:
256,192,39586,1,0,0:0:0:0:
256,192,39648,1,0,0:0:0:0:
256,192,39711,1,8,0:0:0:0:
256,192,39898,1,0,0:0:0:0:
256,192,39992,1,0,0:0:0:0:
256,192,40086,1,8,0:0:0:0:
256,192,40273,1,0,0:0:0:0:
256,192,40367,1,0,0:0:0:0:
256,192,40461,1,8,0:0:0:0:
256,192,40648,1,0,0:0:0:0:
256,192,40742,1,0,0:0:0:0:
256,192,40836,1,8,0:0:0:0:
256,192,41023,1,8,0:0:0:0:
256,192,41211,1,8,0:0:0:0:
256,192,41398,1,0,0:0:0:0:
256,192,41461,1,0,0:0:0:0:
256,192,41523,1,0,0:0:0:0:
256,192,41586,1,8,0:0:0:0:
256,192,41773,1,8,0:0:0:0:
256,192,41836,1,0,0:0:0:0:
256,192,41898,1,0,0:0:0:0:
256,192,41961,1,8,0:0:0:0:
256,192,42148,1,0,0:0:0:0:
256,192,42211,1,0,0:0:0:0:
256,192,42273,1,0,0:0:0:0:
256,192,42336,1,8,0:0:0:0:
256,192,42523,1,8,0:0:0:0:
256,192,42586,1,0,0:0:0:0:
256,192,42648,1,0,0:0:0:0:
256,192,42711,1,8,0:0:0:0:
256,192,42898,1,0,0:0:0:0:
256,192,42992,1,0,0:0:0:0:
256,192,43086,1,8,0:0:0:0:
256,192,43273,1,0,0:0:0:0:
256,192,43367,1,0,0:0:0:0:
256,192,43461,1,8,0:0:0:0:
256,192,43648,1,0,0:0:0:0:
256,192,43742,1,0,0:0:0:0:
256,192,43836,1,8,0:0:0:0:
256,192,43961,1,8,0:0:0:0:
256,192,44086,1,0,0:0:0:0:
256,192,44211,1,8,0:0:0:0:
256,192,44398,1,0,0:0:0:0:
256,192,44461,1,0,0:0:0:0:
256,192,44523,1,0,0:0:0:0:
256,192,44586,1,8,0:0:0:0:
256,192,44773,1,8,0:0:0:0:
256,192,44836,1,0,0:0:0:0:
256,192,44898,1,0,0:0:0:0:
256,192,44961,1,8,0:0:0:0:
256,192,45148,1,0,0:0:0:0:
256,192,45242,1,0,0:0:0:0:
256,192,45336,1,8,0:0:0:0:
256,192,45523,1,0,0:0:0:0:
256,192,45711,1,8,0:0:0:0:
256,192,45898,1,0,0:0:0:0:
256,192,45961,1,0,0:0:0:0:
256,192,46023,1,0,0:0:0:0:
256,192,46086,1,8,0:0:0:0:
256,192,46273,1,0,0:0:0:0:
256,192,46336,1,0,0:0:0:0:
256,192,46398,1,0,0:0:0:0:
256,192,46461,1,8,0:0:0:0:
256,192,46648,1,0,0:0:0:0:
256,192,46711,1,0,0:0:0:0:
256,192,46773,1,0,0:0:0:0:
256,192,46836,1,8,0:0:0:0:
256,192,47023,1,0,0:0:0:0:
256,192,47211,1,8,0:0:0:0:
256,192,47336,1,0,0:0:0:0:
256,192,47461,1,0,0:0:0:0:
256,192,47586,1,8,0:0:0:0:
256,192,47711,1,8,0:0:0:0:
256,192,47836,1,0,0:0:0:0:
256,192,47961,1,8,0:0:0:0:
256,192,48086,1,0,0:0:0:0:
256,192,48211,1,0,0:0:0:0:
256,192,48336,1,8,0:0:0:0:
256,192,48461,1,8,0:0:0:0:
256,192,48586,1,0,0:0:0:0:
256,192,48898,1,0,0:0:0:0:
256,192,49086,1,8,0:0:0:0:
256,192,49273,1,0,0:0:0:0:
256,192,49461,1,8,0:0:0:0:
256,192,49648,1,0,0:0:0:0:
256,192,49836,1,8,0:0:0:0:
256,192,50023,1,8,0:0:0:0:
256,192,50211,1,4,0:0:0:0:
256,192,50961,1,0,0:0:0:0:
256,192,51242,1,8,0:0:0:0:
256,192,51523,1,0,0:0:0:0:
256,192,51898,1,0,0:0:0:0:
256,192,52086,1,8,0:0:0:0:
256,192,52273,1,0,0:0:0:0:
256,192,52461,1,0,0:0:0:0:
256,192,52554,1,8,0:0:0:0:
256,192,52742,1,8,0:0:0:0:
256,192,52836,1,0,0:0:0:0:
256,192,52929,1,0,0:0:0:0:
256,192,53023,1,8,0:0:0:0:
256,192,53211,1,8,0:0:0:0:
256,192,53398,1,0,0:0:0:0:
256,192,53586,1,8,0:0:0:0:
256,192,53773,1,0,0:0:0:0:
256,192,53867,1,0,0:0:0:0:
256,192,53961,1,8,0:0:0:0:
256,192,54054,1,0,0:0:0:0:
256,192,54148,1,0,0:0:0:0:
256,192,54242,1,8,0:0:0:0:
256,192,54523,1,0,0:0:0:0:
256,192,54617,1,8,0:0:0:0:
256,192,54711,1,0,0:0:0:0:
256,192,54804,1,8,0:0:0:0:
256,192,54992,1,8,0:0:0:0:
256,192,55086,1,0,0:0:0:0:
256,192,55179,1,0,0:0:0:0:
256,192,55273,1,8,0:0:0:0:
256,192,55367,1,0,0:0:0:0:
256,192,55461,1,0,0:0:0:0:
256,192,55554,1,8,0:0:0:0:
256,192,55742,1,8,0:0:0:0:
256,192,55836,1,4,0:0:0:0:
256,192,56211,1,8,0:0:0:0:
256,192,56336,1,0,0:0:0:0:
256,192,56398,1,0,0:0:0:0:
256,192,56461,1,0,0:0:0:0:
256,192,56586,1,8,0:0:0:0:
256,192,56711,1,0,0:0:0:0:
256,192,56773,1,0,0:0:0:0:
256,192,56836,1,0,0:0:0:0:
256,192,56961,1,8,0:0:0:0:
256,192,57054,1,8,0:0:0:0:
256,192,57148,1,0,0:0:0:0:
256,192,57211,1,0,0:0:0:0:
256,192,57273,1,0,0:0:0:0:
256,192,57336,1,8,0:0:0:0:
256,192,57398,1,0,0:0:0:0:
256,192,57461,1,0,0:0:0:0:
256,192,57523,1,8,0:0:0:0:
256,192,57711,1,0,0:0:0:0:
256,192,57773,1,0,0:0:0:0:
256,192,57836,1,0,0:0:0:0:
256,192,57898,1,8,0:0:0:0:
256,192,58086,1,0,0:0:0:0:
256,192,58179,1,8,0:0:0:0:
256,192,58367,1,0,0:0:0:0:
256,192,58461,1,8,0:0:0:0:
256,192,58586,1,0,0:0:0:0:
256,192,58648,1,0,0:0:0:0:
256,192,58742,1,8,0:0:0:0:
256,192,58836,1,0,0:0:0:0:
256,192,59023,1,8,0:0:0:0:
256,192,59211,1,4,0:0:0:0:
256,192,59773,1,0,0:0:0:0:
256,192,59836,1,0,0:0:0:0:
256,192,59898,1,0,0:0:0:0:
256,192,59961,1,8,0:0:0:0:
256,192,60336,1,8,0:0:0:0:
256,192,60523,1,0,0:0:0:0:
256,192,60898,1,8,0:0:0:0:
256,192,61179,1,0,0:0:0:0:
256,192,61461,1,8,0:0:0:0:
256,192,61742,1,0,0:0:0:0:
256,192,61836,1,8,0:0:0:0:
256,192,62023,1,0,0:0:0:0:
256,192,62211,1,12,0:0:0:0:
256,192,62492,1,4,0:0:0:0:
256,192,62773,1,12,0:0:0:0:
256,192,62961,1,8,0:0:0:0:
256,192,63086,1,0,0:0:0:0:
256,192,63148,1,0,0:0:0:0:
256,192,63211,1,8,0:0:0:0:
256,192,63336,1,8,0:0:0:0:
256,192,63398,1,8,0:0:0:0:
256,192,63461,1,0,0:0:0:0:
256,192,63586,1,0,0:0:0:0:
256,192,63711,1,12,0:0:0:0:
256,192,63992,1,4,0:0:0:0:
256,192,64273,1,12,0:0:0:0:
256,192,64461,1,8,0:0:0:0:
256,192,64586,1,0,0:0:0:0:
256,192,64648,1,0,0:0:0:0:
256,192,64711,1,8,0:0:0:0:
256,192,64836,1,8,0:0:0:0:
256,192,64898,1,8,0:0:0:0:
256,192,64961,1,0,0:0:0:0:
256,192,65086,1,0,0:0:0:0:
256,192,65211,1,12,0:0:0:0:
256,192,65492,1,4,0:0:0:0:
256,192,65773,1,4,0:0:0:0:
256,192,65961,1,12,0:0:0:0:
256,192,66242,1,4,0:0:0:0:
256,192,66523,1,0,0:0:0:0:
256,192,66711,1,8,0:0:0:0:
256,192,66836,1,0,0:0:0:0:
256,192,66961,1,0,0:0:0:0:
256,192,67086,1,8,0:0:0:0:
256,192,67211,1,0,0:0:0:0:
256,192,67336,1,0,0:0:0:0:
256,192,67461,1,8,0:0:0:0:
256,192,67586,1,0,0:0:0:0:
256,192,67711,1,0,0:0:0:0:
256,192,67836,1,8,0:0:0:0:
256,192,67961,1,0,0:0:0:0:
256,192,68086,1,8,0:0:0:0:
256,192,68211,1,8,0:0:0:0:
256,192,68336,1,0,0:0:0:0:
256,192,68461,1,0,0:0:0:0:
256,192,68586,1,8,0:0:0:0:
256,192,68711,1,0,0:0:0:0:
256,192,68836,1,0,0:0:0:0:
256,192,68961,1,8,0:0:0:0:
256,192,69086,1,0,0:0:0:0:
256,192,69211,1,0,0:0:0:0:
256,192,69336,1,8,0:0:0:0:
256,192,69461,1,0,0:0:0:0:
256,192,69586,1,8,0:0:0:0:
256,192,69711,1,8,0:0:0:0:
256,192,69836,1,0,0:0:0:0:
256,192,69898,1,0,0:0:0:0:
256,192,69961,1,0,0:0:0:0:
256,192,70086,1,8,0:0:0:0:
256,192,70211,1,0,0:0:0:0:
256,192,70273,1,0,0:0:0:0:
256,192,70336,1,0,0:0:0:0:
256,192,70461,1,8,0:0:0:0:
256,192,70586,1,0,0:0:0:0:
256,192,70648,1,0,0:0:0:0:
256,192,70711,1,0,0:0:0:0:
256,192,70836,1,8,0:0:0:0:
256,192,70961,1,0,0:0:0:0:
256,192,71023,1,0,0:0:0:0:
256,192,71086,1,0,0:0:0:0:
256,192,71398,1,8,0:0:0:0:
256,192,71679,1,0,0:0:0:0:
256,192,71961,1,8,0:0:0:0:
256,192,72242,1,0,0:0:0:0:
256,192,72336,1,8,0:0:0:0:
256,192,72398,1,8,0:0:0:0:
256,192,72461,1,0,0:0:0:0:
256,192,72523,1,8,0:0:0:0:
256,192,72585,1,8,0:0:0:0:
256,192,72648,1,0,0:0:0:0:
256,192,72711,1,8,0:0:0:0:
256,192,72898,1,0,0:0:0:0:
256,192,72992,1,0,0:0:0:0:
256,192,73086,1,8,0:0:0:0:
256,192,73273,1,0,0:0:0:0:
256,192,73367,1,0,0:0:0:0:
256,192,73461,1,8,0:0:0:0:
256,192,73648,1,0,0:0:0:0:
256,192,73742,1,0,0:0:0:0:
256,192,73836,1,8,0:0:0:0:
256,192,74023,1,0,0:0:0:0:
256,192,74117,1,0,0:0:0:0:
256,192,74398,1,4,0:0:0:0:
256,192,74679,1,12,0:0:0:0:
256,192,74961,1,4,0:0:0:0:
256,192,75148,1,8,0:0:0:0:
256,192,75242,1,8,0:0:0:0:
256,192,75336,1,0,0:0:0:0:
256,192,75523,1,0,0:0:0:0:
256,192,75711,1,8,0:0:0:0:
256,192,76461,1,12,0:0:0:0:
256,192,76836,1,12,0:0:0:0:
256,192,77211,1,4,0:0:0:0:
256,192,77836,1,0,0:0:0:0:
256,192,77961,1,8,0:0:0:0:
256,192,78211,1,0,0:0:0:0:
256,192,78336,1,8,0:0:0:0:
256,192,78523,1,0,0:0:0:0:
256,192,78711,1,8,0:0:0:0:
256,192,79086,1,8,0:0:0:0:
256,192,79179,1,8,0:0:0:0:
256,192,79273,1,0,0:0:0:0:
256,192,79367,1,0,0:0:0:0:
256,192,79461,1,8,0:0:0:0:
256,192,79648,1,0,0:0:0:0:
256,192,79836,1,8,0:0:0:0:
256,192,80023,1,0,0:0:0:0:
256,192,80211,1,8,0:0:0:0:
256,192,80773,1,8,0:0:0:0:
256,192,80836,1,0,0:0:0:0:
256,192,80898,1,0,0:0:0:0:
256,192,80961,1,8,0:0:0:0:
256,192,81336,1,0,0:0:0:0:
256,192,81523,1,8,0:0:0:0:
256,192,81711,1,0,0:0:0:0:
256,192,82273,1,8,0:0:0:0:
256,192,82461,1,0,0:0:0:0:
256,192,82836,1,0,0:0:0:0:
256,192,82929,1,8,0:0:0:0:
256,192,83023,1,0,0:0:0:0:
256,192,83117,1,0,0:0:0:0:
256,192,83211,1,8,0:0:0:0:
256,192,83304,1,0,0:0:0:0:
256,192,83398,1,0,0:0:0:0:
256,192,83492,1,8,0:0:0:0:
256,192,83586,1,0,0:0:0:0:
256,192,83679,1,8,0:0:0:0:
256,192,83773,1,8,0:0:0:0:
256,192,83867,1,0,0:0:0:0:
256,192,83961,1,8,0:0:0:0:
256,192,84054,1,0,0:0:0:0:
256,192,84148,1,8,0:0:0:0:
256,192,84336,1,8,0:0:0:0:
256,192,84523,1,0,0:0:0:0:
256,192,84711,1,8,0:0:0:0:
256,192,85086,1,0,0:0:0:0:
256,192,85273,1,0,0:0:0:0:
256,192,85336,1,0,0:0:0:0:
256,192,85398,1,0,0:0:0:0:
256,192,85461,1,8,0:0:0:0:
256,192,85648,1,0,0:0:0:0:
256,192,85836,1,8,0:0:0:0:
256,192,85929,1,8,0:0:0:0:
256,192,86023,1,0,0:0:0:0:
256,192,86211,1,0,0:0:0:0:
256,192,86398,1,8,0:0:0:0:
256,192,86586,1,0,0:0:0:0:
256,192,86679,1,8,0:0:0:0:
256,192,86773,1,0,0:0:0:0:
256,192,86961,1,8,0:0:0:0:
256,192,87148,1,0,0:0:0:0:
256,192,87242,1,8,0:0:0:0:
256,192,87336,1,0,0:0:0:0:
256,192,87523,1,8,0:0:0:0:
256,192,87711,1,8,0:0:0:0:
256,192,87898,1,0,0:0:0:0:
256,192,87992,1,8,0:0:0:0:
256,192,88086,1,0,0:0:0:0:
256,192,88179,1,0,0:0:0:0:
256,192,88273,1,8,0:0:0:0:
256,192,88367,1,0,0:0:0:0:
256,192,88461,1,8,0:0:0:0:
256,192,88648,1,0,0:0:0:0:
256,192,88836,1,12,0:0:0:0:
256,192,89023,1,0,0:0:0:0:
256,192,89211,1,12,0:0:0:0:
256,192,89586,1,8,0:0:0:0:
256,192,89961,1,0,0:0:0:0:
256,192,90211,1,12,0:0:0:0:
256,192,90336,1,12,0:0:0:0:
256,192,90461,1,4,0:0:0:0:
256,192,90586,1,4,0:0:0:0:
256,192,90711,1,12,0:0:0:0:
256,192,90898,1,0,0:0:0:0:
256,192,90961,1,0,0:0:0:0:
256,192,91023,1,0,0:0:0:0:
256,192,91086,1,8,0:0:0:0:
256,192,91273,1,0,0:0:0:0:
256,192,91461,1,8,0:0:0:0:
256,192,91648,1,0,0:0:0:0:
256,192,91836,1,8,0:0:0:0:
256,192,91929,1,0,0:0:0:0:
256,192,92023,1,8,0:0:0:0:
256,192,92117,1,0,0:0:0:0:
256,192,92211,1,8,0:0:0:0:
256,192,92398,1,0,0:0:0:0:
256,192,92461,1,0,0:0:0:0:
256,192,92523,1,0,0:0:0:0:
256,192,92586,1,8,0:0:0:0:
256,192,92773,1,8,0:0:0:0:
256,192,92836,1,0,0:0:0:0:
256,192,92898,1,0,0:0:0:0:
256,192,92961,1,8,0:0:0:0:
256,192,93148,1,0,0:0:0:0:
256,192,93336,1,8,0:0:0:0:
256,192,93523,1,0,0:0:0:0:
256,192,93617,1,0,0:0:0:0:
256,192,93711,1,8,0:0:0:0:
256,192,93898,1,0,0:0:0:0:
256,192,93961,1,0,0:0:0:0:
256,192,94023,1,0,0:0:0:0:
256,192,94086,1,8,0:0:0:0:
256,192,94273,1,0,0:0:0:0:
256,192,94461,1,8,0:0:0:0:
256,192,94648,1,0,0:0:0:0:
256,192,94836,1,8,0:0:0:0:
256,192,94929,1,8,0:0:0:0:
256,192,95023,1,8,0:0:0:0:
256,192,95117,1,0,0:0:0:0:
256,192,95211,1,8,0:0:0:0:
256,192,95398,1,0,0:0:0:0:
256,192,95461,1,0,0:0:0:0:
256,192,95523,1,0,0:0:0:0:
256,192,95586,1,8,0:0:0:0:
256,192,95773,1,0,0:0:0:0:
256,192,95961,1,8,0:0:0:0:
256,192,96148,1,0,0:0:0:0:
256,192,96336,1,8,0:0:0:0:
256,192,96523,1,0,0:0:0:0:
256,192,96617,1,0,0:0:0:0:
256,192,96711,1,12,0:0:0:0:
256,192,96898,1,0,0:0:0:0:
256,192,96961,1,0,0:0:0:0:
256,192,97023,1,0,0:0:0:0:
256,192,97086,1,8,0:0:0:0:
256,192,97273,1,0,0:0:0:0:
256,192,97461,1,8,0:0:0:0:
256,192,97648,1,0,0:0:0:0:
256,192,97742,1,0,0:0:0:0:
256,192,97836,1,8,0:0:0:0:
256,192,97929,1,8,0:0:0:0:
256,192,98023,1,0,0:0:0:0:
256,192,98117,1,0,0:0:0:0:
256,192,98211,1,8,0:0:0:0:
256,192,98398,1,0,0:0:0:0:
256,192,98461,1,0,0:0:0:0:
256,192,98523,1,0,0:0:0:0:
256,192,98586,1,8,0:0:0:0:
256,192,98773,1,8,0:0:0:0:
256,192,98836,1,0,0:0:0:0:
256,192,98898,1,0,0:0:0:0:
256,192,98961,1,8,0:0:0:0:
256,192,99148,1,0,0:0:0:0:
256,192,99336,1,8,0:0:0:0:
256,192,99523,1,0,0:0:0:0:
256,192,99617,1,0,0:0:0:0:
256,192,99711,1,12,0:0:0:0:
256,192,99898,1,0,0:0:0:0:
256,192,99961,1,0,0:0:0:0:
256,192,100023,1,0,0:0:0:0:
256,192,100086,1,8,0:0:0:0:
256,192,100273,1,0,0:0:0:0:
256,192,100461,1,8,0:0:0:0:
256,192,100648,1,0,0:0:0:0:
256,192,100836,1,8,0:0:0:0:
256,192,100961,1,8,0:0:0:0:
256,192,101086,1,0,0:0:0:0:
256,192,101148,1,0,0:0:0:0:
256,192,101211,1,8,0:0:0:0:
256,192,101336,1,0,0:0:0:0:
256,192,101461,1,0,0:0:0:0:
256,192,101523,1,0,0:0:0:0:
256,192,101586,1,8,0:0:0:0:
256,192,101711,1,8,0:0:0:0:
256,192,101836,1,0,0:0:0:0:
256,192,101961,1,8,0:0:0:0:
256,192,102023,1,0,0:0:0:0:
256,192,102336,1,8,0:0:0:0:
256,192,102711,1,0,0:0:0:0:
256,192,103461,1,8,0:0:0:0:
256,192,103648,1,0,0:0:0:0:
256,192,103742,1,0,0:0:0:0:
256,192,103836,1,8,0:0:0:0:
256,192,103898,1,0,0:0:0:0:
256,192,103961,1,0,0:0:0:0:
256,192,104023,1,8,0:0:0:0:
256,192,104211,1,12,0:0:0:0:
256,192,104398,1,0,0:0:0:0:
256,192,104492,1,0,0:0:0:0:
256,192,104586,1,8,0:0:0:0:
256,192,104773,1,0,0:0:0:0:
256,192,104961,1,8,0:0:0:0:
256,192,105148,1,0,0:0:0:0:
256,192,105242,1,0,0:0:0:0:
256,192,105336,1,8,0:0:0:0:
256,192,105523,1,0,0:0:0:0:
256,192,105711,1,8,0:0:0:0:
256,192,105898,1,0,0:0:0:0:
256,192,105992,1,0,0:0:0:0:
256,192,106086,1,8,0:0:0:0:
256,192,106273,1,0,0:0:0:0:
256,192,106367,1,0,0:0:0:0:
256,192,106461,1,8,0:0:0:0:
256,192,106648,1,0,0:0:0:0:
256,192,106742,1,0,0:0:0:0:
256,192,106836,1,8,0:0:0:0:
256,192,107023,1,8,0:0:0:0:
256,192,107211,1,12,0:0:0:0:
256,192,107398,1,0,0:0:0:0:
256,192,107492,1,0,0:0:0:0:
256,192,107586,1,8,0:0:0:0:
256,192,107773,1,0,0:0:0:0:
256,192,107961,1,8,0:0:0:0:
256,192,108148,1,0,0:0:0:0:
256,192,108242,1,0,0:0:0:0:
256,192,108336,1,8,0:0:0:0:
256,192,108523,1,0,0:0:0:0:
256,192,108617,1,0,0:0:0:0:
256,192,108711,1,8,0:0:0:0:
256,192,108898,1,0,0:0:0:0:
256,192,108992,1,0,0:0:0:0:
256,192,109086,1,8,0:0:0:0:
256,192,109273,1,0,0:0:0:0:
256,192,109367,1,0,0:0:0:0:
256,192,109461,1,8,0:0:0:0:
256,192,109648,1,0,0:0:0:0:
256,192,109742,1,0,0:0:0:0:
256,192,109836,1,8,0:0:0:0:
256,192,109961,1,0,0:0:0:0:
256,192,110086,1,0,0:0:0:0:
256,192,110211,1,12,0:0:0:0:
256,192,110398,1,0,0:0:0:0:
256,192,110492,1,0,0:0:0:0:
256,192,110586,1,8,0:0:0:0:
256,192,110773,1,0,0:0:0:0:
256,192,110867,1,0,0:0:0:0:
256,192,110961,1,8,0:0:0:0:
256,192,111148,1,0,0:0:0:0:
256,192,111242,1,0,0:0:0:0:
256,192,111336,1,8,0:0:0:0:
256,192,111523,1,8,0:0:0:0:
256,192,111711,1,0,0:0:0:0:
256,192,111898,1,0,0:0:0:0:
256,192,111961,1,0,0:0:0:0:
256,192,112023,1,0,0:0:0:0:
256,192,112086,1,8,0:0:0:0:
256,192,112273,1,0,0:0:0:0:
256,192,112336,1,0,0:0:0:0:
256,192,112398,1,0,0:0:0:0:
256,192,112461,1,8,0:0:0:0:
256,192,112648,1,0,0:0:0:0:
256,192,112711,1,0,0:0:0:0:
256,192,112773,1,0,0:0:0:0:
256,192,112836,1,8,0:0:0:0:
256,192,113023,1,8,0:0:0:0:
256,192,113211,1,8,0:0:0:0:
256,192,113336,1,8,0:0:0:0:
256,192,113461,1,0,0:0:0:0:
256,192,113586,1,8,0:0:0:0:
256,192,113711,1,8,0:0:0:0:
256,192,113836,1,0,0:0:0:0:
256,192,113961,1,8,0:0:0:0:
256,192,114086,1,8,0:0:0:0:
256,192,114211,1,0,0:0:0:0:
256,192,114336,1,8,0:0:0:0:
256,192,114461,1,8,0:0:0:0:
256,192,114586,1,8,0:0:0:0:
256,192,114898,1,0,0:0:0:0:
256,192,115086,1,8,0:0:0:0:
256,192,115273,1,0,0:0:0:0:
256,192,115461,1,8,0:0:0:0:
256,192,115648,1,0,0:0:0:0:
256,192,115836,1,8,0:0:0:0:
256,192,116023,1,8,0:0:0:0:
256,192,116586,1,4,0:0:0:0:
256,192,116679,12,0,119961,0:0:0:0:
