osu file format v14

[General]
AudioFilename: audio.mp3
AudioLeadIn: 0
PreviewTime: 114982
Countdown: 0
SampleSet: Normal
StackLeniency: 0.7
Mode: 1
LetterboxInBreaks: 0
WidescreenStoryboard: 0

[Editor]
DistanceSpacing: 0.8
BeatDivisor: 4
GridSize: 32
TimelineZoom: 3.499998

[Metadata]
Title:LeaF Pack
TitleUnicode:LeaF Pack
Artist:LeaF
ArtistUnicode:LeaF
Creator:Q____X
Version:ATHAZA
Source:
Tags:[_Chichinya_] Xoretra
BeatmapID:1239895
BeatmapSetID:517000

[Difficulty]
HPDrainRate:5
CircleSize:5
OverallDifficulty:5
ApproachRate:5
SliderMultiplier:1.39823950540927
SliderTickRate:1

[Events]
//Background and Video events
0,0,"BG.png",0,0
//Break Periods
//Storyboard Layer 0 (Background)
//Storyboard Layer 1 (Fail)
//Storyboard Layer 2 (Pass)
//Storyboard Layer 3 (Foreground)
//Storyboard Sound Samples

[TimingPoints]
401,214.285714285714,4,1,0,100,1,0
13686,-66.6666666666667,4,1,0,100,0,0
14115,-100,4,1,0,100,0,0
43258,-100,4,1,0,100,0,1
55258,-100,4,1,0,100,0,0
60400,222.222222222222,4,1,0,100,1,0
60733,230.769230769231,4,1,0,100,1,0
60848,240,4,1,0,100,1,0
61088,250,4,1,0,100,1,0
61338,222.222222222222,4,1,0,100,1,0
68226,214.285714285714,4,1,0,100,1,0
72618,222.222222222222,4,1,0,100,1,0
73618,230.769230769231,4,1,0,100,1,0
74771,240,4,1,0,100,1,0
75179,250,4,1,0,100,1,0
75554,214.285714285714,4,1,0,100,1,0
110053,-90.9090909090909,4,1,0,100,0,0
110911,-83.3333333333333,4,1,0,100,0,0
111768,-76.9230769230769,4,1,0,100,0,0
112625,-83.3333333333333,4,1,0,100,0,0
113053,-90.9090909090909,4,1,0,100,0,0
113589,-100,4,1,0,100,0,0
114982,-50,4,1,0,100,0,1
115089,-83.3333333333333,4,1,0,100,0,1
128053,-66.6666666666667,4,1,0,100,0,0
128482,-100,4,1,0,100,0,0
128696,-83.3333333333333,4,1,0,100,0,1
140696,-83.3333333333333,4,1,0,100,0,0
141018,-76.9230769230769,4,1,0,100,0,0
141339,-71.4285714285714,4,1,0,100,0,0
141661,-66.6666666666667,4,1,0,100,0,0
144982,-666.666666666658,4,1,0,100,0,0

[HitObjects]
256,192,401,5,2,0:0:0:0:
256,192,615,1,0,0:0:0:0:
256,192,722,1,0,0:0:0:0:
256,192,829,1,2,0:0:0:0:
256,192,1043,1,0,0:0:0:0:
256,192,1258,1,2,0:0:0:0:
256,192,1472,1,0,0:0:0:0:
256,192,1686,1,2,0:0:0:0:
256,192,1901,1,2,0:0:0:0:
256,192,2115,1,2,0:0:0:0:
256,192,2329,1,0,0:0:0:0:
256,192,2436,1,0,0:0:0:0:
256,192,2543,1,2,0:0:0:0:
256,192,2758,1,0,0:0:0:0:
256,192,2972,1,2,0:0:0:0:
256,192,3186,1,2,0:0:0:0:
256,192,3401,1,2,0:0:0:0:
256,192,3615,1,0,0:0:0:0:
256,192,3829,1,4,0:0:0:0:
256,192,3883,12,0,4633,0:0:0:0:
256,192,4686,5,2,0:0:0:0:
256,192,4740,12,0,5490,0:0:0:0:
256,192,5543,5,2,0:0:0:0:
256,192,5650,1,2,0:0:0:0:
256,192,5758,1,0,0:0:0:0:
256,192,5865,1,0,0:0:0:0:
256,192,5918,1,0,0:0:0:0:
256,192,5972,1,2,0:0:0:0:
256,192,6079,1,0,0:0:0:0:
256,192,6186,1,2,0:0:0:0:
256,192,6293,1,2,0:0:0:0:
256,192,6400,1,0,0:0:0:0:
256,192,6454,1,0,0:0:0:0:
256,192,6508,1,2,0:0:0:0:
256,192,6615,1,0,0:0:0:0:
256,192,6722,1,2,0:0:0:0:
256,192,6775,1,0,0:0:0:0:
256,192,6829,1,2,0:0:0:0:
256,192,6936,1,0,0:0:0:0:
256,192,7043,1,0,0:0:0:0:
256,192,7097,1,0,0:0:0:0:
256,192,7150,1,2,0:0:0:0:
256,192,7204,1,0,0:0:0:0:
256,192,7258,1,2,0:0:0:0:
256,192,7472,1,0,0:0:0:0:
256,192,7686,1,8,0:0:0:0:
256,192,7900,1,0,0:0:0:0:
256,192,8115,1,2,0:0:0:0:
256,192,8329,1,0,0:0:0:0:
256,192,8436,1,0,0:0:0:0:
256,192,8543,1,2,0:0:0:0:
256,192,8758,1,0,0:0:0:0:
256,192,8972,1,2,0:0:0:0:
256,192,9079,1,8,0:0:0:0:
256,192,9186,1,0,0:0:0:0:
256,192,9400,1,2,0:0:0:0:
256,192,9615,1,0,0:0:0:0:
256,192,9829,1,2,0:0:0:0:
256,192,10043,1,0,0:0:0:0:
256,192,10150,1,0,0:0:0:0:
256,192,10258,1,2,0:0:0:0:
256,192,10365,1,0,0:0:0:0:
256,192,10472,1,0,0:0:0:0:
256,192,10687,1,2,0:0:0:0:
256,192,10793,1,8,0:0:0:0:
256,192,10900,1,0,0:0:0:0:
256,192,11115,1,2,0:0:0:0:
256,192,11329,1,0,0:0:0:0:
256,192,11436,1,0,0:0:0:0:
256,192,11543,1,2,0:0:0:0:
256,192,11758,1,0,0:0:0:0:
256,192,11865,1,0,0:0:0:0:
256,192,11972,1,2,0:0:0:0:
256,192,12186,1,0,0:0:0:0:
256,192,12400,1,2,0:0:0:0:
256,192,12829,1,2,0:0:0:0:
256,192,13043,1,0,0:0:0:0:
256,192,13258,1,0,0:0:0:0:
256,192,13686,1,2,0:0:0:0:
256,192,14115,1,0,0:0:0:0:
256,192,14329,1,2,0:0:0:0:
256,192,14543,1,0,0:0:0:0:
256,192,14758,1,2,0:0:0:0:
256,192,14972,1,0,0:0:0:0:
256,192,15186,1,0,0:0:0:0:
256,192,15293,1,0,0:0:0:0:
256,192,15400,1,2,0:0:0:0:
256,192,15615,1,0,0:0:0:0:
256,192,15829,1,2,0:0:0:0:
256,192,15936,1,8,0:0:0:0:
256,192,16043,1,0,0:0:0:0:
256,192,16258,1,2,0:0:0:0:
256,192,16472,1,0,0:0:0:0:
256,192,16686,1,2,0:0:0:0:
256,192,16900,1,0,0:0:0:0:
256,192,17008,1,0,0:0:0:0:
256,192,17115,1,2,0:0:0:0:
256,192,17329,1,0,0:0:0:0:
256,192,17543,1,2,0:0:0:0:
256,192,17650,1,0,0:0:0:0:
256,192,17758,1,0,0:0:0:0:
256,192,17972,1,2,0:0:0:0:
256,192,18186,1,0,0:0:0:0:
256,192,18400,1,2,0:0:0:0:
256,192,18615,1,0,0:0:0:0:
256,192,18722,1,0,0:0:0:0:
256,192,18829,1,2,0:0:0:0:
256,192,19043,1,0,0:0:0:0:
256,192,19150,1,2,0:0:0:0:
256,192,19258,1,0,0:0:0:0:
256,192,19472,1,2,0:0:0:0:
256,192,19579,1,8,0:0:0:0:
256,192,19686,1,0,0:0:0:0:
256,192,19900,1,2,0:0:0:0:
256,192,20115,1,0,0:0:0:0:
256,192,20543,1,2,0:0:0:0:
256,192,20972,1,2,0:0:0:0:
256,192,21186,1,0,0:0:0:0:
256,192,21293,1,0,0:0:0:0:
256,192,21400,1,2,0:0:0:0:
256,192,21508,1,0,0:0:0:0:
256,192,21615,1,2,0:0:0:0:
256,192,21722,1,0,0:0:0:0:
256,192,21829,1,0,0:0:0:0:
256,192,22043,1,0,0:0:0:0:
256,192,22150,1,0,0:0:0:0:
256,192,22258,1,2,0:0:0:0:
256,192,22472,1,2,0:0:0:0:
256,192,22686,1,0,0:0:0:0:
256,192,22900,1,0,0:0:0:0:
256,192,23008,1,0,0:0:0:0:
256,192,23115,1,2,0:0:0:0:
256,192,23329,1,2,0:0:0:0:
256,192,23543,1,0,0:0:0:0:
256,192,23650,1,2,0:0:0:0:
256,192,23865,1,0,0:0:0:0:
256,192,23972,1,2,0:0:0:0:
256,192,24186,1,0,0:0:0:0:
256,192,24293,1,2,0:0:0:0:
256,192,24400,1,4,0:0:0:0:
256,192,24615,1,2,0:0:0:0:
256,192,24829,1,2,0:0:0:0:
256,192,24936,1,2,0:0:0:0:
256,192,25043,1,2,0:0:0:0:
256,192,25258,1,2,0:0:0:0:
256,192,25311,1,2,0:0:0:0:
256,192,25365,1,2,0:0:0:0:
256,192,25472,1,0,0:0:0:0:
256,192,25579,1,2,0:0:0:0:
256,192,25686,1,0,0:0:0:0:
256,192,25740,1,0,0:0:0:0:
256,192,25793,1,0,0:0:0:0:
256,192,25900,1,2,0:0:0:0:
256,192,26115,1,4,0:0:0:0:
256,192,26436,1,6,0:0:0:0:
256,192,26758,1,4,0:0:0:0:
256,192,26972,1,0,0:0:0:0:
256,192,27079,1,2,0:0:0:0:
256,192,27133,1,2,0:0:0:0:
256,192,27186,1,0,0:0:0:0:
256,192,27293,1,0,0:0:0:0:
256,192,27400,1,2,0:0:0:0:
256,192,27454,1,2,0:0:0:0:
256,192,27508,1,0,0:0:0:0:
256,192,27615,1,0,0:0:0:0:
256,192,27722,1,0,0:0:0:0:
256,192,27775,1,0,0:0:0:0:
256,192,27829,1,2,0:0:0:0:
256,192,28043,1,2,0:0:0:0:
256,192,28258,1,2,0:0:0:0:
256,192,28311,1,2,0:0:0:0:
256,192,28365,1,0,0:0:0:0:
256,192,28418,1,0,0:0:0:0:
256,192,28472,1,2,0:0:0:0:
256,192,28525,1,2,0:0:0:0:
256,192,28579,1,0,0:0:0:0:
256,192,28633,1,0,0:0:0:0:
256,192,28686,1,2,0:0:0:0:
256,192,28900,1,0,0:0:0:0:
256,192,29115,1,2,0:0:0:0:
256,192,29222,1,2,0:0:0:0:
256,192,29329,1,0,0:0:0:0:
256,192,29543,1,0,0:0:0:0:
256,192,29758,1,2,0:0:0:0:
256,192,29972,1,0,0:0:0:0:
256,192,30186,1,2,0:0:0:0:
256,192,30400,1,0,0:0:0:0:
256,192,30508,1,2,0:0:0:0:
256,192,30615,1,0,0:0:0:0:
256,192,30650,1,0,0:0:0:0:
256,192,30686,1,0,0:0:0:0:
256,192,30829,1,2,0:0:0:0:
256,192,31043,1,0,0:0:0:0:
256,192,31258,1,6,0:0:0:0:
256,192,31472,1,0,0:0:0:0:
256,192,31686,1,0,0:0:0:0:
256,192,31793,1,0,0:0:0:0:
256,192,31900,1,2,0:0:0:0:
256,192,32115,1,0,0:0:0:0:
256,192,32329,1,2,0:0:0:0:
256,192,32543,1,0,0:0:0:0:
256,192,32758,1,2,0:0:0:0:
256,192,32972,1,4,0:0:0:0:
256,192,33186,1,0,0:0:0:0:
256,192,33293,1,2,0:0:0:0:
256,192,33508,1,0,0:0:0:0:
256,192,33615,1,2,0:0:0:0:
256,192,33722,1,0,0:0:0:0:
256,192,33829,1,0,0:0:0:0:
256,192,34258,1,2,0:0:0:0:
256,192,34472,1,0,0:0:0:0:
256,192,34686,1,2,0:0:0:0:
256,192,34740,1,2,0:0:0:0:
256,192,34793,1,2,0:0:0:0:
256,192,34847,1,2,0:0:0:0:
256,192,34900,1,0,0:0:0:0:
256,192,35115,1,0,0:0:0:0:
256,192,35329,1,2,0:0:0:0:
256,192,35543,1,0,0:0:0:0:
256,192,35758,1,0,0:0:0:0:
256,192,35865,1,2,0:0:0:0:
256,192,35972,1,0,0:0:0:0:
256,192,36008,1,0,0:0:0:0:
256,192,36043,1,0,0:0:0:0:
256,192,36186,1,2,0:0:0:0:
256,192,36400,1,0,0:0:0:0:
256,192,36615,1,0,0:0:0:0:
256,192,36722,1,2,0:0:0:0:
256,192,36829,1,0,0:0:0:0:
256,192,37043,1,2,0:0:0:0:
256,192,37258,1,0,0:0:0:0:
256,192,37686,1,2,0:0:0:0:
256,192,38115,1,2,0:0:0:0:
256,192,38329,1,0,0:0:0:0:
256,192,38436,1,0,0:0:0:0:
256,192,38543,1,2,0:0:0:0:
256,192,38650,1,0,0:0:0:0:
256,192,38758,1,0,0:0:0:0:
256,192,38865,1,2,0:0:0:0:
256,192,38972,1,0,0:0:0:0:
256,192,39079,1,0,0:0:0:0:
256,192,39186,1,2,0:0:0:0:
256,192,39293,1,0,0:0:0:0:
256,192,39400,1,0,0:0:0:0:
256,192,39508,1,2,0:0:0:0:
256,192,39615,1,0,0:0:0:0:
256,192,39722,1,0,0:0:0:0:
256,192,39829,1,2,0:0:0:0:
256,192,40043,1,0,0:0:0:0:
256,192,40150,1,0,0:0:0:0:
256,192,40258,1,2,0:0:0:0:
256,192,40365,1,0,0:0:0:0:
256,192,40472,1,2,0:0:0:0:
256,192,40579,1,0,0:0:0:0:
256,192,40686,1,2,0:0:0:0:
256,192,40900,1,2,0:0:0:0:
256,192,41115,1,0,0:0:0:0:
256,192,41329,1,0,0:0:0:0:
256,192,41543,1,2,0:0:0:0:
256,192,41865,1,0,0:0:0:0:
256,192,41972,1,2,0:0:0:0:
256,192,42079,1,0,0:0:0:0:
256,192,42186,1,2,0:0:0:0:
256,192,42293,1,0,0:0:0:0:
256,192,42400,1,2,0:0:0:0:
256,192,42508,1,0,0:0:0:0:
256,192,42615,1,2,0:0:0:0:
256,192,42722,1,8,0:0:0:0:
256,192,42829,1,2,0:0:0:0:
256,192,43043,1,0,0:0:0:0:
256,192,43258,1,6,0:0:0:0:
256,192,43365,1,0,0:0:0:0:
256,192,43472,1,2,0:0:0:0:
256,192,43579,1,0,0:0:0:0:
256,192,43686,1,2,0:0:0:0:
256,192,43793,1,0,0:0:0:0:
256,192,43900,1,2,0:0:0:0:
256,192,44008,1,0,0:0:0:0:
256,192,44115,1,2,0:0:0:0:
256,192,44222,1,0,0:0:0:0:
256,192,44329,1,2,0:0:0:0:
256,192,44436,1,0,0:0:0:0:
256,192,44543,1,2,0:0:0:0:
256,192,44650,1,0,0:0:0:0:
256,192,44758,1,2,0:0:0:0:
256,192,44865,1,0,0:0:0:0:
256,192,44918,1,0,0:0:0:0:
256,192,44972,1,2,0:0:0:0:
256,192,45079,1,0,0:0:0:0:
256,192,45186,1,2,0:0:0:0:
256,192,45293,1,0,0:0:0:0:
256,192,45400,1,2,0:0:0:0:
256,192,45508,1,0,0:0:0:0:
256,192,45561,1,0,0:0:0:0:
256,192,45615,1,2,0:0:0:0:
256,192,45722,1,0,0:0:0:0:
256,192,45829,1,2,0:0:0:0:
256,192,45936,1,0,0:0:0:0:
256,192,46043,1,2,0:0:0:0:
256,192,46150,1,0,0:0:0:0:
256,192,46258,1,2,0:0:0:0:
256,192,46365,1,0,0:0:0:0:
256,192,46472,1,2,0:0:0:0:
256,192,46579,1,0,0:0:0:0:
256,192,46633,1,0,0:0:0:0:
256,192,46686,1,2,0:0:0:0:
256,192,46793,1,0,0:0:0:0:
256,192,46900,1,2,0:0:0:0:
256,192,46954,1,2,0:0:0:0:
256,192,47008,1,0,0:0:0:0:
256,192,47061,1,0,0:0:0:0:
256,192,47115,1,2,0:0:0:0:
256,192,47222,1,0,0:0:0:0:
256,192,47329,1,2,0:0:0:0:
256,192,47436,1,0,0:0:0:0:
256,192,47543,1,2,0:0:0:0:
256,192,47650,1,0,0:0:0:0:
256,192,47758,1,2,0:0:0:0:
256,192,47865,1,0,0:0:0:0:
256,192,47972,1,2,0:0:0:0:
256,192,48079,1,0,0:0:0:0:
256,192,48186,1,2,0:0:0:0:
256,192,48293,1,0,0:0:0:0:
256,192,48400,1,2,0:0:0:0:
256,192,48507,1,0,0:0:0:0:
256,192,48615,1,2,0:0:0:0:
256,192,48722,1,2,0:0:0:0:
256,192,48829,1,2,0:0:0:0:
256,192,48936,1,0,0:0:0:0:
256,192,49043,1,2,0:0:0:0:
256,192,49150,1,0,0:0:0:0:
256,192,49258,1,2,0:0:0:0:
256,192,49365,1,0,0:0:0:0:
256,192,49472,1,2,0:0:0:0:
256,192,49579,1,0,0:0:0:0:
256,192,49633,1,0,0:0:0:0:
256,192,49686,1,2,0:0:0:0:
256,192,49793,1,0,0:0:0:0:
256,192,49900,1,2,0:0:0:0:
256,192,50007,1,0,0:0:0:0:
256,192,50115,1,2,0:0:0:0:
256,192,50222,1,0,0:0:0:0:
256,192,50329,1,2,0:0:0:0:
256,192,50436,1,0,0:0:0:0:
256,192,50543,1,2,0:0:0:0:
256,192,50650,1,0,0:0:0:0:
256,192,50758,1,2,0:0:0:0:
256,192,50865,1,0,0:0:0:0:
256,192,50972,1,2,0:0:0:0:
256,192,51079,1,0,0:0:0:0:
256,192,51186,1,2,0:0:0:0:
256,192,51293,1,2,0:0:0:0:
256,192,51400,1,2,0:0:0:0:
256,192,51508,1,0,0:0:0:0:
256,192,51615,1,2,0:0:0:0:
256,192,51722,1,0,0:0:0:0:
256,192,51775,1,0,0:0:0:0:
256,192,51829,1,2,0:0:0:0:
256,192,51936,1,0,0:0:0:0:
256,192,52043,1,2,0:0:0:0:
256,192,52150,1,2,0:0:0:0:
256,192,52258,1,2,0:0:0:0:
256,192,52365,1,0,0:0:0:0:
256,192,52472,1,2,0:0:0:0:
256,192,52579,1,0,0:0:0:0:
256,192,52686,1,2,0:0:0:0:
256,192,52793,1,0,0:0:0:0:
256,192,52900,1,2,0:0:0:0:
256,192,53008,1,0,0:0:0:0:
256,192,53061,1,0,0:0:0:0:
256,192,53115,1,2,0:0:0:0:
256,192,53222,1,0,0:0:0:0:
256,192,53329,1,2,0:0:0:0:
256,192,53436,1,0,0:0:0:0:
256,192,53543,1,2,0:0:0:0:
256,192,53650,1,0,0:0:0:0:
256,192,53758,1,2,0:0:0:0:
256,192,53811,1,2,0:0:0:0:
256,192,53865,1,0,0:0:0:0:
256,192,53918,1,0,0:0:0:0:
256,192,53972,1,2,0:0:0:0:
256,192,54079,1,0,0:0:0:0:
256,192,54186,1,2,0:0:0:0:
256,192,54293,1,0,0:0:0:0:
256,192,54400,1,2,0:0:0:0:
256,192,54508,1,0,0:0:0:0:
256,192,54615,1,2,0:0:0:0:
256,192,54722,1,0,0:0:0:0:
256,192,54829,1,2,0:0:0:0:
256,192,54936,1,0,0:0:0:0:
256,192,55043,1,2,0:0:0:0:
256,192,55150,1,0,0:0:0:0:
256,192,55258,1,2,0:0:0:0:
256,192,56972,1,0,0:0:0:0:
256,192,57186,1,2,0:0:0:0:
256,192,57293,1,0,0:0:0:0:
256,192,57400,1,2,0:0:0:0:
256,192,57508,1,0,0:0:0:0:
256,192,57615,1,2,0:0:0:0:
256,192,57722,1,2,0:0:0:0:
256,192,57829,1,2,0:0:0:0:
256,192,57936,1,0,0:0:0:0:
256,192,58043,1,2,0:0:0:0:
256,192,58150,1,2,0:0:0:0:
256,192,58258,1,2,0:0:0:0:
256,192,58365,1,0,0:0:0:0:
256,192,58472,1,2,0:0:0:0:
256,192,58579,1,0,0:0:0:0:
256,192,58686,1,2,0:0:0:0:
256,192,58793,1,2,0:0:0:0:
224,192,58900,1,2,0:0:0:0:
256,192,59008,1,0,0:0:0:0:
256,192,59115,1,2,0:0:0:0:
256,192,59222,1,2,0:0:0:0:
256,192,59329,1,2,0:0:0:0:
256,192,59436,1,0,0:0:0:0:
256,192,59543,1,2,0:0:0:0:
256,192,59758,1,0,0:0:0:0:
256,192,59865,1,0,0:0:0:0:
256,192,59972,1,2,0:0:0:0:
256,192,60079,1,0,0:0:0:0:
256,192,60186,1,0,0:0:0:0:
256,192,60293,1,0,0:0:0:0:
256,192,60400,1,2,0:0:0:0:
256,192,60511,1,0,0:0:0:0:
256,192,60622,1,0,0:0:0:0:
256,192,60733,1,0,0:0:0:0:
256,192,60848,1,2,0:0:0:0:
256,192,60968,1,0,0:0:0:0:
256,192,61088,1,0,0:0:0:0:
256,192,61213,1,0,0:0:0:0:
256,192,61338,1,6,0:0:0:0:
256,192,61560,1,0,0:0:0:0:
256,192,61671,1,0,0:0:0:0:
256,192,61782,1,2,0:0:0:0:
256,192,62004,1,0,0:0:0:0:
256,192,62226,1,2,0:0:0:0:
256,192,62449,1,2,0:0:0:0:
256,192,62671,1,0,0:0:0:0:
256,192,62893,1,2,0:0:0:0:
256,192,63115,1,0,0:0:0:0:
256,192,63338,1,0,0:0:0:0:
256,192,63449,1,0,0:0:0:0:
256,192,63560,1,2,0:0:0:0:
256,192,63782,1,0,0:0:0:0:
256,192,64004,1,2,0:0:0:0:
256,192,64449,1,2,0:0:0:0:
256,192,64893,1,0,0:0:0:0:
256,192,65115,1,0,0:0:0:0:
256,192,65226,1,0,0:0:0:0:
256,192,65337,1,2,0:0:0:0:
256,192,65560,1,0,0:0:0:0:
256,192,65782,1,2,0:0:0:0:
256,192,66004,1,2,0:0:0:0:
256,192,66226,1,0,0:0:0:0:
256,192,66449,1,2,0:0:0:0:
256,192,66671,1,0,0:0:0:0:
256,192,66893,1,0,0:0:0:0:
256,192,67004,1,0,0:0:0:0:
256,192,67115,1,2,0:0:0:0:
256,192,67338,1,0,0:0:0:0:
256,192,67560,1,2,0:0:0:0:
256,192,68004,1,0,0:0:0:0:
256,192,68226,1,2,0:0:0:0:
256,192,68440,1,4,0:0:0:0:
256,192,68868,1,4,0:0:0:0:
256,192,69297,1,4,0:0:0:0:
256,192,69726,1,4,0:0:0:0:
256,192,70154,1,4,0:0:0:0:
256,192,70583,1,4,0:0:0:0:
256,192,71011,1,4,0:0:0:0:
256,192,71440,1,4,0:0:0:0:
256,192,71654,1,2,0:0:0:0:
256,192,71868,1,0,0:0:0:0:
256,192,71976,1,4,0:0:0:0:
256,192,72190,1,0,0:0:0:0:
256,192,72297,1,4,0:0:0:0:
256,192,72511,1,0,0:0:0:0:
256,192,72618,1,4,0:0:0:0:
256,192,72840,1,0,0:0:0:0:
256,192,72951,1,4,0:0:0:0:
256,192,73173,1,2,0:0:0:0:
256,192,73303,1,0,0:0:0:0:
256,192,73359,1,0,0:0:0:0:
256,192,73414,1,0,0:0:0:0:
256,192,73506,1,0,0:0:0:0:
256,192,73618,1,2,0:0:0:0:
256,192,73733,1,0,0:0:0:0:
256,192,73791,1,0,0:0:0:0:
256,192,73848,1,0,0:0:0:0:
256,192,73964,1,2,0:0:0:0:
256,192,74079,1,0,0:0:0:0:
256,192,74137,1,0,0:0:0:0:
256,192,74194,1,0,0:0:0:0:
256,192,74310,1,2,0:0:0:0:
256,192,74425,1,0,0:0:0:0:
256,192,74483,1,0,0:0:0:0:
256,192,74541,1,0,0:0:0:0:
256,192,74656,1,2,0:0:0:0:
256,192,74771,1,0,0:0:0:0:
256,192,74831,1,0,0:0:0:0:
256,192,74891,1,0,0:0:0:0:
256,192,75011,1,2,0:0:0:0:
256,192,75179,1,0,0:0:0:0:
256,192,75304,1,0,0:0:0:0:
256,192,75429,1,0,0:0:0:0:
256,192,75554,1,8,0:0:0:0:
256,192,75768,1,0,0:0:0:0:
256,192,75982,1,2,0:0:0:0:
256,192,76196,1,0,0:0:0:0:
256,192,76411,1,2,0:0:0:0:
256,192,76625,1,0,0:0:0:0:
256,192,76732,1,0,0:0:0:0:
256,192,76839,1,2,0:0:0:0:
256,192,77054,1,0,0:0:0:0:
256,192,77268,1,2,0:0:0:0:
256,192,77375,1,8,0:0:0:0:
256,192,77482,1,0,0:0:0:0:
256,192,77696,1,2,0:0:0:0:
256,192,77911,1,0,0:0:0:0:
256,192,78125,1,2,0:0:0:0:
256,192,78339,1,0,0:0:0:0:
256,192,78446,1,0,0:0:0:0:
256,192,78554,1,2,0:0:0:0:
256,192,78661,1,0,0:0:0:0:
256,192,78768,1,0,0:0:0:0:
256,192,78875,1,0,0:0:0:0:
256,192,78982,1,2,0:0:0:0:
256,192,79089,1,8,0:0:0:0:
256,192,79196,1,0,0:0:0:0:
256,192,79411,1,2,0:0:0:0:
256,192,79518,1,0,0:0:0:0:
256,192,79625,1,0,0:0:0:0:
256,192,79732,1,0,0:0:0:0:
256,192,79839,1,2,0:0:0:0:
256,192,80054,1,0,0:0:0:0:
256,192,80161,1,0,0:0:0:0:
256,192,80268,1,2,0:0:0:0:
256,192,80482,1,0,0:0:0:0:
256,192,80696,1,2,0:0:0:0:
256,192,80911,1,0,0:0:0:0:
256,192,81018,1,0,0:0:0:0:
256,192,81125,1,2,0:0:0:0:
256,192,81232,1,0,0:0:0:0:
256,192,81339,1,0,0:0:0:0:
256,192,81553,1,2,0:0:0:0:
256,192,81982,1,0,0:0:0:0:
256,192,82089,1,2,0:0:0:0:
256,192,82196,1,0,0:0:0:0:
256,192,82303,1,0,0:0:0:0:
256,192,82411,1,2,0:0:0:0:
256,192,82625,1,0,0:0:0:0:
256,192,82839,1,2,0:0:0:0:
256,192,83053,1,0,0:0:0:0:
256,192,83268,1,2,0:0:0:0:
256,192,83482,1,0,0:0:0:0:
256,192,83589,1,0,0:0:0:0:
256,192,83696,1,2,0:0:0:0:
256,192,83911,1,0,0:0:0:0:
256,192,84018,1,0,0:0:0:0:
256,192,84125,1,2,0:0:0:0:
256,192,84232,1,0,0:0:0:0:
256,192,84339,1,0,0:0:0:0:
256,192,84446,1,0,0:0:0:0:
256,192,84553,1,2,0:0:0:0:
256,192,84661,1,0,0:0:0:0:
256,192,84768,1,0,0:0:0:0:
256,192,84875,1,0,0:0:0:0:
256,192,84982,1,2,0:0:0:0:
256,192,85196,1,0,0:0:0:0:
256,192,85303,1,0,0:0:0:0:
256,192,85411,1,2,0:0:0:0:
256,192,85625,1,0,0:0:0:0:
256,192,85839,1,2,0:0:0:0:
256,192,86053,1,0,0:0:0:0:
256,192,86268,1,2,0:0:0:0:
256,192,86482,1,0,0:0:0:0:
256,192,86536,1,0,0:0:0:0:
256,192,86589,1,0,0:0:0:0:
256,192,86696,1,2,0:0:0:0:
256,192,86911,1,0,0:0:0:0:
256,192,86964,1,0,0:0:0:0:
256,192,87018,1,0,0:0:0:0:
256,192,87125,1,2,0:0:0:0:
256,192,87339,1,0,0:0:0:0:
256,192,87446,1,0,0:0:0:0:
256,192,87553,1,2,0:0:0:0:
256,192,87768,1,2,0:0:0:0:
256,192,87875,1,2,0:0:0:0:
256,192,87982,1,0,0:0:0:0:
256,192,88196,1,0,0:0:0:0:
256,192,88411,1,2,0:0:0:0:
256,192,89268,1,6,0:0:0:0:
256,192,89482,1,0,0:0:0:0:
256,192,89589,1,0,0:0:0:0:
256,192,89696,1,6,0:0:0:0:
256,192,89911,1,0,0:0:0:0:
256,192,90125,1,6,0:0:0:0:
256,192,90339,1,2,0:0:0:0:
256,192,90446,1,8,0:0:0:0:
256,192,90553,1,0,0:0:0:0:
256,192,90768,1,0,0:0:0:0:
256,192,90982,1,6,0:0:0:0:
256,192,91196,1,0,0:0:0:0:
256,192,91303,1,0,0:0:0:0:
256,192,91411,1,6,0:0:0:0:
256,192,91625,1,0,0:0:0:0:
256,192,91839,1,6,0:0:0:0:
256,192,92268,1,2,0:0:0:0:
256,192,92696,1,4,0:0:0:0:
256,192,92911,1,0,0:0:0:0:
256,192,92964,1,0,0:0:0:0:
256,192,93018,1,0,0:0:0:0:
256,192,93071,1,0,0:0:0:0:
256,192,93125,1,2,0:0:0:0:
256,192,93232,1,0,0:0:0:0:
256,192,93339,1,2,0:0:0:0:
256,192,93446,1,0,0:0:0:0:
256,192,93553,1,2,0:0:0:0:
256,192,93661,1,0,0:0:0:0:
256,192,93768,1,0,0:0:0:0:
256,192,93803,1,0,0:0:0:0:
256,192,93839,1,0,0:0:0:0:
256,192,93982,1,2,0:0:0:0:
256,192,94089,1,2,0:0:0:0:
256,192,94196,1,0,0:0:0:0:
256,192,94303,1,0,0:0:0:0:
256,192,94357,1,0,0:0:0:0:
256,192,94411,1,2,0:0:0:0:
256,192,94625,1,0,0:0:0:0:
256,192,94839,1,2,0:0:0:0:
256,192,94946,1,2,0:0:0:0:
256,192,95053,1,2,0:0:0:0:
256,192,95268,1,0,0:0:0:0:
256,192,95375,1,0,0:0:0:0:
256,192,95482,1,2,0:0:0:0:
256,192,95589,1,0,0:0:0:0:
256,192,95696,1,2,0:0:0:0:
256,192,95803,1,2,0:0:0:0:
256,192,95911,1,2,0:0:0:0:
256,192,96018,1,0,0:0:0:0:
256,192,96125,1,2,0:0:0:0:
256,192,96339,1,0,0:0:0:0:
256,192,96446,1,2,0:0:0:0:
256,192,96661,1,0,0:0:0:0:
256,192,96768,1,2,0:0:0:0:
256,192,96982,1,0,0:0:0:0:
256,192,97090,1,2,0:0:0:0:
256,192,97196,1,0,0:0:0:0:
256,192,97303,1,0,0:0:0:0:
256,192,97411,1,2,0:0:0:0:
256,192,97518,1,0,0:0:0:0:
256,192,97625,1,2,0:0:0:0:
256,192,97732,1,2,0:0:0:0:
256,192,97839,1,2,0:0:0:0:
256,192,98053,1,0,0:0:0:0:
256,192,98268,1,2,0:0:0:0:
256,192,98321,1,2,0:0:0:0:
256,192,98375,1,0,0:0:0:0:
256,192,98428,1,0,0:0:0:0:
256,192,98482,1,2,0:0:0:0:
256,192,98536,1,2,0:0:0:0:
256,192,98589,1,0,0:0:0:0:
256,192,98643,1,0,0:0:0:0:
256,192,98696,1,2,0:0:0:0:
256,192,98803,1,2,0:0:0:0:
256,192,99018,1,0,0:0:0:0:
256,192,99125,1,2,0:0:0:0:
256,192,99339,1,0,0:0:0:0:
256,192,99446,1,0,0:0:0:0:
256,192,99553,1,2,0:0:0:0:
256,192,99768,1,2,0:0:0:0:
256,192,99982,1,0,0:0:0:0:
256,192,100196,1,2,0:0:0:0:
256,192,100411,1,0,0:0:0:0:
256,192,100518,1,2,0:0:0:0:
256,192,100625,1,0,0:0:0:0:
256,192,100661,1,0,0:0:0:0:
256,192,100696,1,0,0:0:0:0:
256,192,100839,1,2,0:0:0:0:
256,192,101053,1,0,0:0:0:0:
256,192,101268,1,2,0:0:0:0:
256,192,101482,1,0,0:0:0:0:
256,192,101696,1,0,0:0:0:0:
256,192,101803,1,0,0:0:0:0:
256,192,101911,1,2,0:0:0:0:
256,192,102125,1,0,0:0:0:0:
256,192,102339,1,2,0:0:0:0:
256,192,102553,1,0,0:0:0:0:
256,192,102768,1,2,0:0:0:0:
416,192,102982,2,0,L|64:192,1,349.99999165535
256,192,103625,1,0,0:0:0:0:
256,192,103732,1,0,0:0:0:0:
256,192,103839,1,2,0:0:0:0:
256,192,104053,1,0,0:0:0:0:
256,192,104161,1,2,0:0:0:0:
256,192,104375,1,0,0:0:0:0:
256,192,104482,1,2,0:0:0:0:
256,192,104696,1,0,0:0:0:0:
256,192,104803,12,0,105018,0:0:0:0:
256,192,105125,5,2,0:0:0:0:
256,192,105553,1,0,0:0:0:0:
256,192,105768,1,0,0:0:0:0:
256,192,105875,1,2,0:0:0:0:
256,192,105982,1,0,0:0:0:0:
256,192,106018,1,0,0:0:0:0:
256,192,106053,1,0,0:0:0:0:
256,192,106196,1,0,0:0:0:0:
256,192,106303,1,0,0:0:0:0:
256,192,106411,1,2,0:0:0:0:
256,192,106518,1,0,0:0:0:0:
256,192,106625,1,0,0:0:0:0:
256,192,106732,1,2,0:0:0:0:
256,192,106840,1,2,0:0:0:0:
256,192,107054,1,0,0:0:0:0:
256,192,107268,1,0,0:0:0:0:
256,192,107696,1,2,0:0:0:0:
256,192,108125,1,0,0:0:0:0:
256,192,108339,1,0,0:0:0:0:
256,192,108446,1,0,0:0:0:0:
256,192,108553,1,2,0:0:0:0:
256,192,108661,1,0,0:0:0:0:
256,192,108768,1,0,0:0:0:0:
256,192,108875,1,2,0:0:0:0:
256,192,108982,1,0,0:0:0:0:
256,192,109089,1,0,0:0:0:0:
256,192,109196,1,2,0:0:0:0:
256,192,109303,1,0,0:0:0:0:
256,192,109411,1,0,0:0:0:0:
256,192,109518,1,2,0:0:0:0:
256,192,109625,1,0,0:0:0:0:
256,192,109732,1,0,0:0:0:0:
256,192,109839,1,2,0:0:0:0:
256,192,110053,1,0,0:0:0:0:
256,192,110161,1,0,0:0:0:0:
256,192,110268,1,2,0:0:0:0:
256,192,110375,1,0,0:0:0:0:
256,192,110482,1,2,0:0:0:0:
256,192,110589,1,2,0:0:0:0:
256,192,110696,1,2,0:0:0:0:
256,192,110911,1,0,0:0:0:0:
256,192,111018,1,0,0:0:0:0:
256,192,111125,1,2,0:0:0:0:
256,192,111232,1,0,0:0:0:0:
256,192,111339,1,2,0:0:0:0:
256,192,111446,1,2,0:0:0:0:
256,192,111553,1,2,0:0:0:0:
256,192,111768,1,0,0:0:0:0:
256,192,111875,1,0,0:0:0:0:
256,192,111982,1,2,0:0:0:0:
256,192,112089,1,0,0:0:0:0:
256,192,112196,1,2,0:0:0:0:
256,192,112303,1,2,0:0:0:0:
256,192,112411,1,2,0:0:0:0:
256,192,112625,1,0,0:0:0:0:
256,192,112839,1,2,0:0:0:0:
256,192,113053,1,2,0:0:0:0:
256,192,113268,1,0,0:0:0:0:
256,192,113589,1,0,0:0:0:0:
256,192,113696,1,2,0:0:0:0:
256,192,113803,1,0,0:0:0:0:
256,192,113911,1,2,0:0:0:0:
256,192,114018,1,0,0:0:0:0:
256,192,114125,1,2,0:0:0:0:
256,192,114232,1,0,0:0:0:0:
256,192,114339,1,2,0:0:0:0:
256,192,114446,1,2,0:0:0:0:
256,192,114553,1,2,0:0:0:0:
256,192,114768,1,2,0:0:0:0:
256,192,114982,1,6,0:0:0:0:
256,192,115089,1,0,0:0:0:0:
256,192,115196,1,2,0:0:0:0:
256,192,115303,1,0,0:0:0:0:
256,192,115410,1,2,0:0:0:0:
256,192,115517,1,0,0:0:0:0:
256,192,115624,1,2,0:0:0:0:
256,192,115732,1,0,0:0:0:0:
256,192,115839,1,2,0:0:0:0:
256,192,115946,1,0,0:0:0:0:
256,192,116053,1,2,0:0:0:0:
256,192,116160,1,0,0:0:0:0:
256,192,116267,1,2,0:0:0:0:
256,192,116374,1,0,0:0:0:0:
256,192,116482,1,2,0:0:0:0:
256,192,116589,1,2,0:0:0:0:
256,192,116696,1,2,0:0:0:0:
256,192,116803,1,0,0:0:0:0:
256,192,116910,1,2,0:0:0:0:
256,192,117017,1,0,0:0:0:0:
256,192,117071,1,0,0:0:0:0:
256,192,117124,1,2,0:0:0:0:
256,192,117232,1,0,0:0:0:0:
256,192,117286,1,0,0:0:0:0:
256,192,117339,1,2,0:0:0:0:
256,192,117446,1,0,0:0:0:0:
256,192,117500,1,0,0:0:0:0:
256,192,117553,1,2,0:0:0:0:
256,192,117661,1,0,0:0:0:0:
256,192,117714,1,0,0:0:0:0:
256,192,117767,1,2,0:0:0:0:
256,192,117874,1,0,0:0:0:0:
256,192,117928,1,0,0:0:0:0:
256,192,117982,1,2,0:0:0:0:
256,192,118089,1,0,0:0:0:0:
256,192,118143,1,0,0:0:0:0:
256,192,118196,1,2,0:0:0:0:
256,192,118303,1,0,0:0:0:0:
256,192,118410,1,2,0:0:0:0:
256,192,118517,1,0,0:0:0:0:
256,192,118624,1,2,0:0:0:0:
256,192,118678,1,2,0:0:0:0:
256,192,118732,1,0,0:0:0:0:
256,192,118786,1,0,0:0:0:0:
256,192,118839,1,2,0:0:0:0:
256,192,118946,1,0,0:0:0:0:
256,192,119053,1,2,0:0:0:0:
256,192,119160,1,0,0:0:0:0:
256,192,119267,1,2,0:0:0:0:
256,192,119374,1,0,0:0:0:0:
256,192,119482,1,2,0:0:0:0:
256,192,119589,1,0,0:0:0:0:
256,192,119696,1,2,0:0:0:0:
256,192,119803,1,2,0:0:0:0:
256,192,119910,1,0,0:0:0:0:
256,192,120017,1,0,0:0:0:0:
256,192,120124,1,2,0:0:0:0:
256,192,120231,1,0,0:0:0:0:
256,192,120339,1,2,0:0:0:0:
256,192,120446,1,0,0:0:0:0:
256,192,120500,1,0,0:0:0:0:
256,192,120553,1,2,0:0:0:0:
256,192,120660,1,0,0:0:0:0:
256,192,120714,1,0,0:0:0:0:
256,192,120767,1,2,0:0:0:0:
256,192,120874,1,0,0:0:0:0:
256,192,120928,1,0,0:0:0:0:
256,192,120982,1,2,0:0:0:0:
256,192,121089,1,0,0:0:0:0:
256,192,121143,1,0,0:0:0:0:
256,192,121196,1,2,0:0:0:0:
256,192,121303,1,2,0:0:0:0:
256,192,121410,1,2,0:0:0:0:
256,192,121517,1,0,0:0:0:0:
256,192,121624,1,2,0:0:0:0:
256,192,121731,1,0,0:0:0:0:
256,192,121839,1,2,0:0:0:0:
256,192,121946,1,0,0:0:0:0:
256,192,122053,1,2,0:0:0:0:
256,192,122160,1,0,0:0:0:0:
256,192,122267,1,2,0:0:0:0:
256,192,122374,1,0,0:0:0:0:
256,192,122482,1,2,0:0:0:0:
256,192,122589,1,0,0:0:0:0:
256,192,122696,1,2,0:0:0:0:
256,192,122803,1,0,0:0:0:0:
256,192,122910,1,2,0:0:0:0:
256,192,123017,1,0,0:0:0:0:
256,192,123071,1,0,0:0:0:0:
256,192,123124,1,2,0:0:0:0:
256,192,123232,1,0,0:0:0:0:
256,192,123339,1,2,0:0:0:0:
256,192,123446,1,0,0:0:0:0:
256,192,123553,1,2,0:0:0:0:
256,192,123660,1,0,0:0:0:0:
256,192,123767,1,2,0:0:0:0:
256,192,123874,1,2,0:0:0:0:
256,192,123982,1,2,0:0:0:0:
256,192,124089,1,0,0:0:0:0:
256,192,124143,1,0,0:0:0:0:
256,192,124196,1,2,0:0:0:0:
256,192,124303,1,0,0:0:0:0:
256,192,124357,1,0,0:0:0:0:
256,192,124410,1,2,0:0:0:0:
256,192,124517,1,0,0:0:0:0:
256,192,124571,1,0,0:0:0:0:
256,192,124625,1,2,0:0:0:0:
256,192,124732,1,2,0:0:0:0:
256,192,124839,1,2,0:0:0:0:
256,192,124946,1,0,0:0:0:0:
256,192,125053,1,2,0:0:0:0:
256,192,125160,1,0,0:0:0:0:
256,192,125267,1,2,0:0:0:0:
256,192,125374,1,0,0:0:0:0:
256,192,125482,1,2,0:0:0:0:
256,192,125535,1,2,0:0:0:0:
256,192,125589,1,0,0:0:0:0:
256,192,125643,1,0,0:0:0:0:
256,192,125696,1,2,0:0:0:0:
256,192,125803,1,0,0:0:0:0:
256,192,125910,1,2,0:0:0:0:
256,192,126017,1,0,0:0:0:0:
256,192,126124,1,2,0:0:0:0:
256,192,126232,1,0,0:0:0:0:
256,192,126339,1,2,0:0:0:0:
256,192,126446,1,0,0:0:0:0:
256,192,126553,1,2,0:0:0:0:
256,192,126660,1,0,0:0:0:0:
256,192,126767,1,2,0:0:0:0:
256,192,126874,1,0,0:0:0:0:
256,192,126982,2,0,L|416:192,4,139.99999666214
256,192,127839,1,2,0:0:0:0:
256,192,128053,1,0,0:0:0:0:
256,192,128107,1,0,0:0:0:0:
256,192,128161,1,0,0:0:0:0:
256,192,128268,1,2,0:0:0:0:
256,192,128482,1,0,0:0:0:0:
256,192,128696,1,2,0:0:0:0:
256,192,128803,1,0,0:0:0:0:
256,192,128911,1,2,0:0:0:0:
256,192,129018,1,0,0:0:0:0:
256,192,129125,1,2,0:0:0:0:
256,192,129232,1,0,0:0:0:0:
256,192,129339,1,2,0:0:0:0:
256,192,129446,1,0,0:0:0:0:
256,192,129554,1,2,0:0:0:0:
256,192,129661,1,0,0:0:0:0:
256,192,129768,1,2,0:0:0:0:
256,192,129875,1,0,0:0:0:0:
256,192,129982,1,2,0:0:0:0:
256,192,130089,1,0,0:0:0:0:
256,192,130196,1,2,0:0:0:0:
256,192,130304,1,0,0:0:0:0:
256,192,130357,1,0,0:0:0:0:
256,192,130411,1,2,0:0:0:0:
256,192,130518,1,0,0:0:0:0:
256,192,130625,1,0,0:0:0:0:
256,192,130732,1,0,0:0:0:0:
256,192,130840,1,2,0:0:0:0:
256,192,130947,1,0,0:0:0:0:
256,192,131054,1,2,0:0:0:0:
256,192,131161,1,0,0:0:0:0:
256,192,131268,1,2,0:0:0:0:
256,192,131375,1,0,0:0:0:0:
256,192,131483,1,2,0:0:0:0:
256,192,131590,1,0,0:0:0:0:
256,192,131697,1,2,0:0:0:0:
256,192,131804,1,0,0:0:0:0:
256,192,131911,1,2,0:0:0:0:
256,192,132018,1,0,0:0:0:0:
256,192,132126,1,2,0:0:0:0:
256,192,132233,1,0,0:0:0:0:
256,192,132339,1,2,0:0:0:0:
256,192,132393,1,2,0:0:0:0:
256,192,132447,1,0,0:0:0:0:
256,192,132500,1,0,0:0:0:0:
256,192,132553,1,2,0:0:0:0:
256,192,132660,1,0,0:0:0:0:
256,192,132768,1,2,0:0:0:0:
256,192,132875,1,0,0:0:0:0:
256,192,132982,1,2,0:0:0:0:
256,192,133089,1,0,0:0:0:0:
256,192,133196,1,2,0:0:0:0:
256,192,133303,1,0,0:0:0:0:
256,192,133411,1,2,0:0:0:0:
256,192,133518,1,0,0:0:0:0:
256,192,133625,1,2,0:0:0:0:
256,192,133732,1,0,0:0:0:0:
256,192,133839,1,2,0:0:0:0:
256,192,133946,1,0,0:0:0:0:
256,192,134053,1,2,0:0:0:0:
256,192,134161,1,0,0:0:0:0:
256,192,134214,1,0,0:0:0:0:
256,192,134268,1,2,0:0:0:0:
256,192,134375,1,0,0:0:0:0:
256,192,134428,1,0,0:0:0:0:
256,192,134482,1,2,0:0:0:0:
256,192,134589,1,0,0:0:0:0:
256,192,134643,1,0,0:0:0:0:
256,192,134696,1,2,0:0:0:0:
256,192,134803,1,0,0:0:0:0:
256,192,134911,1,2,0:0:0:0:
256,192,134964,1,2,0:0:0:0:
256,192,135018,1,0,0:0:0:0:
256,192,135071,1,0,0:0:0:0:
256,192,135125,1,2,0:0:0:0:
256,192,135232,1,0,0:0:0:0:
256,192,135339,1,2,0:0:0:0:
256,192,135446,1,0,0:0:0:0:
256,192,135553,1,2,0:0:0:0:
256,192,135661,1,0,0:0:0:0:
256,192,135768,1,2,0:0:0:0:
256,192,135875,1,0,0:0:0:0:
256,192,135982,1,2,0:0:0:0:
256,192,136089,1,0,0:0:0:0:
256,192,136196,1,2,0:0:0:0:
256,192,136303,1,2,0:0:0:0:
256,192,136411,1,2,0:0:0:0:
256,192,136518,1,0,0:0:0:0:
256,192,136625,1,2,0:0:0:0:
256,192,136678,1,2,0:0:0:0:
256,192,136732,1,0,0:0:0:0:
256,192,136786,1,0,0:0:0:0:
256,192,136839,1,2,0:0:0:0:
256,192,136946,1,0,0:0:0:0:
256,192,137053,1,2,0:0:0:0:
256,192,137161,1,2,0:0:0:0:
256,192,137268,1,2,0:0:0:0:
256,192,137375,1,0,0:0:0:0:
256,192,137482,1,2,0:0:0:0:
256,192,137589,1,0,0:0:0:0:
256,192,137643,1,0,0:0:0:0:
256,192,137696,1,2,0:0:0:0:
256,192,137803,1,0,0:0:0:0:
256,192,137857,1,0,0:0:0:0:
256,192,137911,1,2,0:0:0:0:
256,192,138018,1,0,0:0:0:0:
256,192,138071,1,0,0:0:0:0:
256,192,138125,1,2,0:0:0:0:
256,192,138232,1,0,0:0:0:0:
256,192,138286,1,0,0:0:0:0:
256,192,138339,1,2,0:0:0:0:
256,192,138446,1,0,0:0:0:0:
256,192,138500,1,0,0:0:0:0:
256,192,138553,1,2,0:0:0:0:
256,192,138661,1,0,0:0:0:0:
256,192,138714,1,0,0:0:0:0:
256,192,138768,1,2,0:0:0:0:
256,192,138875,1,0,0:0:0:0:
256,192,138928,1,0,0:0:0:0:
256,192,138982,1,2,0:0:0:0:
256,192,139089,1,0,0:0:0:0:
256,192,139196,1,2,0:0:0:0:
256,192,139303,1,2,0:0:0:0:
256,192,139411,1,2,0:0:0:0:
256,192,139518,1,0,0:0:0:0:
256,192,139625,1,2,0:0:0:0:
256,192,139732,1,0,0:0:0:0:
256,192,139839,1,2,0:0:0:0:
256,192,139946,1,0,0:0:0:0:
256,192,140053,1,2,0:0:0:0:
256,192,140161,1,0,0:0:0:0:
256,192,140268,1,2,0:0:0:0:
256,192,140375,1,0,0:0:0:0:
256,192,140482,1,2,0:0:0:0:
256,192,140589,1,0,0:0:0:0:
256,192,140696,1,2,0:0:0:0:
256,192,140803,1,4,0:0:0:0:
256,192,141018,1,0,0:0:0:0:
256,192,141125,1,4,0:0:0:0:
256,192,141339,1,0,0:0:0:0:
256,192,141446,1,4,0:0:0:0:
256,192,141661,1,0,0:0:0:0:
256,192,141768,1,4,0:0:0:0:
256,192,141982,1,2,0:0:0:0:
256,192,142089,1,0,0:0:0:0:
256,192,142143,1,0,0:0:0:0:
256,192,142196,1,0,0:0:0:0:
256,192,142303,1,2,0:0:0:0:
256,192,142411,1,0,0:0:0:0:
256,192,142518,1,0,0:0:0:0:
256,192,142571,1,0,0:0:0:0:
256,192,142625,1,0,0:0:0:0:
256,192,142732,1,2,0:0:0:0:
256,192,142839,1,0,0:0:0:0:
256,192,142893,1,0,0:0:0:0:
256,192,142946,1,0,0:0:0:0:
256,192,143053,1,2,0:0:0:0:
256,192,143161,1,0,0:0:0:0:
256,192,143214,1,0,0:0:0:0:
256,192,143268,1,0,0:0:0:0:
256,192,143375,1,2,0:0:0:0:
256,192,143482,1,0,0:0:0:0:
256,192,143536,1,0,0:0:0:0:
256,192,143589,1,0,0:0:0:0:
256,192,143696,1,2,0:0:0:0:
256,192,143803,1,0,0:0:0:0:
256,192,143911,1,0,0:0:0:0:
256,192,144018,1,2,0:0:0:0:
256,192,144982,5,2,0:0:0:0:
