osu file format v14

[General]
AudioFilename: audio.mp3
AudioLeadIn: 0
PreviewTime: 95607
Countdown: 0
SampleSet: Normal
StackLeniency: 0.7
Mode: 1
LetterboxInBreaks: 0
WidescreenStoryboard: 0

[Editor]
Bookmarks: 145727,276019
DistanceSpacing: 1
BeatDivisor: 8
GridSize: 32
TimelineZoom: 2.399999

[Metadata]
Title:Kyouki Ranbu (extended ver.)
TitleUnicode:狂喜蘭舞 (extended ver.)
Artist:LeaF
ArtistUnicode:LeaF
Creator:Greenshell
Version:Chaos Oni
Source:osu!
Tags:axer grünschale featured artist fa mappers guild mg rapture hardcore electronic instrumental nanobeat muse dash doppelganger
BeatmapID:2409397
BeatmapSetID:1154434

[Difficulty]
HPDrainRate:5
CircleSize:3
OverallDifficulty:6.5
ApproachRate:10
SliderMultiplier:1.4
SliderTickRate:1

[Events]
//Background and Video events
0,0,"RANMA.jpg",0,80
//Break Periods
//Storyboard Layer 0 (Background)
//Storyboard Layer 1 (Fail)
//Storyboard Layer 2 (Pass)
//Storyboard Layer 3 (Foreground)
//Storyboard Layer 4 (Overlay)
//Storyboard Sound Samples

[TimingPoints]
695,260.869565217391,4,1,0,70,1,0
695,-111.111111111111,4,1,0,70,0,0
2486,-111.111111111111,4,1,0,80,0,0
2551,-109.58904109589,4,1,0,80,0,0
2616,-108.108108108108,4,1,0,80,0,0
2682,-106.666666666667,4,1,0,80,0,0
2747,-105.263157894737,4,1,0,80,0,0
26812,-105.820105820106,4,1,0,80,0,0
26877,-106.382978723404,4,1,0,80,0,0
27008,-107.52688172043,4,1,0,80,0,0
27073,-108.108108108108,4,1,0,80,0,0
27138,-108.695652173913,4,1,0,80,0,0
27269,-109.89010989011,4,1,0,80,0,0
27399,-106.382978723404,4,1,0,100,0,0
27529,-104.166666666667,4,1,0,100,0,0
27660,-102.040816326531,4,1,0,100,0,0
27790,-100,4,1,0,100,0,0
27921,-100,4,1,0,90,0,0
35747,-100,4,1,0,100,0,0
36269,-100,4,1,0,90,0,0
44225,-100,4,1,0,100,0,0
44616,-100,4,1,0,90,0,0
52442,-100,4,1,0,100,0,0
52964,-100,4,1,0,90,0,0
58801,-83.3333333333333,4,1,0,90,0,0
58932,-100,4,1,0,90,0,0
59225,-98.0392156862745,4,1,0,90,0,0
59290,-97.0873786407767,4,1,0,90,0,0
59356,-96.1538461538461,4,1,0,90,0,0
59486,-94.3396226415094,4,1,0,90,0,0
59616,-92.5925925925926,4,1,0,90,0,0
59747,-90.9090909090909,4,1,0,90,0,0
59877,-89.2857142857143,4,1,0,90,0,0
60008,-87.719298245614,4,1,0,90,0,0
60138,-86.2068965517241,4,1,0,90,0,0
60269,-87.719298245614,4,1,0,90,0,0
60399,-89.2857142857143,4,1,0,90,0,0
60660,-92.5925925925926,4,1,0,90,0,0
60790,-94.3396226415094,4,1,0,90,0,0
60856,-95.2380952380952,4,1,0,90,0,0
60921,-96.1538461538461,4,1,0,90,0,0
60986,-97.0873786407767,4,1,0,90,0,0
61051,-98.0392156862745,4,1,0,90,0,0
61116,-99.009900990099,4,1,0,90,0,0
61182,-100,4,1,0,90,0,0
61442,-102.564102564103,4,1,0,80,0,0
61703,-105.263157894737,4,1,0,80,0,0
61964,-108.108108108108,4,1,0,80,0,0
62225,-111.111111111111,4,1,0,80,0,0
62486,-114.285714285714,4,1,0,80,0,0
62758,-117.647058823529,4,1,0,80,0,0
62801,-118.218836201235,4,1,0,80,0,0
62845,-118.811881188119,4,1,0,80,0,0
62932,-120,4,1,0,80,0,0
63019,-121.212121212121,4,1,0,80,0,0
63279,-125,4,1,0,80,0,0
69529,-125,4,1,0,70,0,0
69790,-129.032258064516,4,1,0,70,0,0
70051,-133.333333333333,4,1,0,70,0,0
70312,-137.931034482759,4,1,0,70,0,0
70442,-140.350877192982,4,1,0,70,0,0
70573,-142.857142857143,4,1,0,70,0,0
70834,-148.148148148148,4,1,0,70,0,0
71084,-153.846153846154,4,1,0,70,0,0
71171,-155.844155844156,4,1,0,70,0,0
71258,-157.894736842105,4,1,0,70,0,0
71345,-160,4,1,0,70,0,0
71616,-166.666666666667,4,1,0,70,0,0
74225,-153.846153846154,4,1,0,80,0,0
75529,-142.857142857143,4,1,0,80,0,0
76279,-138.888888888889,4,1,0,80,0,0
76801,-135.135135135135,4,1,0,80,0,0
77062,-133.333333333333,4,1,0,80,0,0
77323,-131.578947368421,4,1,0,80,0,0
77453,-130.718954248366,4,1,0,80,0,0
77877,-125,4,1,0,80,0,0
86225,-111.111111111111,4,1,0,80,0,0
88312,-90.9090909090909,4,1,0,100,0,0
89356,-125,4,1,0,80,0,0
93529,-100,4,1,0,80,0,0
94573,-125,4,1,0,80,0,0
94703,-121.951219512195,4,1,0,80,0,0
94769,-120.481927710843,4,1,0,80,0,0
94834,-119.047619047619,4,1,0,80,0,0
94964,-116.279069767442,4,1,0,80,0,0
95095,-113.636363636364,4,1,0,80,0,0
95225,-111.111111111111,4,1,0,80,0,0
95356,-108.695652173913,4,1,0,80,0,0
95486,-106.382978723404,4,1,0,80,0,0
95651,-100,4,1,0,100,0,1
112347,-100,4,1,0,80,0,0
112442,-100,4,1,0,80,0,0
112572,-101.583070571791,4,1,0,80,0,0
112703,-103.217176163851,4,1,0,80,0,0
112833,-104.904604997446,4,1,0,80,0,0
112964,-106.648237851166,4,1,0,80,0,0
113029,-107.52688172043,4,1,0,80,0,0
113094,-108.450695060505,4,1,0,80,0,0
113225,-110.315126189473,4,1,0,80,0,0
113355,-112.244909412746,4,1,0,80,0,0
113485,-114.243281067032,4,1,0,80,0,0
113616,-116.314234536023,4,1,0,80,0,0
113746,-118.46151659172,4,1,0,80,0,0
113877,-120.68971759813,4,1,0,80,0,0
114138,-125.407102807489,4,1,0,80,0,0
118833,-121.951219512195,4,1,0,80,0,0
118964,-120.481927710843,4,1,0,80,0,0
119094,-119.047619047619,4,1,0,80,0,0
119225,-117.647058823529,4,1,0,80,0,0
119290,-116.959064327485,4,1,0,80,0,0
119355,-116.279069767442,4,1,0,80,0,0
119485,-116.279069767442,4,1,0,80,0,0
119616,-113.636363636364,4,1,0,80,0,0
119877,-112.359550561798,4,1,0,80,0,0
120007,-111.111111111111,4,1,0,80,0,0
120138,-109.89010989011,4,1,0,80,0,0
120398,-106.382978723404,4,1,0,80,0,0
120464,-104.712041884817,4,1,0,80,0,0
120529,-103.092783505155,4,1,0,80,0,0
120595,-101.522842639594,4,1,0,80,0,0
120694,-100,4,1,0,100,0,1
120790,-100,4,1,0,100,0,1
129019,-100,4,1,0,80,0,1
129042,-100,4,1,0,80,0,0
129106,-125,4,1,0,70,0,0
133149,-111.111111111111,4,1,0,80,0,0
135497,-108.108108108108,4,1,0,80,0,0
135758,-105.263157894737,4,1,0,80,0,0
136019,-102.564102564103,4,1,0,80,0,0
136279,-100,4,1,0,80,0,0
136834,-90.9090909090909,4,1,0,80,0,0
137584,-105.263157894737,4,1,0,80,0,0
144660,-106.382978723404,4,1,0,80,0,0
144725,-106.951871657754,4,1,0,80,0,0
144790,-107.52688172043,4,1,0,80,0,0
144921,-108.695652173913,4,1,0,80,0,0
144986,-109.289617486339,4,1,0,80,0,0
145051,-109.89010989011,4,1,0,80,0,0
145149,-111.111111111111,4,1,0,80,0,0
145312,-108.695652173913,4,1,0,80,0,0
145377,-107.52688172043,4,1,0,80,0,0
145442,-106.382978723404,4,1,0,80,0,0
145573,-104.166666666667,4,1,0,80,0,0
145703,-100,4,1,0,90,0,0
153660,-100,4,1,0,100,0,0
154116,-100,4,1,0,90,0,0
162138,-100,4,1,0,100,0,0
162497,-100,4,1,0,90,0,0
170323,-100,4,1,0,100,0,0
170845,-100,4,1,0,90,0,0
175019,-100,4,1,0,40,0,0
175279,-100,4,1,0,43,0,0
175345,-100,4,1,0,46,0,0
175410,-100,4,1,0,49,0,0
175475,-100,4,1,0,52,0,0
175540,-100,4,1,0,55,0,0
175606,-100,4,1,0,58,0,0
175671,-100,4,1,0,61,0,0
175736,-100,4,1,0,64,0,0
175801,-100,4,1,0,67,0,0
175866,-100,4,1,0,70,0,0
175932,-100,4,1,0,73,0,0
175997,-100,4,1,0,76,0,0
176062,-100,4,1,0,79,0,0
176127,-100,4,1,0,82,0,0
176192,-100,4,1,0,85,0,0
176258,-100,4,1,0,88,0,0
176323,-100,4,1,0,91,0,0
176388,-100,4,1,0,94,0,0
176453,-100,4,1,0,97,0,0
176519,-100,4,1,0,100,0,0
176975,-100,4,1,0,90,0,0
179127,-100,4,1,0,80,0,0
179388,-101.264182048696,4,1,0,80,0,0
179649,-102.560631281198,4,1,0,80,0,0
179910,-103.890814909163,4,1,0,80,0,0
180171,-105.25595617142,4,1,0,80,0,0
180432,-106.65745146286,4,1,0,80,0,0
180692,-108.096655705666,4,1,0,80,0,0
180953,-109.575351682091,4,1,0,80,0,0
181214,-111.095064046304,4,1,0,80,0,0
181475,-112.657523382069,4,1,0,80,0,0
181736,-114.264428455042,4,1,0,80,0,0
181899,-115.361543076,4,1,0,80,0,0
181997,-115.917971806431,4,1,0,80,0,0
182127,-116.762820849636,4,1,0,80,0,0
182258,-117.620075394468,4,1,0,80,0,0
182421,-118.782761770481,4,1,0,80,0,0
182519,-119.37291022799,4,1,0,80,0,0
182649,-120.269065954353,4,1,0,80,0,0
182779,-121.178631844775,4,1,0,80,0,0
182910,-122.102209317375,4,1,0,80,0,0
183040,-123.039973226502,4,1,0,80,0,0
183301,-124.959388198835,4,1,0,80,0,0
208335,-133.333333333333,4,1,0,77,0,0
208337,266.666666666667,4,1,0,77,1,0
208601,-139.89751108338,4,1,0,75,0,0
208770,-144.644745273371,4,1,0,73,0,0
208868,-147.141265915167,4,1,0,72,0,0
209135,-155.176373466082,4,1,0,70,0,0
209403,279.06976744186,4,1,0,68,1,0
209403,-156.844378642757,4,1,0,68,0,0
209680,-166.459463346304,4,1,0,66,0,0
209963,279.06976744186,4,1,0,64,1,8
209963,-177.330410268338,4,1,0,64,0,0
210238,-188.679245283019,4,1,0,63,0,0
210576,324.324324324324,4,1,0,61,1,0
210576,-175.08879249541,4,1,0,61,0,0
210900,333.333333333333,4,1,0,59,1,8
210900,-182.184999352737,4,1,0,59,0,0
211233,369.230769230769,4,1,0,57,1,8
211233,-176.744838642839,4,1,0,57,0,0
211600,-190.995710001281,4,1,0,55,0,0
211971,406.779661016949,4,1,0,54,1,0
211971,-188.570155608731,4,1,0,54,0,0
212377,428.571428571429,4,1,0,52,1,8
212377,-196.187735968302,4,1,0,52,0,0
212805,618.556701030928,4,1,0,50,1,8
212805,-150.387596899225,4,1,0,50,0,0
213422,260.869565217391,4,1,0,90,1,0
213422,-111.111111111111,4,1,0,90,0,0
221769,-100,4,1,0,100,0,1
238465,-100,4,1,0,80,0,0
238593,-101.583070571791,4,1,0,80,0,0
238724,-103.217176163851,4,1,0,80,0,0
238854,-104.904604997446,4,1,0,80,0,0
238985,-106.648237851166,4,1,0,80,0,0
239115,-108.450695060505,4,1,0,80,0,0
239180,-109.374965820323,4,1,0,80,0,0
239246,-110.315126189473,4,1,0,80,0,0
239376,-112.244909412746,4,1,0,80,0,0
239506,-114.243281067032,4,1,0,80,0,0
239637,-116.314234536023,4,1,0,80,0,0
239767,-118.46151659172,4,1,0,80,0,0
239898,-120.68971759813,4,1,0,80,0,0
240028,-123.003196853086,4,1,0,80,0,0
240093,-124.193518340278,4,1,0,80,0,0
240159,-125.407102807489,4,1,0,80,0,0
240289,-127.907006490002,4,1,0,80,0,0
240354,-129.194626537093,4,1,0,80,0,0
240419,-130.508434760139,4,1,0,80,0,0
240550,-133.218055309472,4,1,0,80,0,0
244724,-133.333333333333,4,1,0,80,0,0
244854,-131.578947368421,4,1,0,80,0,0
244985,-129.87012987013,4,1,0,80,0,0
245115,-128.205128205128,4,1,0,80,0,0
245246,-126.582278481013,4,1,0,80,0,0
245376,-125,4,1,0,80,0,0
245441,-124.223602484472,4,1,0,80,0,0
245506,-123.456790123457,4,1,0,80,0,0
245637,-121.951219512195,4,1,0,80,0,0
245767,-120.481927710843,4,1,0,80,0,0
245898,-119.047619047619,4,1,0,80,0,0
246028,-117.647058823529,4,1,0,80,0,0
246159,-116.279069767442,4,1,0,80,0,0
246289,-114.942528735632,4,1,0,80,0,0
246419,-113.636363636364,4,1,0,80,0,0
246550,-112.359550561798,4,1,0,80,0,0
246615,-111.731843575419,4,1,0,80,0,0
246680,-111.111111111111,4,1,0,80,0,0
246813,-100,4,1,0,100,0,1
255137,-100,4,1,0,80,0,1
255161,-100,4,1,0,80,0,0
255419,-101.585237633267,4,1,0,70,0,0
255941,-104.911318462504,4,1,0,70,0,0
256463,-108.462575530626,4,1,0,70,0,0
256724,-110.329974888898,4,1,0,70,0,0
256985,-112.26280273068,4,1,0,70,0,0
257246,-114.264428455042,4,1,0,70,0,0
257506,-116.338862531673,4,1,0,70,0,0
258028,-120.722062802032,4,1,0,70,0,0
258550,-125.448635683363,4,1,0,70,0,0
258811,-127.953486348643,4,1,0,70,0,0
259072,-130.560233963939,4,1,0,70,0,0
259333,-133.275580581748,4,1,0,80,0,0
261419,-133.333333333333,4,1,0,70,0,0
261680,-140.312672759978,4,1,0,70,0,0
261941,-148.062820093309,4,1,0,70,0,0
262202,-156.719423648648,4,1,0,70,0,0
262463,-166.45111247601,4,1,0,70,0,0
262985,-125,4,1,0,80,0,0
271854,-111.111111111111,4,1,0,90,0,0
271985,-109.374965820323,4,1,0,90,0,0
272115,-107.692357396473,4,1,0,90,0,0
272246,-106.060622130397,4,1,0,90,0,0
272376,-104.477596346627,4,1,0,90,0,0
272506,-102.941131055383,4,1,0,90,0,0
272572,-102.189825776566,4,1,0,90,0,0
272637,-101.449304767914,4,1,0,90,0,0
272767,-100,4,1,0,90,0,0
273028,-90.9090909090909,4,1,0,100,0,0
273159,-94.594581811543,4,1,0,100,0,0
273289,-98.5915215235151,4,1,0,100,0,0
273419,-102.941131055383,4,1,0,100,0,0
273550,-107.692357396473,4,1,0,100,0,0
273680,-112.903262226859,4,1,0,100,0,0
273811,-118.644087905778,4,1,0,100,0,0
273941,-125,4,1,0,100,0,0
274072,-125,4,1,0,60,0,0
280202,-111.111111111111,4,1,0,70,0,0
284311,-100,4,1,0,100,0,0
284441,-100,4,1,0,90,0,0
286137,-100,4,1,0,100,0,0
286528,-100,4,1,0,90,0,0
288485,-100,4,1,0,100,0,0
288615,-100,4,1,0,90,0,0
289528,-100,4,1,0,100,0,0
289659,-100,4,1,0,90,0,0
290050,-100,4,1,0,100,0,0
290702,-100,4,1,0,90,0,0
291093,-100,4,1,0,100,0,0
291224,-100,4,1,0,90,0,0
291615,-100,4,1,0,100,0,0
291746,-100,4,1,0,90,0,0
294746,-111.111111111111,4,1,0,90,0,0
295919,-90.9090909090909,4,1,0,100,0,0
296900,-100,4,1,0,100,0,1
328180,-100,4,1,0,70,0,1
328204,-100,4,1,0,70,0,0
328300,-102.040816326531,4,1,0,70,0,0
328430,-104.166666666667,4,1,0,70,0,0
328561,-106.382978723404,4,1,0,70,0,0
328691,-108.695652173913,4,1,0,70,0,0
328822,-111.111111111111,4,1,0,70,0,0
328887,-112.359550561798,4,1,0,70,0,0
328952,-113.636363636364,4,1,0,70,0,0
329083,-116.279069767442,4,1,0,70,0,0
329213,-119.047619047619,4,1,0,70,0,0
329343,-100,4,1,0,80,0,0
330256,-119.047619047619,4,1,0,70,0,0
330387,-121.951219512195,4,1,0,70,0,0
330517,-125,4,1,0,70,0,0
330648,-128.205128205128,4,1,0,70,0,0
330778,-131.578947368421,4,1,0,70,0,0
330909,-135.135135135135,4,1,0,70,0,0
330974,-136.986301369863,4,1,0,70,0,0
331039,-138.888888888889,4,1,0,70,0,0
331169,-142.857142857143,4,1,0,70,0,0
331300,-147.058823529412,4,1,0,70,0,0
331430,-100,4,1,0,80,0,0
332311,-125,4,1,0,70,0,0
332441,-100,4,1,0,80,0,0
332833,-125,4,1,0,70,0,0
332963,-100,4,1,0,80,0,0
333354,-125,4,1,0,70,0,0
333485,-100,4,1,0,80,0,0
333876,-125,4,1,0,70,0,0
334006,-100,4,1,0,80,0,0
334398,-125,4,1,0,70,0,0
334528,-100,4,1,0,80,0,0
334659,-125,4,1,0,70,0,0
334789,-100,4,1,0,80,0,0
334919,-125,4,1,0,70,0,0
335050,-100,4,1,0,80,0,0
335180,-125,4,1,0,70,0,0
335311,-100,4,1,0,80,0,0
335441,-125,4,1,0,80,0,0
335865,-122.448979591838,4,1,0,80,0,0
335996,-120,4,1,0,80,0,0
336126,-117.647058823529,4,1,0,80,0,0
336257,-115.384615384615,4,1,0,80,0,0
336387,-113.207547169811,4,1,0,80,0,0
336517,-111.111111111111,4,1,0,80,0,0
344963,-133.333333333333,4,1,0,50,0,0
347441,-142.857142857143,4,1,0,50,0,0
349528,-153.846153846153,4,1,0,50,0,0
351615,-166.666666666667,4,1,0,50,0,0
354746,-100,4,1,0,70,0,0
355789,-83.3333333333333,4,1,0,30,0,0

[HitObjects]
224,160,695,5,0,0:0:0:0:
224,160,955,1,0,0:0:0:0:
288,160,1216,1,8,0:0:0:0:
224,160,1412,1,0,0:0:0:0:
288,160,1477,1,8,0:0:0:0:
288,160,1608,1,8,0:0:0:0:
224,160,1738,1,0,0:0:0:0:
288,160,1999,1,8,0:0:0:0:
224,160,2129,1,0,0:0:0:0:
224,160,2260,1,0,0:0:0:0:
224,160,2521,1,0,0:0:0:0:
288,160,2586,1,8,0:0:0:0:
288,160,2651,1,8,0:0:0:0:
288,160,2716,1,8,0:0:0:0:
224,160,2781,1,0,0:0:0:0:
288,160,3042,1,8,0:0:0:0:
224,160,3173,1,0,0:0:0:0:
224,160,3303,1,0,0:0:0:0:
288,160,3564,1,8,0:0:0:0:
224,160,3825,1,0,0:0:0:0:
224,160,3955,1,0,0:0:0:0:
288,160,4086,1,8,0:0:0:0:
224,160,4347,1,0,0:0:0:0:
224,160,4477,1,0,0:0:0:0:
288,160,4608,1,8,0:0:0:0:
224,160,4738,1,0,0:0:0:0:
224,160,4868,1,0,0:0:0:0:
288,160,5129,1,8,0:0:0:0:
224,160,5260,1,0,0:0:0:0:
224,160,5390,1,0,0:0:0:0:
288,160,5651,1,8,0:0:0:0:
224,160,5912,1,0,0:0:0:0:
224,160,6042,1,0,0:0:0:0:
288,160,6173,1,8,0:0:0:0:
224,160,6434,1,0,0:0:0:0:
224,160,6564,1,0,0:0:0:0:
288,160,6694,1,8,0:0:0:0:
224,160,6760,1,0,0:0:0:0:
288,160,6825,1,8,0:0:0:0:
288,160,6890,1,8,0:0:0:0:
224,160,6955,1,0,0:0:0:0:
224,160,7086,1,0,0:0:0:0:
224,160,7151,1,0,0:0:0:0:
288,160,7216,1,8,0:0:0:0:
288,160,7347,1,8,0:0:0:0:
224,160,7477,1,0,0:0:0:0:
224,160,7608,1,0,0:0:0:0:
288,160,7738,1,8,0:0:0:0:
224,160,7868,1,0,0:0:0:0:
224,160,7999,1,0,0:0:0:0:
288,160,8129,1,8,0:0:0:0:
288,160,8260,1,8,0:0:0:0:
224,160,8390,1,0,0:0:0:0:
288,160,8521,1,8,0:0:0:0:
288,160,8781,1,8,0:0:0:0:
224,160,8912,1,0,0:0:0:0:
288,160,9042,1,8,0:0:0:0:
288,160,9173,1,8,0:0:0:0:
288,160,9238,1,8,0:0:0:0:
288,160,9303,1,8,0:0:0:0:
224,160,9434,1,0,0:0:0:0:
288,160,9564,1,8,0:0:0:0:
224,160,9694,1,0,0:0:0:0:
288,160,9825,1,8,0:0:0:0:
288,160,9955,1,8,0:0:0:0:
224,160,10086,1,0,0:0:0:0:
224,160,10216,1,0,0:0:0:0:
288,160,10347,1,8,0:0:0:0:
224,160,10608,1,0,0:0:0:0:
224,160,10738,1,0,0:0:0:0:
288,160,10868,1,8,0:0:0:0:
288,160,10999,1,8,0:0:0:0:
224,224,11129,1,4,0:0:0:0:
288,160,11390,1,8,0:0:0:0:
224,160,11521,1,0,0:0:0:0:
224,160,11651,1,0,0:0:0:0:
288,160,11912,1,8,0:0:0:0:
224,160,12173,1,0,0:0:0:0:
224,160,12303,1,0,0:0:0:0:
288,160,12434,1,8,0:0:0:0:
224,160,12694,1,0,0:0:0:0:
224,160,12825,1,0,0:0:0:0:
224,160,12890,1,0,0:0:0:0:
288,160,12955,1,8,0:0:0:0:
224,160,13086,1,0,0:0:0:0:
224,160,13216,1,0,0:0:0:0:
224,160,13347,1,0,0:0:0:0:
288,160,13477,1,8,0:0:0:0:
224,160,13738,1,0,0:0:0:0:
224,160,13868,1,0,0:0:0:0:
288,160,13999,1,8,0:0:0:0:
224,160,14129,1,0,0:0:0:0:
224,160,14390,1,0,0:0:0:0:
288,160,14521,1,8,0:0:0:0:
224,160,14651,1,0,0:0:0:0:
224,160,14781,1,0,0:0:0:0:
224,160,14912,1,0,0:0:0:0:
224,160,14977,1,0,0:0:0:0:
288,160,15042,1,8,0:0:0:0:
288,160,15173,1,8,0:0:0:0:
224,160,15303,1,0,0:0:0:0:
288,160,15564,1,8,0:0:0:0:
224,160,15694,1,0,0:0:0:0:
224,160,15825,1,0,0:0:0:0:
224,160,15955,1,0,0:0:0:0:
224,160,16021,1,0,0:0:0:0:
288,160,16086,1,8,0:0:0:0:
224,160,16347,1,0,0:0:0:0:
224,160,16477,1,0,0:0:0:0:
288,160,16608,1,8,0:0:0:0:
224,160,16868,1,0,0:0:0:0:
224,160,16999,1,0,0:0:0:0:
224,160,17064,1,0,0:0:0:0:
288,160,17129,1,8,0:0:0:0:
224,160,17260,1,0,0:0:0:0:
224,160,17390,1,0,0:0:0:0:
224,160,17521,1,0,0:0:0:0:
288,160,17651,1,8,0:0:0:0:
224,160,17912,1,0,0:0:0:0:
224,160,18042,1,0,0:0:0:0:
288,160,18173,1,8,0:0:0:0:
288,160,18303,1,8,0:0:0:0:
288,160,18564,1,8,0:0:0:0:
224,160,18825,1,0,0:0:0:0:
224,160,18955,1,0,0:0:0:0:
288,160,19086,1,8,0:0:0:0:
224,160,19151,1,0,0:0:0:0:
288,160,19216,1,8,0:0:0:0:
288,160,19347,1,8,0:0:0:0:
224,224,19477,1,4,0:0:0:0:
288,160,19738,1,8,0:0:0:0:
224,160,19868,1,0,0:0:0:0:
224,160,19934,1,0,0:0:0:0:
224,160,19999,1,0,0:0:0:0:
224,160,20129,1,0,0:0:0:0:
288,160,20260,1,8,0:0:0:0:
224,160,20521,1,0,0:0:0:0:
224,160,20651,1,0,0:0:0:0:
288,160,20781,1,8,0:0:0:0:
224,160,20912,1,0,0:0:0:0:
224,160,20977,1,0,0:0:0:0:
224,160,21042,1,0,0:0:0:0:
224,160,21173,1,0,0:0:0:0:
288,160,21303,1,8,0:0:0:0:
224,160,21434,1,0,0:0:0:0:
224,160,21564,1,0,0:0:0:0:
288,160,21825,1,8,0:0:0:0:
224,160,21955,1,0,0:0:0:0:
224,160,22021,1,0,0:0:0:0:
224,160,22086,1,0,0:0:0:0:
224,160,22216,1,0,0:0:0:0:
288,160,22347,1,8,0:0:0:0:
224,160,22477,1,0,0:0:0:0:
224,160,22738,1,0,0:0:0:0:
288,160,22868,1,8,0:0:0:0:
224,160,22999,1,0,0:0:0:0:
224,160,23064,1,0,0:0:0:0:
224,160,23129,1,0,0:0:0:0:
224,160,23260,1,0,0:0:0:0:
224,160,23325,1,0,0:0:0:0:
288,160,23390,1,8,0:0:0:0:
288,160,23521,1,8,0:0:0:0:
224,160,23651,1,0,0:0:0:0:
288,160,23912,1,8,0:0:0:0:
224,160,24042,1,0,0:0:0:0:
224,160,24108,1,0,0:0:0:0:
224,160,24173,1,0,0:0:0:0:
224,160,24303,1,0,0:0:0:0:
288,160,24434,1,8,0:0:0:0:
224,160,24694,1,0,0:0:0:0:
224,160,24825,1,0,0:0:0:0:
288,160,24955,1,8,0:0:0:0:
224,160,25086,1,0,0:0:0:0:
224,160,25151,1,0,0:0:0:0:
224,160,25216,1,0,0:0:0:0:
224,160,25347,1,0,0:0:0:0:
224,160,25412,1,0,0:0:0:0:
288,160,25477,1,8,0:0:0:0:
288,160,25608,1,8,0:0:0:0:
288,160,25673,1,8,0:0:0:0:
224,160,25738,1,0,0:0:0:0:
224,160,25868,1,0,0:0:0:0:
288,160,25999,1,8,0:0:0:0:
224,160,26129,1,0,0:0:0:0:
224,160,26194,1,0,0:0:0:0:
224,160,26260,1,0,0:0:0:0:
224,160,26390,1,0,0:0:0:0:
288,160,26521,1,8,0:0:0:0:
224,160,26651,1,0,0:0:0:0:
288,160,26781,1,8,0:0:0:0:
224,160,26847,1,0,0:0:0:0:
288,160,26912,1,8,0:0:0:0:
224,160,27042,1,0,0:0:0:0:
224,160,27108,1,0,0:0:0:0:
288,160,27173,1,8,0:0:0:0:
224,160,27303,1,0,0:0:0:0:
224,224,27434,1,4,0:0:0:0:
288,224,27564,1,12,0:0:0:0:
288,224,27694,1,12,0:0:0:0:
224,224,27825,1,4,0:0:0:0:
224,160,27955,1,0,0:0:0:0:
288,160,28086,1,8,0:0:0:0:
224,160,28216,1,0,0:0:0:0:
288,160,28347,1,8,0:0:0:0:
288,160,28477,1,8,0:0:0:0:
288,160,28542,1,8,0:0:0:0:
288,160,28608,1,8,0:0:0:0:
288,160,28738,1,8,0:0:0:0:
224,160,28868,1,0,0:0:0:0:
224,160,28999,1,0,0:0:0:0:
288,160,29129,1,8,0:0:0:0:
224,160,29260,1,0,0:0:0:0:
224,160,29325,1,0,0:0:0:0:
288,160,29390,1,8,0:0:0:0:
288,160,29651,1,8,0:0:0:0:
288,160,29716,1,8,0:0:0:0:
224,160,29781,1,0,0:0:0:0:
224,160,29847,1,0,0:0:0:0:
224,160,29912,1,0,0:0:0:0:
224,160,30042,1,0,0:0:0:0:
288,160,30173,1,8,0:0:0:0:
224,160,30303,1,0,0:0:0:0:
288,160,30434,1,8,0:0:0:0:
288,160,30564,1,8,0:0:0:0:
224,160,30629,1,0,0:0:0:0:
288,160,30694,1,8,0:0:0:0:
288,160,30825,1,8,0:0:0:0:
224,160,30955,1,0,0:0:0:0:
288,160,31086,1,8,0:0:0:0:
224,160,31216,1,0,0:0:0:0:
224,160,31347,1,0,0:0:0:0:
288,160,31477,1,8,0:0:0:0:
224,160,31738,1,0,0:0:0:0:
288,160,31803,1,8,0:0:0:0:
288,160,31868,1,8,0:0:0:0:
288,160,31934,1,8,0:0:0:0:
224,160,31999,1,0,0:0:0:0:
288,160,32129,1,8,0:0:0:0:
288,160,32260,1,8,0:0:0:0:
224,160,32390,1,0,0:0:0:0:
288,160,32521,1,8,0:0:0:0:
288,160,32651,1,8,0:0:0:0:
288,160,32716,1,8,0:0:0:0:
288,160,32781,1,8,0:0:0:0:
288,160,32912,1,8,0:0:0:0:
224,160,33042,1,0,0:0:0:0:
288,160,33173,1,8,0:0:0:0:
288,160,33238,1,8,0:0:0:0:
288,160,33303,1,8,0:0:0:0:
224,160,33434,1,0,0:0:0:0:
288,160,33564,1,8,0:0:0:0:
288,160,33825,1,8,0:0:0:0:
288,160,33890,1,8,0:0:0:0:
224,160,33955,1,0,0:0:0:0:
224,160,34021,1,0,0:0:0:0:
224,160,34086,1,0,0:0:0:0:
224,160,34216,1,0,0:0:0:0:
224,160,34281,1,0,0:0:0:0:
288,160,34347,1,8,0:0:0:0:
224,160,34477,1,0,0:0:0:0:
288,160,34608,1,8,0:0:0:0:
288,160,34673,1,8,0:0:0:0:
224,160,34803,1,0,0:0:0:0:
288,160,34868,1,8,0:0:0:0:
288,160,34999,1,8,0:0:0:0:
224,160,35129,1,0,0:0:0:0:
224,160,35260,1,0,0:0:0:0:
288,160,35390,1,8,0:0:0:0:
288,160,35521,1,8,0:0:0:0:
288,160,35651,1,8,0:0:0:0:
224,224,35781,1,4,0:0:0:0:
288,224,35912,1,12,0:0:0:0:
288,224,36042,1,12,0:0:0:0:
224,224,36173,1,4,0:0:0:0:
224,160,36303,1,0,0:0:0:0:
288,160,36434,1,8,0:0:0:0:
224,160,36564,1,0,0:0:0:0:
288,160,36694,1,8,0:0:0:0:
288,160,36825,1,8,0:0:0:0:
288,160,36890,1,8,0:0:0:0:
288,160,36955,1,8,0:0:0:0:
288,160,37086,1,8,0:0:0:0:
224,160,37216,1,0,0:0:0:0:
288,160,37347,1,8,0:0:0:0:
224,160,37412,1,0,0:0:0:0:
224,160,37477,1,0,0:0:0:0:
224,160,37608,1,0,0:0:0:0:
288,160,37738,1,8,0:0:0:0:
288,160,37999,1,8,0:0:0:0:
288,160,38064,1,8,0:0:0:0:
224,160,38129,1,0,0:0:0:0:
224,160,38194,1,0,0:0:0:0:
224,160,38260,1,0,0:0:0:0:
224,160,38390,1,0,0:0:0:0:
288,160,38521,1,8,0:0:0:0:
224,160,38651,1,0,0:0:0:0:
288,160,38781,1,8,0:0:0:0:
288,160,38847,1,8,0:0:0:0:
224,160,38912,1,0,0:0:0:0:
224,160,38977,1,0,0:0:0:0:
288,160,39042,1,8,0:0:0:0:
224,160,39173,1,0,0:0:0:0:
224,160,39238,1,0,0:0:0:0:
224,160,39303,1,0,0:0:0:0:
224,160,39434,1,0,0:0:0:0:
288,160,39564,1,8,0:0:0:0:
288,160,39694,1,8,0:0:0:0:
224,160,39825,1,0,0:0:0:0:
224,160,40086,1,0,0:0:0:0:
288,160,40151,1,8,0:0:0:0:
288,160,40216,1,8,0:0:0:0:
288,160,40281,1,8,0:0:0:0:
224,160,40347,1,0,0:0:0:0:
288,160,40477,1,8,0:0:0:0:
288,160,40608,1,8,0:0:0:0:
224,160,40738,1,0,0:0:0:0:
288,160,40868,1,8,0:0:0:0:
288,160,40999,1,8,0:0:0:0:
288,160,41064,1,8,0:0:0:0:
288,160,41129,1,8,0:0:0:0:
288,160,41260,1,8,0:0:0:0:
224,160,41390,1,0,0:0:0:0:
288,160,41521,1,8,0:0:0:0:
288,160,41586,1,8,0:0:0:0:
288,160,41651,1,8,0:0:0:0:
224,160,41781,1,0,0:0:0:0:
288,160,41912,1,8,0:0:0:0:
288,160,42042,1,8,0:0:0:0:
224,160,42108,1,0,0:0:0:0:
288,160,42173,1,8,0:0:0:0:
224,160,42303,1,0,0:0:0:0:
288,160,42564,1,8,0:0:0:0:
224,160,42629,1,0,0:0:0:0:
288,160,42694,1,8,0:0:0:0:
224,160,42825,1,0,0:0:0:0:
288,160,42955,1,8,0:0:0:0:
288,160,43021,1,8,0:0:0:0:
224,160,43151,1,0,0:0:0:0:
288,160,43216,1,8,0:0:0:0:
288,160,43347,1,8,0:0:0:0:
224,160,43477,1,0,0:0:0:0:
224,160,43608,1,0,0:0:0:0:
224,160,43673,1,0,0:0:0:0:
288,160,43738,1,8,0:0:0:0:
288,160,43868,1,8,0:0:0:0:
224,160,43999,1,0,0:0:0:0:
288,224,44260,1,12,0:0:0:0:
224,224,44521,1,4,0:0:0:0:
224,160,44651,1,0,0:0:0:0:
288,160,44781,1,8,0:0:0:0:
224,160,44912,1,0,0:0:0:0:
224,160,44977,1,0,0:0:0:0:
288,160,45042,1,8,0:0:0:0:
288,160,45173,1,8,0:0:0:0:
288,160,45238,1,8,0:0:0:0:
288,160,45303,1,8,0:0:0:0:
288,160,45434,1,8,0:0:0:0:
224,160,45564,1,0,0:0:0:0:
224,160,45694,1,0,0:0:0:0:
288,160,45825,1,8,0:0:0:0:
288,160,45955,1,8,0:0:0:0:
288,160,46021,1,8,0:0:0:0:
224,160,46086,1,0,0:0:0:0:
288,160,46347,1,8,0:0:0:0:
288,160,46412,1,8,0:0:0:0:
224,160,46477,1,0,0:0:0:0:
224,160,46542,1,0,0:0:0:0:
224,160,46608,1,0,0:0:0:0:
224,160,46738,1,0,0:0:0:0:
288,160,46868,1,8,0:0:0:0:
288,160,46999,1,8,0:0:0:0:
288,160,47064,1,8,0:0:0:0:
224,160,47129,1,0,0:0:0:0:
288,160,47260,1,8,0:0:0:0:
288,160,47325,1,8,0:0:0:0:
288,160,47390,1,8,0:0:0:0:
224,160,47521,1,0,0:0:0:0:
224,160,47651,1,0,0:0:0:0:
288,160,47781,1,8,0:0:0:0:
224,160,47912,1,0,0:0:0:0:
224,160,48042,1,0,0:0:0:0:
224,160,48108,1,0,0:0:0:0:
288,160,48173,1,8,0:0:0:0:
224,160,48434,1,0,0:0:0:0:
288,160,48499,1,8,0:0:0:0:
288,160,48564,1,8,0:0:0:0:
288,160,48629,1,8,0:0:0:0:
224,160,48694,1,0,0:0:0:0:
288,160,48825,1,8,0:0:0:0:
224,160,48955,1,0,0:0:0:0:
288,160,49086,1,8,0:0:0:0:
224,160,49216,1,0,0:0:0:0:
288,160,49347,1,8,0:0:0:0:
288,160,49412,1,8,0:0:0:0:
224,160,49477,1,0,0:0:0:0:
288,160,49608,1,8,0:0:0:0:
288,160,49738,1,8,0:0:0:0:
224,160,49868,1,0,0:0:0:0:
224,160,49934,1,0,0:0:0:0:
288,160,49999,1,8,0:0:0:0:
224,160,50129,1,0,0:0:0:0:
288,160,50260,1,8,0:0:0:0:
288,160,50521,1,8,0:0:0:0:
288,160,50586,1,8,0:0:0:0:
224,160,50651,1,0,0:0:0:0:
224,160,50716,1,0,0:0:0:0:
224,160,50781,1,0,0:0:0:0:
288,160,50912,1,8,0:0:0:0:
288,160,50977,1,8,0:0:0:0:
224,160,51042,1,0,0:0:0:0:
288,160,51173,1,8,0:0:0:0:
224,160,51303,1,0,0:0:0:0:
288,160,51368,1,8,0:0:0:0:
288,160,51499,1,8,0:0:0:0:
288,160,51564,1,8,0:0:0:0:
288,160,51694,1,8,0:0:0:0:
224,160,51825,1,0,0:0:0:0:
224,160,51955,1,0,0:0:0:0:
224,160,52021,1,0,0:0:0:0:
288,160,52086,1,8,0:0:0:0:
288,160,52216,1,8,0:0:0:0:
224,160,52347,1,0,0:0:0:0:
224,224,52477,1,4,0:0:0:0:
288,224,52608,1,12,0:0:0:0:
288,224,52738,1,12,0:0:0:0:
224,224,52868,1,4,0:0:0:0:
224,160,52999,1,0,0:0:0:0:
288,160,53129,1,8,0:0:0:0:
224,160,53260,1,0,0:0:0:0:
224,160,53325,1,0,0:0:0:0:
288,160,53390,1,8,0:0:0:0:
288,160,53521,1,8,0:0:0:0:
288,160,53586,1,8,0:0:0:0:
288,160,53651,1,8,0:0:0:0:
288,160,53781,1,8,0:0:0:0:
224,160,53912,1,0,0:0:0:0:
288,160,54042,1,8,0:0:0:0:
224,160,54108,1,0,0:0:0:0:
288,160,54173,1,8,0:0:0:0:
224,160,54303,1,0,0:0:0:0:
288,160,54434,1,8,0:0:0:0:
288,160,54694,1,8,0:0:0:0:
288,160,54760,1,8,0:0:0:0:
224,160,54825,1,0,0:0:0:0:
224,160,54890,1,0,0:0:0:0:
224,160,54955,1,0,0:0:0:0:
224,160,55086,1,0,0:0:0:0:
224,160,55151,1,0,0:0:0:0:
288,160,55216,1,8,0:0:0:0:
288,160,55347,1,8,0:0:0:0:
224,160,55477,1,0,0:0:0:0:
288,160,55608,1,8,0:0:0:0:
288,160,55673,1,8,0:0:0:0:
288,160,55738,1,8,0:0:0:0:
288,160,55868,1,8,0:0:0:0:
224,160,55999,1,0,0:0:0:0:
288,160,56129,1,8,0:0:0:0:
224,160,56194,1,0,0:0:0:0:
288,160,56260,1,8,0:0:0:0:
224,160,56390,1,0,0:0:0:0:
288,160,56521,1,8,0:0:0:0:
288,160,56586,1,8,0:0:0:0:
224,160,56651,1,0,0:0:0:0:
224,160,56781,1,0,0:0:0:0:
288,160,56847,1,8,0:0:0:0:
288,160,56912,1,8,0:0:0:0:
288,160,56977,1,8,0:0:0:0:
224,160,57042,1,0,0:0:0:0:
288,160,57173,1,8,0:0:0:0:
224,160,57303,1,0,0:0:0:0:
288,160,57434,1,8,0:0:0:0:
288,160,57477,1,8,0:0:0:0:
288,160,57521,1,8,0:0:0:0:
224,160,57564,1,0,0:0:0:0:
224,160,57760,1,0,0:0:0:0:
288,160,57825,1,8,0:0:0:0:
288,160,57868,1,8,0:0:0:0:
288,160,57912,1,8,0:0:0:0:
224,160,57955,1,0,0:0:0:0:
224,160,58086,1,0,0:0:0:0:
288,160,58216,1,8,0:0:0:0:
288,160,58281,1,8,0:0:0:0:
224,160,58347,1,0,0:0:0:0:
224,160,58477,1,0,0:0:0:0:
288,160,58608,1,8,0:0:0:0:
224,160,58673,1,0,0:0:0:0:
224,160,58738,1,0,0:0:0:0:
288,224,58868,1,12,0:0:0:0:
224,160,59129,1,0,0:0:0:0:
224,160,59260,1,0,0:0:0:0:
224,160,59325,1,0,0:0:0:0:
288,160,59390,1,8,0:0:0:0:
288,160,59521,1,8,0:0:0:0:
288,160,59651,1,8,0:0:0:0:
288,160,59781,1,8,0:0:0:0:
224,160,59912,1,0,0:0:0:0:
288,160,60042,1,8,0:0:0:0:
288,160,60173,1,8,0:0:0:0:
224,160,60303,1,0,0:0:0:0:
224,160,60434,1,0,0:0:0:0:
224,160,60694,1,0,0:0:0:0:
288,160,60825,1,8,0:0:0:0:
288,160,60890,1,8,0:0:0:0:
288,160,60955,1,8,0:0:0:0:
288,160,61021,1,8,0:0:0:0:
288,160,61086,1,8,0:0:0:0:
288,160,61151,1,8,0:0:0:0:
224,160,61216,1,0,0:0:0:0:
288,160,61477,1,8,0:0:0:0:
224,160,61738,1,0,0:0:0:0:
288,160,61999,1,8,0:0:0:0:
224,160,62260,1,0,0:0:0:0:
288,160,62521,1,8,0:0:0:0:
224,160,62781,1,0,0:0:0:0:
224,160,62825,1,0,0:0:0:0:
224,160,62868,1,0,0:0:0:0:
224,160,62955,1,0,0:0:0:0:
288,160,63042,1,8,0:0:0:0:
224,160,63303,1,0,0:0:0:0:
288,160,63564,1,8,0:0:0:0:
224,160,63825,1,0,0:0:0:0:
224,160,63988,1,0,0:0:0:0:
288,160,64086,1,8,0:0:0:0:
288,160,64216,1,8,0:0:0:0:
224,160,64347,1,0,0:0:0:0:
288,160,64510,1,8,0:0:0:0:
224,160,64608,1,0,0:0:0:0:
288,160,64738,1,8,0:0:0:0:
288,160,64868,1,8,0:0:0:0:
224,160,64999,1,0,0:0:0:0:
288,160,65129,1,8,0:0:0:0:
224,160,65390,1,0,0:0:0:0:
288,160,65651,1,8,0:0:0:0:
224,160,65912,1,0,0:0:0:0:
288,160,66173,1,8,0:0:0:0:
224,160,66434,1,0,0:0:0:0:
288,160,66694,1,8,0:0:0:0:
224,160,66858,1,0,0:0:0:0:
288,160,66955,1,8,0:0:0:0:
288,160,67216,1,8,0:0:0:0:
288,160,67477,1,8,0:0:0:0:
224,160,67738,1,0,0:0:0:0:
288,160,67999,1,8,0:0:0:0:
224,160,68162,1,0,0:0:0:0:
288,160,68260,1,8,0:0:0:0:
288,160,68423,1,8,0:0:0:0:
288,160,68521,1,8,0:0:0:0:
288,160,68684,1,8,0:0:0:0:
224,160,68781,1,0,0:0:0:0:
224,160,69042,1,0,0:0:0:0:
288,160,69303,1,8,0:0:0:0:
224,224,69564,1,4,0:0:0:0:
288,160,69825,1,8,0:0:0:0:
224,160,70086,1,0,0:0:0:0:
288,160,70347,1,8,0:0:0:0:
288,160,70477,1,8,0:0:0:0:
224,160,70608,1,0,0:0:0:0:
224,160,70868,1,0,0:0:0:0:
288,160,71129,1,8,0:0:0:0:
288,160,71216,1,8,0:0:0:0:
288,160,71303,1,8,0:0:0:0:
224,160,71390,1,0,0:0:0:0:
256,192,71651,12,0,73477,0:0:0:0:
224,160,73738,5,0,0:0:0:0:
224,160,74260,1,0,0:0:0:0:
224,160,74390,1,0,0:0:0:0:
224,160,74455,1,0,0:0:0:0:
288,160,74521,1,8,0:0:0:0:
288,160,74651,1,8,0:0:0:0:
224,160,74781,1,0,0:0:0:0:
224,160,75303,1,0,0:0:0:0:
224,160,75564,1,0,0:0:0:0:
224,160,75629,1,0,0:0:0:0:
288,160,75694,1,8,0:0:0:0:
224,160,75825,1,0,0:0:0:0:
224,160,76347,1,0,0:0:0:0:
224,160,76868,1,0,0:0:0:0:
224,160,77129,1,0,0:0:0:0:
288,160,77390,1,8,0:0:0:0:
288,160,77521,1,8,0:0:0:0:
224,160,77912,1,0,0:0:0:0:
224,160,78173,1,0,0:0:0:0:
224,160,78434,1,0,0:0:0:0:
224,160,78694,1,0,0:0:0:0:
288,160,78955,1,8,0:0:0:0:
288,160,79216,1,8,0:0:0:0:
288,160,79477,1,8,0:0:0:0:
288,160,79738,1,8,0:0:0:0:
224,160,79999,1,0,0:0:0:0:
224,160,80260,1,0,0:0:0:0:
224,160,80521,1,0,0:0:0:0:
224,160,80781,1,0,0:0:0:0:
288,160,81042,1,8,0:0:0:0:
288,160,81303,1,8,0:0:0:0:
288,160,81564,1,8,0:0:0:0:
288,160,81825,1,8,0:0:0:0:
224,160,82086,1,0,0:0:0:0:
224,160,82347,1,0,0:0:0:0:
288,160,82608,1,8,0:0:0:0:
288,160,82868,1,8,0:0:0:0:
224,160,83129,1,0,0:0:0:0:
288,160,83390,1,8,0:0:0:0:
224,160,83651,1,0,0:0:0:0:
288,160,83912,1,8,0:0:0:0:
224,160,84173,1,0,0:0:0:0:
224,160,84434,1,0,0:0:0:0:
288,160,84694,1,8,0:0:0:0:
224,160,84955,1,0,0:0:0:0:
288,160,85216,1,8,0:0:0:0:
288,160,85477,1,8,0:0:0:0:
224,160,85738,1,0,0:0:0:0:
288,160,85999,1,8,0:0:0:0:
224,160,86260,1,0,0:0:0:0:
224,160,86390,1,0,0:0:0:0:
288,160,86521,1,8,0:0:0:0:
224,160,86651,1,0,0:0:0:0:
224,160,86716,1,0,0:0:0:0:
224,160,86781,1,0,0:0:0:0:
224,160,86912,1,0,0:0:0:0:
288,160,87042,1,8,0:0:0:0:
224,160,87173,1,0,0:0:0:0:
288,160,87238,1,8,0:0:0:0:
224,160,87303,1,0,0:0:0:0:
224,160,87434,1,0,0:0:0:0:
288,160,87564,1,8,0:0:0:0:
288,160,87694,1,8,0:0:0:0:
288,160,87760,1,8,0:0:0:0:
224,160,87825,1,0,0:0:0:0:
224,160,87955,1,0,0:0:0:0:
288,160,88086,1,8,0:0:0:0:
224,224,88347,1,4,0:0:0:0:
224,224,88608,1,4,0:0:0:0:
288,224,88868,1,12,0:0:0:0:
288,224,89129,1,12,0:0:0:0:
224,224,89390,1,4,0:0:0:0:
288,160,89651,1,8,0:0:0:0:
224,160,89738,1,0,0:0:0:0:
224,160,89825,1,0,0:0:0:0:
288,160,89912,1,8,0:0:0:0:
224,160,90173,1,0,0:0:0:0:
224,224,90434,1,4,0:0:0:0:
288,160,90694,1,8,0:0:0:0:
224,160,90781,1,0,0:0:0:0:
224,160,90868,1,0,0:0:0:0:
288,160,90955,1,8,0:0:0:0:
224,160,91216,1,0,0:0:0:0:
224,224,91477,1,4,0:0:0:0:
288,160,91738,1,8,0:0:0:0:
288,160,91803,1,8,0:0:0:0:
224,160,91868,1,0,0:0:0:0:
288,160,91999,1,8,0:0:0:0:
224,160,92260,1,0,0:0:0:0:
288,160,92390,1,8,0:0:0:0:
224,224,92521,1,4,0:0:0:0:
288,160,92781,1,8,0:0:0:0:
288,160,92847,1,8,0:0:0:0:
224,160,92912,1,0,0:0:0:0:
288,160,93042,1,8,0:0:0:0:
224,160,93108,1,0,0:0:0:0:
224,160,93173,1,0,0:0:0:0:
224,160,93238,1,0,0:0:0:0:
288,160,93303,1,8,0:0:0:0:
224,224,93564,1,4,0:0:0:0:
224,224,93825,1,4,0:0:0:0:
288,224,94086,1,12,0:0:0:0:
288,224,94347,1,12,0:0:0:0:
288,160,94608,1,8,0:0:0:0:
224,160,94738,1,0,0:0:0:0:
224,160,94803,1,0,0:0:0:0:
224,160,94868,1,0,0:0:0:0:
288,160,94999,1,8,0:0:0:0:
224,160,95129,1,0,0:0:0:0:
288,160,95260,1,8,0:0:0:0:
224,160,95390,1,0,0:0:0:0:
288,160,95521,1,8,0:0:0:0:
224,224,95651,1,4,0:0:0:0:
224,160,95781,1,0,0:0:0:0:
224,160,95847,1,0,0:0:0:0:
288,160,95912,1,8,0:0:0:0:
224,160,96042,1,0,0:0:0:0:
288,160,96173,1,8,0:0:0:0:
288,160,96303,1,8,0:0:0:0:
288,160,96368,1,8,0:0:0:0:
224,160,96434,1,0,0:0:0:0:
288,160,96564,1,8,0:0:0:0:
224,160,96694,1,0,0:0:0:0:
224,160,96825,1,0,0:0:0:0:
288,160,96955,1,8,0:0:0:0:
288,160,97086,1,8,0:0:0:0:
224,160,97216,1,0,0:0:0:0:
224,160,97477,1,0,0:0:0:0:
224,160,97738,1,0,0:0:0:0:
224,160,97868,1,0,0:0:0:0:
224,160,97934,1,0,0:0:0:0:
288,160,97999,1,8,0:0:0:0:
224,160,98129,1,0,0:0:0:0:
288,160,98260,1,8,0:0:0:0:
224,160,98390,1,0,0:0:0:0:
288,160,98455,1,8,0:0:0:0:
224,160,98521,1,0,0:0:0:0:
224,160,98651,1,0,0:0:0:0:
288,160,98781,1,8,0:0:0:0:
288,160,98912,1,8,0:0:0:0:
224,160,99042,1,0,0:0:0:0:
224,160,99173,1,0,0:0:0:0:
288,160,99303,1,8,0:0:0:0:
288,160,99564,1,8,0:0:0:0:
224,160,99825,1,0,0:0:0:0:
224,160,99955,1,0,0:0:0:0:
224,160,100021,1,0,0:0:0:0:
288,160,100086,1,8,0:0:0:0:
224,160,100216,1,0,0:0:0:0:
288,160,100347,1,8,0:0:0:0:
288,160,100477,1,8,0:0:0:0:
288,160,100542,1,8,0:0:0:0:
288,160,100608,1,8,0:0:0:0:
288,160,100738,1,8,0:0:0:0:
224,160,100868,1,0,0:0:0:0:
224,160,101129,1,0,0:0:0:0:
288,160,101260,1,8,0:0:0:0:
288,160,101390,1,8,0:0:0:0:
224,160,101521,1,0,0:0:0:0:
288,160,101586,1,8,0:0:0:0:
224,160,101651,1,0,0:0:0:0:
288,160,101781,1,8,0:0:0:0:
224,160,101912,1,0,0:0:0:0:
224,160,102042,1,0,0:0:0:0:
288,160,102173,1,8,0:0:0:0:
224,160,102303,1,0,0:0:0:0:
288,160,102434,1,8,0:0:0:0:
224,160,102564,1,0,0:0:0:0:
288,160,102629,1,8,0:0:0:0:
288,160,102694,1,8,0:0:0:0:
288,160,102825,1,8,0:0:0:0:
224,160,102955,1,0,0:0:0:0:
224,160,103086,1,0,0:0:0:0:
288,160,103151,1,8,0:0:0:0:
224,160,103216,1,0,0:0:0:0:
224,160,103347,1,0,0:0:0:0:
288,160,103477,1,8,0:0:0:0:
288,160,103738,1,8,0:0:0:0:
288,160,103803,1,8,0:0:0:0:
224,160,103868,1,0,0:0:0:0:
224,160,103934,1,0,0:0:0:0:
224,160,103999,1,0,0:0:0:0:
224,160,104129,1,0,0:0:0:0:
224,160,104194,1,0,0:0:0:0:
288,160,104260,1,8,0:0:0:0:
288,160,104390,1,8,0:0:0:0:
224,160,104521,1,0,0:0:0:0:
288,160,104651,1,8,0:0:0:0:
288,160,104716,1,8,0:0:0:0:
224,160,104781,1,0,0:0:0:0:
288,160,104912,1,8,0:0:0:0:
224,160,105042,1,0,0:0:0:0:
224,160,105173,1,0,0:0:0:0:
288,160,105303,1,8,0:0:0:0:
288,160,105434,1,8,0:0:0:0:
224,160,105564,1,0,0:0:0:0:
224,160,105825,1,0,0:0:0:0:
224,160,106086,1,0,0:0:0:0:
224,160,106216,1,0,0:0:0:0:
224,160,106281,1,0,0:0:0:0:
288,160,106347,1,8,0:0:0:0:
288,160,106477,1,8,0:0:0:0:
224,160,106608,1,0,0:0:0:0:
224,160,106738,1,0,0:0:0:0:
288,160,106803,1,8,0:0:0:0:
224,160,106868,1,0,0:0:0:0:
224,160,106999,1,0,0:0:0:0:
288,160,107129,1,8,0:0:0:0:
288,160,107260,1,8,0:0:0:0:
224,160,107390,1,0,0:0:0:0:
224,160,107521,1,0,0:0:0:0:
288,160,107651,1,8,0:0:0:0:
288,160,107912,1,8,0:0:0:0:
224,160,108173,1,0,0:0:0:0:
224,160,108303,1,0,0:0:0:0:
224,160,108368,1,0,0:0:0:0:
288,160,108434,1,8,0:0:0:0:
224,160,108564,1,0,0:0:0:0:
288,160,108694,1,8,0:0:0:0:
288,160,108825,1,8,0:0:0:0:
288,160,108890,1,8,0:0:0:0:
288,160,108955,1,8,0:0:0:0:
288,160,109086,1,8,0:0:0:0:
224,160,109216,1,0,0:0:0:0:
224,160,109477,1,0,0:0:0:0:
288,160,109608,1,8,0:0:0:0:
224,160,109738,1,0,0:0:0:0:
288,160,109868,1,8,0:0:0:0:
288,160,109934,1,8,0:0:0:0:
224,160,109999,1,0,0:0:0:0:
288,160,110129,1,8,0:0:0:0:
224,160,110260,1,0,0:0:0:0:
224,160,110390,1,0,0:0:0:0:
288,160,110521,1,8,0:0:0:0:
224,160,110651,1,0,0:0:0:0:
288,160,110781,1,8,0:0:0:0:
224,160,110912,1,0,0:0:0:0:
224,160,110977,1,0,0:0:0:0:
288,160,111042,1,8,0:0:0:0:
288,160,111173,1,8,0:0:0:0:
224,160,111303,1,0,0:0:0:0:
224,160,111434,1,0,0:0:0:0:
288,160,111499,1,8,0:0:0:0:
224,160,111564,1,0,0:0:0:0:
224,160,111694,1,0,0:0:0:0:
288,160,111825,1,8,0:0:0:0:
288,160,111890,1,8,0:0:0:0:
288,160,111955,1,8,0:0:0:0:
288,160,112021,1,8,0:0:0:0:
224,160,112086,1,0,0:0:0:0:
224,160,112151,1,0,0:0:0:0:
288,160,112216,1,8,0:0:0:0:
288,160,112281,1,8,0:0:0:0:
224,160,112347,5,0,0:0:0:0:
224,160,112477,1,0,0:0:0:0:
288,160,112608,1,8,0:0:0:0:
288,160,112738,1,8,0:0:0:0:
224,160,112868,1,0,0:0:0:0:
288,160,112999,1,8,0:0:0:0:
288,160,113064,1,8,0:0:0:0:
224,160,113129,1,0,0:0:0:0:
288,160,113260,1,8,0:0:0:0:
224,160,113390,1,0,0:0:0:0:
224,160,113521,1,0,0:0:0:0:
288,160,113651,1,8,0:0:0:0:
288,160,113781,1,8,0:0:0:0:
224,160,113912,1,0,0:0:0:0:
224,160,114173,1,0,0:0:0:0:
224,160,114434,1,0,0:0:0:0:
224,160,114564,1,0,0:0:0:0:
288,160,114694,1,8,0:0:0:0:
224,160,114825,1,0,0:0:0:0:
288,160,114955,1,8,0:0:0:0:
288,160,115086,1,8,0:0:0:0:
224,160,115151,1,0,0:0:0:0:
224,160,115216,1,0,0:0:0:0:
224,160,115347,1,0,0:0:0:0:
288,160,115477,1,8,0:0:0:0:
288,160,115608,1,8,0:0:0:0:
288,160,115738,1,8,0:0:0:0:
224,160,115868,1,0,0:0:0:0:
288,160,115999,1,8,0:0:0:0:
288,160,116260,1,8,0:0:0:0:
224,160,116521,1,0,0:0:0:0:
224,160,116651,1,0,0:0:0:0:
288,160,116781,1,8,0:0:0:0:
224,160,116912,1,0,0:0:0:0:
288,160,117042,1,8,0:0:0:0:
288,160,117173,1,8,0:0:0:0:
288,160,117238,1,8,0:0:0:0:
288,160,117303,1,8,0:0:0:0:
288,160,117434,1,8,0:0:0:0:
224,160,117564,1,0,0:0:0:0:
224,160,117825,1,0,0:0:0:0:
288,160,117955,1,8,0:0:0:0:
288,160,118086,1,8,0:0:0:0:
288,160,118347,1,8,0:0:0:0:
224,160,118477,1,0,0:0:0:0:
224,160,118608,1,0,0:0:0:0:
288,160,118868,1,8,0:0:0:0:
224,160,118999,1,0,0:0:0:0:
288,160,119129,1,8,0:0:0:0:
224,160,119260,1,0,0:0:0:0:
288,160,119325,1,8,0:0:0:0:
224,160,119390,1,0,0:0:0:0:
288,160,119521,1,8,0:0:0:0:
288,160,119651,1,8,0:0:0:0:
224,160,119912,1,0,0:0:0:0:
224,160,120042,1,0,0:0:0:0:
288,160,120173,1,8,0:0:0:0:
288,160,120434,1,8,0:0:0:0:
288,160,120499,1,8,0:0:0:0:
224,160,120564,1,0,0:0:0:0:
224,160,120629,1,0,0:0:0:0:
224,160,120694,1,0,0:0:0:0:
224,160,120825,1,0,0:0:0:0:
224,160,120890,1,0,0:0:0:0:
288,160,120955,1,8,0:0:0:0:
224,160,121086,1,0,0:0:0:0:
288,160,121216,1,8,0:0:0:0:
288,160,121347,1,8,0:0:0:0:
288,160,121412,1,8,0:0:0:0:
224,160,121477,1,0,0:0:0:0:
288,160,121608,1,8,0:0:0:0:
288,160,121738,1,8,0:0:0:0:
224,160,121868,1,0,0:0:0:0:
224,160,121999,1,0,0:0:0:0:
288,160,122129,1,8,0:0:0:0:
288,160,122260,1,8,0:0:0:0:
288,160,122521,1,8,0:0:0:0:
224,160,122781,1,0,0:0:0:0:
288,160,122912,1,8,0:0:0:0:
224,160,122977,1,0,0:0:0:0:
288,160,123042,1,8,0:0:0:0:
288,160,123173,1,8,0:0:0:0:
224,160,123303,1,0,0:0:0:0:
224,160,123434,1,0,0:0:0:0:
224,160,123499,1,0,0:0:0:0:
288,160,123564,1,8,0:0:0:0:
224,160,123694,1,0,0:0:0:0:
288,160,123825,1,8,0:0:0:0:
288,160,123955,1,8,0:0:0:0:
224,160,124086,1,0,0:0:0:0:
224,160,124216,1,0,0:0:0:0:
288,160,124347,1,8,0:0:0:0:
288,160,124608,1,8,0:0:0:0:
224,160,124868,1,0,0:0:0:0:
224,160,124999,1,0,0:0:0:0:
224,160,125064,1,0,0:0:0:0:
288,160,125129,1,8,0:0:0:0:
224,160,125260,1,0,0:0:0:0:
288,160,125390,1,8,0:0:0:0:
288,160,125521,1,8,0:0:0:0:
288,160,125586,1,8,0:0:0:0:
288,160,125651,1,8,0:0:0:0:
288,160,125781,1,8,0:0:0:0:
288,160,126042,1,8,0:0:0:0:
288,160,126108,1,8,0:0:0:0:
224,160,126173,1,0,0:0:0:0:
288,160,126303,1,8,0:0:0:0:
288,160,126434,1,8,0:0:0:0:
224,160,126564,1,0,0:0:0:0:
288,160,126629,1,8,0:0:0:0:
224,160,126694,1,0,0:0:0:0:
288,160,126825,1,8,0:0:0:0:
224,160,126955,1,0,0:0:0:0:
224,160,127086,1,0,0:0:0:0:
288,160,127216,1,8,0:0:0:0:
224,160,127347,1,0,0:0:0:0:
288,160,127477,1,8,0:0:0:0:
224,160,127608,1,0,0:0:0:0:
288,160,127673,1,8,0:0:0:0:
288,160,127738,1,8,0:0:0:0:
288,160,127868,1,8,0:0:0:0:
224,160,127999,1,0,0:0:0:0:
224,160,128194,1,0,0:0:0:0:
288,160,128260,1,8,0:0:0:0:
288,160,128390,1,8,0:0:0:0:
224,160,128521,1,0,0:0:0:0:
224,160,128651,1,0,0:0:0:0:
288,160,128781,1,8,0:0:0:0:
288,160,128847,1,8,0:0:0:0:
288,160,128912,1,8,0:0:0:0:
288,160,128977,1,8,0:0:0:0:
224,160,129042,1,0,0:0:0:0:
288,160,129303,1,8,0:0:0:0:
224,160,129564,1,0,0:0:0:0:
288,160,129825,1,8,0:0:0:0:
224,160,130086,1,0,0:0:0:0:
288,160,130347,1,8,0:0:0:0:
288,160,130608,1,8,0:0:0:0:
288,160,130868,1,8,0:0:0:0:
224,160,131129,1,0,0:0:0:0:
288,160,131390,1,8,0:0:0:0:
224,160,131651,1,0,0:0:0:0:
288,160,131912,1,8,0:0:0:0:
224,160,132173,1,0,0:0:0:0:
288,160,132434,1,8,0:0:0:0:
288,160,132694,1,8,0:0:0:0:
288,160,132955,1,8,0:0:0:0:
224,160,133216,1,0,0:0:0:0:
224,160,133347,1,0,0:0:0:0:
288,160,133477,1,8,0:0:0:0:
224,160,133738,1,0,0:0:0:0:
224,160,133868,1,0,0:0:0:0:
288,160,133999,1,8,0:0:0:0:
224,160,134129,1,0,0:0:0:0:
224,160,134260,1,0,0:0:0:0:
224,160,134390,1,0,0:0:0:0:
288,160,134521,1,8,0:0:0:0:
288,160,134781,1,8,0:0:0:0:
224,160,134912,1,0,0:0:0:0:
288,160,135042,1,8,0:0:0:0:
224,160,135303,1,0,0:0:0:0:
288,160,135564,1,8,0:0:0:0:
288,160,135825,1,8,0:0:0:0:
288,160,136086,1,8,0:0:0:0:
288,160,136347,1,8,0:0:0:0:
288,160,136868,1,8,0:0:0:0:
288,160,136934,1,8,0:0:0:0:
224,160,136999,1,0,0:0:0:0:
224,160,137064,1,0,0:0:0:0:
288,160,137129,1,8,0:0:0:0:
288,160,137194,1,8,0:0:0:0:
288,160,137260,1,8,0:0:0:0:
288,160,137325,1,8,0:0:0:0:
224,160,137390,1,0,0:0:0:0:
288,160,137651,1,8,0:0:0:0:
224,160,137781,1,0,0:0:0:0:
224,160,137847,1,0,0:0:0:0:
224,160,137912,1,0,0:0:0:0:
224,160,138042,1,0,0:0:0:0:
288,160,138173,1,8,0:0:0:0:
224,160,138434,1,0,0:0:0:0:
224,160,138564,1,0,0:0:0:0:
288,160,138694,1,8,0:0:0:0:
224,160,138825,1,0,0:0:0:0:
224,160,138890,1,0,0:0:0:0:
224,160,138955,1,0,0:0:0:0:
224,160,139086,1,0,0:0:0:0:
288,160,139216,1,8,0:0:0:0:
224,160,139347,1,0,0:0:0:0:
224,160,139477,1,0,0:0:0:0:
288,160,139738,1,8,0:0:0:0:
224,160,139868,1,0,0:0:0:0:
224,160,139934,1,0,0:0:0:0:
224,160,139999,1,0,0:0:0:0:
224,160,140129,1,0,0:0:0:0:
288,160,140260,1,8,0:0:0:0:
224,160,140390,1,0,0:0:0:0:
224,160,140651,1,0,0:0:0:0:
288,160,140781,1,8,0:0:0:0:
224,160,140912,1,0,0:0:0:0:
224,160,140977,1,0,0:0:0:0:
224,160,141042,1,0,0:0:0:0:
224,160,141173,1,0,0:0:0:0:
224,160,141238,1,0,0:0:0:0:
288,160,141303,1,8,0:0:0:0:
288,160,141434,1,8,0:0:0:0:
224,160,141564,1,0,0:0:0:0:
288,160,141825,1,8,0:0:0:0:
224,160,141955,1,0,0:0:0:0:
224,160,142021,1,0,0:0:0:0:
224,160,142086,1,0,0:0:0:0:
224,160,142216,1,0,0:0:0:0:
288,160,142347,1,8,0:0:0:0:
224,160,142608,1,0,0:0:0:0:
224,160,142738,1,0,0:0:0:0:
288,160,142868,1,8,0:0:0:0:
224,160,142999,1,0,0:0:0:0:
224,160,143064,1,0,0:0:0:0:
224,160,143129,1,0,0:0:0:0:
224,160,143260,1,0,0:0:0:0:
224,160,143325,1,0,0:0:0:0:
288,160,143390,1,8,0:0:0:0:
288,160,143521,1,8,0:0:0:0:
224,160,143651,1,0,0:0:0:0:
224,160,143781,1,0,0:0:0:0:
288,160,143912,1,8,0:0:0:0:
224,160,144042,1,0,0:0:0:0:
224,160,144108,1,0,0:0:0:0:
224,160,144173,1,0,0:0:0:0:
224,160,144303,1,0,0:0:0:0:
288,160,144434,1,8,0:0:0:0:
224,160,144564,1,0,0:0:0:0:
288,160,144694,5,8,0:0:0:0:
224,160,144760,1,0,0:0:0:0:
288,160,144825,1,8,0:0:0:0:
224,160,144955,1,0,0:0:0:0:
224,160,145021,1,0,0:0:0:0:
288,160,145086,1,8,0:0:0:0:
224,160,145216,1,0,0:0:0:0:
224,160,145347,1,0,0:0:0:0:
288,160,145412,1,8,0:0:0:0:
224,160,145477,1,0,0:0:0:0:
288,160,145608,1,8,0:0:0:0:
224,224,145738,1,4,0:0:0:0:
224,160,145868,1,0,0:0:0:0:
224,160,145934,1,0,0:0:0:0:
224,160,145999,1,8,0:0:0:0:
224,160,146129,1,0,0:0:0:0:
224,160,146260,1,8,0:0:0:0:
224,160,146390,1,8,0:0:0:0:
224,160,146455,1,0,0:0:0:0:
224,160,146521,1,8,0:0:0:0:
224,160,146586,1,8,0:0:0:0:
224,160,146651,1,0,0:0:0:0:
224,160,146781,1,8,0:0:0:0:
224,160,146912,1,0,0:0:0:0:
224,160,146977,1,0,0:0:0:0:
224,160,147042,1,8,0:0:0:0:
224,160,147173,1,8,0:0:0:0:
224,160,147303,1,8,0:0:0:0:
224,160,147434,1,0,0:0:0:0:
224,160,147564,1,8,0:0:0:0:
224,160,147629,1,8,0:0:0:0:
224,160,147694,1,0,0:0:0:0:
224,160,147825,1,0,0:0:0:0:
224,160,147955,1,0,0:0:0:0:
224,160,148021,1,0,0:0:0:0:
224,160,148086,1,8,0:0:0:0:
224,160,148216,1,0,0:0:0:0:
224,160,148347,1,8,0:0:0:0:
224,160,148477,1,0,0:0:0:0:
224,160,148542,1,0,0:0:0:0:
224,160,148608,1,8,0:0:0:0:
224,160,148673,1,8,0:0:0:0:
224,160,148738,1,0,0:0:0:0:
224,160,148868,1,0,0:0:0:0:
224,160,148999,1,0,0:0:0:0:
224,160,149064,1,0,0:0:0:0:
224,160,149129,1,8,0:0:0:0:
224,160,149260,1,8,0:0:0:0:
224,160,149390,1,0,0:0:0:0:
224,160,149521,1,0,0:0:0:0:
224,160,149651,1,8,0:0:0:0:
224,160,149716,1,8,0:0:0:0:
224,160,149781,1,0,0:0:0:0:
224,160,149912,1,12,0:0:0:0:
224,160,150042,1,0,0:0:0:0:
224,160,150108,1,0,0:0:0:0:
224,160,150173,1,8,0:0:0:0:
224,160,150303,1,0,0:0:0:0:
224,160,150434,1,8,0:0:0:0:
224,160,150564,1,8,0:0:0:0:
224,160,150629,1,0,0:0:0:0:
224,160,150694,1,8,0:0:0:0:
224,160,150760,1,8,0:0:0:0:
224,160,150825,1,0,0:0:0:0:
224,160,150955,1,0,0:0:0:0:
224,160,151086,1,0,0:0:0:0:
224,160,151151,1,0,0:0:0:0:
224,160,151216,1,8,0:0:0:0:
224,160,151347,1,8,0:0:0:0:
224,160,151477,1,8,0:0:0:0:
224,160,151608,1,0,0:0:0:0:
224,160,151673,1,0,0:0:0:0:
224,160,151738,1,8,0:0:0:0:
224,160,151803,1,8,0:0:0:0:
224,160,151868,1,0,0:0:0:0:
224,160,151999,1,0,0:0:0:0:
224,160,152129,1,0,0:0:0:0:
224,160,152194,1,0,0:0:0:0:
224,160,152260,1,8,0:0:0:0:
224,160,152390,1,0,0:0:0:0:
224,160,152521,1,8,0:0:0:0:
224,160,152586,1,8,0:0:0:0:
224,160,152651,1,0,0:0:0:0:
224,160,152716,1,8,0:0:0:0:
224,160,152781,1,8,0:0:0:0:
224,160,152912,1,0,0:0:0:0:
224,160,153042,1,12,0:0:0:0:
224,160,153173,1,8,0:0:0:0:
224,160,153303,1,0,0:0:0:0:
224,160,153434,1,0,0:0:0:0:
224,160,153564,1,8,0:0:0:0:
224,160,153694,1,4,0:0:0:0:
224,160,153825,1,12,0:0:0:0:
224,160,153955,1,12,0:0:0:0:
224,224,154086,1,4,0:0:0:0:
224,160,154216,1,0,0:0:0:0:
224,160,154281,1,0,0:0:0:0:
224,160,154347,1,8,0:0:0:0:
224,160,154477,1,0,0:0:0:0:
224,160,154608,1,8,0:0:0:0:
224,160,154738,1,8,0:0:0:0:
224,160,154803,1,0,0:0:0:0:
224,160,154868,1,8,0:0:0:0:
224,160,154934,1,8,0:0:0:0:
224,160,154999,1,0,0:0:0:0:
224,160,155129,1,8,0:0:0:0:
224,160,155260,1,0,0:0:0:0:
224,160,155325,1,0,0:0:0:0:
224,160,155390,1,8,0:0:0:0:
224,160,155521,1,8,0:0:0:0:
224,160,155651,1,8,0:0:0:0:
224,160,155781,1,0,0:0:0:0:
224,160,155912,1,8,0:0:0:0:
224,160,155977,1,8,0:0:0:0:
224,160,156042,1,0,0:0:0:0:
224,160,156173,1,8,0:0:0:0:
224,160,156238,1,0,0:0:0:0:
224,160,156303,1,0,0:0:0:0:
224,160,156434,1,8,0:0:0:0:
224,160,156564,1,0,0:0:0:0:
224,160,156694,1,8,0:0:0:0:
224,160,156760,1,8,0:0:0:0:
224,160,156825,1,0,0:0:0:0:
224,160,156955,1,8,0:0:0:0:
224,160,157021,1,0,0:0:0:0:
224,160,157086,1,0,0:0:0:0:
224,160,157216,1,0,0:0:0:0:
224,160,157347,1,0,0:0:0:0:
224,160,157412,1,0,0:0:0:0:
224,160,157477,1,8,0:0:0:0:
224,160,157608,1,8,0:0:0:0:
224,160,157738,1,0,0:0:0:0:
224,160,157868,1,0,0:0:0:0:
224,160,157999,1,8,0:0:0:0:
224,160,158064,1,8,0:0:0:0:
224,160,158129,1,0,0:0:0:0:
224,160,158260,1,12,0:0:0:0:
224,160,158390,1,0,0:0:0:0:
224,160,158455,1,0,0:0:0:0:
224,160,158521,1,8,0:0:0:0:
224,160,158651,1,0,0:0:0:0:
224,160,158781,1,8,0:0:0:0:
224,160,158912,1,8,0:0:0:0:
224,160,158977,1,0,0:0:0:0:
224,160,159042,1,8,0:0:0:0:
224,160,159108,1,8,0:0:0:0:
224,160,159173,1,0,0:0:0:0:
224,160,159303,1,8,0:0:0:0:
224,160,159434,1,0,0:0:0:0:
224,160,159499,1,0,0:0:0:0:
224,160,159564,1,8,0:0:0:0:
224,160,159694,1,0,0:0:0:0:
224,160,159825,1,8,0:0:0:0:
224,160,159955,1,8,0:0:0:0:
224,160,160086,1,8,0:0:0:0:
224,160,160151,1,8,0:0:0:0:
224,160,160216,1,0,0:0:0:0:
224,160,160347,1,4,0:0:0:0:
224,160,160477,1,8,0:0:0:0:
224,160,160608,1,0,0:0:0:0:
224,160,160738,1,0,0:0:0:0:
224,160,160868,1,8,0:0:0:0:
224,160,160999,1,8,0:0:0:0:
224,160,161129,1,0,0:0:0:0:
224,160,161260,1,0,0:0:0:0:
224,160,161390,1,12,0:0:0:0:
224,160,161651,1,4,0:0:0:0:
224,160,161912,1,12,0:0:0:0:
224,160,162173,1,0,0:0:0:0:
224,160,162238,1,0,0:0:0:0:
224,160,162303,1,0,0:0:0:0:
224,224,162434,1,12,0:0:0:0:
224,160,162564,1,0,0:0:0:0:
224,160,162629,1,0,0:0:0:0:
224,160,162694,1,8,0:0:0:0:
224,160,162825,1,0,0:0:0:0:
224,160,162955,1,8,0:0:0:0:
224,160,163086,1,8,0:0:0:0:
224,160,163151,1,0,0:0:0:0:
224,160,163216,1,8,0:0:0:0:
224,160,163281,1,8,0:0:0:0:
224,160,163347,1,0,0:0:0:0:
224,160,163477,1,8,0:0:0:0:
224,160,163608,1,0,0:0:0:0:
224,160,163673,1,0,0:0:0:0:
224,160,163738,1,8,0:0:0:0:
224,160,163868,1,8,0:0:0:0:
224,160,163999,1,8,0:0:0:0:
224,160,164129,1,0,0:0:0:0:
224,160,164260,1,8,0:0:0:0:
224,160,164325,1,8,0:0:0:0:
224,160,164390,1,0,0:0:0:0:
224,160,164521,1,0,0:0:0:0:
224,160,164651,1,0,0:0:0:0:
224,160,164716,1,0,0:0:0:0:
224,160,164781,1,8,0:0:0:0:
224,160,164912,1,0,0:0:0:0:
224,160,165042,1,8,0:0:0:0:
224,160,165173,1,0,0:0:0:0:
224,160,165238,1,0,0:0:0:0:
224,160,165303,1,8,0:0:0:0:
224,160,165368,1,8,0:0:0:0:
224,160,165434,1,0,0:0:0:0:
224,160,165564,1,0,0:0:0:0:
224,160,165694,1,0,0:0:0:0:
224,160,165760,1,0,0:0:0:0:
224,160,165825,1,8,0:0:0:0:
224,160,165955,1,8,0:0:0:0:
224,160,166086,1,0,0:0:0:0:
224,160,166216,1,0,0:0:0:0:
224,160,166347,1,8,0:0:0:0:
224,160,166412,1,8,0:0:0:0:
224,160,166477,1,0,0:0:0:0:
224,160,166608,1,12,0:0:0:0:
224,160,166738,1,0,0:0:0:0:
224,160,166803,1,0,0:0:0:0:
224,160,166868,1,8,0:0:0:0:
224,160,166999,1,0,0:0:0:0:
224,160,167129,1,8,0:0:0:0:
224,160,167260,1,8,0:0:0:0:
224,160,167325,1,0,0:0:0:0:
224,160,167390,1,8,0:0:0:0:
224,160,167455,1,8,0:0:0:0:
224,160,167521,1,0,0:0:0:0:
224,160,167651,1,0,0:0:0:0:
224,160,167781,1,0,0:0:0:0:
224,160,167847,1,0,0:0:0:0:
224,160,167912,1,8,0:0:0:0:
224,160,168042,1,8,0:0:0:0:
224,160,168173,1,8,0:0:0:0:
224,160,168303,1,0,0:0:0:0:
224,160,168368,1,0,0:0:0:0:
224,160,168434,1,8,0:0:0:0:
224,160,168499,1,8,0:0:0:0:
224,160,168564,1,0,0:0:0:0:
224,160,168694,1,0,0:0:0:0:
224,160,168825,1,0,0:0:0:0:
224,160,168890,1,0,0:0:0:0:
224,160,168955,1,8,0:0:0:0:
224,160,169086,1,0,0:0:0:0:
224,160,169216,1,8,0:0:0:0:
224,160,169281,1,8,0:0:0:0:
224,160,169347,1,0,0:0:0:0:
224,160,169412,1,8,0:0:0:0:
224,160,169477,1,8,0:0:0:0:
224,160,169608,1,0,0:0:0:0:
224,160,169738,1,12,0:0:0:0:
224,160,169868,1,8,0:0:0:0:
224,160,169999,1,0,0:0:0:0:
224,160,170129,1,0,0:0:0:0:
224,160,170260,1,8,0:0:0:0:
224,160,170390,1,4,0:0:0:0:
224,160,170521,1,12,0:0:0:0:
224,160,170651,1,12,0:0:0:0:
224,224,170781,1,4,0:0:0:0:
224,160,170912,1,0,0:0:0:0:
224,160,170977,1,0,0:0:0:0:
224,160,171042,1,8,0:0:0:0:
224,160,171173,1,0,0:0:0:0:
224,160,171303,1,8,0:0:0:0:
224,160,171434,1,8,0:0:0:0:
224,160,171499,1,0,0:0:0:0:
224,160,171564,1,8,0:0:0:0:
224,160,171629,1,8,0:0:0:0:
224,160,171694,1,0,0:0:0:0:
224,160,171825,1,8,0:0:0:0:
224,160,171955,1,0,0:0:0:0:
224,160,172021,1,0,0:0:0:0:
224,160,172086,1,8,0:0:0:0:
224,160,172216,1,8,0:0:0:0:
224,160,172347,1,8,0:0:0:0:
224,160,172477,1,0,0:0:0:0:
224,160,172608,1,8,0:0:0:0:
224,160,172673,1,8,0:0:0:0:
224,160,172738,1,0,0:0:0:0:
224,160,172868,1,0,0:0:0:0:
224,160,172999,1,0,0:0:0:0:
224,160,173064,1,0,0:0:0:0:
224,160,173129,1,8,0:0:0:0:
224,160,173260,1,8,0:0:0:0:
224,160,173390,1,8,0:0:0:0:
224,160,173521,1,0,0:0:0:0:
224,160,173586,1,0,0:0:0:0:
224,160,173651,1,8,0:0:0:0:
224,160,173716,1,8,0:0:0:0:
224,160,173781,1,0,0:0:0:0:
224,160,173912,1,0,0:0:0:0:
224,160,174042,1,0,0:0:0:0:
224,160,174108,1,0,0:0:0:0:
224,160,174173,1,8,0:0:0:0:
224,160,174303,1,8,0:0:0:0:
224,160,174434,1,0,0:0:0:0:
224,160,174564,1,0,0:0:0:0:
224,160,174694,1,8,0:0:0:0:
224,160,174760,1,8,0:0:0:0:
224,160,174825,1,0,0:0:0:0:
224,160,174955,1,12,0:0:0:0:
256,192,175216,2,0,L|256:128,20,35
224,160,176781,1,8,0:0:0:0:
224,160,177042,1,4,0:0:0:0:
224,160,177173,1,0,0:0:0:0:
224,160,177238,1,0,0:0:0:0:
224,160,177303,1,8,0:0:0:0:
224,160,177434,1,8,0:0:0:0:
224,160,177564,1,0,0:0:0:0:
224,160,177651,1,0,0:0:0:0:
224,160,177738,1,0,0:0:0:0:
224,160,177825,1,8,0:0:0:0:
224,160,177955,1,8,0:0:0:0:
224,160,178086,1,4,0:0:0:0:
224,160,178216,1,0,0:0:0:0:
224,160,178347,1,12,0:0:0:0:
224,160,178608,1,4,0:0:0:0:
224,160,178738,1,8,0:0:0:0:
224,160,178803,1,8,0:0:0:0:
224,160,178868,1,8,0:0:0:0:
224,160,178934,1,8,0:0:0:0:
224,160,178999,1,8,0:0:0:0:
224,160,179129,1,4,0:0:0:0:
224,160,179390,1,8,0:0:0:0:
224,160,179651,1,0,0:0:0:0:
224,160,179912,1,8,0:0:0:0:
224,160,180173,1,0,0:0:0:0:
224,160,180434,1,8,0:0:0:0:
224,160,180694,1,0,0:0:0:0:
224,160,180955,1,8,0:0:0:0:
224,160,181216,1,0,0:0:0:0:
224,160,181477,1,8,0:0:0:0:
224,160,181738,1,0,0:0:0:0:
224,160,181901,1,0,0:0:0:0:
224,160,181999,1,8,0:0:0:0:
224,160,182129,1,8,0:0:0:0:
224,160,182260,1,0,0:0:0:0:
224,160,182423,1,0,0:0:0:0:
224,160,182521,1,8,0:0:0:0:
224,160,182651,1,8,0:0:0:0:
224,160,182781,1,0,0:0:0:0:
224,160,182912,1,0,0:0:0:0:
224,160,183042,1,8,0:0:0:0:
224,160,183303,1,0,0:0:0:0:
224,160,183564,1,8,0:0:0:0:
224,160,183825,1,0,0:0:0:0:
224,160,184086,1,8,0:0:0:0:
224,160,184347,1,0,0:0:0:0:
224,160,184608,1,8,0:0:0:0:
224,160,184771,1,8,0:0:0:0:
224,160,184868,1,0,0:0:0:0:
224,160,185129,1,8,0:0:0:0:
224,160,185390,1,0,0:0:0:0:
224,160,185651,1,8,0:0:0:0:
224,160,185912,1,0,0:0:0:0:
224,160,186075,1,0,0:0:0:0:
224,160,186173,1,8,0:0:0:0:
224,160,186336,1,8,0:0:0:0:
224,160,186434,1,0,0:0:0:0:
224,160,186597,1,0,0:0:0:0:
224,160,186694,1,8,0:0:0:0:
224,160,186858,1,0,0:0:0:0:
224,160,186955,1,8,0:0:0:0:
224,160,187216,1,8,0:0:0:0:
224,160,187477,1,4,0:0:0:0:
224,160,187738,1,8,0:0:0:0:
224,160,187999,1,0,0:0:0:0:
224,160,188260,1,8,0:0:0:0:
224,160,188521,1,0,0:0:0:0:
224,160,188781,1,8,0:0:0:0:
224,160,188912,1,8,0:0:0:0:
224,160,189042,1,0,0:0:0:0:
224,160,189303,1,8,0:0:0:0:
224,160,189564,1,0,0:0:0:0:
224,160,189825,1,8,0:0:0:0:
224,160,190086,1,0,0:0:0:0:
224,160,190249,1,0,0:0:0:0:
224,160,190347,1,8,0:0:0:0:
224,160,190477,1,8,0:0:0:0:
224,160,190608,1,0,0:0:0:0:
224,160,190771,1,0,0:0:0:0:
224,160,190868,1,8,0:0:0:0:
224,160,190999,1,8,0:0:0:0:
224,160,191129,1,0,0:0:0:0:
224,160,191260,1,0,0:0:0:0:
224,160,191390,1,8,0:0:0:0:
224,160,191651,1,0,0:0:0:0:
224,160,191912,1,8,0:0:0:0:
224,160,192042,1,8,0:0:0:0:
224,160,192173,1,0,0:0:0:0:
224,160,192434,1,8,0:0:0:0:
224,160,192694,1,0,0:0:0:0:
224,160,192955,1,8,0:0:0:0:
224,160,193086,1,8,0:0:0:0:
224,160,193216,1,0,0:0:0:0:
224,160,193477,1,8,0:0:0:0:
224,160,193738,1,0,0:0:0:0:
224,160,193999,1,8,0:0:0:0:
224,160,194260,1,0,0:0:0:0:
224,160,194423,1,0,0:0:0:0:
224,160,194521,1,8,0:0:0:0:
224,160,194684,1,8,0:0:0:0:
224,160,194781,1,0,0:0:0:0:
224,160,194944,1,0,0:0:0:0:
224,160,195042,1,8,0:0:0:0:
224,160,195205,1,0,0:0:0:0:
224,160,195303,1,8,0:0:0:0:
224,160,195564,1,8,0:0:0:0:
224,160,195825,1,4,0:0:0:0:
224,160,196086,1,8,0:0:0:0:
224,160,196347,1,0,0:0:0:0:
224,160,196608,1,8,0:0:0:0:
224,160,196868,1,0,0:0:0:0:
224,160,197129,1,8,0:0:0:0:
224,160,197260,1,8,0:0:0:0:
224,160,197390,1,0,0:0:0:0:
224,160,197651,1,8,0:0:0:0:
224,160,197912,1,0,0:0:0:0:
224,160,198173,1,8,0:0:0:0:
224,160,198434,1,0,0:0:0:0:
224,160,198694,1,8,0:0:0:0:
224,160,198955,1,0,0:0:0:0:
224,160,199216,1,8,0:0:0:0:
224,160,199379,1,8,0:0:0:0:
224,160,199477,1,0,0:0:0:0:
224,160,199738,1,8,0:0:0:0:
224,160,199999,1,0,0:0:0:0:
224,160,200260,1,8,0:0:0:0:
224,160,200423,1,8,0:0:0:0:
224,160,200521,1,0,0:0:0:0:
224,160,200781,1,8,0:0:0:0:
224,160,201042,1,0,0:0:0:0:
224,160,201303,1,8,0:0:0:0:
224,160,201434,1,8,0:0:0:0:
224,160,201564,1,0,0:0:0:0:
224,160,201825,1,8,0:0:0:0:
224,160,201988,1,8,0:0:0:0:
224,160,202086,1,0,0:0:0:0:
224,160,202347,1,8,0:0:0:0:
224,160,202608,1,0,0:0:0:0:
224,160,202868,1,8,0:0:0:0:
224,160,203129,1,0,0:0:0:0:
224,160,203390,1,8,0:0:0:0:
224,160,203553,1,8,0:0:0:0:
224,160,203651,1,0,0:0:0:0:
224,160,203912,1,8,0:0:0:0:
224,160,204173,1,4,0:0:0:0:
224,160,204434,1,0,0:0:0:0:
224,160,204694,1,8,0:0:0:0:
224,160,204955,1,8,0:0:0:0:
224,160,205216,1,0,0:0:0:0:
224,160,205477,1,8,0:0:0:0:
224,160,205608,1,8,0:0:0:0:
224,160,205738,1,0,0:0:0:0:
224,160,205999,1,8,0:0:0:0:
224,160,206260,1,0,0:0:0:0:
224,160,206521,1,8,0:0:0:0:
224,160,206781,1,0,0:0:0:0:
224,160,207042,1,8,0:0:0:0:
224,160,207303,1,0,0:0:0:0:
224,160,207564,1,8,0:0:0:0:
224,160,207727,1,8,0:0:0:0:
224,160,207825,1,0,0:0:0:0:
224,160,208086,1,8,0:0:0:0:
224,160,208337,1,4,0:0:0:0:
224,160,208603,1,8,0:0:0:0:
224,160,208770,1,8,0:0:0:0:
224,160,208870,1,0,0:0:0:0:
224,160,209137,1,8,0:0:0:0:
224,160,209403,1,0,0:0:0:0:
224,160,209682,1,8,0:0:0:0:
224,160,209963,1,0,0:0:0:0:
224,160,210242,1,8,0:0:0:0:
224,160,210576,1,0,0:0:0:0:
224,160,210900,1,8,0:0:0:0:
224,160,211233,1,0,0:0:0:0:
224,160,211602,1,8,0:0:0:0:
224,160,211971,1,0,0:0:0:0:
224,160,212377,1,8,0:0:0:0:
224,160,212805,1,0,0:0:0:0:
224,160,213423,1,4,0:0:0:0:
224,160,213552,1,0,0:0:0:0:
224,160,213682,1,8,0:0:0:0:
224,160,213813,1,8,0:0:0:0:
224,160,213943,1,0,0:0:0:0:
224,160,214074,1,0,0:0:0:0:
224,160,214139,1,8,0:0:0:0:
224,160,214204,1,0,0:0:0:0:
224,160,214335,1,8,0:0:0:0:
224,160,214465,1,4,0:0:0:0:
224,160,214595,1,0,0:0:0:0:
224,160,214726,1,8,0:0:0:0:
224,160,214856,1,8,0:0:0:0:
224,160,214987,1,0,0:0:0:0:
224,160,215117,1,0,0:0:0:0:
224,160,215182,1,8,0:0:0:0:
224,160,215248,1,0,0:0:0:0:
224,160,215378,1,8,0:0:0:0:
224,160,215508,1,4,0:0:0:0:
224,160,215639,1,0,0:0:0:0:
224,160,215769,1,8,0:0:0:0:
224,160,215900,1,8,0:0:0:0:
224,160,216030,1,0,0:0:0:0:
224,160,216161,1,0,0:0:0:0:
224,160,216226,1,8,0:0:0:0:
224,160,216291,1,0,0:0:0:0:
224,160,216422,1,8,0:0:0:0:
224,160,216552,1,4,0:0:0:0:
224,160,216682,1,0,0:0:0:0:
224,160,216813,1,8,0:0:0:0:
224,160,216943,1,8,0:0:0:0:
224,160,217074,1,0,0:0:0:0:
224,160,217204,1,0,0:0:0:0:
224,160,217269,1,8,0:0:0:0:
224,160,217335,1,0,0:0:0:0:
224,160,217465,1,8,0:0:0:0:
224,160,217595,1,4,0:0:0:0:
224,160,217726,1,0,0:0:0:0:
224,160,217856,1,8,0:0:0:0:
224,160,217987,1,8,0:0:0:0:
224,160,218117,1,4,0:0:0:0:
224,160,218248,1,0,0:0:0:0:
224,160,218378,1,8,0:0:0:0:
224,160,218508,1,8,0:0:0:0:
224,160,218639,1,4,0:0:0:0:
224,160,218769,1,0,0:0:0:0:
224,160,218900,1,8,0:0:0:0:
224,160,219030,1,8,0:0:0:0:
224,160,219161,1,4,0:0:0:0:
224,160,219291,1,0,0:0:0:0:
224,160,219422,1,8,0:0:0:0:
224,160,219552,1,8,0:0:0:0:
224,160,219682,1,4,0:0:0:0:
224,160,219943,1,8,0:0:0:0:
224,160,220074,1,4,0:0:0:0:
224,160,220335,1,8,0:0:0:0:
224,160,220465,1,4,0:0:0:0:
224,160,220595,1,8,0:0:0:0:
224,160,220726,1,4,0:0:0:0:
224,160,220856,1,0,0:0:0:0:
224,160,220922,1,0,0:0:0:0:
224,160,220987,1,8,0:0:0:0:
224,160,221117,1,8,0:0:0:0:
224,160,221248,1,4,0:0:0:0:
224,160,221378,1,8,0:0:0:0:
224,160,221508,1,4,0:0:0:0:
224,160,221639,1,8,0:0:0:0:
224,160,221769,1,12,0:0:0:0:
224,160,221900,1,0,0:0:0:0:
224,160,221965,1,0,0:0:0:0:
224,160,222030,1,8,0:0:0:0:
224,160,222161,1,8,0:0:0:0:
224,160,222291,1,0,0:0:0:0:
224,160,222422,1,8,0:0:0:0:
224,160,222487,1,8,0:0:0:0:
224,160,222552,1,0,0:0:0:0:
224,160,222617,1,0,0:0:0:0:
224,160,222682,1,8,0:0:0:0:
224,160,222813,1,0,0:0:0:0:
224,160,222943,1,0,0:0:0:0:
224,160,223008,1,0,0:0:0:0:
224,160,223074,1,8,0:0:0:0:
224,160,223204,1,8,0:0:0:0:
224,160,223335,1,0,0:0:0:0:
224,160,223400,1,0,0:0:0:0:
224,160,223465,1,0,0:0:0:0:
224,160,223530,1,0,0:0:0:0:
224,160,223595,1,8,0:0:0:0:
224,160,223661,1,8,0:0:0:0:
224,160,223726,1,8,0:0:0:0:
224,160,223856,1,0,0:0:0:0:
224,160,223987,1,0,0:0:0:0:
224,160,224052,1,0,0:0:0:0:
224,160,224117,1,8,0:0:0:0:
224,160,224248,1,8,0:0:0:0:
224,160,224378,1,0,0:0:0:0:
224,160,224508,1,8,0:0:0:0:
224,160,224574,1,8,0:0:0:0:
224,160,224639,1,0,0:0:0:0:
224,160,224704,1,0,0:0:0:0:
224,160,224769,1,8,0:0:0:0:
224,160,224900,1,8,0:0:0:0:
224,160,225030,1,0,0:0:0:0:
224,160,225095,1,0,0:0:0:0:
224,160,225161,1,8,0:0:0:0:
224,160,225291,1,0,0:0:0:0:
224,160,225422,1,8,0:0:0:0:
224,160,225487,1,8,0:0:0:0:
224,160,225552,1,0,0:0:0:0:
224,160,225617,1,0,0:0:0:0:
224,160,225682,1,8,0:0:0:0:
224,160,225748,1,8,0:0:0:0:
224,160,225813,1,8,0:0:0:0:
224,160,225943,1,0,0:0:0:0:
224,160,226074,1,0,0:0:0:0:
224,160,226139,1,0,0:0:0:0:
224,160,226204,1,8,0:0:0:0:
224,160,226335,1,0,0:0:0:0:
224,160,226465,1,8,0:0:0:0:
224,160,226595,1,0,0:0:0:0:
224,160,226661,1,0,0:0:0:0:
224,160,226726,1,8,0:0:0:0:
224,160,226856,1,8,0:0:0:0:
224,160,226987,1,0,0:0:0:0:
224,160,227052,1,0,0:0:0:0:
224,160,227117,1,0,0:0:0:0:
224,160,227248,1,8,0:0:0:0:
224,160,227378,1,0,0:0:0:0:
224,160,227508,1,8,0:0:0:0:
224,160,227639,1,0,0:0:0:0:
224,160,227704,1,8,0:0:0:0:
224,160,227769,1,0,0:0:0:0:
224,160,227900,1,0,0:0:0:0:
224,160,228030,1,8,0:0:0:0:
224,160,228095,1,8,0:0:0:0:
224,160,228161,1,0,0:0:0:0:
224,160,228291,1,8,0:0:0:0:
224,160,228421,1,0,0:0:0:0:
224,160,228552,1,8,0:0:0:0:
224,160,228682,1,0,0:0:0:0:
224,160,228748,1,0,0:0:0:0:
224,160,228813,1,8,0:0:0:0:
224,160,228943,1,8,0:0:0:0:
224,160,229074,1,0,0:0:0:0:
224,160,229204,1,0,0:0:0:0:
224,160,229269,1,0,0:0:0:0:
224,160,229335,1,8,0:0:0:0:
224,160,229465,1,0,0:0:0:0:
224,160,229595,1,8,0:0:0:0:
224,160,229661,1,8,0:0:0:0:
224,160,229726,1,8,0:0:0:0:
224,160,229791,1,8,0:0:0:0:
224,160,229856,1,0,0:0:0:0:
224,160,229921,1,0,0:0:0:0:
224,160,229987,1,0,0:0:0:0:
224,160,230117,1,12,0:0:0:0:
224,160,230248,1,0,0:0:0:0:
224,160,230313,1,0,0:0:0:0:
224,160,230378,1,8,0:0:0:0:
224,160,230508,1,8,0:0:0:0:
224,160,230639,1,0,0:0:0:0:
224,160,230769,1,8,0:0:0:0:
224,160,230835,1,0,0:0:0:0:
224,160,230900,1,0,0:0:0:0:
224,160,230965,1,0,0:0:0:0:
224,160,231030,1,8,0:0:0:0:
224,160,231161,1,0,0:0:0:0:
224,160,231291,1,0,0:0:0:0:
224,160,231356,1,0,0:0:0:0:
224,160,231421,1,8,0:0:0:0:
224,160,231552,1,8,0:0:0:0:
224,160,231682,1,0,0:0:0:0:
224,160,231748,1,8,0:0:0:0:
224,160,231813,1,0,0:0:0:0:
224,160,231878,1,0,0:0:0:0:
224,160,231943,1,8,0:0:0:0:
224,160,232008,1,8,0:0:0:0:
224,160,232074,1,0,0:0:0:0:
224,160,232204,1,0,0:0:0:0:
224,160,232335,1,0,0:0:0:0:
224,160,232400,1,0,0:0:0:0:
224,160,232465,1,8,0:0:0:0:
224,160,232595,1,8,0:0:0:0:
224,160,232726,1,0,0:0:0:0:
224,160,232856,1,8,0:0:0:0:
224,160,232921,1,0,0:0:0:0:
224,160,232987,1,0,0:0:0:0:
224,160,233052,1,0,0:0:0:0:
224,160,233117,1,8,0:0:0:0:
224,160,233248,1,8,0:0:0:0:
224,160,233378,1,0,0:0:0:0:
224,160,233443,1,0,0:0:0:0:
224,160,233508,1,8,0:0:0:0:
224,160,233639,1,0,0:0:0:0:
224,160,233769,1,8,0:0:0:0:
224,160,233835,1,0,0:0:0:0:
224,160,233900,1,8,0:0:0:0:
224,160,233965,1,8,0:0:0:0:
224,160,234030,1,0,0:0:0:0:
224,160,234095,1,0,0:0:0:0:
224,160,234161,1,8,0:0:0:0:
224,160,234291,1,0,0:0:0:0:
224,160,234421,1,0,0:0:0:0:
224,160,234487,1,0,0:0:0:0:
224,160,234552,1,8,0:0:0:0:
224,160,234682,1,0,0:0:0:0:
224,160,234813,1,8,0:0:0:0:
224,160,234943,1,0,0:0:0:0:
224,160,235008,1,0,0:0:0:0:
224,160,235074,1,8,0:0:0:0:
224,160,235204,1,8,0:0:0:0:
224,160,235335,1,0,0:0:0:0:
224,160,235400,1,0,0:0:0:0:
224,160,235465,1,0,0:0:0:0:
224,160,235595,1,8,0:0:0:0:
224,160,235726,1,0,0:0:0:0:
224,160,235856,1,8,0:0:0:0:
224,160,235987,1,0,0:0:0:0:
224,160,236052,1,8,0:0:0:0:
224,160,236117,1,0,0:0:0:0:
224,160,236248,1,0,0:0:0:0:
224,160,236378,1,8,0:0:0:0:
224,160,236443,1,8,0:0:0:0:
224,160,236508,1,0,0:0:0:0:
224,160,236639,1,8,0:0:0:0:
224,160,236769,1,0,0:0:0:0:
224,160,236900,1,8,0:0:0:0:
224,160,237030,1,0,0:0:0:0:
224,160,237095,1,0,0:0:0:0:
224,160,237161,1,8,0:0:0:0:
224,160,237291,1,8,0:0:0:0:
224,160,237421,1,0,0:0:0:0:
224,160,237552,1,0,0:0:0:0:
224,160,237617,1,0,0:0:0:0:
224,160,237682,1,8,0:0:0:0:
224,160,237813,1,0,0:0:0:0:
224,160,237943,1,8,0:0:0:0:
224,160,238008,1,0,0:0:0:0:
224,160,238074,1,8,0:0:0:0:
224,160,238139,1,8,0:0:0:0:
224,160,238204,1,0,0:0:0:0:
224,160,238269,1,0,0:0:0:0:
224,160,238335,1,0,0:0:0:0:
224,160,238465,1,12,0:0:0:0:
224,160,238595,1,0,0:0:0:0:
224,160,238726,1,8,0:0:0:0:
224,160,238856,1,8,0:0:0:0:
224,160,238987,1,0,0:0:0:0:
224,160,239117,1,0,0:0:0:0:
224,160,239182,1,0,0:0:0:0:
224,160,239248,1,8,0:0:0:0:
224,160,239378,1,8,0:0:0:0:
224,160,239508,1,0,0:0:0:0:
224,160,239639,1,0,0:0:0:0:
224,160,239769,1,8,0:0:0:0:
224,160,239900,1,0,0:0:0:0:
224,160,240030,1,8,0:0:0:0:
224,160,240095,1,8,0:0:0:0:
224,160,240161,1,0,0:0:0:0:
224,160,240291,1,8,0:0:0:0:
224,160,240356,1,0,0:0:0:0:
224,160,240421,1,0,0:0:0:0:
224,160,240552,1,8,0:0:0:0:
224,160,240682,1,0,0:0:0:0:
224,160,240813,1,8,0:0:0:0:
224,160,240943,1,8,0:0:0:0:
224,160,241074,1,0,0:0:0:0:
224,160,241204,1,0,0:0:0:0:
224,160,241269,1,0,0:0:0:0:
224,160,241335,1,8,0:0:0:0:
224,160,241465,1,0,0:0:0:0:
224,160,241595,1,8,0:0:0:0:
224,160,241726,1,8,0:0:0:0:
224,160,241856,1,0,0:0:0:0:
224,160,241987,1,0,0:0:0:0:
224,160,242117,1,8,0:0:0:0:
224,160,242182,1,8,0:0:0:0:
224,160,242248,1,8,0:0:0:0:
224,160,242378,1,0,0:0:0:0:
224,160,242443,1,0,0:0:0:0:
224,160,242508,1,0,0:0:0:0:
224,160,242639,1,8,0:0:0:0:
224,160,242769,1,0,0:0:0:0:
224,160,242900,1,8,0:0:0:0:
224,160,243030,1,0,0:0:0:0:
224,160,243161,1,8,0:0:0:0:
224,160,243291,1,8,0:0:0:0:
224,160,243356,1,8,0:0:0:0:
224,160,243421,1,0,0:0:0:0:
224,160,243552,1,0,0:0:0:0:
224,160,243682,1,8,0:0:0:0:
224,160,243813,1,0,0:0:0:0:
224,160,243943,1,0,0:0:0:0:
224,160,244074,1,8,0:0:0:0:
224,160,244204,1,8,0:0:0:0:
224,160,244335,1,0,0:0:0:0:
224,160,244400,1,0,0:0:0:0:
224,160,244465,1,8,0:0:0:0:
224,160,244595,1,0,0:0:0:0:
224,160,244726,1,8,0:0:0:0:
224,160,244856,1,0,0:0:0:0:
224,160,244987,1,8,0:0:0:0:
224,160,245117,1,0,0:0:0:0:
224,160,245248,1,8,0:0:0:0:
224,160,245378,1,0,0:0:0:0:
224,160,245443,1,0,0:0:0:0:
224,160,245508,1,8,0:0:0:0:
224,160,245639,1,8,0:0:0:0:
224,160,245769,1,0,0:0:0:0:
224,160,245900,1,0,0:0:0:0:
224,160,246030,1,8,0:0:0:0:
224,160,246161,1,0,0:0:0:0:
224,160,246291,1,8,0:0:0:0:
224,160,246421,1,0,0:0:0:0:
224,160,246552,1,8,0:0:0:0:
224,160,246617,1,0,0:0:0:0:
224,160,246682,1,0,0:0:0:0:
224,160,246813,1,12,0:0:0:0:
224,160,246943,1,0,0:0:0:0:
224,160,247008,1,0,0:0:0:0:
224,160,247074,1,8,0:0:0:0:
224,160,247204,1,8,0:0:0:0:
224,160,247335,1,0,0:0:0:0:
224,160,247465,1,8,0:0:0:0:
224,160,247530,1,8,0:0:0:0:
224,160,247595,1,0,0:0:0:0:
224,160,247661,1,0,0:0:0:0:
224,160,247726,1,8,0:0:0:0:
224,160,247856,1,8,0:0:0:0:
224,160,247987,1,0,0:0:0:0:
224,160,248052,1,0,0:0:0:0:
224,160,248117,1,0,0:0:0:0:
224,160,248248,1,8,0:0:0:0:
224,160,248378,1,8,0:0:0:0:
224,160,248443,1,8,0:0:0:0:
224,160,248508,1,0,0:0:0:0:
224,160,248574,1,0,0:0:0:0:
224,160,248639,1,8,0:0:0:0:
224,160,248704,1,8,0:0:0:0:
224,160,248769,1,8,0:0:0:0:
224,160,248900,1,0,0:0:0:0:
224,160,249030,1,0,0:0:0:0:
224,160,249095,1,0,0:0:0:0:
224,160,249161,1,8,0:0:0:0:
224,160,249291,1,8,0:0:0:0:
224,160,249421,1,0,0:0:0:0:
224,160,249487,1,0,0:0:0:0:
224,160,249552,1,8,0:0:0:0:
224,160,249617,1,0,0:0:0:0:
224,160,249682,1,8,0:0:0:0:
224,160,249748,1,8,0:0:0:0:
224,160,249813,1,0,0:0:0:0:
224,160,249943,1,8,0:0:0:0:
224,160,250074,1,0,0:0:0:0:
224,160,250139,1,0,0:0:0:0:
224,160,250204,1,8,0:0:0:0:
224,160,250335,1,8,0:0:0:0:
224,160,250465,1,0,0:0:0:0:
224,160,250530,1,0,0:0:0:0:
224,160,250595,1,0,0:0:0:0:
224,160,250661,1,0,0:0:0:0:
224,160,250726,1,8,0:0:0:0:
224,160,250791,1,8,0:0:0:0:
224,160,250856,1,8,0:0:0:0:
224,160,250987,1,0,0:0:0:0:
224,160,251117,1,0,0:0:0:0:
224,160,251182,1,0,0:0:0:0:
224,160,251248,1,8,0:0:0:0:
224,160,251378,1,0,0:0:0:0:
224,160,251508,1,8,0:0:0:0:
224,160,251639,1,0,0:0:0:0:
224,160,251704,1,0,0:0:0:0:
224,160,251769,1,8,0:0:0:0:
224,160,251900,1,8,0:0:0:0:
224,160,252030,1,0,0:0:0:0:
224,160,252161,1,8,0:0:0:0:
224,160,252226,1,8,0:0:0:0:
224,160,252291,1,0,0:0:0:0:
224,160,252421,1,0,0:0:0:0:
224,160,252552,1,8,0:0:0:0:
224,160,252682,1,0,0:0:0:0:
224,160,252748,1,0,0:0:0:0:
224,160,252813,1,8,0:0:0:0:
224,160,252943,1,0,0:0:0:0:
224,160,253074,1,8,0:0:0:0:
224,160,253139,1,8,0:0:0:0:
224,160,253204,1,0,0:0:0:0:
224,160,253335,1,8,0:0:0:0:
224,160,253465,1,0,0:0:0:0:
224,160,253595,1,8,0:0:0:0:
224,160,253726,1,0,0:0:0:0:
224,160,253791,1,0,0:0:0:0:
224,160,253856,1,8,0:0:0:0:
224,160,253987,1,8,0:0:0:0:
224,160,254117,1,4,0:0:0:0:
224,160,254248,1,0,0:0:0:0:
224,160,254313,1,0,0:0:0:0:
224,160,254378,1,8,0:0:0:0:
224,160,254508,1,0,0:0:0:0:
224,160,254639,1,8,0:0:0:0:
224,160,254704,1,8,0:0:0:0:
224,160,254769,1,8,0:0:0:0:
224,160,254835,1,8,0:0:0:0:
224,160,254900,1,0,0:0:0:0:
224,160,254965,1,0,0:0:0:0:
224,160,255030,1,0,0:0:0:0:
224,160,255161,1,12,0:0:0:0:
224,160,255421,1,8,0:0:0:0:
224,160,255943,1,8,0:0:0:0:
224,160,256465,1,8,0:0:0:0:
224,160,256726,1,0,0:0:0:0:
224,160,256987,1,8,0:0:0:0:
224,160,257248,1,0,0:0:0:0:
224,160,257508,1,8,0:0:0:0:
224,160,258030,1,8,0:0:0:0:
224,160,258552,1,8,0:0:0:0:
224,160,258813,1,0,0:0:0:0:
224,160,259074,1,8,0:0:0:0:
224,160,259335,1,4,0:0:0:0:
224,160,259595,1,8,0:0:0:0:
224,160,259856,1,0,0:0:0:0:
224,160,260117,1,8,0:0:0:0:
224,160,260378,1,0,0:0:0:0:
224,160,260639,1,8,0:0:0:0:
224,160,260900,1,0,0:0:0:0:
224,160,261161,1,8,0:0:0:0:
224,160,261421,1,4,0:0:0:0:
224,160,261682,1,0,0:0:0:0:
224,160,261943,1,0,0:0:0:0:
224,160,262204,1,0,0:0:0:0:
224,160,262465,1,0,0:0:0:0:
256,192,262987,2,0,L|256:128,3,56
224,160,263508,1,4,0:0:0:0:
224,160,263769,1,8,0:0:0:0:
224,160,263856,1,0,0:0:0:0:
224,160,263943,1,0,0:0:0:0:
224,160,264030,1,8,0:0:0:0:
224,160,264291,1,8,0:0:0:0:
224,160,264552,1,4,0:0:0:0:
224,160,264813,1,8,0:0:0:0:
224,160,264900,1,0,0:0:0:0:
224,160,264987,1,0,0:0:0:0:
224,160,265074,1,8,0:0:0:0:
224,160,265248,1,0,0:0:0:0:
224,160,265421,1,0,0:0:0:0:
224,160,265595,1,12,0:0:0:0:
224,160,265769,1,0,0:0:0:0:
224,160,265943,1,0,0:0:0:0:
224,160,266117,1,8,0:0:0:0:
224,160,266378,1,0,0:0:0:0:
224,160,266508,1,8,0:0:0:0:
224,160,266639,1,0,0:0:0:0:
224,160,266900,1,0,0:0:0:0:
224,160,267030,1,0,0:0:0:0:
224,160,267161,1,8,0:0:0:0:
224,160,267421,1,0,0:0:0:0:
224,160,267682,1,12,0:0:0:0:
224,160,268204,1,0,0:0:0:0:
224,160,268465,1,0,0:0:0:0:
224,160,268726,1,12,0:0:0:0:
224,160,269248,1,0,0:0:0:0:
224,160,269508,1,8,0:0:0:0:
224,160,269769,1,4,0:0:0:0:
224,160,270291,1,12,0:0:0:0:
224,160,270552,1,12,0:0:0:0:
224,160,270813,1,4,0:0:0:0:
224,160,271074,1,4,0:0:0:0:
224,160,271335,1,12,0:0:0:0:
224,160,271856,1,8,0:0:0:0:
224,160,271987,1,0,0:0:0:0:
224,160,272117,1,8,0:0:0:0:
224,160,272248,1,8,0:0:0:0:
224,160,272378,1,0,0:0:0:0:
224,160,272508,1,0,0:0:0:0:
224,160,272574,1,0,0:0:0:0:
224,160,272639,1,8,0:0:0:0:
224,160,272769,1,8,0:0:0:0:
224,160,273030,1,12,0:0:0:0:
224,160,273161,1,4,0:0:0:0:
224,160,273291,1,4,0:0:0:0:
224,160,273421,1,12,0:0:0:0:
224,160,273552,1,12,0:0:0:0:
224,160,273682,1,4,0:0:0:0:
224,160,273813,1,4,0:0:0:0:
224,160,273943,1,12,0:0:0:0:
256,192,274074,12,0,275508,0:0:0:0:
224,160,276030,5,4,0:0:0:0:
224,160,277074,1,0,0:0:0:0:
224,160,277595,1,0,0:0:0:0:
224,160,277856,1,0,0:0:0:0:
224,160,278117,1,0,0:0:0:0:
288,160,279161,1,8,0:0:0:0:
288,160,279682,1,8,0:0:0:0:
288,160,279943,1,8,0:0:0:0:
224,160,280204,1,0,0:0:0:0:
288,160,280726,1,8,0:0:0:0:
224,160,280987,1,0,0:0:0:0:
224,160,281248,1,0,0:0:0:0:
224,160,281639,1,0,0:0:0:0:
288,160,281769,1,8,0:0:0:0:
288,160,282030,1,8,0:0:0:0:
288,160,282161,1,8,0:0:0:0:
224,160,282291,1,0,0:0:0:0:
224,160,282552,1,0,0:0:0:0:
288,160,282813,1,8,0:0:0:0:
288,160,283074,1,8,0:0:0:0:
288,160,283204,1,8,0:0:0:0:
224,160,283335,1,0,0:0:0:0:
288,160,283465,1,8,0:0:0:0:
288,160,283530,1,8,0:0:0:0:
224,160,283595,1,0,0:0:0:0:
224,160,283726,1,0,0:0:0:0:
288,160,283856,1,8,0:0:0:0:
224,224,284378,1,4,0:0:0:0:
224,160,284639,1,0,0:0:0:0:
224,160,284704,1,0,0:0:0:0:
288,160,284769,1,8,0:0:0:0:
288,160,284835,1,8,0:0:0:0:
224,160,284900,1,0,0:0:0:0:
224,160,284965,1,0,0:0:0:0:
224,160,285030,1,0,0:0:0:0:
224,160,285095,1,0,0:0:0:0:
288,160,285161,1,8,0:0:0:0:
224,160,285226,1,0,0:0:0:0:
288,160,285291,1,8,0:0:0:0:
288,160,285356,1,8,0:0:0:0:
224,160,285421,1,0,0:0:0:0:
224,160,285487,1,0,0:0:0:0:
224,160,285552,1,0,0:0:0:0:
224,160,285617,1,0,0:0:0:0:
288,160,285682,1,8,0:0:0:0:
224,160,285748,1,0,0:0:0:0:
288,160,285813,1,8,0:0:0:0:
288,160,285878,1,8,0:0:0:0:
224,160,285943,1,0,0:0:0:0:
288,160,286008,1,8,0:0:0:0:
224,160,286074,1,0,0:0:0:0:
288,224,286204,1,12,0:0:0:0:
224,224,286465,1,4,0:0:0:0:
288,160,286726,1,8,0:0:0:0:
224,160,286791,1,0,0:0:0:0:
288,160,286856,1,8,0:0:0:0:
288,160,286921,1,8,0:0:0:0:
224,160,286987,1,0,0:0:0:0:
224,160,287052,1,0,0:0:0:0:
224,160,287117,1,0,0:0:0:0:
224,160,287182,1,0,0:0:0:0:
288,160,287248,1,8,0:0:0:0:
224,160,287313,1,0,0:0:0:0:
288,160,287378,1,8,0:0:0:0:
288,160,287443,1,8,0:0:0:0:
224,160,287508,1,0,0:0:0:0:
224,160,287574,1,0,0:0:0:0:
288,160,287639,1,8,0:0:0:0:
224,160,287704,1,0,0:0:0:0:
288,160,287769,1,8,0:0:0:0:
224,160,287835,1,0,0:0:0:0:
224,160,287900,1,0,0:0:0:0:
224,160,287965,1,0,0:0:0:0:
288,160,288030,1,8,0:0:0:0:
288,160,288095,1,8,0:0:0:0:
224,160,288161,1,0,0:0:0:0:
224,160,288226,1,0,0:0:0:0:
288,160,288291,1,8,0:0:0:0:
288,224,288552,1,12,0:0:0:0:
288,160,288813,1,8,0:0:0:0:
288,160,288878,1,8,0:0:0:0:
224,160,288943,1,0,0:0:0:0:
288,160,289008,1,8,0:0:0:0:
224,160,289074,1,0,0:0:0:0:
224,160,289139,1,0,0:0:0:0:
224,160,289204,1,0,0:0:0:0:
224,160,289269,1,0,0:0:0:0:
288,160,289335,1,8,0:0:0:0:
224,160,289465,1,0,0:0:0:0:
288,224,289595,1,12,0:0:0:0:
288,160,289856,1,8,0:0:0:0:
288,160,289921,1,8,0:0:0:0:
224,160,289987,1,0,0:0:0:0:
288,224,290117,1,12,0:0:0:0:
288,224,290378,1,12,0:0:0:0:
224,224,290639,1,4,0:0:0:0:
288,160,290900,1,8,0:0:0:0:
224,160,290965,1,0,0:0:0:0:
288,160,291030,1,8,0:0:0:0:
224,224,291161,1,4,0:0:0:0:
288,160,291421,1,8,0:0:0:0:
288,160,291487,1,8,0:0:0:0:
224,160,291552,1,0,0:0:0:0:
288,224,291682,1,12,0:0:0:0:
224,160,291943,1,0,0:0:0:0:
224,160,292008,1,0,0:0:0:0:
288,160,292074,1,8,0:0:0:0:
288,160,292139,1,8,0:0:0:0:
224,160,292204,1,0,0:0:0:0:
224,160,292269,1,0,0:0:0:0:
288,160,292335,1,8,0:0:0:0:
224,160,292400,1,0,0:0:0:0:
288,160,292465,1,8,0:0:0:0:
288,160,292530,1,8,0:0:0:0:
288,160,292595,1,8,0:0:0:0:
288,160,292661,1,8,0:0:0:0:
224,160,292726,1,0,0:0:0:0:
224,160,292856,1,0,0:0:0:0:
224,160,292921,1,0,0:0:0:0:
224,160,292987,1,0,0:0:0:0:
288,160,293117,1,8,0:0:0:0:
224,160,293248,1,0,0:0:0:0:
224,160,293291,1,0,0:0:0:0:
224,160,293335,1,0,0:0:0:0:
288,160,293378,1,8,0:0:0:0:
288,160,293443,1,8,0:0:0:0:
224,160,293508,1,0,0:0:0:0:
288,160,293639,1,8,0:0:0:0:
224,160,293769,1,0,0:0:0:0:
224,160,293835,1,0,0:0:0:0:
224,160,293900,1,0,0:0:0:0:
288,160,294030,1,8,0:0:0:0:
224,160,294161,1,0,0:0:0:0:
288,160,294291,1,8,0:0:0:0:
288,160,294335,1,8,0:0:0:0:
288,160,294378,1,8,0:0:0:0:
224,160,294421,1,0,0:0:0:0:
224,160,294487,1,0,0:0:0:0:
288,160,294552,1,8,0:0:0:0:
224,160,294813,1,0,0:0:0:0:
224,160,294943,1,0,0:0:0:0:
288,160,295074,1,8,0:0:0:0:
288,160,295204,1,8,0:0:0:0:
224,160,295335,1,0,0:0:0:0:
288,160,295465,1,8,0:0:0:0:
288,160,295530,1,8,0:0:0:0:
224,160,295595,1,0,0:0:0:0:
288,160,295726,1,8,0:0:0:0:
224,224,295987,1,4,0:0:0:0:
288,224,296117,1,12,0:0:0:0:
288,224,296248,1,12,0:0:0:0:
224,224,296378,1,4,0:0:0:0:
224,224,296639,1,4,0:0:0:0:
224,224,296900,1,4,0:0:0:0:
224,160,297030,1,0,0:0:0:0:
224,160,297095,1,0,0:0:0:0:
288,160,297161,1,8,0:0:0:0:
288,160,297291,1,8,0:0:0:0:
224,160,297421,1,0,0:0:0:0:
288,160,297552,1,8,0:0:0:0:
288,160,297617,1,8,0:0:0:0:
224,160,297682,1,0,0:0:0:0:
224,160,297748,1,0,0:0:0:0:
288,160,297813,1,8,0:0:0:0:
288,160,297943,1,8,0:0:0:0:
288,160,298074,1,8,0:0:0:0:
224,160,298204,1,0,0:0:0:0:
224,160,298335,1,0,0:0:0:0:
288,160,298465,1,8,0:0:0:0:
288,160,298530,1,8,0:0:0:0:
224,160,298595,1,0,0:0:0:0:
288,160,298726,1,8,0:0:0:0:
288,160,298791,1,8,0:0:0:0:
288,160,298856,1,8,0:0:0:0:
288,160,298921,1,8,0:0:0:0:
224,160,298987,1,0,0:0:0:0:
224,160,299117,1,0,0:0:0:0:
224,160,299182,1,0,0:0:0:0:
288,160,299248,1,8,0:0:0:0:
224,160,299378,1,0,0:0:0:0:
288,160,299508,1,8,0:0:0:0:
288,160,299639,1,8,0:0:0:0:
288,160,299704,1,8,0:0:0:0:
288,160,299769,1,8,0:0:0:0:
288,160,299900,1,8,0:0:0:0:
224,160,300030,1,0,0:0:0:0:
224,160,300291,1,0,0:0:0:0:
288,160,300421,1,8,0:0:0:0:
288,160,300552,1,8,0:0:0:0:
224,160,300682,1,0,0:0:0:0:
288,160,300748,1,8,0:0:0:0:
224,160,300813,1,0,0:0:0:0:
288,160,300943,1,8,0:0:0:0:
224,160,301074,1,0,0:0:0:0:
224,160,301139,1,0,0:0:0:0:
224,160,301204,1,0,0:0:0:0:
288,160,301335,1,8,0:0:0:0:
224,160,301465,1,0,0:0:0:0:
288,160,301595,1,8,0:0:0:0:
224,160,301726,1,0,0:0:0:0:
288,160,301791,1,8,0:0:0:0:
288,160,301856,1,8,0:0:0:0:
288,160,301987,1,8,0:0:0:0:
224,160,302117,1,0,0:0:0:0:
224,160,302248,1,0,0:0:0:0:
288,160,302313,1,8,0:0:0:0:
224,160,302378,1,0,0:0:0:0:
224,160,302508,1,0,0:0:0:0:
288,160,302639,1,8,0:0:0:0:
288,160,302704,1,8,0:0:0:0:
224,160,302769,1,0,0:0:0:0:
224,160,302835,1,0,0:0:0:0:
288,160,302900,1,8,0:0:0:0:
288,160,302943,1,8,0:0:0:0:
288,160,302987,1,8,0:0:0:0:
224,160,303030,1,0,0:0:0:0:
224,160,303095,1,0,0:0:0:0:
288,160,303161,1,8,0:0:0:0:
224,160,303291,1,0,0:0:0:0:
288,160,303421,1,8,0:0:0:0:
288,160,303552,1,8,0:0:0:0:
224,160,303682,1,0,0:0:0:0:
224,160,303748,1,0,0:0:0:0:
288,160,303813,1,8,0:0:0:0:
224,160,303943,1,0,0:0:0:0:
288,160,304074,1,8,0:0:0:0:
288,160,304139,1,8,0:0:0:0:
224,160,304204,1,0,0:0:0:0:
288,160,304335,1,8,0:0:0:0:
224,160,304400,1,0,0:0:0:0:
224,160,304465,1,0,0:0:0:0:
288,160,304595,1,8,0:0:0:0:
288,160,304726,1,8,0:0:0:0:
224,160,304791,1,0,0:0:0:0:
288,160,304856,1,8,0:0:0:0:
288,160,304987,1,8,0:0:0:0:
288,160,305052,1,8,0:0:0:0:
224,160,305117,1,0,0:0:0:0:
288,160,305248,1,8,0:0:0:0:
224,160,305313,1,0,0:0:0:0:
288,160,305378,1,8,0:0:0:0:
288,160,305508,1,8,0:0:0:0:
288,160,305639,1,8,0:0:0:0:
224,160,305704,1,0,0:0:0:0:
224,160,305769,1,0,0:0:0:0:
288,160,305900,1,8,0:0:0:0:
224,160,306030,1,0,0:0:0:0:
288,160,306161,1,8,0:0:0:0:
224,160,306226,1,0,0:0:0:0:
224,160,306291,1,0,0:0:0:0:
224,160,306421,1,0,0:0:0:0:
224,160,306487,1,0,0:0:0:0:
288,160,306552,1,8,0:0:0:0:
288,160,306682,1,8,0:0:0:0:
224,160,306813,1,0,0:0:0:0:
288,160,306943,1,8,0:0:0:0:
224,160,307074,1,0,0:0:0:0:
288,160,307335,1,8,0:0:0:0:
224,160,307400,1,0,0:0:0:0:
288,160,307465,1,8,0:0:0:0:
224,160,307530,1,0,0:0:0:0:
288,160,307595,1,8,0:0:0:0:
288,160,307726,1,8,0:0:0:0:
224,160,307856,1,0,0:0:0:0:
288,160,307987,1,8,0:0:0:0:
288,160,308052,1,8,0:0:0:0:
224,160,308117,1,0,0:0:0:0:
288,160,308248,1,8,0:0:0:0:
224,160,308378,1,0,0:0:0:0:
288,160,308508,1,8,0:0:0:0:
224,160,308574,1,0,0:0:0:0:
288,160,308639,1,8,0:0:0:0:
224,160,308769,1,0,0:0:0:0:
224,160,309030,1,0,0:0:0:0:
224,160,309095,1,0,0:0:0:0:
288,160,309161,1,8,0:0:0:0:
224,160,309291,1,0,0:0:0:0:
288,224,309421,1,12,0:0:0:0:
288,160,309552,1,8,0:0:0:0:
224,160,309682,1,0,0:0:0:0:
288,160,309813,1,8,0:0:0:0:
224,160,309878,1,0,0:0:0:0:
224,160,309943,1,0,0:0:0:0:
224,160,310074,1,0,0:0:0:0:
288,160,310204,1,8,0:0:0:0:
288,160,310335,1,8,0:0:0:0:
224,160,310465,1,0,0:0:0:0:
288,160,310595,1,8,0:0:0:0:
288,160,310661,1,8,0:0:0:0:
288,160,310726,1,8,0:0:0:0:
224,160,310856,1,0,0:0:0:0:
288,160,310987,1,8,0:0:0:0:
288,160,311052,1,8,0:0:0:0:
288,160,311117,1,8,0:0:0:0:
288,160,311182,1,8,0:0:0:0:
224,160,311248,1,0,0:0:0:0:
224,160,311313,1,0,0:0:0:0:
288,160,311378,1,8,0:0:0:0:
288,160,311443,1,8,0:0:0:0:
224,160,311508,1,0,0:0:0:0:
224,160,311639,1,0,0:0:0:0:
224,160,311704,1,0,0:0:0:0:
288,160,311769,1,8,0:0:0:0:
224,160,311900,1,0,0:0:0:0:
288,160,312030,1,8,0:0:0:0:
224,160,312095,1,0,0:0:0:0:
288,160,312161,1,8,0:0:0:0:
288,160,312226,1,8,0:0:0:0:
224,160,312291,1,0,0:0:0:0:
288,160,312421,1,8,0:0:0:0:
224,160,312552,1,0,0:0:0:0:
224,160,312682,1,0,0:0:0:0:
288,160,312813,1,8,0:0:0:0:
288,160,312943,1,8,0:0:0:0:
224,160,313074,1,0,0:0:0:0:
224,160,313139,1,0,0:0:0:0:
224,160,313204,1,0,0:0:0:0:
288,160,313335,1,8,0:0:0:0:
288,160,313400,1,8,0:0:0:0:
224,160,313465,1,0,0:0:0:0:
224,160,313530,1,0,0:0:0:0:
224,160,313595,1,0,0:0:0:0:
224,160,313726,1,0,0:0:0:0:
224,160,313791,1,0,0:0:0:0:
288,160,313856,1,8,0:0:0:0:
224,160,313987,1,0,0:0:0:0:
288,160,314117,1,8,0:0:0:0:
288,160,314182,1,8,0:0:0:0:
224,160,314248,1,0,0:0:0:0:
288,160,314313,1,8,0:0:0:0:
224,160,314378,1,0,0:0:0:0:
288,160,314508,1,8,0:0:0:0:
224,160,314639,1,0,0:0:0:0:
224,160,314704,1,0,0:0:0:0:
288,160,314769,1,8,0:0:0:0:
224,160,314835,1,0,0:0:0:0:
288,160,314900,1,8,0:0:0:0:
224,160,315030,1,0,0:0:0:0:
288,160,315161,1,8,0:0:0:0:
288,160,315226,1,8,0:0:0:0:
224,160,315291,1,0,0:0:0:0:
288,160,315421,1,8,0:0:0:0:
288,160,315487,1,8,0:0:0:0:
288,160,315552,1,8,0:0:0:0:
288,160,315617,1,8,0:0:0:0:
224,160,315682,1,0,0:0:0:0:
224,160,315813,1,0,0:0:0:0:
224,160,315878,1,0,0:0:0:0:
288,160,315943,1,8,0:0:0:0:
224,160,316074,1,0,0:0:0:0:
288,160,316204,1,8,0:0:0:0:
288,160,316335,1,8,0:0:0:0:
288,160,316400,1,8,0:0:0:0:
288,160,316465,1,8,0:0:0:0:
288,160,316595,1,8,0:0:0:0:
224,160,316726,1,0,0:0:0:0:
224,160,316987,1,0,0:0:0:0:
288,160,317117,1,8,0:0:0:0:
224,160,317248,1,0,0:0:0:0:
288,160,317378,1,8,0:0:0:0:
288,160,317443,1,8,0:0:0:0:
224,160,317508,1,0,0:0:0:0:
288,160,317639,1,8,0:0:0:0:
224,160,317769,1,0,0:0:0:0:
224,160,317835,1,0,0:0:0:0:
224,160,317900,1,0,0:0:0:0:
288,160,318030,1,8,0:0:0:0:
224,160,318095,1,0,0:0:0:0:
224,160,318161,1,0,0:0:0:0:
288,160,318291,1,8,0:0:0:0:
224,160,318421,1,0,0:0:0:0:
288,160,318487,1,8,0:0:0:0:
224,160,318552,1,0,0:0:0:0:
288,160,318682,1,8,0:0:0:0:
224,160,318813,1,0,0:0:0:0:
288,160,319074,1,8,0:0:0:0:
224,160,319204,1,0,0:0:0:0:
288,160,319335,1,8,0:0:0:0:
288,160,319400,1,8,0:0:0:0:
288,160,319465,1,8,0:0:0:0:
288,160,319530,1,8,0:0:0:0:
224,160,319595,1,0,0:0:0:0:
288,160,319661,1,8,0:0:0:0:
288,160,319726,1,8,0:0:0:0:
288,160,319791,1,8,0:0:0:0:
224,160,319856,1,0,0:0:0:0:
224,160,319987,1,0,0:0:0:0:
224,160,320052,1,0,0:0:0:0:
288,160,320117,1,8,0:0:0:0:
224,160,320248,1,0,0:0:0:0:
288,160,320378,1,8,0:0:0:0:
224,160,320443,1,0,0:0:0:0:
224,160,320508,1,0,0:0:0:0:
288,160,320574,1,8,0:0:0:0:
224,160,320639,1,0,0:0:0:0:
288,160,320769,1,8,0:0:0:0:
288,160,320900,1,8,0:0:0:0:
224,160,321030,1,0,0:0:0:0:
224,160,321161,1,0,0:0:0:0:
288,160,321291,1,8,0:0:0:0:
224,160,321421,1,0,0:0:0:0:
224,160,321487,1,0,0:0:0:0:
224,160,321552,1,0,0:0:0:0:
288,160,321682,1,8,0:0:0:0:
288,160,321748,1,8,0:0:0:0:
224,160,321813,1,0,0:0:0:0:
288,160,321878,1,8,0:0:0:0:
224,160,321943,1,0,0:0:0:0:
288,160,322074,1,8,0:0:0:0:
224,160,322139,1,0,0:0:0:0:
288,160,322204,1,8,0:0:0:0:
288,160,322335,1,8,0:0:0:0:
224,160,322465,1,0,0:0:0:0:
224,160,322530,1,0,0:0:0:0:
224,160,322595,1,0,0:0:0:0:
224,160,322661,1,0,0:0:0:0:
288,160,322726,1,8,0:0:0:0:
224,160,322856,1,0,0:0:0:0:
288,160,322987,1,8,0:0:0:0:
288,160,323117,1,8,0:0:0:0:
224,160,323248,1,0,0:0:0:0:
224,160,323378,1,0,0:0:0:0:
288,160,323508,1,8,0:0:0:0:
288,160,323574,1,8,0:0:0:0:
224,160,323639,1,0,0:0:0:0:
288,160,323769,1,8,0:0:0:0:
288,160,323835,1,8,0:0:0:0:
288,160,323900,1,8,0:0:0:0:
288,160,323965,1,8,0:0:0:0:
224,160,324030,1,0,0:0:0:0:
224,160,324161,1,0,0:0:0:0:
224,160,324226,1,0,0:0:0:0:
288,160,324291,1,8,0:0:0:0:
224,160,324421,1,0,0:0:0:0:
288,160,324552,1,8,0:0:0:0:
288,160,324682,1,8,0:0:0:0:
288,160,324748,1,8,0:0:0:0:
288,160,324813,1,8,0:0:0:0:
288,160,324943,1,8,0:0:0:0:
224,160,325204,1,0,0:0:0:0:
224,160,325269,1,0,0:0:0:0:
224,160,325335,1,0,0:0:0:0:
288,160,325465,1,8,0:0:0:0:
288,160,325595,1,8,0:0:0:0:
288,160,325661,1,8,0:0:0:0:
224,160,325726,1,0,0:0:0:0:
224,160,325791,1,0,0:0:0:0:
288,160,325856,1,8,0:0:0:0:
288,160,325987,1,8,0:0:0:0:
288,160,326117,1,8,0:0:0:0:
224,160,326248,1,0,0:0:0:0:
224,160,326313,1,0,0:0:0:0:
288,160,326378,1,8,0:0:0:0:
224,160,326508,1,0,0:0:0:0:
288,160,326639,1,8,0:0:0:0:
224,160,326769,1,0,0:0:0:0:
288,160,326835,1,8,0:0:0:0:
288,160,326900,1,8,0:0:0:0:
288,160,327030,1,8,0:0:0:0:
224,224,327161,1,4,0:0:0:0:
224,160,327291,1,0,0:0:0:0:
224,160,327356,1,0,0:0:0:0:
288,160,327421,1,8,0:0:0:0:
224,160,327552,1,0,0:0:0:0:
288,160,327682,1,8,0:0:0:0:
288,160,327748,1,8,0:0:0:0:
288,160,327813,1,8,0:0:0:0:
288,160,327878,1,8,0:0:0:0:
288,160,327943,1,8,0:0:0:0:
288,160,328008,1,8,0:0:0:0:
288,160,328074,1,8,0:0:0:0:
288,160,328139,1,8,0:0:0:0:
224,160,328204,1,0,0:0:0:0:
224,160,328335,1,0,0:0:0:0:
288,160,328465,1,8,0:0:0:0:
288,160,328595,1,8,0:0:0:0:
224,160,328726,1,0,0:0:0:0:
288,160,328856,1,8,0:0:0:0:
224,160,328921,1,0,0:0:0:0:
224,160,328987,1,0,0:0:0:0:
288,160,329117,1,8,0:0:0:0:
224,160,329248,1,0,0:0:0:0:
288,160,329378,1,8,0:0:0:0:
288,160,329508,1,8,0:0:0:0:
288,160,329639,1,8,0:0:0:0:
288,160,329769,1,8,0:0:0:0:
288,160,329900,1,8,0:0:0:0:
288,160,329965,1,8,0:0:0:0:
288,160,330030,1,8,0:0:0:0:
288,160,330161,1,8,0:0:0:0:
224,160,330291,1,0,0:0:0:0:
224,160,330421,1,0,0:0:0:0:
288,160,330552,1,8,0:0:0:0:
224,160,330682,1,0,0:0:0:0:
224,160,330813,1,0,0:0:0:0:
288,160,330943,1,8,0:0:0:0:
224,160,331008,1,0,0:0:0:0:
224,160,331074,1,0,0:0:0:0:
288,160,331204,1,8,0:0:0:0:
224,160,331335,1,0,0:0:0:0:
288,160,331465,1,8,0:0:0:0:
288,160,331595,1,8,0:0:0:0:
288,160,331726,1,8,0:0:0:0:
288,160,331856,1,8,0:0:0:0:
288,160,331987,1,8,0:0:0:0:
224,160,332052,1,0,0:0:0:0:
288,160,332117,1,8,0:0:0:0:
288,160,332248,1,8,0:0:0:0:
224,160,332378,1,0,0:0:0:0:
288,160,332508,1,8,0:0:0:0:
288,160,332639,1,8,0:0:0:0:
288,160,332769,1,8,0:0:0:0:
224,160,332900,1,0,0:0:0:0:
288,160,333030,1,8,0:0:0:0:
288,160,333161,1,8,0:0:0:0:
288,160,333291,1,8,0:0:0:0:
224,160,333421,1,0,0:0:0:0:
288,160,333552,1,8,0:0:0:0:
288,160,333682,1,8,0:0:0:0:
288,160,333813,1,8,0:0:0:0:
224,160,333943,1,0,0:0:0:0:
288,160,334074,1,8,0:0:0:0:
288,160,334204,1,8,0:0:0:0:
288,160,334335,1,8,0:0:0:0:
224,160,334465,1,0,0:0:0:0:
288,160,334595,1,8,0:0:0:0:
224,160,334726,1,0,0:0:0:0:
288,160,334856,1,8,0:0:0:0:
224,160,334987,1,0,0:0:0:0:
288,160,335117,1,8,0:0:0:0:
224,160,335248,1,0,0:0:0:0:
288,160,335378,1,8,0:0:0:0:
224,160,335508,1,0,0:0:0:0:
224,160,335639,1,0,0:0:0:0:
224,160,335704,1,0,0:0:0:0:
224,160,335769,1,0,0:0:0:0:
288,160,335900,1,8,0:0:0:0:
224,160,336030,1,0,0:0:0:0:
288,160,336161,1,8,0:0:0:0:
224,160,336291,1,0,0:0:0:0:
288,160,336421,1,8,0:0:0:0:
224,224,336552,1,4,0:0:0:0:
224,160,336682,1,0,0:0:0:0:
288,160,336813,1,8,0:0:0:0:
288,160,336943,1,8,0:0:0:0:
224,160,337074,1,0,0:0:0:0:
288,160,337204,1,8,0:0:0:0:
288,160,337269,1,8,0:0:0:0:
224,160,337335,1,0,0:0:0:0:
288,160,337465,1,8,0:0:0:0:
224,160,337595,1,0,0:0:0:0:
224,160,337726,1,0,0:0:0:0:
288,160,337856,1,8,0:0:0:0:
288,160,337987,1,8,0:0:0:0:
224,160,338117,1,0,0:0:0:0:
224,160,338378,1,0,0:0:0:0:
224,160,338639,1,0,0:0:0:0:
224,160,338769,1,0,0:0:0:0:
288,160,338900,1,8,0:0:0:0:
224,160,339030,1,0,0:0:0:0:
288,160,339161,1,8,0:0:0:0:
288,160,339291,1,8,0:0:0:0:
288,160,339356,1,8,0:0:0:0:
224,160,339421,1,0,0:0:0:0:
224,160,339552,1,0,0:0:0:0:
288,160,339682,1,8,0:0:0:0:
288,160,339813,1,8,0:0:0:0:
224,160,339943,1,0,0:0:0:0:
224,160,340074,1,0,0:0:0:0:
288,160,340204,1,8,0:0:0:0:
288,160,340465,1,8,0:0:0:0:
224,160,340726,1,0,0:0:0:0:
224,160,340856,1,0,0:0:0:0:
288,160,340987,1,8,0:0:0:0:
224,160,341117,1,0,0:0:0:0:
288,160,341248,1,8,0:0:0:0:
288,160,341378,1,8,0:0:0:0:
288,160,341443,1,8,0:0:0:0:
288,160,341508,1,8,0:0:0:0:
224,160,341639,1,0,0:0:0:0:
224,160,341769,1,0,0:0:0:0:
288,160,342030,1,8,0:0:0:0:
224,160,342161,1,0,0:0:0:0:
288,160,342291,1,8,0:0:0:0:
288,160,342552,1,8,0:0:0:0:
224,160,342682,1,0,0:0:0:0:
224,160,342813,1,0,0:0:0:0:
224,160,342943,1,0,0:0:0:0:
288,160,343074,1,8,0:0:0:0:
224,160,343204,1,0,0:0:0:0:
288,160,343335,1,8,0:0:0:0:
224,160,343465,1,0,0:0:0:0:
288,160,343530,1,8,0:0:0:0:
288,160,343595,1,8,0:0:0:0:
288,160,343726,1,8,0:0:0:0:
224,224,343856,1,4,0:0:0:0:
224,160,344052,1,0,0:0:0:0:
288,160,344117,1,8,0:0:0:0:
224,160,344248,1,0,0:0:0:0:
288,160,344378,1,8,0:0:0:0:
224,160,344508,1,0,0:0:0:0:
288,160,344639,1,8,0:0:0:0:
288,160,344704,1,8,0:0:0:0:
288,160,344769,1,8,0:0:0:0:
288,160,344835,1,8,0:0:0:0:
224,160,344900,1,0,0:0:0:0:
288,160,345421,1,8,0:0:0:0:
224,160,345943,1,0,0:0:0:0:
224,160,346465,1,0,0:0:0:0:
224,160,346726,1,0,0:0:0:0:
224,160,346987,1,0,0:0:0:0:
288,160,347508,1,8,0:0:0:0:
224,160,348030,1,0,0:0:0:0:
288,160,348552,1,8,0:0:0:0:
288,160,348813,1,8,0:0:0:0:
224,160,349074,1,0,0:0:0:0:
288,160,349595,1,8,0:0:0:0:
224,160,350117,1,0,0:0:0:0:
288,160,350639,1,8,0:0:0:0:
224,160,350900,1,0,0:0:0:0:
224,160,351161,1,0,0:0:0:0:
288,160,351682,1,8,0:0:0:0:
224,160,352204,1,0,0:0:0:0:
224,160,352465,1,0,0:0:0:0:
256,192,352726,12,0,354552,0:0:0:0:
224,160,354813,5,0,0:0:0:0:
288,160,355335,1,8,0:0:0:0:
224,224,355856,1,4,0:0:0:0:
