osu file format v14

[General]
AudioFilename: audio.mp3
AudioLeadIn: 0
PreviewTime: 92173
Countdown: 0
SampleSet: Normal
StackLeniency: 0.7
Mode: 1
LetterboxInBreaks: 0
WidescreenStoryboard: 1

[Editor]
Bookmarks: 1995,19276,49996
DistanceSpacing: 1
BeatDivisor: 7
GridSize: 32
TimelineZoom: 3.199999

[Metadata]
Title:Ka
TitleUnicode:彁
Artist:LeaF
ArtistUnicode:LeaF
Creator:Eyenine
Version:Muzukashii
Source:太鼓の達人
Tags:か instrumental electronic video game taiko no tatsujin ニジイロver nijiiro ver fiz polyrhythm
BeatmapID:3211085
BeatmapSetID:1530955

[Difficulty]
HPDrainRate:6
CircleSize:5
OverallDifficulty:5
ApproachRate:7
SliderMultiplier:1.4
SliderTickRate:1

[Events]
//Background and Video events
0,0,"muzukasii.jpg",0,0
//Break Periods
//Storyboard Layer 0 (Background)
//Storyboard Layer 1 (Fail)
//Storyboard Layer 2 (Pass)
//Storyboard Layer 3 (Foreground)
//Storyboard Layer 4 (Overlay)
//Storyboard Sound Samples

[TimingPoints]
13,480,4,1,0,20,1,8
13,-100,4,1,0,20,0,0
672,-100,4,1,0,30,0,0
852,-100,4,1,0,40,0,0
1032,-100,4,1,0,50,0,0
1212,-100,4,1,0,60,0,0
1392,-100,4,1,0,70,0,0
1572,-100,4,1,0,80,0,0
1933,480,4,1,0,90,1,0
1933,-66.6666666666667,4,1,0,90,0,0
17453,-66.6666666666667,4,1,0,20,0,0
19093,-66.6666666666667,4,1,0,70,0,0
19213,480,8,1,0,70,1,0
22973,-80,6,1,0,80,0,0
23053,-80,6,1,0,80,0,1
25933,-80,6,1,0,80,0,0
26013,-80,6,1,0,20,0,0
26813,-100,6,1,0,70,0,0
30653,-80,6,1,0,80,0,0
30733,-80,6,1,0,80,0,1
33613,-80,6,1,0,80,0,0
33693,-80,6,1,0,20,0,0
34493,-100,6,1,0,70,0,0
38333,-83.3333333333333,8,1,0,70,0,0
46093,-83.3333333333333,2,1,0,70,0,0
46213,-85.1063829787234,5,1,0,70,0,0
46933,-90.9090909090909,5,1,0,70,0,0
47173,-93.0232558139535,5,1,0,70,0,0
47893,-100,5,1,0,70,0,0
48133,-102.564102564103,5,1,0,70,0,0
48853,-111.111111111111,5,1,0,70,0,0
49093,-114.285714285714,5,1,0,70,0,0
49933,480,4,1,0,100,1,1
49933,-57.1428571428571,4,1,0,100,0,1
53773,-57.14285714,4,1,0,100,0,0
57613,-57.1428571428571,4,1,0,100,0,1
61453,-57.1428571428571,4,1,0,100,0,0
65293,-57.14285714,4,1,0,100,0,1
72013,-57.1428571428571,4,1,0,100,0,0
72973,-57.1428571428571,4,1,0,100,0,1
80653,480,8,1,0,70,1,0
80653,-57.1428571428571,4,1,0,70,0,0
80790,-100,4,1,0,20,0,0
83053,-50,3,1,0,100,0,8
83121,-50,3,1,0,100,0,1
83533,-50,3,1,0,100,0,9
84424,-83.3333333333333,8,1,0,70,0,1
84493,-83.3333333333333,8,1,0,70,0,0
88264,-83.3333333333333,8,1,0,80,0,0
88333,-83.3333333333333,8,1,0,80,0,1
92173,-83.3333333333333,8,1,0,70,0,0
92293,-85.1063829787234,8,1,0,70,0,0
93013,-90.9090909090909,8,1,0,70,0,0
93253,-93.0232558139535,8,1,0,70,0,0
93973,-100,8,1,0,70,0,0
94213,-102.564102564103,8,1,0,70,0,0
94933,-111.111111111111,8,1,0,70,0,0
95173,-114.285714285714,8,1,0,70,0,0
96013,-62.5,2,1,0,100,0,1
111373,-62.5,8,1,0,100,0,0
111493,-133.333333333333,8,1,0,70,0,0
113293,-57.1428571428571,8,1,0,100,0,0
115213,-57.1428571428571,8,1,0,100,0,0
115333,-133.333333333333,8,1,0,70,0,0
117013,-57.1428571428571,8,1,0,100,0,0
119053,-57.1428571428571,2,1,0,100,0,1
119173,-58.8235294117647,2,1,0,70,0,1
119893,-64.5161290322581,2,1,0,70,0,1
120133,-66.6666666666667,2,1,0,70,0,1
120853,-74.0740740740741,2,1,0,70,0,1
121093,-76.9230769230769,2,1,0,70,0,1
121933,-57.1428571428571,2,1,0,100,0,1
126733,-57.1428571428571,2,1,0,100,0,1
126853,-58.8235294117647,2,1,0,70,0,1
127573,-64.5161290322581,2,1,0,70,0,1
127813,-66.6666666666667,2,1,0,70,0,1
128533,-74.0740740740741,2,1,0,70,0,1
128773,-76.9230769230769,2,1,0,70,0,1
129613,-57.1428571428571,2,1,0,100,0,1
134413,-57.1428571428571,64,1,0,100,0,0
134893,-62.5,64,1,0,70,0,0
135373,-68.9655172413793,64,1,0,70,0,0
135853,-76.9230769230769,64,1,0,70,0,0
136453,-86.9565217391304,64,1,0,70,0,0
137053,-100,64,1,0,70,0,0
137653,-117.647058823529,64,1,0,70,0,0

[HitObjects]
256,192,301,8,0,1741,0:0:0:0:
160,128,1933,5,0,0:0:0:0:
160,128,2252,1,0,0:0:0:0:
352,128,2412,1,8,0:0:0:0:
160,128,2572,1,0,0:0:0:0:
160,128,2652,1,0,0:0:0:0:
160,128,2732,1,0,0:0:0:0:
160,128,2892,1,0,0:0:0:0:
160,128,3132,1,0,0:0:0:0:
352,128,3372,1,8,0:0:0:0:
352,128,3532,1,8,0:0:0:0:
352,128,3692,1,8,0:0:0:0:
160,128,3852,1,0,0:0:0:0:
352,128,4045,1,8,0:0:0:0:
352,128,4141,1,8,0:0:0:0:
352,128,4333,1,8,0:0:0:0:
352,128,4525,1,8,0:0:0:0:
160,128,4812,1,0,0:0:0:0:
160,128,5772,1,0,0:0:0:0:
160,128,6092,1,0,0:0:0:0:
352,128,6252,1,8,0:0:0:0:
352,128,6332,1,8,0:0:0:0:
352,128,6412,1,8,0:0:0:0:
352,128,6572,1,8,0:0:0:0:
160,128,6732,1,0,0:0:0:0:
160,128,6813,1,0,0:0:0:0:
160,128,6892,1,0,0:0:0:0:
352,128,7052,1,8,0:0:0:0:
352,128,7212,1,8,0:0:0:0:
160,128,7372,1,0,0:0:0:0:
352,128,7532,1,8,0:0:0:0:
160,128,7692,1,0,0:0:0:0:
352,128,7885,1,8,0:0:0:0:
352,128,7981,1,8,0:0:0:0:
352,128,8268,1,8,0:0:0:0:
352,128,8460,1,8,0:0:0:0:
160,128,8652,1,0,0:0:0:0:
160,128,9612,1,0,0:0:0:0:
160,128,9932,1,0,0:0:0:0:
352,128,10092,1,8,0:0:0:0:
352,128,10172,1,8,0:0:0:0:
352,128,10252,1,8,0:0:0:0:
352,128,10412,1,8,0:0:0:0:
160,128,10572,1,0,0:0:0:0:
160,128,10732,1,0,0:0:0:0:
160,128,10812,1,0,0:0:0:0:
160,128,10892,1,0,0:0:0:0:
352,128,11052,1,8,0:0:0:0:
160,128,11212,1,0,0:0:0:0:
352,128,11372,1,8,0:0:0:0:
160,128,11532,1,0,0:0:0:0:
352,128,11725,1,8,0:0:0:0:
352,128,11821,1,8,0:0:0:0:
352,128,12108,1,8,0:0:0:0:
352,128,12300,1,8,0:0:0:0:
160,128,12492,1,0,0:0:0:0:
160,128,13452,1,0,0:0:0:0:
352,128,13772,1,8,0:0:0:0:
160,128,13932,1,0,0:0:0:0:
160,128,14012,1,0,0:0:0:0:
160,128,14092,1,0,0:0:0:0:
352,128,14252,1,8,0:0:0:0:
160,128,14412,1,0,0:0:0:0:
160,128,14652,1,0,0:0:0:0:
160,128,14892,1,0,0:0:0:0:
160,128,14972,1,0,0:0:0:0:
160,128,15052,1,0,0:0:0:0:
352,128,15212,1,8,0:0:0:0:
160,128,15372,1,0,0:0:0:0:
352,128,15565,1,8,0:0:0:0:
352,128,15661,1,8,0:0:0:0:
352,128,15948,1,8,0:0:0:0:
352,128,16140,1,8,0:0:0:0:
160,128,16332,1,0,0:0:0:0:
160,256,17292,1,4,0:0:0:0:
160,256,19213,1,4,0:0:0:0:
352,128,19692,1,8,0:0:0:0:
352,128,20172,1,8,0:0:0:0:
352,128,20652,1,8,0:0:0:0:
160,128,21132,1,0,0:0:0:0:
352,128,21372,1,8,0:0:0:0:
160,128,21612,1,0,0:0:0:0:
352,128,21852,1,8,0:0:0:0:
352,128,22092,1,8,0:0:0:0:
160,128,22572,1,0,0:0:0:0:
352,256,23052,1,12,0:0:0:0:
160,128,23436,1,0,0:0:0:0:
352,128,23820,1,8,0:0:0:0:
352,128,24012,1,8,0:0:0:0:
160,128,24204,1,0,0:0:0:0:
352,128,24396,1,8,0:0:0:0:
352,128,24492,1,8,0:0:0:0:
352,128,24588,1,8,0:0:0:0:
352,128,24780,1,8,0:0:0:0:
160,128,24972,1,0,0:0:0:0:
352,128,25356,1,8,0:0:0:0:
352,128,25740,1,8,0:0:0:0:
160,128,25932,1,0,0:0:0:0:
160,256,26892,1,4,0:0:0:0:
352,128,27372,1,8,0:0:0:0:
352,128,27852,1,8,0:0:0:0:
352,128,28332,1,8,0:0:0:0:
160,128,28812,1,0,0:0:0:0:
352,128,29052,1,8,0:0:0:0:
160,128,29292,1,0,0:0:0:0:
352,128,29532,1,8,0:0:0:0:
352,128,29772,1,8,0:0:0:0:
160,128,30252,1,0,0:0:0:0:
352,256,30732,1,12,0:0:0:0:
160,128,31116,1,0,0:0:0:0:
352,128,31500,1,8,0:0:0:0:
352,128,31692,1,8,0:0:0:0:
160,128,31884,1,0,0:0:0:0:
352,128,32076,1,8,0:0:0:0:
352,128,32172,1,8,0:0:0:0:
352,128,32268,1,8,0:0:0:0:
352,128,32460,1,8,0:0:0:0:
160,128,32652,1,0,0:0:0:0:
352,128,33036,1,8,0:0:0:0:
352,128,33420,1,8,0:0:0:0:
160,128,33612,1,0,0:0:0:0:
160,256,34572,1,4,0:0:0:0:
352,128,35052,1,8,0:0:0:0:
352,128,35532,1,8,0:0:0:0:
352,128,36012,1,8,0:0:0:0:
160,128,36492,1,0,0:0:0:0:
352,128,36732,1,8,0:0:0:0:
160,128,36972,1,0,0:0:0:0:
352,128,37212,1,8,0:0:0:0:
352,128,37452,1,8,0:0:0:0:
160,128,37932,1,0,0:0:0:0:
160,256,38412,1,4,0:0:0:0:
352,128,38960,1,8,0:0:0:0:
352,128,39509,1,8,0:0:0:0:
352,128,40057,1,8,0:0:0:0:
352,128,40606,1,8,0:0:0:0:
352,128,41154,1,8,0:0:0:0:
352,128,41703,1,8,0:0:0:0:
352,128,42252,1,8,0:0:0:0:
352,128,42800,1,8,0:0:0:0:
352,128,43349,1,8,0:0:0:0:
352,128,43897,1,8,0:0:0:0:
352,128,44446,1,8,0:0:0:0:
352,128,44994,1,8,0:0:0:0:
352,128,45543,1,8,0:0:0:0:
160,128,46092,1,0,0:0:0:0:
160,128,46332,1,0,0:0:0:0:
160,128,47052,1,0,0:0:0:0:
160,128,47292,1,0,0:0:0:0:
160,128,48012,1,0,0:0:0:0:
160,128,48252,1,0,0:0:0:0:
160,128,48972,1,0,0:0:0:0:
160,128,49212,1,0,0:0:0:0:
160,128,49933,1,0,0:0:0:0:
352,128,50206,1,8,0:0:0:0:
160,128,50480,1,0,0:0:0:0:
160,128,50617,1,0,0:0:0:0:
352,128,50754,1,8,0:0:0:0:
160,128,51029,1,0,0:0:0:0:
352,128,51166,1,8,0:0:0:0:
352,128,51303,1,8,0:0:0:0:
352,128,51372,1,8,0:0:0:0:
352,128,51440,1,8,0:0:0:0:
160,128,51577,1,0,0:0:0:0:
160,128,51714,1,0,0:0:0:0:
352,128,51852,1,8,0:0:0:0:
160,128,52126,1,0,0:0:0:0:
160,128,52263,1,0,0:0:0:0:
352,128,52400,1,8,0:0:0:0:
160,128,52674,1,0,0:0:0:0:
160,128,52812,1,0,0:0:0:0:
352,128,52949,1,8,0:0:0:0:
160,128,53086,1,0,0:0:0:0:
352,128,53223,1,8,0:0:0:0:
352,128,53292,1,8,0:0:0:0:
352,128,53360,1,8,0:0:0:0:
352,128,53497,1,8,0:0:0:0:
352,128,53634,1,8,0:0:0:0:
160,128,53772,1,0,0:0:0:0:
352,128,54060,1,8,0:0:0:0:
160,128,54348,1,0,0:0:0:0:
352,128,54636,1,8,0:0:0:0:
160,128,54924,1,0,0:0:0:0:
352,128,55212,1,8,0:0:0:0:
352,128,55308,1,8,0:0:0:0:
352,128,55404,1,8,0:0:0:0:
160,128,55596,1,0,0:0:0:0:
352,128,55788,1,8,0:0:0:0:
352,128,56076,1,8,0:0:0:0:
160,128,56364,1,0,0:0:0:0:
352,128,56749,1,8,0:0:0:0:
352,128,56845,1,8,0:0:0:0:
352,128,56941,1,8,0:0:0:0:
160,128,57612,1,0,0:0:0:0:
352,128,57886,1,8,0:0:0:0:
160,128,58160,1,0,0:0:0:0:
160,128,58297,1,0,0:0:0:0:
352,128,58434,1,8,0:0:0:0:
160,128,58709,1,0,0:0:0:0:
160,128,58846,1,0,0:0:0:0:
352,128,58983,1,8,0:0:0:0:
352,128,59052,1,8,0:0:0:0:
352,128,59120,1,8,0:0:0:0:
160,128,59257,1,0,0:0:0:0:
352,128,59394,1,8,0:0:0:0:
160,128,59532,1,0,0:0:0:0:
160,128,59806,1,0,0:0:0:0:
160,128,59943,1,0,0:0:0:0:
352,128,60080,1,8,0:0:0:0:
160,128,60354,1,0,0:0:0:0:
160,128,60492,1,0,0:0:0:0:
352,128,60629,1,8,0:0:0:0:
160,128,60766,1,0,0:0:0:0:
352,128,60903,1,8,0:0:0:0:
352,128,60972,1,8,0:0:0:0:
352,128,61040,1,8,0:0:0:0:
160,128,61177,1,0,0:0:0:0:
352,128,61314,1,8,0:0:0:0:
160,128,61452,1,0,0:0:0:0:
352,128,61740,1,8,0:0:0:0:
160,128,62028,1,0,0:0:0:0:
352,128,62316,1,8,0:0:0:0:
160,128,62604,1,0,0:0:0:0:
352,128,62892,1,8,0:0:0:0:
352,128,62988,1,8,0:0:0:0:
352,128,63084,1,8,0:0:0:0:
352,128,63276,1,8,0:0:0:0:
352,128,63468,1,8,0:0:0:0:
160,128,63756,1,0,0:0:0:0:
160,128,64044,1,0,0:0:0:0:
352,128,64332,1,8,0:0:0:0:
160,128,64470,1,0,0:0:0:0:
352,128,64607,1,8,0:0:0:0:
352,128,64744,1,8,0:0:0:0:
160,128,65292,1,0,0:0:0:0:
352,128,65566,1,8,0:0:0:0:
160,128,65840,1,0,0:0:0:0:
160,128,65977,1,0,0:0:0:0:
352,128,66114,1,8,0:0:0:0:
160,128,66389,1,0,0:0:0:0:
352,128,66526,1,8,0:0:0:0:
352,128,66663,1,8,0:0:0:0:
352,128,66732,1,8,0:0:0:0:
352,128,66800,1,8,0:0:0:0:
160,128,66937,1,0,0:0:0:0:
352,128,67074,1,8,0:0:0:0:
160,128,67212,1,0,0:0:0:0:
352,128,67404,1,8,0:0:0:0:
352,128,67500,1,8,0:0:0:0:
352,128,67788,1,8,0:0:0:0:
352,128,67980,1,8,0:0:0:0:
160,128,68172,1,0,0:0:0:0:
160,128,68460,1,0,0:0:0:0:
352,128,68604,1,8,0:0:0:0:
352,128,68844,1,8,0:0:0:0:
352,128,68940,1,8,0:0:0:0:
160,128,69372,1,0,0:0:0:0:
160,128,69660,1,0,0:0:0:0:
352,128,69948,1,8,0:0:0:0:
160,128,70092,1,0,0:0:0:0:
352,128,70236,1,8,0:0:0:0:
160,128,70524,1,0,0:0:0:0:
160,128,70812,1,0,0:0:0:0:
352,128,71052,1,8,0:0:0:0:
352,128,71244,1,8,0:0:0:0:
352,128,71340,1,8,0:0:0:0:
352,128,71436,1,8,0:0:0:0:
352,128,71628,1,8,0:0:0:0:
160,128,72012,1,0,0:0:0:0:
160,128,72972,1,0,0:0:0:0:
352,128,73246,1,8,0:0:0:0:
160,128,73520,1,0,0:0:0:0:
352,128,73657,1,8,0:0:0:0:
160,128,73794,1,0,0:0:0:0:
160,128,74069,1,0,0:0:0:0:
160,128,74206,1,0,0:0:0:0:
352,128,74343,1,8,0:0:0:0:
352,128,74412,1,8,0:0:0:0:
352,128,74480,1,8,0:0:0:0:
160,128,74617,1,0,0:0:0:0:
352,128,74754,1,8,0:0:0:0:
160,128,74892,1,0,0:0:0:0:
352,128,75084,1,8,0:0:0:0:
352,128,75276,1,8,0:0:0:0:
352,128,75420,1,8,0:0:0:0:
352,128,75564,1,8,0:0:0:0:
160,128,75852,1,0,0:0:0:0:
352,128,76044,1,8,0:0:0:0:
160,128,76284,1,0,0:0:0:0:
352,128,76524,1,8,0:0:0:0:
160,128,76956,1,0,0:0:0:0:
160,128,77244,1,0,0:0:0:0:
160,128,77484,1,0,0:0:0:0:
160,128,77772,1,0,0:0:0:0:
352,128,77964,1,8,0:0:0:0:
352,128,78060,1,8,0:0:0:0:
352,128,78156,1,8,0:0:0:0:
352,128,78444,1,8,0:0:0:0:
160,128,78636,1,0,0:0:0:0:
160,128,78732,1,0,0:0:0:0:
160,128,78828,1,0,0:0:0:0:
160,128,79020,1,0,0:0:0:0:
352,128,79308,1,8,0:0:0:0:
160,128,79692,1,0,0:0:0:0:
160,128,80653,1,0,0:0:0:0:
160,256,83120,1,4,0:0:0:0:
256,192,83669,8,0,84354,0:0:0:0:
160,128,84492,5,0,0:0:0:0:
352,128,85040,1,8,0:0:0:0:
160,128,85589,1,0,0:0:0:0:
352,128,86137,1,8,0:0:0:0:
160,128,86686,1,0,0:0:0:0:
352,128,87234,1,8,0:0:0:0:
352,128,87783,1,8,0:0:0:0:
160,256,88332,1,4,0:0:0:0:
352,256,88880,1,12,0:0:0:0:
160,256,89429,1,4,0:0:0:0:
352,256,89977,1,12,0:0:0:0:
160,256,90526,1,4,0:0:0:0:
352,256,91074,1,12,0:0:0:0:
352,256,91623,1,12,0:0:0:0:
160,128,92172,1,0,0:0:0:0:
160,128,92412,1,0,0:0:0:0:
160,128,93132,1,0,0:0:0:0:
160,128,93372,1,0,0:0:0:0:
160,128,94092,1,0,0:0:0:0:
160,128,94332,1,0,0:0:0:0:
160,128,95052,1,0,0:0:0:0:
160,128,95292,1,0,0:0:0:0:
160,256,96013,1,4,0:0:0:0:
160,128,96332,1,0,0:0:0:0:
352,128,96492,1,8,0:0:0:0:
352,128,96812,1,8,0:0:0:0:
160,128,96972,1,0,0:0:0:0:
352,128,97132,1,8,0:0:0:0:
352,128,97212,1,8,0:0:0:0:
352,128,97292,1,8,0:0:0:0:
160,128,97452,1,0,0:0:0:0:
352,128,97612,1,8,0:0:0:0:
160,128,97932,1,0,0:0:0:0:
160,128,98092,1,0,0:0:0:0:
160,128,98172,1,0,0:0:0:0:
160,128,98252,1,0,0:0:0:0:
352,128,98412,1,8,0:0:0:0:
160,128,98572,1,0,0:0:0:0:
352,128,98732,1,8,0:0:0:0:
160,128,98892,1,0,0:0:0:0:
352,128,99052,1,8,0:0:0:0:
352,128,99132,1,8,0:0:0:0:
352,128,99212,1,8,0:0:0:0:
160,128,99372,1,0,0:0:0:0:
352,128,99852,1,8,0:0:0:0:
160,128,100012,1,0,0:0:0:0:
160,128,100092,1,0,0:0:0:0:
160,128,100172,1,0,0:0:0:0:
352,128,100332,1,8,0:0:0:0:
352,128,100652,1,8,0:0:0:0:
160,128,100812,1,0,0:0:0:0:
352,128,100972,1,8,0:0:0:0:
160,128,101132,1,0,0:0:0:0:
160,128,101212,1,0,0:0:0:0:
160,128,101292,1,0,0:0:0:0:
352,128,101452,1,8,0:0:0:0:
160,128,101772,1,0,0:0:0:0:
160,128,101932,1,0,0:0:0:0:
160,128,102012,1,0,0:0:0:0:
160,128,102092,1,0,0:0:0:0:
352,128,102252,1,8,0:0:0:0:
352,128,102572,1,8,0:0:0:0:
160,128,102732,1,0,0:0:0:0:
160,128,102892,1,0,0:0:0:0:
352,128,103052,1,8,0:0:0:0:
160,128,103212,1,0,0:0:0:0:
160,128,103692,1,0,0:0:0:0:
352,128,104012,1,8,0:0:0:0:
352,128,104172,1,8,0:0:0:0:
352,128,104252,1,8,0:0:0:0:
352,128,104332,1,8,0:0:0:0:
352,128,104492,1,8,0:0:0:0:
160,128,104652,1,0,0:0:0:0:
352,128,104812,1,8,0:0:0:0:
160,128,105132,1,0,0:0:0:0:
352,128,105292,1,8,0:0:0:0:
352,128,105452,1,8,0:0:0:0:
160,128,105612,1,0,0:0:0:0:
160,128,105772,1,0,0:0:0:0:
160,128,105852,1,0,0:0:0:0:
160,128,105932,1,0,0:0:0:0:
352,128,106092,1,8,0:0:0:0:
352,128,106412,1,8,0:0:0:0:
160,128,106572,1,0,0:0:0:0:
160,128,106732,1,0,0:0:0:0:
352,128,106892,1,8,0:0:0:0:
160,128,107052,1,0,0:0:0:0:
160,128,107532,1,0,0:0:0:0:
160,128,107852,1,0,0:0:0:0:
352,128,108012,1,8,0:0:0:0:
352,128,108092,1,8,0:0:0:0:
352,128,108172,1,8,0:0:0:0:
352,128,108332,1,8,0:0:0:0:
160,128,108492,1,0,0:0:0:0:
352,128,108652,1,8,0:0:0:0:
352,128,108812,1,8,0:0:0:0:
160,128,108972,1,0,0:0:0:0:
352,128,109292,1,8,0:0:0:0:
160,128,109452,1,0,0:0:0:0:
160,128,109612,1,0,0:0:0:0:
160,128,109692,1,0,0:0:0:0:
160,128,109772,1,0,0:0:0:0:
352,128,109932,1,8,0:0:0:0:
352,128,110252,1,8,0:0:0:0:
160,128,110412,1,0,0:0:0:0:
352,128,110572,1,8,0:0:0:0:
352,128,110732,1,8,0:0:0:0:
160,128,110892,1,0,0:0:0:0:
352,128,111052,1,8,0:0:0:0:
352,128,111132,1,8,0:0:0:0:
352,128,111212,1,8,0:0:0:0:
160,128,111372,1,0,0:0:0:0:
160,128,113293,1,0,0:0:0:0:
352,128,113484,1,8,0:0:0:0:
352,128,113580,1,8,0:0:0:0:
352,128,113868,1,8,0:0:0:0:
352,128,114060,1,8,0:0:0:0:
160,128,114252,1,0,0:0:0:0:
160,128,114540,1,0,0:0:0:0:
352,128,114684,1,8,0:0:0:0:
352,128,114924,1,8,0:0:0:0:
352,128,115020,1,8,0:0:0:0:
160,256,115212,1,4,0:0:0:0:
160,128,117132,1,0,0:0:0:0:
352,128,117324,1,8,0:0:0:0:
352,128,117660,1,8,0:0:0:0:
352,128,117804,1,8,0:0:0:0:
352,128,117948,1,8,0:0:0:0:
352,128,118284,1,8,0:0:0:0:
160,128,118524,1,0,0:0:0:0:
352,128,118764,1,8,0:0:0:0:
160,256,119052,1,4,0:0:0:0:
160,128,119292,1,0,0:0:0:0:
160,128,120012,1,0,0:0:0:0:
160,128,120252,1,0,0:0:0:0:
160,128,120972,1,0,0:0:0:0:
160,128,121212,1,0,0:0:0:0:
160,128,121933,1,0,0:0:0:0:
352,128,122124,1,8,0:0:0:0:
352,128,122220,1,8,0:0:0:0:
352,128,122316,1,8,0:0:0:0:
352,128,122508,1,8,0:0:0:0:
160,128,122892,1,0,0:0:0:0:
352,128,123084,1,8,0:0:0:0:
352,128,123180,1,8,0:0:0:0:
352,128,123468,1,8,0:0:0:0:
160,128,123852,1,0,0:0:0:0:
352,128,124044,1,8,0:0:0:0:
352,128,124236,1,8,0:0:0:0:
352,128,124332,1,8,0:0:0:0:
352,128,124524,1,8,0:0:0:0:
160,128,124812,1,0,0:0:0:0:
352,128,125004,1,8,0:0:0:0:
352,128,125292,1,8,0:0:0:0:
352,128,125484,1,8,0:0:0:0:
160,128,125772,1,0,0:0:0:0:
352,128,125964,1,8,0:0:0:0:
160,128,126204,1,0,0:0:0:0:
352,128,126444,1,8,0:0:0:0:
160,128,126732,1,0,0:0:0:0:
160,128,126972,1,0,0:0:0:0:
160,128,127692,1,0,0:0:0:0:
160,128,127932,1,0,0:0:0:0:
160,128,128652,1,0,0:0:0:0:
160,128,128892,1,0,0:0:0:0:
160,128,129613,1,0,0:0:0:0:
352,128,129804,1,8,0:0:0:0:
352,128,129900,1,8,0:0:0:0:
352,128,129996,1,8,0:0:0:0:
352,128,130188,1,8,0:0:0:0:
160,128,130572,1,0,0:0:0:0:
352,128,130764,1,8,0:0:0:0:
352,128,130860,1,8,0:0:0:0:
352,128,131052,1,8,0:0:0:0:
352,128,131244,1,8,0:0:0:0:
160,128,131532,1,0,0:0:0:0:
352,128,131724,1,8,0:0:0:0:
352,128,131820,1,8,0:0:0:0:
352,128,131916,1,8,0:0:0:0:
352,128,132108,1,8,0:0:0:0:
160,128,132492,1,0,0:0:0:0:
352,128,132684,1,8,0:0:0:0:
352,128,132780,1,8,0:0:0:0:
352,128,132972,1,8,0:0:0:0:
352,128,133164,1,8,0:0:0:0:
160,128,133452,1,0,0:0:0:0:
352,128,133644,1,8,0:0:0:0:
160,128,133932,1,0,0:0:0:0:
160,128,134028,1,0,0:0:0:0:
160,128,134124,1,0,0:0:0:0:
352,128,134412,1,8,0:0:0:0:
352,128,134960,1,8,0:0:0:0:
352,128,135509,1,8,0:0:0:0:
352,128,136057,1,8,0:0:0:0:
352,128,136606,1,8,0:0:0:0:
352,128,137154,1,8,0:0:0:0:
352,128,137703,1,8,0:0:0:0:
