osu file format v14

[General]
AudioFilename: audio.mp3
AudioLeadIn: 0
PreviewTime: 92173
Countdown: 0
SampleSet: Normal
StackLeniency: 0.7
Mode: 1
LetterboxInBreaks: 0
WidescreenStoryboard: 1

[Editor]
Bookmarks: 1995,19276,49996
DistanceSpacing: 1
BeatDivisor: 5
GridSize: 32
TimelineZoom: 5.399998

[Metadata]
Title:Ka
TitleUnicode:彁
Artist:LeaF
ArtistUnicode:LeaF
Creator:Eyenine
Version:Hason Oni
Source:太鼓の達人
Tags:か instrumental electronic video game taiko no tatsujin ニジイロver nijiiro ver fiz polyrhythm
BeatmapID:3209881
BeatmapSetID:1530955

[Difficulty]
HPDrainRate:6
CircleSize:5
OverallDifficulty:8
ApproachRate:8
SliderMultiplier:1.4
SliderTickRate:1

[Events]
//Background and Video events
0,0,"hasonnoni.jpg",0,0
//Break Periods
//Storyboard Layer 0 (Background)
//Storyboard Layer 1 (Fail)
//Storyboard Layer 2 (Pass)
//Storyboard Layer 3 (Foreground)
//Storyboard Layer 4 (Overlay)
//Storyboard Sound Samples

[TimingPoints]
13,480,4,1,0,20,1,8
13,-100,4,1,0,20,0,0
672,-100,4,1,0,30,0,0
852,-100,4,1,0,40,0,0
1032,-100,4,1,0,50,0,0
1212,-100,4,1,0,60,0,0
1392,-100,4,1,0,70,0,0
1572,-100,4,1,0,80,0,0
1933,480,4,1,0,90,1,0
1933,-57.9710144927536,4,1,0,90,0,0
3848,-57.9710144928,4,1,0,90,0,0
4040,-59.6342106809,4,1,0,90,0,0
4088,-60.0574127431,4,1,0,90,0,0
4136,-60.4836181147,4,1,0,90,0,0
4184,-60.9128481091,4,1,0,90,0,0
4232,-61.3451241909,4,1,0,90,0,0
4328,-62.2189012381,4,1,0,90,0,0
4424,-63.1051240392,4,1,0,90,0,0
4472,-63.5529578971,4,1,0,90,0,0
4520,-64.0039698672,4,1,0,90,0,0
4616,-64.9156185195,4,1,0,90,0,0
4712,-65.8402523549,4,1,0,90,0,0
4808,-66.7780563294,4,1,0,90,0,0
5000,-68.6939277301,4,1,0,90,0,0
5048,-69.1814232725,4,1,0,90,0,0
5144,-70.1668176382,4,1,0,90,0,0
5288,-71.6712882806,4,1,0,90,0,0
5432,-73.2080167906,4,1,0,90,0,0
5480,-73.7275471629,4,1,0,90,0,0
5576,-74.7776948201,4,1,0,90,0,0
5625,-75.3083646146018,4,1,0,90,0,0
5672,-75.8428003886,4,1,0,90,0,0
5768,-57.9710144927536,4,1,0,90,0,0
7688,-57.9710144928,4,1,0,90,0,0
7880,-59.6342106809,4,1,0,90,0,0
7928,-60.0574127431,4,1,0,90,0,0
7976,-60.4836181147,4,1,0,90,0,0
8024,-60.9128481091,4,1,0,90,0,0
8072,-61.3451241909,4,1,0,90,0,0
8264,-63.1051240392,4,1,0,90,0,0
8456,-64.9156185195,4,1,0,90,0,0
8648,-66.7780563294,4,1,0,90,0,0
8768,-67.9691178421,4,1,0,90,0,0
8888,-69.1814232725,4,1,0,90,0,0
8936,-69.6723783914,4,1,0,90,0,0
9032,-70.6647657385,4,1,0,90,0,0
9128,-71.6712882806,4,1,0,90,0,0
9248,-72.9496260719,4,1,0,90,0,0
9296,-73.4673227403,4,1,0,90,0,0
9416,-74.7776948201,4,1,0,90,0,0
9465,-75.3083646146018,4,1,0,90,0,0
9512,-75.8428003886,4,1,0,90,0,0
9608,-57.9710144927536,4,1,0,90,0,0
11528,-57.9710144928,4,1,0,90,0,0
11720,-59.6342106809,4,1,0,90,0,0
11768,-60.0574127431,4,1,0,90,0,0
11816,-60.4836181147,4,1,0,90,0,0
11864,-60.9128481091,4,1,0,90,0,0
11912,-61.3451241909,4,1,0,90,0,0
12104,-63.1051240392,4,1,0,90,0,0
12200,-64.0039698672,4,1,0,90,0,0
12296,-64.9156185195,4,1,0,90,0,0
12360,-65.5305869151,4,1,0,90,0,0
12424,-66.1513811218,4,1,0,90,0,0
12488,-66.7780563294,4,1,0,90,0,0
12589,-68.2098673969824,4,1,0,90,0,0
12680,-68.6939277301,4,1,0,90,0,0
12728,-69.1814232725,4,1,0,90,0,0
12824,-70.1668176382,4,1,0,90,0,0
12872,-70.6647657385,4,1,0,90,0,0
12968,-71.6712882806,4,1,0,90,0,0
13160,-73.7275471629,4,1,0,90,0,0
13256,-74.7776948201,4,1,0,90,0,0
13304,-75.3083646201,4,1,0,90,0,0
13352,-75.8428003886,4,1,0,90,0,0
13448,-57.9710144927536,4,1,0,90,0,0
15368,-57.9710144928,4,1,0,90,0,0
15560,-59.6342106809,4,1,0,90,0,0
15608,-60.0574127431,4,1,0,90,0,0
15656,-60.4836181147,4,1,0,90,0,0
15704,-60.9128481091,4,1,0,90,0,0
15752,-61.3451241909,4,1,0,90,0,0
15944,-63.1051240392,4,1,0,90,0,0
16136,-64.9156185195,4,1,0,90,0,0
16328,-66.7780563294,4,1,0,90,0,0
16568,-69.1814232725,4,1,0,90,0,0
16712,-70.6647657385,4,1,0,90,0,0
16760,-71.1662475934,4,1,0,90,0,0
16808,-71.6712882806,4,1,0,90,0,0
16952,-73.2080167906,4,1,0,90,0,0
17096,-74.7776948201,4,1,0,90,0,0
17145,-75.3083646146018,4,1,0,90,0,0
17192,-75.8428003886,4,1,0,90,0,0
17288,-57.9710144927536,4,1,0,90,0,0
17384,-57.9710144927536,4,1,0,20,0,0
19093,-57.9710144927536,4,1,0,70,0,0
19213,480,8,1,0,70,1,0
19213,-105.263157894737,8,1,0,70,0,0
22957,-69.5652173913043,6,1,0,80,0,0
23053,-69.5652173913043,6,1,0,80,0,1
25933,-69.5652173913043,6,1,0,80,0,0
26029,-69.5652173913043,6,1,0,20,0,0
26797,-105.263157894737,6,1,0,70,0,0
30637,-69.5652173913043,6,1,0,80,0,0
30733,-69.5652173913043,6,1,0,80,0,1
33613,-69.5652173913043,6,1,0,80,0,0
33709,-69.5652173913043,6,1,0,20,0,0
34477,-105.263157894737,6,1,0,70,0,0
38317,-83.3333333333333,8,1,0,70,0,0
45997,-83.3333333333333,2,1,0,70,0,0
46213,-85.1063829787234,5,1,0,70,0,0
46933,-90.9090909090909,5,1,0,70,0,0
47173,-93.0232558139535,5,1,0,70,0,0
47893,-100,5,1,0,70,0,0
48133,-102.564102564103,5,1,0,70,0,0
48853,-111.111111111111,5,1,0,70,0,0
49093,-114.285714285714,5,1,0,70,0,0
49933,480,4,1,0,100,1,1
49933,-49.6894409937888,4,1,0,100,0,1
53773,-49.6894409937888,4,1,0,100,0,0
53864,-50.0983368045,4,1,0,100,0,0
53912,-50.3040447903,4,1,0,100,0,0
53960,-50.5105974303,4,1,0,100,0,0
54056,-50.9262505605,4,1,0,100,0,0
54152,-51.345324112,4,1,0,100,0,0
54344,-52.1938452975,4,1,0,100,0,0
54440,-52.6233499218,4,1,0,100,0,0
54488,-52.8394258239,4,1,0,100,0,0
54536,-53.0563889518,4,1,0,100,0,0
54632,-53.4929914722,4,1,0,100,0,0
54728,-53.933186807,4,1,0,100,0,0
54920,-54.8244744247,4,1,0,100,0,0
54968,-55.0495883291,4,1,0,100,0,0
55016,-55.2756265702,4,1,0,100,0,0
55064,-55.5025929434,4,1,0,100,0,0
55112,-55.7304912595,4,1,0,100,0,0
55160,-55.9593253453,4,1,0,100,0,0
55208,-56.1890990431,4,1,0,100,0,0
55304,-56.6514807232,4,1,0,100,0,0
55400,-57.117667355,4,1,0,100,0,0
55496,-57.5876902499,4,1,0,100,0,0
55592,-58.0615809763,4,1,0,100,0,0
55688,-58.539371363,4,1,0,100,0,0
55784,-59.0210935002,4,1,0,100,0,0
55880,-59.5067797424,4,1,0,100,0,0
55928,-59.7511195864,4,1,0,100,0,0
55976,-59.9964627104,4,1,0,100,0,0
56072,-60.4901752934,4,1,0,100,0,0
56168,-60.9879506511,4,1,0,100,0,0
56264,-61.4898222162,4,1,0,100,0,0
56360,-61.9958236967,4,1,0,100,0,0
56456,-62.5059890775,4,1,0,100,0,0
56552,-63.0203526237,4,1,0,100,0,0
56648,-63.538948882,4,1,0,100,0,0
56744,-64.0618126836,4,1,0,100,0,0
56792,-64.3248558761,4,1,0,100,0,0
56840,-64.588979146,4,1,0,100,0,0
56888,-64.8541869284,4,1,0,100,0,0
56936,-65.1204836762,4,1,0,100,0,0
56984,-65.3878738609,4,1,0,100,0,0
57032,-65.6563619721,4,1,0,100,0,0
57128,-66.1966500257,4,1,0,100,0,0
57224,-66.7413841248,4,1,0,100,0,0
57320,-67.2906008563,4,1,0,100,0,0
57416,-67.8443371076,4,1,0,100,0,0
57512,-68.4026300702,4,1,0,100,0,0
57613,-49.6894409937888,4,1,0,100,0,1
61453,-49.6894409937888,4,1,0,100,0,0
61544,-50.0983368045,4,1,0,100,0,0
61592,-50.3040447903,4,1,0,100,0,0
61640,-50.5105974303,4,1,0,100,0,0
61736,-50.9262505605,4,1,0,100,0,0
61832,-51.345324112,4,1,0,100,0,0
62024,-52.1938452975,4,1,0,100,0,0
62120,-52.6233499218,4,1,0,100,0,0
62168,-52.8394258239,4,1,0,100,0,0
62216,-53.0563889518,4,1,0,100,0,0
62312,-53.4929914722,4,1,0,100,0,0
62408,-53.933186807,4,1,0,100,0,0
62600,-54.8244744247,4,1,0,100,0,0
62648,-55.0495883291,4,1,0,100,0,0
62696,-55.2756265702,4,1,0,100,0,0
62744,-55.5025929434,4,1,0,100,0,0
62792,-55.7304912595,4,1,0,100,0,0
62840,-55.9593253453,4,1,0,100,0,0
62888,-56.1890990431,4,1,0,100,0,0
62984,-56.6514807232,4,1,0,100,0,0
63080,-57.117667355,4,1,0,100,0,0
63176,-57.5876902499,4,1,0,100,0,0
63272,-58.0615809763,4,1,0,100,0,0
63368,-58.539371363,4,1,0,100,0,0
63464,-59.0210935002,4,1,0,100,0,0
63560,-59.5067797424,4,1,0,100,0,0
63608,-59.7511195864,4,1,0,100,0,0
63656,-59.9964627104,4,1,0,100,0,0
63752,-60.4901752934,4,1,0,100,0,0
63848,-60.9879506511,4,1,0,100,0,0
63944,-61.4898222162,4,1,0,100,0,0
64040,-61.9958236967,4,1,0,100,0,0
64136,-62.5059890775,4,1,0,100,0,0
64232,-63.0203526237,4,1,0,100,0,0
64328,-55.5555555556,4,1,0,100,0,0
64465,-54.6778420565,4,1,0,100,0,0
64533,-54.2473519362,4,1,0,100,0,0
64602,-53.8139954152,4,1,0,100,0,0
64739,-52.9637965514,4,1,0,100,0,0
64808,-52.5406937493,4,1,0,100,0,0
64876,-52.1270298459,4,1,0,100,0,0
64945,-51.7106115785,4,1,0,100,0,0
65082,-50.8936437457,4,1,0,100,0,0
65150,-50.4929474125,4,1,0,100,0,0
65293,-49.6894409937888,4,1,0,100,0,1
69368,-49.6894409938,4,1,0,100,0,1
69656,-51.4985680237,4,1,0,100,0,1
69944,-53.3735629835,4,1,0,100,0,1
70088,-54.3365069894,4,1,0,100,0,1
70232,-55.3168240375,4,1,0,100,0,1
70520,-57.3308366642,4,1,0,100,0,1
70808,-59.4181768352,4,1,0,100,0,1
71048,-61.2155642759,4,1,0,100,0,1
71144,-61.9496520128,4,1,0,100,0,1
71240,-62.6925428181,4,1,0,100,0,1
71288,-63.0673223113,4,1,0,100,0,1
71336,-63.4443422571,4,1,0,100,0,1
71432,-64.2051571605,4,1,0,100,0,1
71576,-65.363520361,4,1,0,100,0,1
71624,-65.7542671059,4,1,0,100,0,1
71720,-66.5427822768,4,1,0,100,0,1
71816,-67.3407532018,4,1,0,100,0,1
71864,-67.7433199541,4,1,0,100,0,1
71912,-68.1482932727,4,1,0,100,0,1
72013,-68.9655172414,4,1,0,100,0,0
72109,-16.6666666666667,4,1,0,100,0,0
72973,-49.6894409937888,4,1,0,100,0,1
76952,-49.6894409938,4,1,0,100,0,1
77240,-51.4339886044,4,1,0,100,0,1
77480,-52.9344756452,4,1,0,100,0,1
77768,-54.7929532444,4,1,0,100,0,1
77960,-56.068048156,4,1,0,100,0,1
78056,-56.7166801721,4,1,0,100,0,1
78152,-57.3728159896,4,1,0,100,0,1
78440,-59.3871193717,4,1,0,100,0,1
78536,-60.0741485843,4,1,0,100,0,1
78632,-60.7691258021,4,1,0,100,0,1
78728,-61.4721429729,4,1,0,100,0,1
78824,-62.1832931083,4,1,0,100,0,1
78920,-62.9026702956,4,1,0,100,0,1
78968,-63.2654737334,4,1,0,100,0,1
79016,-63.6303697108,4,1,0,100,0,1
79112,-64.366487631,4,1,0,100,0,1
79160,-64.7377339212,4,1,0,100,0,1
79256,-65.486662558,4,1,0,100,0,1
79304,-65.8643696759,4,1,0,100,0,1
79400,-66.6263319753,4,1,0,100,0,1
79496,-67.3971091552,4,1,0,100,0,1
79544,-67.785835147,4,1,0,100,0,1
79592,-68.1768031918,4,1,0,100,0,1
79640,-68.5700262213,4,1,0,100,0,1
79688,-68.9655172414,4,1,0,100,0,1
79784,-16.6666666666667,4,1,0,100,0,1
80653,480,8,1,0,70,1,0
80653,-105.263157894737,4,1,0,70,0,0
81037,-105.263157894737,4,1,0,20,0,0
83053,-14.2857142857143,3,1,0,100,0,8
83121,-14.2857142857143,3,1,0,100,0,1
83629,-10,3,1,0,100,0,1
84433,-83.3333333333333,8,1,0,70,0,1
84493,-83.3333333333333,8,1,0,70,0,0
88273,-83.3333333333333,8,1,0,80,0,0
88333,-83.3333333333333,8,1,0,80,0,1
92173,-83.3333333333333,8,1,0,70,0,0
92293,-85.1063829787234,8,1,0,70,0,0
93013,-90.9090909090909,8,1,0,70,0,0
93253,-93.0232558139535,8,1,0,70,0,0
93973,-100,8,1,0,70,0,0
94213,-102.564102564103,8,1,0,70,0,0
94933,-111.111111111111,8,1,0,70,0,0
95173,-114.285714285714,8,1,0,70,0,0
96013,-52.6315789474,8,1,0,100,0,1
96173,-54.0540540541,8,1,0,100,0,1
96253,-54.7945205479,8,1,0,100,0,1
96333,-55.5555555556,8,1,0,100,0,1
96413,-56.338028169,8,1,0,100,0,1
96493,-57.1428571429,8,1,0,100,0,1
96573,-57.9710144928,8,1,0,100,0,1
96653,-58.8235294118,8,1,0,100,0,1
96733,-59.7014925373,8,1,0,100,0,1
96813,-60.6060606061,8,1,0,100,0,1
96973,-62.5,8,1,0,100,0,1
97053,-61.5384615385,8,1,0,100,0,1
97133,-60.6060606061,8,1,0,100,0,1
97213,-59.7014925373,8,1,0,100,0,1
97293,-58.8235294118,8,1,0,100,0,1
97373,-57.9710144928,8,1,0,100,0,1
97453,-57.1428571429,8,1,0,100,0,1
97613,-55.5555555556,8,1,0,100,0,1
97693,-54.7945205479,8,1,0,100,0,1
97773,-54.0540540541,8,1,0,100,0,1
97853,-53.3333333333,8,1,0,100,0,1
97933,-52.6315789474,8,1,0,100,0,1
98093,-53.8116591928,8,1,0,100,0,1
98173,-54.4217687075,8,1,0,100,0,1
98253,-55.0458715596,8,1,0,100,0,1
98333,-55.6844547564,8,1,0,100,0,1
98413,-56.338028169,8,1,0,100,0,1
98493,-57.0071258907,8,1,0,100,0,1
98573,-57.6923076923,8,1,0,100,0,1
98653,-58.3941605839,8,1,0,100,0,1
98733,-59.1133004926,8,1,0,100,0,1
98813,-59.8503740648,8,1,0,100,0,1
98893,-60.6060606061,8,1,0,100,0,1
98973,-61.3810741688,8,1,0,100,0,1
99053,-62.1761658031,8,1,0,100,0,1
99133,-62.9921259843,8,1,0,100,0,1
99213,-63.829787234,8,1,0,100,0,1
99293,-64.6900269542,8,1,0,100,0,1
99373,-65.5737704918,8,1,0,100,0,1
99533,-67.4157303371,8,1,0,100,0,1
99613,-68.3760683761,8,1,0,100,0,1
99693,-69.3641618497,8,1,0,100,0,1
99773,-70.3812316716,8,1,0,100,0,1
99853,-48.7804878049,8,1,0,100,0,1
100013,-50.8474576271,8,1,0,100,0,1
100093,-51.9480519481,8,1,0,100,0,1
100173,-53.0973451327,8,1,0,100,0,1
100253,-54.2986425339,8,1,0,100,0,1
100333,-55.5555555556,8,1,0,100,0,1
100413,-56.8720379147,8,1,0,100,0,1
100493,-58.2524271845,8,1,0,100,0,1
100573,-59.7014925373,8,1,0,100,0,1
100653,-61.2244897959,8,1,0,100,0,1
100813,-64.5161290323,8,1,0,100,0,1
100893,-62.9921259843,8,1,0,100,0,1
100973,-61.5384615385,8,1,0,100,0,1
101053,-60.1503759398,8,1,0,100,0,1
101133,-58.8235294118,8,1,0,100,0,1
101213,-57.5539568345,8,1,0,100,0,1
101293,-56.338028169,8,1,0,100,0,1
101453,-54.0540540541,8,1,0,100,0,1
101533,-52.9801324503,8,1,0,100,0,1
101613,-51.9480519481,8,1,0,100,0,1
101693,-50.9554140127,8,1,0,100,0,1
101773,-50,8,1,0,100,0,1
101933,-52.1739130435,8,1,0,100,0,1
102013,-53.3333333333,8,1,0,100,0,1
102093,-54.5454545455,8,1,0,100,0,1
102173,-55.8139534884,8,1,0,100,0,1
102253,-57.1428571429,8,1,0,100,0,1
102333,-58.5365853659,8,1,0,100,0,1
102413,-60,8,1,0,100,0,1
102493,-61.5384615385,8,1,0,100,0,1
102573,-63.1578947368,8,1,0,100,0,1
102653,-64.8648648649,8,1,0,100,0,1
102733,-66.6666666667,8,1,0,100,0,1
102813,-65.2173913043,8,1,0,100,0,1
102893,-63.829787234,8,1,0,100,0,1
102973,-62.5,8,1,0,100,0,1
103053,-61.2244897959,8,1,0,100,0,1
103133,-60,8,1,0,100,0,1
103213,-58.8235294118,8,1,0,100,0,1
103373,-56.6037735849,8,1,0,100,0,1
103453,-55.5555555556,8,1,0,100,0,1
103533,-54.5454545455,8,1,0,100,0,1
103613,-53.5714285714,8,1,0,100,0,1
103693,-52.6315789474,8,1,0,100,0,1
103853,-60.6060606061,8,1,0,100,0,1
103933,-59.7014925373,8,1,0,100,0,1
104013,-58.8235294118,8,1,0,100,0,1
104093,-57.9710144928,8,1,0,100,0,1
104173,-57.1428571429,8,1,0,100,0,1
104253,-56.338028169,8,1,0,100,0,1
104333,-55.5555555556,8,1,0,100,0,1
104413,-54.7945205479,8,1,0,100,0,1
104493,-54.0540540541,8,1,0,100,0,1
104653,-52.6315789474,8,1,0,100,0,1
104733,-53.5714285714,8,1,0,100,0,1
104813,-54.5454545455,8,1,0,100,0,1
104893,-55.5555555556,8,1,0,100,0,1
104973,-56.6037735849,8,1,0,100,0,1
105053,-57.6923076923,8,1,0,100,0,1
105133,-58.8235294118,8,1,0,100,0,1
105293,-61.2244897959,8,1,0,100,0,1
105373,-62.5,8,1,0,100,0,1
105453,-63.829787234,8,1,0,100,0,1
105533,-65.2173913043,8,1,0,100,0,1
105613,-66.6666666667,8,1,0,100,0,1
105773,-64.5161290323,8,1,0,100,0,1
105853,-63.4920634921,8,1,0,100,0,1
105933,-62.5,8,1,0,100,0,1
106013,-61.5384615385,8,1,0,100,0,1
106093,-60.6060606061,8,1,0,100,0,1
106173,-59.7014925373,8,1,0,100,0,1
106253,-58.8235294118,8,1,0,100,0,1
106333,-57.9710144928,8,1,0,100,0,1
106413,-57.1428571429,8,1,0,100,0,1
106493,-56.338028169,8,1,0,100,0,1
106573,-55.5555555556,8,1,0,100,0,1
106653,-56.4705882353,8,1,0,100,0,1
106733,-57.4162679426,8,1,0,100,0,1
106813,-58.3941605839,8,1,0,100,0,1
106893,-59.4059405941,8,1,0,100,0,1
106973,-60.4534005038,8,1,0,100,0,1
107053,-61.5384615385,8,1,0,100,0,1
107213,-63.829787234,8,1,0,100,0,1
107293,-65.0406504065,8,1,0,100,0,1
107373,-66.2983425414,8,1,0,100,0,1
107453,-67.6056338028,8,1,0,100,0,1
107533,-68.9655172414,8,1,0,100,0,1
107693,-65.5737704918,8,1,0,100,0,1
107773,-64,8,1,0,100,0,1
107853,-62.5,8,1,0,100,0,1
107933,-61.0687022901,8,1,0,100,0,1
108013,-59.7014925373,8,1,0,100,0,1
108093,-58.3941605839,8,1,0,100,0,1
108173,-57.1428571429,8,1,0,100,0,1
108253,-55.9440559441,8,1,0,100,0,1
108333,-54.7945205479,8,1,0,100,0,1
108493,-52.6315789474,8,1,0,100,0,1
108573,-53.5714285714,8,1,0,100,0,1
108653,-54.5454545455,8,1,0,100,0,1
108733,-55.5555555556,8,1,0,100,0,1
108813,-56.6037735849,8,1,0,100,0,1
108893,-57.6923076923,8,1,0,100,0,1
108973,-58.8235294118,8,1,0,100,0,1
109133,-61.2244897959,8,1,0,100,0,1
109213,-62.5,8,1,0,100,0,1
109293,-63.829787234,8,1,0,100,0,1
109373,-65.2173913043,8,1,0,100,0,1
109453,-66.6666666667,8,1,0,100,0,1
109613,-64.3431635389,8,1,0,100,0,1
109693,-63.2411067194,8,1,0,100,0,1
109773,-62.1761658031,8,1,0,100,0,1
109853,-61.1464968153,8,1,0,100,0,1
109933,-60.1503759398,8,1,0,100,0,1
110013,-59.186189889,8,1,0,100,0,1
110093,-58.2524271845,8,1,0,100,0,1
110173,-57.3476702509,8,1,0,100,0,1
110253,-56.4705882353,8,1,0,100,0,1
110333,-55.6199304751,8,1,0,100,0,1
110413,-54.7945205479,8,1,0,100,0,1
110493,-53.9932508436,8,1,0,100,0,1
110573,-53.2150776053,8,1,0,100,0,1
110653,-52.4590163934,8,1,0,100,0,1
110733,-51.724137931,8,1,0,100,0,1
110813,-51.0095642933,8,1,0,100,0,1
110893,-50.3144654088,8,1,0,100,0,1
110973,-49.6380558428,8,1,0,100,0,1
111053,-48.9795918367,8,1,0,100,0,1
111133,-48.3383685801,8,1,0,100,0,1
111213,-47.7137176938,8,1,0,100,0,1
111293,-47.1050049068,8,1,0,100,0,1
111373,-46.511627907,8,1,0,100,0,0
111493,-61.5384615384615,8,1,0,70,0,0
112195,-75.4716981132076,8,1,0,70,0,0
112470,-81.6326530612245,8,1,0,70,0,0
113293,-44.4444444444445,8,1,0,100,0,0
115213,-44.4444444444445,8,1,0,100,0,0
115333,-61.5384615384615,8,1,0,70,0,0
117013,-44.4444444444445,8,1,0,100,0,0
119053,-44.4444444444445,2,1,0,100,0,1
119173,-46.5116279069767,2,1,0,80,0,1
119893,-54.054054054054,2,1,0,80,0,1
120133,-57.1428571428571,2,1,0,80,0,1
120853,-68.9655172413793,2,1,0,80,0,1
121093,-74.0740740740741,2,1,0,80,0,1
121933,-44.4444444444445,2,1,0,100,0,1
126733,-44.4444444444445,2,1,0,100,0,1
126853,-46.5116279069767,2,1,0,80,0,1
127573,-54.054054054054,2,1,0,80,0,1
127813,-57.1428571428571,2,1,0,80,0,1
128533,-68.9655172413793,2,1,0,80,0,1
128773,-74.0740740740741,2,1,0,80,0,1
129613,-44.4444444444445,2,1,0,100,0,1
134413,-44.4444444444445,64,1,0,100,0,0
134893,-62.5,64,1,0,70,0,0
135373,-68.9655172413793,64,1,0,70,0,0
135853,-76.9230769230769,64,1,0,70,0,0
136453,-86.9565217391304,64,1,0,70,0,0
137053,-100,64,1,0,70,0,0
137653,-117.647058823529,64,1,0,70,0,0

[HitObjects]
256,192,301,8,0,1741,0:0:0:0:
160,128,1933,5,0,0:0:0:0:
352,128,2093,1,8,0:0:0:0:
352,128,2173,1,8,0:0:0:0:
160,128,2253,1,0,0:0:0:0:
160,128,2333,1,0,0:0:0:0:
160,128,2413,1,0,0:0:0:0:
352,128,2493,1,8,0:0:0:0:
160,128,2573,1,0,0:0:0:0:
160,128,2626,1,0,0:0:0:0:
160,128,2679,1,0,0:0:0:0:
352,128,2733,1,8,0:0:0:0:
352,128,2813,1,8,0:0:0:0:
160,128,2893,1,0,0:0:0:0:
352,128,3053,1,8,0:0:0:0:
160,128,3133,1,0,0:0:0:0:
352,128,3213,1,8,0:0:0:0:
352,128,3293,1,8,0:0:0:0:
160,128,3373,1,0,0:0:0:0:
160,128,3426,1,0,0:0:0:0:
160,128,3479,1,0,0:0:0:0:
352,128,3533,1,8,0:0:0:0:
352,128,3613,1,8,0:0:0:0:
160,128,3693,1,0,0:0:0:0:
352,128,3773,1,8,0:0:0:0:
160,128,3853,1,0,0:0:0:0:
352,128,4045,1,8,0:0:0:0:
352,128,4093,1,8,0:0:0:0:
352,128,4141,1,8,0:0:0:0:
352,128,4189,1,8,0:0:0:0:
160,128,4237,1,0,0:0:0:0:
352,128,4333,1,8,0:0:0:0:
352,128,4429,1,8,0:0:0:0:
352,128,4477,1,8,0:0:0:0:
352,128,4525,1,8,0:0:0:0:
352,128,4621,1,8,0:0:0:0:
352,128,4717,1,8,0:0:0:0:
160,128,4813,1,0,0:0:0:0:
352,128,5005,1,8,0:0:0:0:
160,128,5053,1,0,0:0:0:0:
352,128,5149,1,8,0:0:0:0:
352,128,5293,1,8,0:0:0:0:
352,128,5437,1,8,0:0:0:0:
160,128,5485,1,0,0:0:0:0:
352,128,5581,1,8,0:0:0:0:
352,128,5629,1,8,0:0:0:0:
352,128,5677,1,8,0:0:0:0:
160,128,5773,1,0,0:0:0:0:
160,128,5933,1,0,0:0:0:0:
160,128,6013,1,0,0:0:0:0:
160,128,6093,1,0,0:0:0:0:
160,128,6173,1,0,0:0:0:0:
352,128,6253,1,8,0:0:0:0:
352,128,6333,1,8,0:0:0:0:
352,128,6413,1,8,0:0:0:0:
160,128,6493,1,0,0:0:0:0:
352,128,6573,1,8,0:0:0:0:
352,128,6653,1,8,0:0:0:0:
160,128,6733,1,0,0:0:0:0:
160,128,6786,1,0,0:0:0:0:
160,128,6839,1,0,0:0:0:0:
352,128,6893,1,8,0:0:0:0:
160,128,6973,1,0,0:0:0:0:
160,128,7053,1,0,0:0:0:0:
352,128,7133,1,8,0:0:0:0:
352,128,7213,1,8,0:0:0:0:
160,128,7293,1,0,0:0:0:0:
352,128,7373,1,8,0:0:0:0:
160,128,7453,1,0,0:0:0:0:
352,128,7533,1,8,0:0:0:0:
352,128,7613,1,8,0:0:0:0:
160,128,7693,1,0,0:0:0:0:
352,128,7885,1,8,0:0:0:0:
352,128,7933,1,8,0:0:0:0:
352,128,7981,1,8,0:0:0:0:
352,128,8029,1,8,0:0:0:0:
352,128,8077,1,8,0:0:0:0:
352,128,8269,1,8,0:0:0:0:
352,128,8461,1,8,0:0:0:0:
160,128,8653,1,0,0:0:0:0:
352,128,8773,1,8,0:0:0:0:
160,128,8893,1,0,0:0:0:0:
352,128,8941,1,8,0:0:0:0:
352,128,9037,1,8,0:0:0:0:
352,128,9133,1,8,0:0:0:0:
352,128,9277,1,8,0:0:0:0:
160,128,9325,1,0,0:0:0:0:
352,128,9421,1,8,0:0:0:0:
352,128,9469,1,8,0:0:0:0:
352,128,9517,1,8,0:0:0:0:
160,128,9613,1,0,0:0:0:0:
352,128,9773,1,8,0:0:0:0:
160,128,9853,1,0,0:0:0:0:
160,128,9933,1,0,0:0:0:0:
352,128,10013,1,8,0:0:0:0:
352,128,10093,1,8,0:0:0:0:
352,128,10173,1,8,0:0:0:0:
160,128,10253,1,0,0:0:0:0:
352,128,10333,1,8,0:0:0:0:
352,128,10413,1,8,0:0:0:0:
352,128,10493,1,8,0:0:0:0:
160,128,10573,1,0,0:0:0:0:
160,128,10653,1,0,0:0:0:0:
352,128,10733,1,8,0:0:0:0:
160,128,10813,1,0,0:0:0:0:
160,128,10866,1,0,0:0:0:0:
160,128,10919,1,0,0:0:0:0:
352,128,10973,1,8,0:0:0:0:
160,128,11053,1,0,0:0:0:0:
352,128,11213,1,8,0:0:0:0:
160,128,11293,1,0,0:0:0:0:
352,128,11373,1,8,0:0:0:0:
352,128,11453,1,8,0:0:0:0:
160,128,11533,1,0,0:0:0:0:
352,128,11725,1,8,0:0:0:0:
352,128,11773,1,8,0:0:0:0:
352,128,11821,1,8,0:0:0:0:
352,128,11869,1,8,0:0:0:0:
352,128,11917,1,8,0:0:0:0:
352,128,12109,1,8,0:0:0:0:
352,128,12205,1,8,0:0:0:0:
352,128,12301,1,8,0:0:0:0:
352,128,12365,1,8,0:0:0:0:
352,128,12429,1,8,0:0:0:0:
160,128,12493,1,0,0:0:0:0:
160,128,12637,1,0,0:0:0:0:
352,128,12685,1,8,0:0:0:0:
160,128,12733,1,0,0:0:0:0:
352,128,12829,1,8,0:0:0:0:
352,128,12877,1,8,0:0:0:0:
352,128,12973,1,8,0:0:0:0:
160,128,13165,1,0,0:0:0:0:
352,128,13261,1,8,0:0:0:0:
352,128,13309,1,8,0:0:0:0:
352,128,13357,1,8,0:0:0:0:
160,128,13453,1,0,0:0:0:0:
352,128,13613,1,8,0:0:0:0:
160,128,13693,1,0,0:0:0:0:
160,128,13773,1,0,0:0:0:0:
160,128,13853,1,0,0:0:0:0:
352,128,13933,1,8,0:0:0:0:
352,128,14013,1,8,0:0:0:0:
160,128,14093,1,0,0:0:0:0:
160,128,14173,1,0,0:0:0:0:
352,128,14253,1,8,0:0:0:0:
352,128,14333,1,8,0:0:0:0:
160,128,14413,1,0,0:0:0:0:
352,128,14493,1,8,0:0:0:0:
352,128,14573,1,8,0:0:0:0:
160,128,14653,1,0,0:0:0:0:
352,128,14733,1,8,0:0:0:0:
352,128,14813,1,8,0:0:0:0:
160,128,14893,1,0,0:0:0:0:
160,128,14946,1,0,0:0:0:0:
160,128,14999,1,0,0:0:0:0:
352,128,15053,1,8,0:0:0:0:
160,128,15133,1,0,0:0:0:0:
352,128,15213,1,8,0:0:0:0:
352,128,15293,1,8,0:0:0:0:
160,128,15373,1,0,0:0:0:0:
352,128,15565,1,8,0:0:0:0:
352,128,15613,1,8,0:0:0:0:
352,128,15661,1,8,0:0:0:0:
352,128,15709,1,8,0:0:0:0:
352,128,15757,1,8,0:0:0:0:
352,128,15949,1,8,0:0:0:0:
352,128,16141,1,8,0:0:0:0:
160,128,16333,1,0,0:0:0:0:
160,128,16573,1,0,0:0:0:0:
352,128,16717,1,8,0:0:0:0:
352,128,16765,1,8,0:0:0:0:
352,128,16813,1,8,0:0:0:0:
352,128,16957,1,8,0:0:0:0:
352,128,17101,1,8,0:0:0:0:
352,128,17149,1,8,0:0:0:0:
352,128,17197,1,8,0:0:0:0:
160,256,17293,1,4,0:0:0:0:
160,256,19213,1,4,0:0:0:0:
352,128,19693,1,8,0:0:0:0:
352,128,20173,1,8,0:0:0:0:
352,128,20653,1,8,0:0:0:0:
160,128,21133,1,0,0:0:0:0:
352,128,21373,1,8,0:0:0:0:
160,128,21613,1,0,0:0:0:0:
352,128,21853,1,8,0:0:0:0:
352,128,22093,1,8,0:0:0:0:
160,128,22573,1,0,0:0:0:0:
352,256,23053,1,12,0:0:0:0:
160,128,23245,1,0,0:0:0:0:
160,128,23341,1,0,0:0:0:0:
352,128,23437,1,8,0:0:0:0:
160,128,23629,1,0,0:0:0:0:
160,128,23725,1,0,0:0:0:0:
352,128,23821,1,8,0:0:0:0:
352,128,24013,1,8,0:0:0:0:
352,128,24109,1,8,0:0:0:0:
160,128,24205,1,0,0:0:0:0:
352,128,24397,1,8,0:0:0:0:
352,128,24493,1,8,0:0:0:0:
352,128,24589,1,8,0:0:0:0:
352,128,24781,1,8,0:0:0:0:
160,128,24877,1,0,0:0:0:0:
352,128,24973,1,8,0:0:0:0:
160,128,25165,1,0,0:0:0:0:
160,128,25261,1,0,0:0:0:0:
352,128,25357,1,8,0:0:0:0:
160,128,25549,1,0,0:0:0:0:
160,128,25645,1,0,0:0:0:0:
352,128,25741,1,8,0:0:0:0:
160,128,25933,1,0,0:0:0:0:
160,256,26893,1,4,0:0:0:0:
352,128,27373,1,8,0:0:0:0:
352,128,27853,1,8,0:0:0:0:
352,128,28333,1,8,0:0:0:0:
160,128,28813,1,0,0:0:0:0:
352,128,29053,1,8,0:0:0:0:
160,128,29293,1,0,0:0:0:0:
352,128,29533,1,8,0:0:0:0:
352,128,29773,1,8,0:0:0:0:
160,128,30253,1,0,0:0:0:0:
352,256,30733,1,12,0:0:0:0:
160,128,30925,1,0,0:0:0:0:
160,128,31021,1,0,0:0:0:0:
352,128,31117,1,8,0:0:0:0:
160,128,31309,1,0,0:0:0:0:
160,128,31405,1,0,0:0:0:0:
352,128,31501,1,8,0:0:0:0:
352,128,31693,1,8,0:0:0:0:
352,128,31789,1,8,0:0:0:0:
160,128,31885,1,0,0:0:0:0:
352,128,32077,1,8,0:0:0:0:
352,128,32173,1,8,0:0:0:0:
352,128,32269,1,8,0:0:0:0:
352,128,32461,1,8,0:0:0:0:
160,128,32557,1,0,0:0:0:0:
352,128,32653,1,8,0:0:0:0:
160,128,32845,1,0,0:0:0:0:
160,128,32941,1,0,0:0:0:0:
352,128,33037,1,8,0:0:0:0:
160,128,33229,1,0,0:0:0:0:
160,128,33325,1,0,0:0:0:0:
352,128,33421,1,8,0:0:0:0:
160,128,33613,1,0,0:0:0:0:
160,256,34573,1,4,0:0:0:0:
352,128,35053,1,8,0:0:0:0:
352,128,35533,1,8,0:0:0:0:
352,128,36013,1,8,0:0:0:0:
160,128,36493,1,0,0:0:0:0:
352,128,36733,1,8,0:0:0:0:
160,128,36973,1,0,0:0:0:0:
352,128,37213,1,8,0:0:0:0:
352,128,37453,1,8,0:0:0:0:
160,128,37933,1,0,0:0:0:0:
160,256,38413,1,4,0:0:0:0:
352,128,38961,1,8,0:0:0:0:
352,128,39510,1,8,0:0:0:0:
352,128,40058,1,8,0:0:0:0:
352,128,40607,1,8,0:0:0:0:
352,128,41155,1,8,0:0:0:0:
352,128,41704,1,8,0:0:0:0:
352,128,42253,1,8,0:0:0:0:
352,128,42801,1,8,0:0:0:0:
352,128,43350,1,8,0:0:0:0:
352,128,43898,1,8,0:0:0:0:
352,128,44447,1,8,0:0:0:0:
352,128,44995,1,8,0:0:0:0:
352,128,45544,1,8,0:0:0:0:
160,128,46093,1,0,0:0:0:0:
160,128,46333,1,0,0:0:0:0:
160,128,47053,1,0,0:0:0:0:
160,128,47293,1,0,0:0:0:0:
160,128,48013,1,0,0:0:0:0:
160,128,48253,1,0,0:0:0:0:
160,128,48973,1,0,0:0:0:0:
160,128,49213,1,0,0:0:0:0:
160,128,49933,1,0,0:0:0:0:
160,128,50070,1,0,0:0:0:0:
160,128,50138,1,0,0:0:0:0:
352,128,50207,1,8,0:0:0:0:
160,128,50275,1,0,0:0:0:0:
352,128,50344,1,8,0:0:0:0:
160,128,50481,1,0,0:0:0:0:
160,128,50550,1,0,0:0:0:0:
352,128,50618,1,8,0:0:0:0:
160,128,50687,1,0,0:0:0:0:
352,128,50755,1,8,0:0:0:0:
352,128,50824,1,8,0:0:0:0:
352,128,50893,1,8,0:0:0:0:
160,128,51030,1,0,0:0:0:0:
160,128,51098,1,0,0:0:0:0:
352,128,51167,1,8,0:0:0:0:
160,128,51235,1,0,0:0:0:0:
352,128,51304,1,8,0:0:0:0:
352,128,51373,1,8,0:0:0:0:
160,128,51441,1,0,0:0:0:0:
160,128,51510,1,0,0:0:0:0:
352,128,51578,1,8,0:0:0:0:
160,128,51647,1,0,0:0:0:0:
352,128,51715,1,8,0:0:0:0:
352,128,51784,1,8,0:0:0:0:
160,128,51853,1,0,0:0:0:0:
352,128,51921,1,8,0:0:0:0:
352,128,51990,1,8,0:0:0:0:
352,128,52058,1,8,0:0:0:0:
160,128,52127,1,0,0:0:0:0:
160,128,52264,1,0,0:0:0:0:
160,128,52333,1,0,0:0:0:0:
352,128,52401,1,8,0:0:0:0:
352,128,52470,1,8,0:0:0:0:
160,128,52538,1,0,0:0:0:0:
352,128,52675,1,8,0:0:0:0:
160,128,52744,1,0,0:0:0:0:
160,128,52813,1,0,0:0:0:0:
160,128,52881,1,0,0:0:0:0:
352,128,52950,1,8,0:0:0:0:
160,128,53018,1,0,0:0:0:0:
352,128,53087,1,8,0:0:0:0:
352,128,53155,1,8,0:0:0:0:
160,128,53224,1,0,0:0:0:0:
352,128,53293,1,8,0:0:0:0:
352,128,53361,1,8,0:0:0:0:
352,128,53430,1,8,0:0:0:0:
160,128,53498,1,0,0:0:0:0:
160,128,53567,1,0,0:0:0:0:
352,128,53635,1,8,0:0:0:0:
352,128,53704,1,8,0:0:0:0:
160,128,53773,1,0,0:0:0:0:
352,128,53869,1,8,0:0:0:0:
352,128,53917,1,8,0:0:0:0:
352,128,53965,1,8,0:0:0:0:
160,128,54061,1,0,0:0:0:0:
352,128,54157,1,8,0:0:0:0:
160,128,54349,1,0,0:0:0:0:
352,128,54445,1,8,0:0:0:0:
352,128,54493,1,8,0:0:0:0:
160,128,54541,1,0,0:0:0:0:
160,128,54637,1,0,0:0:0:0:
352,128,54733,1,8,0:0:0:0:
160,128,54925,1,0,0:0:0:0:
160,128,54973,1,0,0:0:0:0:
352,128,55021,1,8,0:0:0:0:
352,128,55069,1,8,0:0:0:0:
352,128,55117,1,8,0:0:0:0:
352,128,55165,1,8,0:0:0:0:
160,128,55213,1,0,0:0:0:0:
352,128,55309,1,8,0:0:0:0:
352,128,55405,1,8,0:0:0:0:
160,128,55501,1,0,0:0:0:0:
352,128,55597,1,8,0:0:0:0:
160,128,55693,1,0,0:0:0:0:
352,128,55789,1,8,0:0:0:0:
352,128,55885,1,8,0:0:0:0:
352,128,55933,1,8,0:0:0:0:
160,128,55981,1,0,0:0:0:0:
160,128,56077,1,0,0:0:0:0:
352,128,56173,1,8,0:0:0:0:
352,128,56269,1,8,0:0:0:0:
160,128,56365,1,0,0:0:0:0:
352,128,56461,1,8,0:0:0:0:
352,128,56557,1,8,0:0:0:0:
160,128,56653,1,0,0:0:0:0:
160,128,56749,1,0,0:0:0:0:
160,128,56797,1,0,0:0:0:0:
352,128,56845,1,8,0:0:0:0:
352,128,56893,1,8,0:0:0:0:
352,128,56941,1,8,0:0:0:0:
352,128,56989,1,8,0:0:0:0:
160,128,57037,1,0,0:0:0:0:
352,128,57133,1,8,0:0:0:0:
352,128,57229,1,8,0:0:0:0:
352,128,57325,1,8,0:0:0:0:
352,128,57421,1,8,0:0:0:0:
352,128,57517,1,8,0:0:0:0:
160,128,57613,1,0,0:0:0:0:
160,128,57750,1,0,0:0:0:0:
160,128,57818,1,0,0:0:0:0:
352,128,57887,1,8,0:0:0:0:
352,128,57955,1,8,0:0:0:0:
352,128,58024,1,8,0:0:0:0:
160,128,58161,1,0,0:0:0:0:
160,128,58230,1,0,0:0:0:0:
352,128,58298,1,8,0:0:0:0:
352,128,58367,1,8,0:0:0:0:
160,128,58435,1,0,0:0:0:0:
352,128,58504,1,8,0:0:0:0:
352,128,58573,1,8,0:0:0:0:
160,128,58710,1,0,0:0:0:0:
160,128,58778,1,0,0:0:0:0:
352,128,58847,1,8,0:0:0:0:
160,128,58915,1,0,0:0:0:0:
352,128,58984,1,8,0:0:0:0:
352,128,59053,1,8,0:0:0:0:
352,128,59121,1,8,0:0:0:0:
160,128,59190,1,0,0:0:0:0:
352,128,59258,1,8,0:0:0:0:
160,128,59327,1,0,0:0:0:0:
352,128,59395,1,8,0:0:0:0:
352,128,59464,1,8,0:0:0:0:
160,128,59533,1,0,0:0:0:0:
352,128,59601,1,8,0:0:0:0:
352,128,59670,1,8,0:0:0:0:
352,128,59738,1,8,0:0:0:0:
160,128,59807,1,0,0:0:0:0:
160,128,59944,1,0,0:0:0:0:
160,128,60013,1,0,0:0:0:0:
352,128,60081,1,8,0:0:0:0:
352,128,60150,1,8,0:0:0:0:
352,128,60218,1,8,0:0:0:0:
352,128,60355,1,0,0:0:0:0:
352,128,60424,1,8,0:0:0:0:
160,128,60493,1,0,0:0:0:0:
160,128,60561,1,0,0:0:0:0:
352,128,60630,1,8,0:0:0:0:
160,128,60698,1,0,0:0:0:0:
352,128,60767,1,8,0:0:0:0:
352,128,60835,1,8,0:0:0:0:
160,128,60904,1,0,0:0:0:0:
352,128,60973,1,8,0:0:0:0:
352,128,61041,1,8,0:0:0:0:
352,128,61110,1,8,0:0:0:0:
160,128,61178,1,0,0:0:0:0:
160,128,61247,1,0,0:0:0:0:
352,128,61315,1,8,0:0:0:0:
352,128,61384,1,8,0:0:0:0:
160,128,61453,1,0,0:0:0:0:
352,128,61549,1,8,0:0:0:0:
352,128,61597,1,8,0:0:0:0:
352,128,61645,1,8,0:0:0:0:
160,128,61741,1,0,0:0:0:0:
352,128,61837,1,8,0:0:0:0:
160,128,62029,1,0,0:0:0:0:
352,128,62125,1,8,0:0:0:0:
352,128,62173,1,8,0:0:0:0:
160,128,62221,1,0,0:0:0:0:
160,128,62317,1,0,0:0:0:0:
352,128,62413,1,8,0:0:0:0:
160,128,62605,1,0,0:0:0:0:
160,128,62653,1,0,0:0:0:0:
352,128,62701,1,8,0:0:0:0:
352,128,62749,1,8,0:0:0:0:
160,128,62797,1,0,0:0:0:0:
160,128,62845,1,0,0:0:0:0:
160,128,62893,1,0,0:0:0:0:
352,128,62989,1,8,0:0:0:0:
352,128,63085,1,8,0:0:0:0:
352,128,63181,1,8,0:0:0:0:
352,128,63277,1,8,0:0:0:0:
160,128,63373,1,0,0:0:0:0:
352,128,63469,1,8,0:0:0:0:
352,128,63565,1,8,0:0:0:0:
352,128,63613,1,8,0:0:0:0:
160,128,63661,1,0,0:0:0:0:
160,128,63757,1,0,0:0:0:0:
352,128,63853,1,8,0:0:0:0:
352,128,63949,1,8,0:0:0:0:
160,128,64045,1,0,0:0:0:0:
160,128,64141,1,0,0:0:0:0:
160,128,64237,1,0,0:0:0:0:
352,128,64333,1,8,0:0:0:0:
160,128,64470,1,0,0:0:0:0:
160,128,64538,1,0,0:0:0:0:
352,128,64607,1,8,0:0:0:0:
352,128,64744,1,8,0:0:0:0:
352,128,64813,1,8,0:0:0:0:
160,128,64881,1,0,0:0:0:0:
352,128,64950,1,8,0:0:0:0:
160,128,65087,1,0,0:0:0:0:
352,128,65155,1,8,0:0:0:0:
160,128,65293,1,0,0:0:0:0:
160,128,65430,1,0,0:0:0:0:
160,128,65498,1,0,0:0:0:0:
352,128,65567,1,8,0:0:0:0:
160,128,65635,1,0,0:0:0:0:
352,128,65704,1,8,0:0:0:0:
160,128,65841,1,0,0:0:0:0:
160,128,65910,1,0,0:0:0:0:
352,128,65978,1,8,0:0:0:0:
160,128,66047,1,0,0:0:0:0:
352,128,66115,1,8,0:0:0:0:
352,128,66184,1,8,0:0:0:0:
352,128,66253,1,8,0:0:0:0:
160,128,66390,1,0,0:0:0:0:
160,128,66458,1,0,0:0:0:0:
352,128,66527,1,8,0:0:0:0:
160,128,66595,1,0,0:0:0:0:
352,128,66664,1,8,0:0:0:0:
352,128,66733,1,8,0:0:0:0:
160,128,66801,1,0,0:0:0:0:
160,128,66870,1,0,0:0:0:0:
352,128,66938,1,8,0:0:0:0:
160,128,67007,1,0,0:0:0:0:
352,128,67075,1,8,0:0:0:0:
352,128,67144,1,8,0:0:0:0:
160,128,67213,1,0,0:0:0:0:
160,128,67309,1,0,0:0:0:0:
352,128,67405,1,8,0:0:0:0:
160,128,67453,1,0,0:0:0:0:
352,128,67501,1,8,0:0:0:0:
160,128,67549,1,0,0:0:0:0:
352,128,67597,1,8,0:0:0:0:
160,128,67693,1,0,0:0:0:0:
352,128,67789,1,8,0:0:0:0:
352,128,67837,1,8,0:0:0:0:
352,128,67885,1,8,0:0:0:0:
352,128,67981,1,8,0:0:0:0:
352,128,68077,1,8,0:0:0:0:
160,128,68173,1,0,0:0:0:0:
352,128,68317,1,8,0:0:0:0:
352,128,68365,1,8,0:0:0:0:
160,128,68461,1,0,0:0:0:0:
352,128,68557,1,8,0:0:0:0:
352,128,68605,1,8,0:0:0:0:
352,128,68701,1,8,0:0:0:0:
160,128,68797,1,0,0:0:0:0:
352,128,68845,1,8,0:0:0:0:
352,128,68941,1,8,0:0:0:0:
352,128,69037,1,8,0:0:0:0:
160,128,69133,1,0,0:0:0:0:
352,128,69181,1,8,0:0:0:0:
352,128,69229,1,8,0:0:0:0:
160,128,69373,1,0,0:0:0:0:
160,128,69661,1,0,0:0:0:0:
352,128,69949,1,8,0:0:0:0:
160,128,70093,1,0,0:0:0:0:
352,128,70237,1,8,0:0:0:0:
160,128,70525,1,0,0:0:0:0:
160,128,70813,1,0,0:0:0:0:
352,128,71053,1,8,0:0:0:0:
352,128,71149,1,8,0:0:0:0:
352,128,71245,1,8,0:0:0:0:
352,128,71293,1,8,0:0:0:0:
352,128,71341,1,8,0:0:0:0:
352,128,71437,1,8,0:0:0:0:
352,128,71581,1,8,0:0:0:0:
352,128,71629,1,8,0:0:0:0:
352,128,71725,1,8,0:0:0:0:
352,128,71821,1,8,0:0:0:0:
352,128,71869,1,8,0:0:0:0:
352,128,71917,1,8,0:0:0:0:
160,128,72013,1,0,0:0:0:0:
256,192,72150,8,8,72835,0:0:0:0:
160,128,72973,5,0,0:0:0:0:
160,128,73110,1,0,0:0:0:0:
160,128,73178,1,0,0:0:0:0:
352,128,73247,1,8,0:0:0:0:
352,128,73315,1,8,0:0:0:0:
352,128,73384,1,8,0:0:0:0:
160,128,73521,1,0,0:0:0:0:
160,128,73590,1,0,0:0:0:0:
352,128,73658,1,8,0:0:0:0:
352,128,73727,1,8,0:0:0:0:
160,128,73795,1,0,0:0:0:0:
352,128,73864,1,8,0:0:0:0:
352,128,73933,1,8,0:0:0:0:
160,128,74070,1,0,0:0:0:0:
160,128,74138,1,0,0:0:0:0:
352,128,74207,1,8,0:0:0:0:
160,128,74275,1,0,0:0:0:0:
352,128,74344,1,8,0:0:0:0:
352,128,74413,1,8,0:0:0:0:
352,128,74481,1,8,0:0:0:0:
160,128,74550,1,0,0:0:0:0:
352,128,74618,1,8,0:0:0:0:
160,128,74687,1,0,0:0:0:0:
352,128,74755,1,8,0:0:0:0:
352,128,74824,1,8,0:0:0:0:
160,128,74893,1,0,0:0:0:0:
160,128,74989,1,0,0:0:0:0:
352,128,75085,1,8,0:0:0:0:
352,128,75133,1,8,0:0:0:0:
160,128,75181,1,0,0:0:0:0:
160,128,75229,1,0,0:0:0:0:
352,128,75277,1,8,0:0:0:0:
160,128,75373,1,0,0:0:0:0:
352,128,75421,1,8,0:0:0:0:
160,128,75517,1,0,0:0:0:0:
352,128,75565,1,8,0:0:0:0:
160,128,75661,1,0,0:0:0:0:
160,128,75709,1,0,0:0:0:0:
352,128,75757,1,8,0:0:0:0:
352,128,75805,1,8,0:0:0:0:
160,128,75853,1,0,0:0:0:0:
352,128,75949,1,8,0:0:0:0:
160,128,75997,1,0,0:0:0:0:
352,128,76045,1,8,0:0:0:0:
160,128,76285,1,0,0:0:0:0:
352,128,76381,1,8,0:0:0:0:
160,128,76429,1,0,0:0:0:0:
352,128,76477,1,8,0:0:0:0:
352,128,76525,1,8,0:0:0:0:
160,128,76621,1,0,0:0:0:0:
352,128,76669,1,8,0:0:0:0:
160,128,76717,1,0,0:0:0:0:
160,128,76765,1,0,0:0:0:0:
352,128,76813,1,8,0:0:0:0:
160,128,76957,1,0,0:0:0:0:
160,128,77245,1,0,0:0:0:0:
160,128,77485,1,0,0:0:0:0:
160,128,77773,1,0,0:0:0:0:
352,128,77965,1,8,0:0:0:0:
352,128,78061,1,8,0:0:0:0:
352,128,78157,1,8,0:0:0:0:
352,128,78445,1,8,0:0:0:0:
352,128,78541,1,8,0:0:0:0:
352,128,78637,1,8,0:0:0:0:
160,128,78733,1,0,0:0:0:0:
352,128,78829,1,8,0:0:0:0:
352,128,78925,1,8,0:0:0:0:
352,128,78973,1,8,0:0:0:0:
160,128,79021,1,0,0:0:0:0:
352,128,79117,1,8,0:0:0:0:
352,128,79165,1,8,0:0:0:0:
160,128,79261,1,0,0:0:0:0:
352,128,79309,1,8,0:0:0:0:
352,128,79405,1,8,0:0:0:0:
160,128,79501,1,0,0:0:0:0:
160,128,79549,1,0,0:0:0:0:
352,128,79597,1,8,0:0:0:0:
352,128,79645,1,8,0:0:0:0:
160,128,79693,1,0,0:0:0:0:
256,192,79830,8,0,80515,0:0:0:0:
160,128,80653,5,0,0:0:0:0:
160,128,80893,1,0,0:0:0:0:
352,128,81613,1,8,0:0:0:0:
352,128,81853,1,8,0:0:0:0:
352,128,82093,1,8,0:0:0:0:
352,128,82333,1,8,0:0:0:0:
352,128,82513,1,8,0:0:0:0:
352,128,82558,1,8,0:0:0:0:
352,128,82603,1,8,0:0:0:0:
256,128,83121,2,4,L|256:288,6,140.000001335144
256,192,83670,8,0,84355,0:0:0:0:
160,128,84493,5,0,0:0:0:0:
352,128,85041,1,8,0:0:0:0:
160,128,85590,1,0,0:0:0:0:
352,128,86138,1,8,0:0:0:0:
160,128,86687,1,0,0:0:0:0:
352,128,87235,1,8,0:0:0:0:
352,128,87784,1,8,0:0:0:0:
160,256,88333,1,4,0:0:0:0:
352,256,88881,1,12,0:0:0:0:
160,256,89430,1,4,0:0:0:0:
352,256,89978,1,12,0:0:0:0:
160,256,90527,1,4,0:0:0:0:
352,256,91075,1,12,0:0:0:0:
352,256,91624,1,12,0:0:0:0:
160,128,92173,1,0,0:0:0:0:
160,128,92413,1,0,0:0:0:0:
160,128,93133,1,0,0:0:0:0:
160,128,93373,1,0,0:0:0:0:
160,128,94093,1,0,0:0:0:0:
160,128,94333,1,0,0:0:0:0:
160,128,95053,1,0,0:0:0:0:
160,128,95293,1,0,0:0:0:0:
160,256,96013,1,4,0:0:0:0:
352,128,96173,1,8,0:0:0:0:
352,128,96253,1,8,0:0:0:0:
160,128,96333,1,0,0:0:0:0:
160,128,96413,1,0,0:0:0:0:
352,128,96493,1,8,0:0:0:0:
352,128,96573,1,8,0:0:0:0:
160,128,96653,1,0,0:0:0:0:
160,128,96733,1,0,0:0:0:0:
352,128,96813,1,8,0:0:0:0:
160,128,96973,1,0,0:0:0:0:
352,128,97053,1,8,0:0:0:0:
352,128,97133,1,8,0:0:0:0:
160,128,97213,1,0,0:0:0:0:
352,128,97293,1,8,0:0:0:0:
352,128,97373,1,8,0:0:0:0:
160,128,97453,1,0,0:0:0:0:
160,128,97613,1,0,0:0:0:0:
352,128,97693,1,8,0:0:0:0:
352,128,97773,1,8,0:0:0:0:
352,128,97853,1,8,0:0:0:0:
160,128,97933,1,0,0:0:0:0:
160,128,98093,1,0,0:0:0:0:
160,128,98173,1,0,0:0:0:0:
352,128,98253,1,8,0:0:0:0:
160,128,98333,1,0,0:0:0:0:
352,128,98413,1,8,0:0:0:0:
352,128,98493,1,8,0:0:0:0:
160,128,98573,1,0,0:0:0:0:
160,128,98653,1,0,0:0:0:0:
352,128,98733,1,8,0:0:0:0:
352,128,98813,1,8,0:0:0:0:
160,128,98893,1,0,0:0:0:0:
352,128,98973,1,8,0:0:0:0:
352,128,99053,1,8,0:0:0:0:
160,128,99133,1,0,0:0:0:0:
352,128,99213,1,8,0:0:0:0:
352,128,99293,1,8,0:0:0:0:
160,128,99373,1,0,0:0:0:0:
352,128,99533,1,8,0:0:0:0:
352,128,99613,1,8,0:0:0:0:
160,128,99693,1,0,0:0:0:0:
160,128,99773,1,0,0:0:0:0:
352,128,99853,1,8,0:0:0:0:
352,128,100013,1,8,0:0:0:0:
160,128,100093,1,0,0:0:0:0:
160,128,100173,1,0,0:0:0:0:
160,128,100253,1,0,0:0:0:0:
352,128,100333,1,8,0:0:0:0:
352,128,100413,1,8,0:0:0:0:
160,128,100493,1,0,0:0:0:0:
160,128,100573,1,0,0:0:0:0:
352,128,100653,1,8,0:0:0:0:
160,128,100813,1,0,0:0:0:0:
352,128,100893,1,8,0:0:0:0:
352,128,100973,1,8,0:0:0:0:
160,128,101053,1,0,0:0:0:0:
352,128,101133,1,8,0:0:0:0:
352,128,101213,1,8,0:0:0:0:
160,128,101293,1,0,0:0:0:0:
352,128,101453,1,8,0:0:0:0:
160,128,101533,1,0,0:0:0:0:
352,128,101613,1,8,0:0:0:0:
352,128,101693,1,8,0:0:0:0:
160,128,101773,1,0,0:0:0:0:
160,128,101933,1,0,0:0:0:0:
160,128,102013,1,0,0:0:0:0:
352,128,102093,1,8,0:0:0:0:
160,128,102173,1,0,0:0:0:0:
352,128,102253,1,8,0:0:0:0:
352,128,102333,1,8,0:0:0:0:
160,128,102413,1,0,0:0:0:0:
160,128,102493,1,0,0:0:0:0:
352,128,102573,1,8,0:0:0:0:
352,128,102653,1,8,0:0:0:0:
160,128,102733,1,0,0:0:0:0:
352,128,102813,1,8,0:0:0:0:
352,128,102893,1,8,0:0:0:0:
160,128,102973,1,0,0:0:0:0:
352,128,103053,1,8,0:0:0:0:
352,128,103133,1,8,0:0:0:0:
352,128,103213,1,8,0:0:0:0:
160,128,103373,1,0,0:0:0:0:
352,128,103453,1,8,0:0:0:0:
352,128,103533,1,8,0:0:0:0:
352,128,103613,1,8,0:0:0:0:
160,128,103693,1,0,0:0:0:0:
352,128,103853,1,8,0:0:0:0:
160,128,103933,1,0,0:0:0:0:
160,128,104013,1,0,0:0:0:0:
160,128,104093,1,0,0:0:0:0:
352,128,104173,1,8,0:0:0:0:
352,128,104253,1,8,0:0:0:0:
160,128,104333,1,0,0:0:0:0:
160,128,104413,1,0,0:0:0:0:
352,128,104493,1,8,0:0:0:0:
160,128,104653,1,0,0:0:0:0:
352,128,104733,1,8,0:0:0:0:
352,128,104813,1,8,0:0:0:0:
160,128,104893,1,0,0:0:0:0:
352,128,104973,1,8,0:0:0:0:
352,128,105053,1,8,0:0:0:0:
160,128,105133,1,0,0:0:0:0:
352,128,105293,1,8,0:0:0:0:
160,128,105373,1,0,0:0:0:0:
352,128,105453,1,8,0:0:0:0:
352,128,105533,1,8,0:0:0:0:
160,128,105613,1,0,0:0:0:0:
352,128,105773,1,8,0:0:0:0:
160,128,105853,1,0,0:0:0:0:
352,128,105933,1,8,0:0:0:0:
160,128,106013,1,0,0:0:0:0:
160,128,106093,1,0,0:0:0:0:
352,128,106173,1,8,0:0:0:0:
160,128,106253,1,0,0:0:0:0:
352,128,106333,1,8,0:0:0:0:
352,128,106413,1,8,0:0:0:0:
352,128,106493,1,8,0:0:0:0:
160,128,106573,1,0,0:0:0:0:
352,128,106653,1,8,0:0:0:0:
352,128,106733,1,8,0:0:0:0:
160,128,106813,1,0,0:0:0:0:
352,128,106893,1,8,0:0:0:0:
352,128,106973,1,8,0:0:0:0:
160,128,107053,1,0,0:0:0:0:
352,128,107213,1,8,0:0:0:0:
352,128,107293,1,8,0:0:0:0:
160,128,107373,1,0,0:0:0:0:
352,128,107453,1,8,0:0:0:0:
160,128,107533,1,0,0:0:0:0:
352,128,107693,1,8,0:0:0:0:
160,128,107773,1,0,0:0:0:0:
160,128,107853,1,0,0:0:0:0:
352,128,107933,1,8,0:0:0:0:
352,128,108013,1,8,0:0:0:0:
160,128,108093,1,0,0:0:0:0:
352,128,108173,1,8,0:0:0:0:
160,128,108253,1,0,0:0:0:0:
352,128,108333,1,8,0:0:0:0:
160,128,108493,1,0,0:0:0:0:
352,128,108573,1,8,0:0:0:0:
352,128,108653,1,8,0:0:0:0:
160,128,108733,1,0,0:0:0:0:
352,128,108813,1,8,0:0:0:0:
352,128,108893,1,8,0:0:0:0:
160,128,108973,1,0,0:0:0:0:
352,128,109133,1,8,0:0:0:0:
160,128,109213,1,0,0:0:0:0:
352,128,109293,1,8,0:0:0:0:
352,128,109373,1,8,0:0:0:0:
160,128,109453,1,0,0:0:0:0:
160,128,109613,1,0,0:0:0:0:
160,128,109693,1,0,0:0:0:0:
352,128,109773,1,8,0:0:0:0:
160,128,109853,1,0,0:0:0:0:
352,128,109933,1,8,0:0:0:0:
352,128,110013,1,8,0:0:0:0:
160,128,110093,1,0,0:0:0:0:
352,128,110173,1,8,0:0:0:0:
352,128,110253,1,8,0:0:0:0:
352,128,110333,1,8,0:0:0:0:
160,128,110413,1,0,0:0:0:0:
352,128,110493,1,8,0:0:0:0:
352,128,110573,1,8,0:0:0:0:
160,128,110653,1,0,0:0:0:0:
352,128,110733,1,8,0:0:0:0:
352,128,110813,1,8,0:0:0:0:
160,128,110893,1,0,0:0:0:0:
160,128,110973,1,0,0:0:0:0:
352,128,111053,1,8,0:0:0:0:
352,128,111133,1,8,0:0:0:0:
352,128,111213,1,8,0:0:0:0:
160,128,111293,1,0,0:0:0:0:
352,128,111373,1,8,0:0:0:0:
160,128,111613,1,0,0:0:0:0:
160,128,112333,1,0,0:0:0:0:
160,128,112573,1,0,0:0:0:0:
160,128,113293,1,0,0:0:0:0:
160,128,113389,1,0,0:0:0:0:
352,128,113485,1,8,0:0:0:0:
352,128,113533,1,8,0:0:0:0:
160,128,113581,1,0,0:0:0:0:
160,128,113629,1,0,0:0:0:0:
352,128,113677,1,8,0:0:0:0:
160,128,113773,1,0,0:0:0:0:
352,128,113869,1,8,0:0:0:0:
352,128,113917,1,8,0:0:0:0:
352,128,113965,1,8,0:0:0:0:
352,128,114061,1,8,0:0:0:0:
352,128,114157,1,8,0:0:0:0:
160,128,114253,1,0,0:0:0:0:
160,128,114349,1,0,0:0:0:0:
160,128,114397,1,0,0:0:0:0:
160,128,114445,1,0,0:0:0:0:
352,128,114541,1,8,0:0:0:0:
160,128,114637,1,0,0:0:0:0:
160,128,114685,1,0,0:0:0:0:
352,128,114733,1,8,0:0:0:0:
352,128,114781,1,8,0:0:0:0:
160,128,114877,1,0,0:0:0:0:
352,128,114925,1,8,0:0:0:0:
160,128,115021,1,0,0:0:0:0:
160,128,115069,1,0,0:0:0:0:
352,128,115117,1,8,0:0:0:0:
160,256,115213,1,4,0:0:0:0:
160,128,115453,1,0,0:0:0:0:
160,128,117133,1,0,0:0:0:0:
160,128,117229,1,0,0:0:0:0:
352,128,117325,1,8,0:0:0:0:
352,128,117373,1,8,0:0:0:0:
160,128,117421,1,0,0:0:0:0:
160,128,117469,1,0,0:0:0:0:
352,128,117517,1,8,0:0:0:0:
160,128,117613,1,0,0:0:0:0:
352,128,117661,1,8,0:0:0:0:
160,128,117757,1,0,0:0:0:0:
352,128,117805,1,8,0:0:0:0:
160,128,117901,1,0,0:0:0:0:
160,128,117949,1,0,0:0:0:0:
352,128,117997,1,8,0:0:0:0:
160,128,118045,1,0,0:0:0:0:
352,128,118093,1,8,0:0:0:0:
160,128,118189,1,0,0:0:0:0:
160,128,118237,1,0,0:0:0:0:
352,128,118285,1,8,0:0:0:0:
160,128,118365,1,0,0:0:0:0:
160,128,118445,1,0,0:0:0:0:
352,128,118525,1,8,0:0:0:0:
160,128,118573,1,0,0:0:0:0:
160,128,118621,1,0,0:0:0:0:
352,128,118669,1,8,0:0:0:0:
160,128,118765,1,0,0:0:0:0:
352,128,118861,1,8,0:0:0:0:
352,128,118909,1,8,0:0:0:0:
352,128,118957,1,8,0:0:0:0:
160,256,119053,1,4,0:0:0:0:
160,128,119293,1,0,0:0:0:0:
160,128,120013,1,0,0:0:0:0:
160,128,120253,1,0,0:0:0:0:
160,128,120973,1,0,0:0:0:0:
160,128,121213,1,0,0:0:0:0:
160,128,121933,1,0,0:0:0:0:
160,128,122029,1,0,0:0:0:0:
352,128,122125,1,8,0:0:0:0:
352,128,122173,1,8,0:0:0:0:
160,128,122221,1,0,0:0:0:0:
160,128,122269,1,0,0:0:0:0:
352,128,122317,1,8,0:0:0:0:
352,128,122365,1,8,0:0:0:0:
160,128,122413,1,0,0:0:0:0:
352,128,122509,1,8,0:0:0:0:
352,128,122557,1,8,0:0:0:0:
352,128,122605,1,8,0:0:0:0:
352,128,122701,1,8,0:0:0:0:
352,128,122797,1,8,0:0:0:0:
160,128,122893,1,0,0:0:0:0:
352,128,122989,1,8,0:0:0:0:
352,128,123085,1,8,0:0:0:0:
352,128,123133,1,8,0:0:0:0:
160,128,123181,1,0,0:0:0:0:
160,128,123229,1,0,0:0:0:0:
352,128,123277,1,8,0:0:0:0:
160,128,123373,1,0,0:0:0:0:
352,128,123469,1,8,0:0:0:0:
352,128,123517,1,8,0:0:0:0:
352,128,123565,1,8,0:0:0:0:
352,128,123661,1,8,0:0:0:0:
352,128,123757,1,8,0:0:0:0:
160,128,123853,1,0,0:0:0:0:
352,128,123949,1,8,0:0:0:0:
352,128,124045,1,8,0:0:0:0:
160,128,124093,1,0,0:0:0:0:
352,128,124141,1,8,0:0:0:0:
352,128,124237,1,8,0:0:0:0:
352,128,124333,1,8,0:0:0:0:
160,128,124429,1,0,0:0:0:0:
352,128,124477,1,8,0:0:0:0:
352,128,124573,1,8,0:0:0:0:
160,128,124621,1,0,0:0:0:0:
160,128,124669,1,0,0:0:0:0:
352,128,124717,1,8,0:0:0:0:
352,128,124765,1,8,0:0:0:0:
160,128,124813,1,0,0:0:0:0:
160,128,124909,1,0,0:0:0:0:
352,128,125005,1,8,0:0:0:0:
160,128,125053,1,0,0:0:0:0:
352,128,125101,1,8,0:0:0:0:
352,128,125149,1,8,0:0:0:0:
160,128,125197,1,0,0:0:0:0:
352,128,125293,1,8,0:0:0:0:
352,128,125341,1,8,0:0:0:0:
160,128,125389,1,0,0:0:0:0:
160,128,125437,1,0,0:0:0:0:
352,128,125485,1,8,0:0:0:0:
160,128,125533,1,0,0:0:0:0:
352,128,125581,1,8,0:0:0:0:
352,128,125629,1,8,0:0:0:0:
160,128,125677,1,0,0:0:0:0:
160,128,125773,1,0,0:0:0:0:
160,128,125869,1,0,0:0:0:0:
160,128,125917,1,0,0:0:0:0:
352,128,125965,1,8,0:0:0:0:
160,128,126013,1,0,0:0:0:0:
352,128,126077,1,8,0:0:0:0:
352,128,126141,1,8,0:0:0:0:
160,128,126205,1,0,0:0:0:0:
352,128,126301,1,8,0:0:0:0:
160,128,126349,1,0,0:0:0:0:
160,128,126397,1,0,0:0:0:0:
352,128,126445,1,8,0:0:0:0:
352,128,126493,1,8,0:0:0:0:
160,128,126541,1,0,0:0:0:0:
160,128,126589,1,0,0:0:0:0:
160,128,126637,1,0,0:0:0:0:
160,128,126685,1,0,0:0:0:0:
352,128,126733,1,8,0:0:0:0:
160,128,126973,1,0,0:0:0:0:
160,128,127693,1,0,0:0:0:0:
160,128,127933,1,0,0:0:0:0:
160,128,128653,1,0,0:0:0:0:
160,128,128893,1,0,0:0:0:0:
160,128,129613,1,0,0:0:0:0:
160,128,129709,1,0,0:0:0:0:
352,128,129805,1,8,0:0:0:0:
352,128,129901,1,8,0:0:0:0:
352,128,129997,1,8,0:0:0:0:
160,128,130093,1,0,0:0:0:0:
352,128,130189,1,8,0:0:0:0:
352,128,130237,1,8,0:0:0:0:
160,128,130285,1,0,0:0:0:0:
160,128,130333,1,0,0:0:0:0:
352,128,130381,1,8,0:0:0:0:
352,128,130429,1,8,0:0:0:0:
352,128,130477,1,8,0:0:0:0:
160,128,130573,1,0,0:0:0:0:
352,128,130669,1,8,0:0:0:0:
352,128,130765,1,8,0:0:0:0:
160,128,130813,1,0,0:0:0:0:
352,128,130861,1,8,0:0:0:0:
160,128,130957,1,0,0:0:0:0:
160,128,131005,1,0,0:0:0:0:
352,128,131053,1,8,0:0:0:0:
160,128,131149,1,0,0:0:0:0:
160,128,131197,1,0,0:0:0:0:
352,128,131245,1,8,0:0:0:0:
352,128,131341,1,8,0:0:0:0:
352,128,131437,1,8,0:0:0:0:
160,128,131533,1,0,0:0:0:0:
352,128,131629,1,8,0:0:0:0:
352,128,131725,1,8,0:0:0:0:
160,128,131773,1,0,0:0:0:0:
352,128,131821,1,8,0:0:0:0:
352,128,131869,1,8,0:0:0:0:
160,128,131965,1,0,0:0:0:0:
352,128,132013,1,8,0:0:0:0:
160,128,132109,1,0,0:0:0:0:
352,128,132157,1,8,0:0:0:0:
160,128,132253,1,0,0:0:0:0:
352,128,132301,1,8,0:0:0:0:
160,128,132349,1,0,0:0:0:0:
352,128,132397,1,8,0:0:0:0:
352,128,132445,1,8,0:0:0:0:
160,128,132493,1,0,0:0:0:0:
160,128,132589,1,0,0:0:0:0:
352,128,132685,1,8,0:0:0:0:
160,128,132733,1,8,0:0:0:0:
160,128,132781,1,0,0:0:0:0:
160,128,132829,1,0,0:0:0:0:
352,128,132877,1,8,0:0:0:0:
352,128,132973,1,8,0:0:0:0:
352,128,133021,1,8,0:0:0:0:
160,128,133069,1,0,0:0:0:0:
352,128,133117,1,8,0:0:0:0:
160,128,133165,1,0,0:0:0:0:
160,128,133213,1,0,0:0:0:0:
352,128,133261,1,8,0:0:0:0:
352,128,133309,1,8,0:0:0:0:
160,128,133357,1,0,0:0:0:0:
160,128,133453,1,0,0:0:0:0:
352,128,133549,1,8,0:0:0:0:
352,128,133597,1,8,0:0:0:0:
160,128,133645,1,0,0:0:0:0:
160,128,133693,1,0,0:0:0:0:
352,128,133757,1,8,0:0:0:0:
352,128,133821,1,8,0:0:0:0:
160,128,133885,1,0,0:0:0:0:
352,128,133981,1,8,0:0:0:0:
160,128,134029,1,0,0:0:0:0:
160,128,134077,1,0,0:0:0:0:
352,128,134125,1,8,0:0:0:0:
352,128,134173,1,8,0:0:0:0:
160,128,134221,1,0,0:0:0:0:
160,128,134269,1,0,0:0:0:0:
160,128,134317,1,0,0:0:0:0:
160,128,134365,1,0,0:0:0:0:
352,128,134413,1,8,0:0:0:0:
352,128,134961,1,8,0:0:0:0:
352,128,135510,1,8,0:0:0:0:
352,128,136058,1,8,0:0:0:0:
352,128,136607,1,8,0:0:0:0:
352,128,137155,1,8,0:0:0:0:
352,128,137704,1,8,0:0:0:0:
