osu file format v14

[General]
AudioFilename: audio.mp3
AudioLeadIn: 0
PreviewTime: 92173
Countdown: 0
SampleSet: Normal
StackLeniency: 0.7
Mode: 1
LetterboxInBreaks: 0
WidescreenStoryboard: 1

[Editor]
Bookmarks: 1995,19276,49996
DistanceSpacing: 1
BeatDivisor: 5
GridSize: 32
TimelineZoom: 3.199999

[Metadata]
Title:Ka
TitleUnicode:彁
Artist:LeaF
ArtistUnicode:LeaF
Creator:Eyenine
Version:Futsuu
Source:太鼓の達人
Tags:か instrumental electronic video game taiko no tatsujin ニジイロver nijiiro ver fiz polyrhythm
BeatmapID:3210876
BeatmapSetID:1530955

[Difficulty]
HPDrainRate:7
CircleSize:5
OverallDifficulty:4
ApproachRate:7
SliderMultiplier:1.4
SliderTickRate:1

[Events]
//Background and Video events
0,0,"hutuu.jpg",0,40
//Break Periods
//Storyboard Layer 0 (Background)
//Storyboard Layer 1 (Fail)
//Storyboard Layer 2 (Pass)
//Storyboard Layer 3 (Foreground)
//Storyboard Layer 4 (Overlay)
//Storyboard Sound Samples

[TimingPoints]
13,480,4,1,0,20,1,8
13,-100,4,1,0,20,0,0
672,-100,4,1,0,30,0,0
852,-100,4,1,0,40,0,0
1032,-100,4,1,0,50,0,0
1212,-100,4,1,0,60,0,0
1392,-100,4,1,0,70,0,0
1572,-100,4,1,0,80,0,0
1933,480,4,1,0,90,1,0
1933,-66.6666666666667,4,1,0,90,0,0
17453,-66.6666666666667,4,1,0,20,0,0
19093,-66.6666666666667,4,1,0,70,0,0
19213,480,8,1,0,70,1,0
22973,-80,6,1,0,80,0,0
23053,-80,6,1,0,80,0,1
25933,-80,6,1,0,80,0,0
26013,-80,6,1,0,20,0,0
26813,-100,6,1,0,70,0,0
30653,-80,6,1,0,80,0,0
30733,-80,6,1,0,80,0,1
33613,-80,6,1,0,80,0,0
33693,-80,6,1,0,20,0,0
34493,-100,6,1,0,70,0,0
38333,-83.3333333333333,8,1,0,70,0,0
46093,-83.3333333333333,2,1,0,70,0,0
46213,-83.3333333333333,5,1,0,70,0,0
46933,-83.3333333333333,5,1,0,70,0,0
47173,-83.3333333333333,5,1,0,70,0,0
47893,-83.3333333333333,5,1,0,70,0,0
48133,-83.3333333333333,5,1,0,70,0,0
48853,-83.3333333333333,5,1,0,70,0,0
49093,-83.3333333333333,5,1,0,70,0,0
49933,480,4,1,0,100,1,1
49933,-57.1428571428571,4,1,0,100,0,1
53773,-57.14285714,4,1,0,100,0,0
57613,-57.1428571428571,4,1,0,100,0,1
61453,-57.14285714,4,1,0,100,0,0
65293,-57.14285714,4,1,0,100,0,1
72013,-57.1428571428571,4,1,0,100,0,0
72973,-57.1428571428571,4,1,0,100,0,1
79773,-57.1428571428571,4,1,0,100,0,1
80653,480,8,1,0,70,1,0
80653,-57.1428571428571,4,1,0,70,0,0
80790,-100,4,1,0,20,0,0
83053,-57.1428571428571,3,1,0,100,0,8
83121,-57.1428571428571,3,1,0,100,0,1
84424,-83.3333333333333,8,1,0,70,0,1
84493,-83.3333333333333,8,1,0,70,0,0
88264,-83.3333333333333,8,1,0,80,0,0
88333,-83.3333333333333,8,1,0,80,0,1
92173,-83.3333333333333,8,1,0,70,0,0
96013,-66.6666666666667,2,1,0,100,0,1
111373,-66.6666666666667,8,1,0,100,0,0
111493,-83.3333333333333,8,1,0,70,0,0
113293,-83.3333333333333,8,1,0,100,0,0
115213,-83.3333333333333,8,1,0,100,0,0
115333,-83.3333333333333,8,1,0,70,0,0
117013,-83.3333333333333,8,1,0,100,0,0
119053,-83.3333333333333,2,1,0,100,0,1
119173,-83.3333333333333,2,1,0,70,0,1
119893,-83.3333333333333,2,1,0,70,0,1
120133,-83.3333333333333,2,1,0,70,0,1
120853,-83.3333333333333,2,1,0,70,0,1
121093,-83.3333333333333,2,1,0,70,0,1
121933,-83.3333333333333,2,1,0,100,0,1
126733,-83.3333333333333,2,1,0,100,0,1
126853,-83.3333333333333,2,1,0,70,0,1
127573,-83.3333333333333,2,1,0,70,0,1
127813,-83.3333333333333,2,1,0,70,0,1
128533,-83.3333333333333,2,1,0,70,0,1
128773,-83.3333333333333,2,1,0,70,0,1
129613,-83.3333333333333,2,1,0,100,0,1
134413,-83.3333333333333,64,1,0,100,0,0
134893,-83.3333333333333,64,1,0,70,0,0
135373,-83.3333333333333,64,1,0,70,0,0
135853,-83.3333333333333,64,1,0,70,0,0
136453,-83.3333333333333,64,1,0,70,0,0
137053,-83.3333333333333,64,1,0,70,0,0
137653,-83.3333333333333,64,1,0,70,0,0

[HitObjects]
256,192,301,8,0,1741,0:0:0:0:
160,128,1933,5,0,0:0:0:0:
352,128,2413,1,8,0:0:0:0:
160,128,2893,1,0,0:0:0:0:
160,128,3133,1,0,0:0:0:0:
352,128,3373,1,8,0:0:0:0:
160,128,3613,1,0,0:0:0:0:
352,128,3853,1,8,0:0:0:0:
352,128,4813,1,8,0:0:0:0:
160,128,5773,1,0,0:0:0:0:
352,128,6047,1,8,0:0:0:0:
352,128,6184,1,8,0:0:0:0:
160,128,6321,1,0,0:0:0:0:
160,128,6595,1,0,0:0:0:0:
352,128,6870,1,8,0:0:0:0:
352,128,7144,1,8,0:0:0:0:
352,128,7418,1,8,0:0:0:0:
160,128,7693,1,0,0:0:0:0:
352,128,7885,1,8,0:0:0:0:
352,128,8269,1,8,0:0:0:0:
352,128,8461,1,8,0:0:0:0:
160,128,8653,1,0,0:0:0:0:
160,128,9613,1,0,0:0:0:0:
352,128,9887,1,8,0:0:0:0:
352,128,10024,1,8,0:0:0:0:
160,128,10161,1,0,0:0:0:0:
160,128,10435,1,0,0:0:0:0:
352,128,10710,1,8,0:0:0:0:
352,128,10984,1,8,0:0:0:0:
352,128,11258,1,8,0:0:0:0:
160,128,11533,1,0,0:0:0:0:
352,128,11725,1,8,0:0:0:0:
352,128,12109,1,8,0:0:0:0:
352,128,12301,1,8,0:0:0:0:
160,128,12493,1,0,0:0:0:0:
160,128,13453,1,0,0:0:0:0:
352,128,13727,1,8,0:0:0:0:
352,128,13864,1,8,0:0:0:0:
160,128,14001,1,0,0:0:0:0:
160,128,14275,1,0,0:0:0:0:
352,128,14550,1,8,0:0:0:0:
352,128,14824,1,8,0:0:0:0:
352,128,15098,1,8,0:0:0:0:
160,128,15373,1,0,0:0:0:0:
352,128,15565,1,8,0:0:0:0:
352,128,15949,1,8,0:0:0:0:
352,128,16141,1,8,0:0:0:0:
160,128,16333,1,0,0:0:0:0:
160,256,17293,1,4,0:0:0:0:
160,256,19213,1,4,0:0:0:0:
352,128,19693,1,8,0:0:0:0:
352,128,20173,1,8,0:0:0:0:
352,128,20653,1,8,0:0:0:0:
160,128,21133,1,0,0:0:0:0:
160,128,21373,1,0,0:0:0:0:
352,128,21853,1,8,0:0:0:0:
352,128,22093,1,8,0:0:0:0:
160,128,22573,1,0,0:0:0:0:
352,256,23053,1,12,0:0:0:0:
160,128,23437,1,0,0:0:0:0:
352,128,23821,1,8,0:0:0:0:
352,128,24013,1,8,0:0:0:0:
352,128,24397,1,8,0:0:0:0:
160,128,24781,1,0,0:0:0:0:
160,128,24973,1,0,0:0:0:0:
352,128,25357,1,8,0:0:0:0:
352,128,25741,1,8,0:0:0:0:
160,128,25933,1,0,0:0:0:0:
160,256,26893,1,4,0:0:0:0:
352,128,27373,1,8,0:0:0:0:
352,128,27853,1,8,0:0:0:0:
352,128,28333,1,8,0:0:0:0:
160,128,28813,1,0,0:0:0:0:
160,128,29053,1,0,0:0:0:0:
352,128,29533,1,8,0:0:0:0:
352,128,29773,1,8,0:0:0:0:
160,128,30253,1,0,0:0:0:0:
352,256,30733,1,12,0:0:0:0:
160,128,31117,1,0,0:0:0:0:
352,128,31501,1,8,0:0:0:0:
352,128,31693,1,8,0:0:0:0:
352,128,32077,1,8,0:0:0:0:
160,128,32461,1,0,0:0:0:0:
160,128,32653,1,0,0:0:0:0:
352,128,33037,1,8,0:0:0:0:
352,128,33421,1,8,0:0:0:0:
160,128,33613,1,0,0:0:0:0:
160,256,34573,1,4,0:0:0:0:
352,128,35053,1,8,0:0:0:0:
352,128,35533,1,8,0:0:0:0:
352,128,36013,1,8,0:0:0:0:
160,128,36493,1,0,0:0:0:0:
160,128,36733,1,0,0:0:0:0:
352,128,37213,1,8,0:0:0:0:
352,128,37453,1,8,0:0:0:0:
160,128,37933,1,0,0:0:0:0:
160,256,38413,1,4,0:0:0:0:
352,128,38961,1,8,0:0:0:0:
352,128,39510,1,8,0:0:0:0:
352,128,40058,1,8,0:0:0:0:
352,128,40607,1,8,0:0:0:0:
352,128,41155,1,8,0:0:0:0:
352,128,41704,1,8,0:0:0:0:
352,128,42253,1,8,0:0:0:0:
352,128,42801,1,8,0:0:0:0:
352,128,43350,1,8,0:0:0:0:
352,128,43898,1,8,0:0:0:0:
352,128,44447,1,8,0:0:0:0:
352,128,44995,1,8,0:0:0:0:
352,128,45544,1,8,0:0:0:0:
160,128,46093,1,0,0:0:0:0:
352,128,47190,1,8,0:0:0:0:
352,128,48287,1,8,0:0:0:0:
352,128,48835,1,8,0:0:0:0:
352,128,49384,1,8,0:0:0:0:
160,128,49933,1,0,0:0:0:0:
352,128,50207,1,8,0:0:0:0:
160,128,50481,1,0,0:0:0:0:
160,128,50618,1,0,0:0:0:0:
352,128,50755,1,8,0:0:0:0:
160,128,51030,1,0,0:0:0:0:
352,128,51304,1,8,0:0:0:0:
352,128,51441,1,8,0:0:0:0:
160,128,51578,1,0,0:0:0:0:
352,128,51715,1,8,0:0:0:0:
160,128,51853,1,0,0:0:0:0:
160,128,52127,1,0,0:0:0:0:
352,128,52401,1,8,0:0:0:0:
160,128,52675,1,0,0:0:0:0:
160,128,52950,1,0,0:0:0:0:
352,128,53224,1,8,0:0:0:0:
160,128,53361,1,0,0:0:0:0:
352,128,53498,1,8,0:0:0:0:
352,128,53635,1,8,0:0:0:0:
160,128,53773,1,0,0:0:0:0:
160,128,54349,1,0,0:0:0:0:
160,128,54925,1,0,0:0:0:0:
352,128,55213,1,0,0:0:0:0:
352,128,55501,1,8,0:0:0:0:
352,128,55789,1,8,0:0:0:0:
160,128,56077,1,0,0:0:0:0:
160,128,56365,1,0,0:0:0:0:
352,128,56749,1,8,0:0:0:0:
160,128,57613,1,0,0:0:0:0:
352,128,57887,1,8,0:0:0:0:
160,128,58161,1,0,0:0:0:0:
160,128,58298,1,0,0:0:0:0:
352,128,58435,1,8,0:0:0:0:
160,128,58710,1,0,0:0:0:0:
352,128,58984,1,8,0:0:0:0:
352,128,59121,1,8,0:0:0:0:
160,128,59258,1,0,0:0:0:0:
352,128,59395,1,8,0:0:0:0:
160,128,59533,1,0,0:0:0:0:
160,128,59807,1,0,0:0:0:0:
352,128,60081,1,8,0:0:0:0:
160,128,60355,1,0,0:0:0:0:
352,128,60630,1,8,0:0:0:0:
160,128,60904,1,0,0:0:0:0:
160,128,61041,1,0,0:0:0:0:
352,128,61178,1,8,0:0:0:0:
352,128,61315,1,8,0:0:0:0:
160,128,61453,1,0,0:0:0:0:
160,128,62029,1,0,0:0:0:0:
160,128,62605,1,0,0:0:0:0:
352,128,62893,1,8,0:0:0:0:
352,128,63181,1,8,0:0:0:0:
352,128,63469,1,8,0:0:0:0:
160,128,63757,1,0,0:0:0:0:
160,128,64045,1,0,0:0:0:0:
352,128,64333,1,8,0:0:0:0:
160,128,65293,1,0,0:0:0:0:
352,128,65567,1,8,0:0:0:0:
160,128,65841,1,0,0:0:0:0:
160,128,65978,1,0,0:0:0:0:
352,128,66115,1,8,0:0:0:0:
160,128,66390,1,0,0:0:0:0:
352,128,66664,1,8,0:0:0:0:
160,128,66801,1,0,0:0:0:0:
352,128,66938,1,8,0:0:0:0:
160,128,67213,1,0,0:0:0:0:
352,128,67405,1,8,0:0:0:0:
352,128,67789,1,8,0:0:0:0:
352,128,67981,1,8,0:0:0:0:
160,128,68173,1,0,0:0:0:0:
352,128,68461,1,8,0:0:0:0:
352,128,68653,1,8,0:0:0:0:
352,128,68941,1,8,0:0:0:0:
160,128,69373,1,0,0:0:0:0:
160,128,69661,1,0,0:0:0:0:
352,128,69949,1,8,0:0:0:0:
352,128,70237,1,8,0:0:0:0:
160,128,70525,1,0,0:0:0:0:
352,128,71053,1,8,0:0:0:0:
352,128,71245,1,8,0:0:0:0:
352,128,71629,1,8,0:0:0:0:
160,128,72013,1,0,0:0:0:0:
160,128,72973,1,0,0:0:0:0:
352,128,73247,1,8,0:0:0:0:
160,128,73521,1,0,0:0:0:0:
160,128,73658,1,0,0:0:0:0:
352,128,73795,1,8,0:0:0:0:
160,128,74070,1,0,0:0:0:0:
352,128,74344,1,8,0:0:0:0:
160,128,74481,1,0,0:0:0:0:
352,128,74618,1,8,0:0:0:0:
160,128,74893,1,0,0:0:0:0:
352,128,75085,1,8,0:0:0:0:
352,128,75277,1,8,0:0:0:0:
352,128,75565,1,8,0:0:0:0:
160,128,75853,1,0,0:0:0:0:
352,128,76045,1,8,0:0:0:0:
352,128,76333,1,8,0:0:0:0:
160,128,76957,1,0,0:0:0:0:
160,128,77245,1,0,0:0:0:0:
160,128,77485,1,0,0:0:0:0:
160,128,77773,1,0,0:0:0:0:
352,128,78157,1,8,0:0:0:0:
352,128,78445,1,8,0:0:0:0:
352,128,78733,1,8,0:0:0:0:
352,128,79309,1,8,0:0:0:0:
160,128,79693,1,0,0:0:0:0:
160,128,80653,1,0,0:0:0:0:
160,256,83121,1,4,0:0:0:0:
160,128,84493,5,0,0:0:0:0:
352,128,85041,1,8,0:0:0:0:
160,128,85590,1,0,0:0:0:0:
352,128,86138,1,8,0:0:0:0:
160,128,86687,1,0,0:0:0:0:
352,128,87235,1,8,0:0:0:0:
352,128,87784,1,8,0:0:0:0:
160,256,88333,5,4,0:0:0:0:
352,256,88881,1,12,0:0:0:0:
160,256,89430,1,4,0:0:0:0:
352,256,89978,1,12,0:0:0:0:
160,256,90527,1,4,0:0:0:0:
352,256,91075,1,12,0:0:0:0:
352,256,91624,1,12,0:0:0:0:
352,128,92173,1,8,0:0:0:0:
352,128,93270,1,8,0:0:0:0:
352,128,94367,1,8,0:0:0:0:
352,128,94915,1,8,0:0:0:0:
352,128,95464,1,8,0:0:0:0:
160,256,96013,1,4,0:0:0:0:
160,128,96333,1,0,0:0:0:0:
352,128,96493,1,8,0:0:0:0:
352,128,96813,1,8,0:0:0:0:
160,128,96973,1,0,0:0:0:0:
352,128,97133,1,8,0:0:0:0:
352,128,97293,1,8,0:0:0:0:
352,128,97613,1,8,0:0:0:0:
160,128,97933,1,0,0:0:0:0:
160,128,98093,1,0,0:0:0:0:
352,128,98413,1,8,0:0:0:0:
352,128,98733,1,8,0:0:0:0:
160,128,98893,1,0,0:0:0:0:
352,128,99053,1,8,0:0:0:0:
352,128,99213,1,8,0:0:0:0:
352,128,99853,1,8,0:0:0:0:
160,128,100173,1,0,0:0:0:0:
352,128,100333,1,8,0:0:0:0:
352,128,100653,1,8,0:0:0:0:
160,128,100813,1,0,0:0:0:0:
352,128,100973,1,8,0:0:0:0:
160,128,101133,1,0,0:0:0:0:
352,128,101453,1,8,0:0:0:0:
160,128,101773,1,0,0:0:0:0:
160,128,101933,1,0,0:0:0:0:
160,128,102093,1,0,0:0:0:0:
160,128,102413,1,0,0:0:0:0:
352,128,102573,1,8,0:0:0:0:
160,128,102733,1,0,0:0:0:0:
352,128,103053,1,8,0:0:0:0:
160,128,103693,1,0,0:0:0:0:
352,128,104013,1,8,0:0:0:0:
352,128,104173,1,8,0:0:0:0:
352,128,104493,1,8,0:0:0:0:
160,128,104653,1,0,0:0:0:0:
160,128,104813,1,0,0:0:0:0:
352,128,104973,1,8,0:0:0:0:
352,128,105293,1,8,0:0:0:0:
160,128,105613,1,0,0:0:0:0:
160,128,105773,1,0,0:0:0:0:
352,128,105933,1,8,0:0:0:0:
352,128,106093,1,8,0:0:0:0:
352,128,106413,1,8,0:0:0:0:
160,128,106573,1,0,0:0:0:0:
352,128,106893,1,8,0:0:0:0:
352,128,107533,1,8,0:0:0:0:
160,128,107853,1,0,0:0:0:0:
352,128,108013,1,8,0:0:0:0:
352,128,108333,1,8,0:0:0:0:
160,128,108493,1,0,0:0:0:0:
352,128,108653,1,8,0:0:0:0:
352,128,108813,1,8,0:0:0:0:
352,128,109133,1,8,0:0:0:0:
160,128,109453,1,0,0:0:0:0:
160,128,109613,1,0,0:0:0:0:
352,128,109773,1,8,0:0:0:0:
352,128,109933,1,8,0:0:0:0:
352,128,110253,1,8,0:0:0:0:
160,128,110413,1,0,0:0:0:0:
352,128,110573,1,8,0:0:0:0:
352,128,110733,1,8,0:0:0:0:
352,128,111053,1,8,0:0:0:0:
352,128,111213,1,8,0:0:0:0:
160,128,111373,1,0,0:0:0:0:
160,128,113293,5,0,0:0:0:0:
352,128,113485,1,8,0:0:0:0:
352,128,113869,1,8,0:0:0:0:
352,128,114061,1,8,0:0:0:0:
160,128,114253,1,0,0:0:0:0:
160,128,114541,1,0,0:0:0:0:
352,128,114925,1,8,0:0:0:0:
160,256,115213,1,4,0:0:0:0:
160,128,117133,1,0,0:0:0:0:
352,128,117325,1,8,0:0:0:0:
352,128,117709,1,8,0:0:0:0:
352,128,117901,1,8,0:0:0:0:
160,128,118093,1,0,0:0:0:0:
352,128,118285,1,8,0:0:0:0:
352,128,118669,1,8,0:0:0:0:
352,128,118861,1,8,0:0:0:0:
160,256,119053,1,4,0:0:0:0:
160,128,120013,1,0,0:0:0:0:
160,128,120973,1,0,0:0:0:0:
160,128,121933,1,0,0:0:0:0:
352,128,122125,1,8,0:0:0:0:
352,128,122509,1,8,0:0:0:0:
352,128,122701,1,8,0:0:0:0:
160,128,122893,1,0,0:0:0:0:
352,128,123085,1,8,0:0:0:0:
352,128,123469,1,8,0:0:0:0:
160,128,123853,1,0,0:0:0:0:
352,128,124045,1,8,0:0:0:0:
352,128,124429,1,8,0:0:0:0:
352,128,124621,1,8,0:0:0:0:
160,128,124813,1,0,0:0:0:0:
352,128,125005,1,8,0:0:0:0:
352,128,125389,1,8,0:0:0:0:
160,128,125773,1,0,0:0:0:0:
352,128,125965,1,8,0:0:0:0:
160,128,126349,1,0,0:0:0:0:
352,128,126541,1,8,0:0:0:0:
160,128,126733,1,0,0:0:0:0:
160,128,127693,1,0,0:0:0:0:
160,128,128653,1,0,0:0:0:0:
160,128,129613,1,0,0:0:0:0:
352,128,129805,1,8,0:0:0:0:
352,128,130189,1,8,0:0:0:0:
352,128,130381,1,8,0:0:0:0:
160,128,130573,1,0,0:0:0:0:
352,128,130765,1,8,0:0:0:0:
352,128,131149,1,8,0:0:0:0:
160,128,131533,1,0,0:0:0:0:
352,128,131725,1,8,0:0:0:0:
352,128,132109,1,8,0:0:0:0:
352,128,132301,1,8,0:0:0:0:
160,128,132493,1,0,0:0:0:0:
352,128,132685,1,8,0:0:0:0:
352,128,133069,1,8,0:0:0:0:
160,128,133453,1,0,0:0:0:0:
352,128,133645,1,8,0:0:0:0:
160,128,134029,1,0,0:0:0:0:
160,128,134221,1,0,0:0:0:0:
352,128,134413,1,8,0:0:0:0:
352,128,134961,1,8,0:0:0:0:
352,128,135510,1,8,0:0:0:0:
352,128,136058,1,8,0:0:0:0:
352,128,136607,1,8,0:0:0:0:
352,128,137155,1,8,0:0:0:0:
352,128,137704,1,8,0:0:0:0:
