osu file format v14

[General]
AudioFilename: I_leaf.mp3
AudioLeadIn: 0
PreviewTime: 118695
Countdown: 0
SampleSet: None
StackLeniency: 0.7
Mode: 3
LetterboxInBreaks: 0
SpecialStyle: 0
WidescreenStoryboard: 1

[Editor]
DistanceSpacing: 2
BeatDivisor: 3
GridSize: 4
TimelineZoom: 2

[Metadata]
Title:I
TitleUnicode:I
Artist:LeaF
ArtistUnicode:LeaF
Creator:Tidek
Version:Normal
Source:BMS
Tags:of fighters SV _underjoy TheZiemniaX
BeatmapID:928340
BeatmapSetID:426638

[Difficulty]
HPDrainRate:8
CircleSize:4
OverallDifficulty:7.5
ApproachRate:5
SliderMultiplier:1.4
SliderTickRate:1

[Events]
//Background and Video events
0,0,"Normal.jpg",0,0
//Break Periods
//Storyboard Layer 0 (Background)
//Storyboard Layer 1 (Fail)
//Storyboard Layer 2 (Pass)
//Storyboard Layer 3 (Foreground)
//Storyboard Sound Samples

[TimingPoints]
557,272.727272727273,3,3,1,40,1,0
557,-78.7401574803149,3,3,1,40,0,0
2738,272.727272727273,4,3,1,40,1,0
2738,-78.7401574803149,4,3,1,40,0,0
3283,-78.7401574803149,4,2,0,25,0,0
19101,250,4,3,1,40,1,0
19101,-86.2068965517241,4,3,1,40,0,0
21851,272.727272727273,4,3,1,40,1,0
21851,-78.7401574803149,4,3,1,40,0,0
22123,250,4,3,1,40,1,0
22123,-86.2068965517241,4,3,1,40,0,0
22873,272.727272727273,4,3,1,40,1,0
22873,-78.7401574803149,4,3,1,40,0,0
23282,250,4,3,1,40,1,0
23282,-86.2068965517241,4,3,1,40,0,0
23657,272.727272727273,4,3,1,40,1,0
23657,-78.7401574803149,4,3,1,40,0,0
24202,250,4,3,1,40,1,0
24202,-86.2068965517241,4,3,1,40,0,0
26202,272.727272727273,4,3,1,40,1,0
26202,-78.7401574803149,4,3,1,40,0,0
26474,250,4,3,1,40,1,0
26474,-86.2068965517241,4,3,1,40,0,0
27224,250,4,3,1,40,1,0
27224,-86.2068965517241,4,3,1,40,0,0
35724,260.869565217391,4,3,1,40,1,0
35724,-81.9672131147541,4,3,1,40,0,0
35984,272.727272727273,4,3,1,40,1,0
35984,-78.7401574803149,4,3,1,40,0,0
36256,285.714285714286,4,3,1,40,1,0
36256,-75.187969924812,4,3,1,40,0,0
36541,300,4,3,1,40,1,0
36541,-71.4285714285714,4,3,1,40,0,0
36841,315.789473684211,4,3,1,40,1,0
36841,-68.0272108843537,4,3,1,40,0,0
37156,333.333333333333,4,3,1,40,1,0
37156,-64.5161290322581,4,3,1,40,0,0
37489,272.727272727273,4,3,1,40,1,0
37489,-78.7401574803149,4,3,1,40,0,0
38034,272.727272727273,4,3,1,35,1,0
38034,-78.7401574803149,4,3,1,35,0,0
46761,-78.7401574803149,4,3,1,40,0,0
55489,266.666666666667,7,3,1,40,1,0
55489,-80.6451612903226,7,3,1,40,0,0
62955,260.869565217391,7,3,1,40,1,0
62955,-81.9672131147541,7,3,1,40,0,0
70259,300,4,3,1,40,1,0
70259,-71.4285714285714,4,3,1,40,0,0
71459,285.714285714286,4,2,0,25,1,0
71459,-75.187969924812,4,2,0,25,0,0
72316,272.727272727273,4,2,0,25,1,0
72316,-78.7401574803149,4,2,0,25,0,0
73406,260.869565217391,4,2,0,25,1,0
73406,-81.9672131147541,4,2,0,25,0,0
74188,250,4,2,1,25,1,0
74188,-86.2068965517241,4,2,1,25,0,0
75188,240,4,2,1,25,1,0
75188,-89.2857142857143,4,2,1,25,0,0
75908,230.769230769231,4,2,1,25,1,0
75908,-92.5925925925926,4,2,1,25,0,0
76831,222.222222222222,4,2,1,25,1,0
76831,-96.1538461538461,4,2,1,25,0,0
77108,-96.1538461538461,4,3,1,40,0,0
77719,214.285714285714,4,3,1,40,1,0
80504,230.769230769231,4,3,1,40,1,0
80504,-92.5925925925926,4,3,1,40,0,0
80965,214.285714285714,4,3,1,40,1,0
83750,230.769230769231,4,3,1,40,1,0
83750,-92.5925925925926,4,3,1,40,0,0
84211,214.285714285714,4,3,1,40,1,0
87425,214.285714285714,4,3,1,40,1,0
90639,272.727272727273,4,3,1,40,1,0
90639,-78.7401574803149,4,3,1,40,0,0
92820,272.727272727273,4,2,1,25,1,0
92820,-78.7401574803149,4,2,1,25,0,0
101548,214.285714285714,4,3,1,45,1,0
102405,-100,4,3,1,45,0,1
115267,214.285714285714,4,3,1,40,1,0
119767,230.769230769231,4,3,1,40,1,0
119767,-92.5925925925926,4,3,1,40,0,0
120228,214.285714285714,4,3,1,40,1,0
120656,230.769230769231,4,3,1,40,1,0
120656,-92.5925925925926,4,3,1,40,0,0
121117,214.285714285714,4,3,1,40,1,0
121331,230.769230769231,4,3,1,40,1,0
121331,-92.5925925925926,4,3,1,40,0,0
121792,214.285714285714,4,3,1,40,1,0
122649,230.769230769231,4,3,1,40,1,0
122649,-92.5925925925926,4,3,1,40,0,0
123110,214.285714285714,4,3,1,40,1,0
123324,230.769230769231,4,3,1,40,1,0
123324,-92.5925925925926,4,3,1,40,0,0
123670,214.285714285714,4,3,1,40,1,0
123991,230.769230769231,4,3,1,40,1,0
123991,-92.5925925925926,4,3,1,40,0,0
124452,214.285714285714,4,3,1,40,1,0
125952,230.769230769231,4,3,1,40,1,0
125952,-92.5925925925926,4,3,1,40,0,0
126298,214.285714285714,4,3,1,40,1,0
126619,230.769230769231,4,3,1,40,1,0
126619,-92.5925925925926,4,3,1,40,0,0
126965,214.285714285714,4,3,1,40,1,0
127072,230.769230769231,4,3,1,40,1,0
127072,-92.5925925925926,4,3,1,40,0,0
127418,214.285714285714,4,3,1,40,1,0
127953,230.769230769231,4,3,1,40,1,0
127953,-92.5925925925926,4,3,1,40,0,0
128414,214.285714285714,4,3,1,40,1,0
128628,230.769230769231,4,3,1,40,1,0
128628,-92.5925925925926,4,3,1,40,0,0
129320,214.285714285714,4,3,1,40,1,0
129534,230.769230769231,4,3,1,40,1,0
129534,-92.5925925925926,4,3,1,40,0,0
129880,214.285714285714,4,3,1,40,1,0
130201,230.769230769231,4,3,1,40,1,0
130201,-92.5925925925926,4,3,1,40,0,0
130547,214.285714285714,4,3,1,40,1,0
131082,230.769230769231,4,3,1,40,1,0
131082,-92.5925925925926,4,3,1,40,0,0
131428,214.285714285714,4,3,1,40,1,0
131535,230.769230769231,4,3,1,40,1,0
131535,-92.5925925925926,4,3,1,40,0,0
131881,214.285714285714,4,3,1,40,1,0
132421,214.285714285714,4,3,1,40,1,0
135421,-100,4,3,1,45,0,1
151059,250,4,3,1,45,1,0
151059,-86.2068965517241,4,3,1,45,0,0

[HitObjects]
64,192,557,5,4,0:0:0:0:
192,192,557,1,8,0:0:0:0:
448,192,693,1,4,0:0:0:0:
192,192,966,1,4,0:0:0:0:
320,192,966,1,8,0:0:0:0:
64,192,1102,1,4,0:0:0:0:
320,192,1375,1,8,0:0:0:0:
448,192,1375,1,4,0:0:0:0:
64,192,1511,1,4,0:0:0:0:
192,192,1784,1,4,0:0:0:0:
320,192,1784,1,8,0:0:0:0:
448,192,1920,1,4,0:0:0:0:
64,192,2193,1,4,0:0:0:0:
192,192,2193,1,8,0:0:0:0:
448,192,2329,1,4,0:0:0:0:
64,192,2466,128,0,2738:0:0:0:0:
320,192,2738,1,4,0:1:0:0:
448,192,2738,1,0,0:0:0:0:
448,192,3283,1,0,0:0:0:0:
320,192,3828,1,2,0:0:0:0:
192,192,4374,1,0,0:0:0:0:
64,192,4919,1,2,0:0:0:0:
320,192,6010,1,2,0:0:0:0:
64,192,7101,1,2,0:0:0:0:
192,192,7101,1,0,0:0:0:0:
448,192,7647,1,0,0:0:0:0:
320,192,8192,1,2,0:0:0:0:
192,192,8738,1,2,0:0:0:0:
64,192,9283,1,2,0:0:0:0:
320,192,10374,1,2,0:0:0:0:
64,192,11465,1,2,0:0:0:0:
192,192,11465,1,0,0:0:0:0:
448,192,12010,128,2,12556:0:0:0:0:
320,192,12556,128,2,13101:0:0:0:0:
192,192,13101,128,2,13647:0:0:0:0:
64,192,13647,128,2,14738:0:0:0:0:
320,192,14738,128,2,15828:0:0:0:0:
64,192,15828,1,0,0:0:0:0:
192,192,15828,1,0,0:0:0:0:
448,192,16374,128,2,16919:0:0:0:0:
320,192,16919,128,2,17465:0:0:0:0:
192,192,17465,128,2,18010:0:0:0:0:
64,192,18010,128,2,19101:0:0:0:0:
320,192,19101,1,4,0:1:0:0:
448,192,19101,1,0,0:0:0:0:
192,192,19351,1,4,0:1:0:0:
448,192,19351,1,8,0:0:0:0:
64,192,19601,1,8,0:0:0:0:
320,192,19601,1,4,0:1:0:0:
64,192,19851,1,8,0:0:0:0:
192,192,19851,1,4,0:1:0:0:
64,192,20101,1,4,0:1:0:0:
448,192,20101,1,8,0:0:0:0:
320,192,20351,1,8,0:0:0:0:
192,192,20601,1,8,0:0:0:0:
448,192,20726,1,8,0:0:0:0:
64,192,20851,1,8,0:0:0:0:
320,192,21101,1,8,0:0:0:0:
64,192,21226,1,8,0:0:0:0:
448,192,21351,1,8,0:0:0:0:
192,192,21601,1,8,0:0:0:0:
320,192,21851,128,0,22123:0:0:0:0:
64,192,22123,1,8,0:0:0:0:
192,192,22248,1,8,0:0:0:0:
320,192,22373,1,8,0:0:0:0:
448,192,22498,1,8,0:0:0:0:
64,192,22623,1,8,0:0:0:0:
192,192,22873,128,8,23282:0:0:0:0:
448,192,23282,1,8,0:0:0:0:
320,192,23407,1,8,0:0:0:0:
192,192,23532,1,8,0:0:0:0:
64,192,23657,128,2,24202:0:0:0:0:
448,192,24202,1,8,0:0:0:0:
192,192,24452,1,8,0:0:0:0:
320,192,24702,1,8,0:0:0:0:
64,192,24952,1,8,0:0:0:0:
448,192,25077,1,8,0:0:0:0:
192,192,25202,1,8,0:0:0:0:
448,192,25452,1,8,0:0:0:0:
64,192,25577,1,8,0:0:0:0:
320,192,25702,1,8,0:0:0:0:
192,192,25952,1,8,0:0:0:0:
448,192,26202,128,0,26474:0:0:0:0:
64,192,26474,1,8,0:0:0:0:
320,192,26724,1,8,0:0:0:0:
192,192,26974,1,8,0:0:0:0:
448,192,27099,1,8,0:0:0:0:
64,192,27224,1,8,0:0:0:0:
320,192,27474,1,8,0:0:0:0:
64,192,27599,1,8,0:0:0:0:
448,192,27724,128,8,28224:0:0:0:0:
64,192,27974,128,0,28224:0:0:0:0:
192,192,28224,1,8,0:0:0:0:
320,192,28224,1,4,0:1:0:0:
448,192,28474,1,8,0:0:0:0:
192,192,28724,1,8,0:0:0:0:
320,192,28849,1,8,0:0:0:0:
64,192,28974,1,8,0:0:0:0:
320,192,29224,1,8,0:0:0:0:
192,192,29349,1,8,0:0:0:0:
448,192,29474,1,8,0:0:0:0:
64,192,29724,1,8,0:0:0:0:
448,192,29974,1,8,0:0:0:0:
64,192,30224,1,8,0:0:0:0:
320,192,30349,1,8,0:0:0:0:
192,192,30474,1,8,0:0:0:0:
448,192,30599,1,8,0:0:0:0:
64,192,30724,1,8,0:0:0:0:
448,192,30974,1,8,0:0:0:0:
192,192,31224,1,8,0:0:0:0:
320,192,31349,1,8,0:0:0:0:
64,192,31474,1,8,0:0:0:0:
192,192,31724,1,8,0:0:0:0:
320,192,31974,1,8,0:0:0:0:
448,192,32224,1,8,0:0:0:0:
192,192,32474,1,8,0:0:0:0:
320,192,32724,1,8,0:0:0:0:
64,192,32974,1,8,0:0:0:0:
320,192,33099,1,8,0:0:0:0:
192,192,33224,1,8,0:0:0:0:
448,192,33474,1,8,0:0:0:0:
192,192,33599,1,8,0:0:0:0:
320,192,33724,1,8,0:0:0:0:
64,192,33974,1,8,0:0:0:0:
448,192,34224,1,8,0:0:0:0:
192,192,34349,1,8,0:0:0:0:
320,192,34474,1,8,0:0:0:0:
64,192,34599,1,8,0:0:0:0:
320,192,34724,1,8,0:0:0:0:
192,192,34849,1,8,0:0:0:0:
448,192,34974,1,8,0:0:0:0:
192,192,35099,1,8,0:0:0:0:
320,192,35224,1,8,0:0:0:0:
64,192,35349,1,8,0:0:0:0:
320,192,35474,1,8,0:0:0:0:
192,192,35599,1,8,0:0:0:0:
448,192,35724,128,0,35984:0:0:0:0:
320,192,35984,128,0,36256:0:0:0:0:
64,192,36256,128,0,36541:0:0:0:0:
192,192,36541,128,0,36841:0:0:0:0:
448,192,36841,128,0,37156:0:0:0:0:
320,192,37156,128,0,37489:0:0:0:0:
64,192,37489,1,4,0:1:0:0:
448,192,37489,1,4,0:0:0:0:
192,192,37761,1,4,1:0:0:0:
320,192,37761,1,4,0:0:0:0:
448,192,38034,1,4,0:1:0:0:
64,192,38034,128,4,38306:0:0:0:0:
448,192,38306,1,8,0:0:0:0:
192,192,38443,128,0,38715:0:0:0:0:
320,192,38715,1,0,0:0:0:0:
64,192,38852,128,8,39124:0:0:0:0:
448,192,39124,1,8,0:0:0:0:
192,192,39261,128,0,39534:0:0:0:0:
320,192,39534,1,0,0:0:0:0:
64,192,39670,128,8,39943:0:0:0:0:
192,192,39943,128,8,40215:0:0:0:0:
448,192,40215,128,8,40488:0:0:0:0:
64,192,40488,1,8,0:0:0:0:
320,192,40624,128,0,40897:0:0:0:0:
192,192,40897,1,0,0:0:0:0:
448,192,41034,128,8,41306:0:0:0:0:
64,192,41306,1,8,0:0:0:0:
320,192,41443,128,0,41715:0:0:0:0:
192,192,41715,1,0,0:0:0:0:
448,192,41852,128,8,42124:0:0:0:0:
320,192,42124,128,8,42397:0:0:0:0:
448,192,42397,1,8,0:0:0:0:
64,192,42397,128,0,42670:0:0:0:0:
320,192,42670,1,8,0:0:0:0:
192,192,42806,128,0,43079:0:0:0:0:
448,192,43079,1,0,0:0:0:0:
64,192,43215,128,8,43488:0:0:0:0:
320,192,43488,1,8,0:0:0:0:
192,192,43624,128,0,43897:0:0:0:0:
448,192,43897,1,0,0:0:0:0:
64,192,44034,128,8,44306:0:0:0:0:
192,192,44306,128,8,44579:0:0:0:0:
448,192,44579,128,8,44852:0:0:0:0:
192,192,44852,1,8,0:0:0:0:
320,192,44988,128,0,45261:0:0:0:0:
64,192,45261,1,0,0:0:0:0:
448,192,45397,128,8,45670:0:0:0:0:
192,192,45670,1,8,0:0:0:0:
320,192,45806,128,0,46079:0:0:0:0:
64,192,46079,1,0,0:0:0:0:
448,192,46215,128,8,46488:0:0:0:0:
320,192,46488,128,8,46761:0:0:0:0:
64,192,46761,1,8,0:0:0:0:
192,192,46761,1,4,0:1:0:0:
448,192,47034,1,8,0:0:0:0:
64,192,47306,1,8,0:0:0:0:
320,192,47579,1,8,0:0:0:0:
192,192,47852,1,8,0:0:0:0:
448,192,48124,1,8,0:0:0:0:
64,192,48397,1,8,0:0:0:0:
320,192,48534,1,0,2:0:0:0:
192,192,48670,1,8,0:0:0:0:
320,192,48806,1,0,2:0:0:0:
448,192,48943,1,8,0:0:0:0:
64,192,49215,1,8,0:0:0:0:
320,192,49488,1,8,0:0:0:0:
192,192,49761,1,8,0:0:0:0:
448,192,50034,1,8,0:0:0:0:
192,192,50306,1,8,0:0:0:0:
320,192,50579,1,8,0:0:0:0:
64,192,50852,1,8,0:0:0:0:
320,192,51124,1,8,0:0:0:0:
448,192,51124,1,0,0:0:0:0:
192,192,51397,1,8,0:0:0:0:
320,192,51670,1,8,0:0:0:0:
64,192,51943,1,8,0:0:0:0:
448,192,52215,1,8,0:0:0:0:
192,192,52488,1,8,0:0:0:0:
320,192,52761,1,8,0:0:0:0:
64,192,52897,1,0,2:0:0:0:
192,192,53034,1,8,0:0:0:0:
320,192,53170,1,0,2:0:0:0:
448,192,53306,1,8,0:0:0:0:
64,192,53579,1,8,0:0:0:0:
320,192,53852,1,8,0:0:0:0:
192,192,54124,1,8,0:0:0:0:
448,192,54397,1,8,0:0:0:0:
64,192,54670,1,8,0:0:0:0:
448,192,54943,1,4,0:1:0:0:
320,192,54943,1,8,0:0:0:0:
64,192,55215,1,4,0:1:0:0:
192,192,55215,1,0,0:0:0:0:
64,192,55488,1,4,0:1:0:0:
448,192,55489,1,8,0:0:0:0:
320,192,55755,1,8,0:0:0:0:
64,192,56022,1,8,0:0:0:0:
192,192,56289,1,8,0:0:0:0:
448,192,56555,1,8,0:0:0:0:
320,192,56822,1,8,0:0:0:0:
64,192,57089,1,8,0:0:0:0:
192,192,57355,1,8,0:0:0:0:
448,192,57622,1,8,0:0:0:0:
64,192,57755,1,8,0:0:0:0:
448,192,57889,1,8,0:0:0:0:
64,192,58022,1,8,0:0:0:0:
448,192,58155,1,8,0:0:0:0:
320,192,58422,1,8,0:0:0:0:
192,192,58555,1,8,0:0:0:0:
448,192,58689,1,8,0:0:0:0:
64,192,58822,1,8,0:0:0:0:
448,192,58955,1,8,0:0:0:0:
64,192,59089,1,8,0:0:0:0:
320,192,59222,1,8,0:0:0:0:
448,192,59222,1,4,0:1:0:0:
192,192,59489,1,8,0:0:0:0:
64,192,59755,1,8,0:0:0:0:
320,192,60022,1,8,0:0:0:0:
448,192,60289,1,8,0:0:0:0:
192,192,60555,1,8,0:0:0:0:
64,192,60822,1,8,0:0:0:0:
320,192,61089,1,8,0:0:0:0:
192,192,61355,1,8,0:0:0:0:
320,192,61489,1,8,0:0:0:0:
64,192,61755,1,8,0:0:0:0:
192,192,61889,1,8,0:0:0:0:
320,192,62022,1,8,0:0:0:0:
448,192,62155,1,8,0:0:0:0:
64,192,62289,1,8,0:0:0:0:
320,192,62422,128,0,62555:0:0:0:0:
192,192,62689,128,0,62822:0:0:0:0:
64,192,62955,1,4,0:1:0:0:
448,192,62955,1,8,0:0:0:0:
320,192,63085,1,0,0:0:0:0:
192,192,63215,1,8,0:0:0:0:
64,192,63346,128,0,63476:2:0:0:0:
320,192,63607,128,0,63737:2:0:0:0:
192,192,63868,128,0,63998:2:0:0:0:
448,192,64128,128,0,64259:2:0:0:0:
64,192,64389,1,0,2:0:0:0:
192,192,64520,1,8,0:0:0:0:
320,192,64650,1,0,2:0:0:0:
448,192,64781,128,8,64911:0:0:0:0:
320,192,64911,128,0,65041:2:0:0:0:
64,192,65041,1,8,0:0:0:0:
448,192,65172,1,8,0:0:0:0:
64,192,65302,1,8,0:0:0:0:
448,192,65433,1,8,0:0:0:0:
64,192,65563,1,8,0:0:0:0:
192,192,65824,1,8,0:0:0:0:
320,192,65955,1,8,0:0:0:0:
64,192,66085,1,8,0:0:0:0:
448,192,66215,1,8,0:0:0:0:
64,192,66346,1,8,0:0:0:0:
448,192,66476,1,8,0:0:0:0:
64,192,66607,1,4,0:1:0:0:
192,192,66607,1,8,0:0:0:0:
320,192,66737,1,0,0:0:0:0:
192,192,66868,1,8,0:0:0:0:
448,192,66998,128,0,67128:2:0:0:0:
320,192,67259,128,0,67389:2:0:0:0:
192,192,67520,128,0,67650:2:0:0:0:
64,192,67781,128,0,67911:2:0:0:0:
448,192,68041,1,0,2:0:0:0:
192,192,68172,1,8,0:0:0:0:
320,192,68302,1,0,2:0:0:0:
64,192,68433,128,8,68563:0:0:0:0:
320,192,68563,128,8,68694:0:0:0:0:
64,192,68694,1,8,0:0:0:0:
448,192,68824,1,8,0:0:0:0:
64,192,68955,1,8,0:0:0:0:
448,192,69085,1,8,0:0:0:0:
64,192,69215,1,8,0:0:0:0:
320,192,69476,1,8,0:0:0:0:
192,192,69607,1,8,0:0:0:0:
448,192,69737,128,0,69868:0:0:0:0:
64,192,69998,128,0,70259:0:0:0:0:
448,192,70259,128,8,74188:0:0:0:0:
320,192,70259,128,4,72316:0:1:0:0:
64,192,74188,1,8,0:3:0:0:
448,192,74438,1,8,0:3:0:0:
64,192,74688,1,8,0:3:0:0:
448,192,74938,1,8,0:3:0:0:
64,192,75188,1,8,0:3:0:0:
448,192,75428,1,8,0:3:0:0:
64,192,75668,1,8,0:3:0:0:
448,192,75908,1,8,0:3:0:0:
192,192,76023,1,8,0:3:0:0:
320,192,76138,1,8,0:3:0:0:
64,192,76254,1,8,0:3:0:0:
448,192,76369,1,8,0:3:0:0:
192,192,76484,1,8,0:3:0:0:
320,192,76600,1,8,0:3:0:0:
64,192,76715,1,8,0:3:0:0:
448,192,76831,1,8,0:3:0:0:
192,192,76942,1,8,0:3:0:0:
320,192,77053,1,8,0:3:0:0:
64,192,77275,1,4,0:1:0:0:
320,192,77386,1,4,0:1:0:0:
192,192,77497,1,4,0:1:0:0:
448,192,77608,1,4,0:1:0:0:
64,192,77719,1,4,0:1:0:0:
192,192,77933,1,8,0:0:0:0:
448,192,78147,128,0,78361:0:0:0:0:
320,192,78361,1,8,0:0:0:0:
192,192,78469,1,8,0:0:0:0:
64,192,78576,1,8,0:0:0:0:
448,192,78790,1,0,0:0:0:0:
320,192,78897,1,8,0:0:0:0:
192,192,79004,1,8,0:0:0:0:
64,192,79219,1,8,0:0:0:0:
448,192,79433,1,8,0:0:0:0:
64,192,79647,1,8,0:0:0:0:
192,192,79754,1,0,0:0:0:0:
320,192,79861,1,0,0:0:0:0:
448,192,79969,1,8,0:0:0:0:
192,192,80076,1,8,0:0:0:0:
320,192,80183,1,8,0:0:0:0:
64,192,80290,1,8,0:0:0:0:
448,192,80397,1,0,0:0:0:0:
64,192,80965,1,8,0:0:0:0:
448,192,80965,1,4,0:1:0:0:
192,192,81179,1,8,0:0:0:0:
448,192,81393,128,0,81607:0:0:0:0:
320,192,81607,1,8,0:0:0:0:
192,192,81715,1,8,0:0:0:0:
64,192,81822,1,8,0:0:0:0:
448,192,82036,1,0,0:0:0:0:
320,192,82143,1,8,0:0:0:0:
192,192,82250,1,8,0:0:0:0:
64,192,82465,1,8,0:0:0:0:
448,192,82679,1,8,0:0:0:0:
64,192,82893,1,8,0:0:0:0:
192,192,83000,1,0,0:0:0:0:
320,192,83107,1,0,0:0:0:0:
448,192,83215,1,8,0:0:0:0:
192,192,83322,1,8,0:0:0:0:
320,192,83429,1,8,0:0:0:0:
64,192,83536,1,8,0:0:0:0:
448,192,83643,1,0,0:0:0:0:
64,192,84211,1,8,0:0:0:0:
448,192,84211,1,4,0:1:0:0:
320,192,84425,1,8,0:0:0:0:
64,192,84532,1,8,0:0:0:0:
448,192,84639,1,8,0:0:0:0:
192,192,84853,1,4,0:0:0:0:
448,192,84961,1,4,0:0:0:0:
64,192,85068,1,4,0:0:0:0:
192,192,85068,1,0,0:0:0:0:
448,192,85282,1,4,0:0:0:0:
320,192,85282,1,0,0:0:0:0:
64,192,85496,1,8,0:0:0:0:
192,192,85603,1,8,0:0:0:0:
320,192,85711,1,0,0:0:0:0:
192,192,85925,1,8,0:0:0:0:
320,192,86032,1,8,0:0:0:0:
448,192,86139,1,0,0:0:0:0:
64,192,86246,1,8,0:0:0:0:
192,192,86353,1,8,0:0:0:0:
320,192,86461,1,8,0:0:0:0:
448,192,86568,1,0,0:0:0:0:
192,192,86675,1,8,0:0:0:0:
320,192,86782,1,8,0:0:0:0:
64,192,86889,1,8,0:0:0:0:
320,192,86996,1,8,0:0:0:0:
448,192,86996,1,4,0:1:0:0:
64,192,87211,1,4,0:1:0:0:
192,192,87211,1,0,0:0:0:0:
448,192,87425,1,4,0:1:0:0:
64,192,87425,1,4,0:0:0:0:
320,192,87639,1,4,0:0:0:0:
192,192,87853,1,4,0:0:0:0:
320,192,88067,1,4,0:0:0:0:
448,192,88282,1,4,0:0:0:0:
64,192,88282,1,4,0:1:0:0:
192,192,88496,1,4,0:0:0:0:
320,192,88710,1,4,0:0:0:0:
192,192,88925,1,4,0:0:0:0:
64,192,89139,1,4,0:1:0:0:
448,192,89139,1,4,0:0:0:0:
320,192,89246,1,8,0:0:0:0:
192,192,89353,1,4,0:0:0:0:
448,192,89460,1,8,0:0:0:0:
64,192,89567,1,4,0:1:0:0:
320,192,89675,1,8,0:0:0:0:
192,192,89782,1,4,0:0:0:0:
448,192,89889,1,8,0:0:0:0:
64,192,89996,1,4,0:0:0:0:
192,192,89996,1,4,0:1:0:0:
320,192,90157,1,4,0:1:0:0:
448,192,90157,1,4,0:0:0:0:
64,192,90317,1,4,0:0:0:0:
192,192,90317,1,4,0:1:0:0:
320,192,90478,1,4,0:1:0:0:
448,192,90478,1,4,0:0:0:0:
192,192,90639,128,4,92820:0:1:0:0:
64,192,90639,128,4,92820:0:0:0:0:
320,192,92820,1,8,0:3:0:0:
448,192,92820,1,0,0:0:0:0:
64,192,93092,1,0,0:0:0:0:
192,192,93365,1,0,0:0:0:0:
320,192,93638,1,0,0:0:0:0:
64,192,93910,1,8,0:3:0:0:
448,192,93910,1,0,0:0:0:0:
192,192,94183,1,0,0:0:0:0:
320,192,94320,1,0,0:0:0:0:
448,192,94456,1,0,0:0:0:0:
192,192,94729,1,0,0:0:0:0:
64,192,95001,1,8,0:3:0:0:
448,192,95001,1,0,0:0:0:0:
320,192,95274,1,0,0:0:0:0:
64,192,95547,1,8,0:3:0:0:
192,192,95547,1,0,0:0:0:0:
320,192,95820,1,0,0:0:0:0:
64,192,96092,1,8,0:3:0:0:
448,192,96092,1,0,0:0:0:0:
192,192,96365,1,0,0:0:0:0:
320,192,96638,1,8,0:3:0:0:
448,192,96638,1,0,0:0:0:0:
192,192,96910,1,0,0:0:0:0:
64,192,97183,1,8,0:3:0:0:
448,192,97183,1,0,0:0:0:0:
320,192,97456,1,0,0:0:0:0:
192,192,97729,1,0,0:0:0:0:
64,192,98001,1,0,0:0:0:0:
320,192,98274,1,8,0:3:0:0:
448,192,98274,1,0,0:0:0:0:
192,192,98547,1,0,0:0:0:0:
320,192,98683,1,0,0:0:0:0:
448,192,98820,1,0,0:0:0:0:
192,192,99092,1,0,0:0:0:0:
64,192,99365,1,8,0:3:0:0:
448,192,99365,1,0,0:0:0:0:
320,192,99638,1,0,0:0:0:0:
64,192,99910,1,8,0:3:0:0:
192,192,99910,1,0,0:0:0:0:
320,192,100183,1,0,0:0:0:0:
64,192,100456,1,8,0:3:0:0:
448,192,100456,1,0,0:0:0:0:
192,192,100729,1,0,0:0:0:0:
448,192,101001,1,8,0:3:0:0:
64,192,101138,1,8,0:3:0:0:
448,192,101274,1,8,0:3:0:0:
448,192,101976,1,4,0:0:0:0:
320,192,102083,1,4,0:0:0:0:
64,192,102190,1,4,0:0:0:0:
192,192,102298,1,4,0:0:0:0:
320,192,102405,128,4,102619:0:0:0:0:
448,192,102619,128,4,102833:0:0:0:0:
320,192,102833,128,4,103048:0:0:0:0:
192,192,103048,128,4,103262:0:0:0:0:
64,192,103262,128,4,103476:0:0:0:0:
448,192,103476,1,4,0:0:0:0:
320,192,103583,1,4,0:0:0:0:
64,192,103690,128,4,103905:0:0:0:0:
192,192,103905,128,4,104119:0:0:0:0:
448,192,104119,128,4,104333:0:0:0:0:
320,192,104333,128,4,104548:0:0:0:0:
192,192,104548,128,4,104762:0:0:0:0:
64,192,104762,128,4,104976:0:0:0:0:
320,192,104976,128,4,105190:0:0:0:0:
192,192,105190,128,4,105405:0:0:0:0:
64,192,105405,128,4,105619:0:0:0:0:
448,192,105619,128,4,105833:0:0:0:0:
320,192,105833,128,4,106048:0:0:0:0:
192,192,106048,128,4,106262:0:0:0:0:
64,192,106262,128,4,106690:0:0:0:0:
192,192,106690,128,4,106905:0:0:0:0:
448,192,106905,128,4,107119:0:0:0:0:
64,192,107119,128,4,107333:0:0:0:0:
448,192,107333,128,4,107547:0:0:0:0:
320,192,107547,128,4,107762:0:0:0:0:
192,192,107762,128,4,107976:0:0:0:0:
64,192,107976,128,4,108405:0:0:0:0:
320,192,108405,128,4,108833:0:0:0:0:
448,192,108833,128,4,109047:0:0:0:0:
192,192,109047,128,4,109262:0:0:0:0:
64,192,109262,128,4,109476:0:0:0:0:
448,192,109476,128,4,109690:0:0:0:0:
320,192,109690,128,4,109905:0:0:0:0:
192,192,109905,128,4,110119:0:0:0:0:
448,192,110119,128,4,110333:0:0:0:0:
320,192,110333,128,4,110547:0:0:0:0:
64,192,110547,128,8,110762:0:0:0:0:
192,192,110547,128,0,110762:0:0:0:0:
448,192,110762,128,4,110976:0:0:0:0:
64,192,110976,128,8,111190:0:0:0:0:
192,192,110976,128,0,111190:0:0:0:0:
320,192,111190,128,4,111405:0:0:0:0:
448,192,111405,128,4,111619:0:0:0:0:
64,192,111619,1,4,0:0:0:0:
192,192,111690,1,4,0:0:0:0:
320,192,111762,1,4,0:0:0:0:
448,192,111833,128,4,112047:0:0:0:0:
192,192,112047,128,4,112262:0:0:0:0:
64,192,112262,1,2,0:2:0:0:
448,192,112262,128,4,112476:0:0:0:0:
64,192,112476,128,4,112690:0:0:0:0:
192,192,112690,128,4,112905:0:0:0:0:
320,192,112905,128,4,113119:0:0:0:0:
64,192,113119,1,2,0:2:0:0:
448,192,113119,128,4,113333:0:0:0:0:
64,192,113333,128,4,113547:0:0:0:0:
192,192,113547,128,4,113762:0:0:0:0:
320,192,113762,128,4,113976:0:0:0:0:
448,192,113976,128,4,114190:0:0:0:0:
64,192,113976,1,0,0:0:0:0:
64,192,114190,1,4,0:0:0:0:
192,192,114262,1,4,0:0:0:0:
320,192,114333,1,4,0:0:0:0:
448,192,114405,128,4,114619:0:0:0:0:
320,192,114619,128,4,114833:0:0:0:0:
192,192,114833,128,4,115047:0:0:0:0:
64,192,115047,128,4,115262:0:0:0:0:
448,192,115267,1,8,0:0:0:0:
448,192,115695,1,8,0:0:0:0:
448,192,116124,1,8,0:0:0:0:
448,192,116552,1,8,0:0:0:0:
448,192,116981,1,8,0:0:0:0:
64,192,117195,1,8,0:0:0:0:
448,192,117409,1,8,0:0:0:0:
320,192,117517,1,8,0:0:0:0:
64,192,117624,1,8,0:0:0:0:
448,192,117838,1,8,0:0:0:0:
64,192,118052,1,8,0:0:0:0:
448,192,118267,1,8,0:0:0:0:
192,192,118374,1,8,0:0:0:0:
64,192,118481,128,0,118695:0:0:0:0:
320,192,118695,1,4,0:0:0:0:
448,192,118695,1,4,0:1:0:0:
192,192,118909,1,4,0:0:0:0:
320,192,119124,1,4,0:0:0:0:
192,192,119338,1,4,0:0:0:0:
320,192,119552,1,4,0:0:0:0:
192,192,119767,128,8,120228:0:0:0:0:
448,192,120228,1,4,0:0:0:0:
64,192,120442,1,4,0:0:0:0:
448,192,120656,128,8,121117:0:0:0:0:
192,192,121117,1,4,0:0:0:0:
320,192,121331,128,8,121792:0:0:0:0:
64,192,121792,1,4,0:0:0:0:
448,192,122006,1,4,0:0:0:0:
64,192,122220,1,4,0:0:0:0:
448,192,122434,1,4,0:0:0:0:
64,192,122649,128,8,123110:0:0:0:0:
320,192,123110,1,4,0:0:0:0:
192,192,123324,128,8,123670:0:0:0:0:
448,192,123670,1,2,0:0:0:0:
320,192,123777,1,4,0:0:0:0:
192,192,123884,1,2,0:0:0:0:
64,192,123991,128,8,124452:0:0:0:0:
320,192,124452,1,4,0:0:0:0:
192,192,124666,1,4,0:0:0:0:
448,192,124880,1,8,0:0:0:0:
320,192,124987,1,8,0:0:0:0:
192,192,125094,1,8,0:0:0:0:
64,192,125202,1,8,0:0:0:0:
448,192,125309,128,8,125523:0:0:0:0:
64,192,125523,128,0,125737:0:0:0:0:
320,192,125737,1,4,0:1:0:0:
448,192,125737,1,4,0:0:0:0:
192,192,125952,128,8,126298:0:0:0:0:
448,192,126298,1,2,0:0:0:0:
320,192,126405,1,4,0:0:0:0:
192,192,126512,1,2,0:0:0:0:
64,192,126619,128,8,126965:0:0:0:0:
320,192,126965,1,2,0:0:0:0:
192,192,127072,128,8,127418:0:0:0:0:
448,192,127418,1,2,0:0:0:0:
320,192,127525,1,4,0:0:0:0:
64,192,127632,1,2,0:0:0:0:
192,192,127739,1,4,0:0:0:0:
320,192,127846,1,2,0:0:0:0:
448,192,127953,128,8,128414:0:0:0:0:
192,192,128414,1,4,0:0:0:0:
320,192,128628,128,8,129320:0:0:0:0:
64,192,129320,1,4,0:0:0:0:
448,192,129534,128,8,129880:0:0:0:0:
192,192,129880,1,2,0:0:0:0:
320,192,129987,1,4,0:0:0:0:
64,192,130094,1,2,0:0:0:0:
448,192,130201,128,8,130547:0:0:0:0:
192,192,130547,1,2,0:0:0:0:
64,192,130654,1,4,0:0:0:0:
320,192,130761,1,2,0:0:0:0:
192,192,130868,1,4,0:0:0:0:
448,192,130975,1,2,0:0:0:0:
64,192,131082,128,8,131428:0:0:0:0:
320,192,131428,1,2,0:0:0:0:
192,192,131535,128,8,131881:0:0:0:0:
448,192,131881,1,2,0:0:0:0:
320,192,131988,1,4,0:0:0:0:
192,192,132095,1,2,0:0:0:0:
64,192,132202,1,4,0:0:0:0:
192,192,132309,1,2,0:0:0:0:
448,192,132421,1,8,0:0:0:0:
320,192,132421,1,4,0:1:0:0:
64,192,132528,1,8,0:0:0:0:
448,192,132635,1,8,0:0:0:0:
192,192,132742,1,8,0:0:0:0:
320,192,132849,1,8,0:0:0:0:
64,192,132956,1,8,0:0:0:0:
448,192,133063,1,8,0:0:0:0:
64,192,133171,1,8,0:0:0:0:
320,192,133278,1,8,0:0:0:0:
192,192,133385,1,8,0:0:0:0:
448,192,133492,1,8,0:0:0:0:
64,192,133599,1,8,0:0:0:0:
320,192,133706,1,8,0:0:0:0:
192,192,133813,1,8,0:0:0:0:
320,192,133921,1,8,0:0:0:0:
192,192,134028,1,8,0:0:0:0:
64,192,134135,1,4,0:0:0:0:
448,192,134135,1,4,0:1:0:0:
448,192,134349,1,4,0:1:0:0:
64,192,134349,1,4,0:0:0:0:
320,192,134563,1,4,0:0:0:0:
192,192,134563,1,4,0:1:0:0:
320,192,134778,1,4,0:1:0:0:
192,192,134778,1,4,0:0:0:0:
448,192,134992,1,4,0:0:0:0:
192,192,135099,1,4,0:0:0:0:
320,192,135206,1,4,0:0:0:0:
64,192,135313,1,4,0:0:0:0:
448,192,135421,128,4,135635:0:0:0:0:
320,192,135635,128,4,135849:0:0:0:0:
64,192,135849,128,4,136063:0:0:0:0:
192,192,136063,128,4,136278:0:0:0:0:
64,192,136278,128,4,136492:0:0:0:0:
448,192,136492,1,4,0:0:0:0:
320,192,136599,1,4,0:0:0:0:
64,192,136706,128,4,136921:0:0:0:0:
192,192,136921,128,4,137135:0:0:0:0:
448,192,137135,128,4,137349:0:0:0:0:
320,192,137349,128,4,137563:0:0:0:0:
192,192,137563,128,4,137778:0:0:0:0:
64,192,137778,128,4,137992:0:0:0:0:
320,192,137992,128,4,138206:0:0:0:0:
192,192,138206,128,4,138421:0:0:0:0:
64,192,138421,128,4,138635:0:0:0:0:
448,192,138635,128,4,138849:0:0:0:0:
320,192,138849,128,4,139063:0:0:0:0:
192,192,139063,128,4,139278:0:0:0:0:
64,192,139278,128,4,139706:0:0:0:0:
192,192,139706,128,4,139921:0:0:0:0:
448,192,139921,128,4,140135:0:0:0:0:
64,192,140135,128,4,140349:0:0:0:0:
448,192,140349,128,4,140563:0:0:0:0:
320,192,140563,128,4,140778:0:0:0:0:
192,192,140778,128,4,140992:0:0:0:0:
64,192,140992,128,4,141421:0:0:0:0:
320,192,141421,128,4,141849:0:0:0:0:
64,192,141849,1,4,0:1:0:0:
448,192,141849,128,4,142063:0:0:0:0:
192,192,142063,128,4,142278:0:0:0:0:
64,192,142278,128,4,142492:0:0:0:0:
320,192,142492,128,4,142706:0:0:0:0:
448,192,142706,128,4,142921:0:0:0:0:
192,192,142921,128,4,143135:0:0:0:0:
448,192,143135,128,4,143349:0:0:0:0:
320,192,143349,128,4,143563:0:0:0:0:
64,192,143563,128,8,143778:0:0:0:0:
192,192,143563,128,0,143778:0:0:0:0:
448,192,143778,128,4,143992:0:0:0:0:
64,192,143992,128,8,144206:0:0:0:0:
192,192,143992,128,0,144206:0:0:0:0:
320,192,144206,128,4,144420:0:0:0:0:
448,192,144420,128,4,144635:0:0:0:0:
64,192,144635,1,4,0:0:0:0:
192,192,144706,1,4,0:0:0:0:
320,192,144778,1,4,0:0:0:0:
448,192,144849,128,4,145063:0:0:0:0:
320,192,145063,128,4,145278:0:0:0:0:
448,192,145278,128,4,145492:0:0:0:0:
64,192,145278,1,4,0:1:0:0:
64,192,145492,128,4,145706:0:0:0:0:
192,192,145706,128,4,145920:0:0:0:0:
320,192,145920,128,4,146135:0:0:0:0:
64,192,146135,1,4,0:0:0:0:
448,192,146135,128,4,146349:0:1:0:0:
64,192,146349,128,4,146563:0:0:0:0:
192,192,146563,128,4,146778:0:0:0:0:
320,192,146778,128,4,146992:0:0:0:0:
64,192,146992,1,4,0:0:0:0:
448,192,146992,128,4,147206:0:1:0:0:
64,192,147206,128,4,147420:0:0:0:0:
192,192,147420,128,4,147635:0:0:0:0:
320,192,147635,128,4,147849:0:0:0:0:
64,192,147849,1,4,0:0:0:0:
448,192,147849,128,4,148063:0:1:0:0:
64,192,148063,128,4,148278:0:0:0:0:
192,192,148278,128,4,148492:0:0:0:0:
320,192,148492,128,4,148706:0:0:0:0:
64,192,148706,1,4,0:1:0:0:
448,192,148706,128,4,148920:0:0:0:0:
192,192,148920,1,4,0:0:0:0:
64,192,149135,128,4,149349:0:0:0:0:
448,192,149135,1,4,0:1:0:0:
320,192,149349,1,4,0:0:0:0:
64,192,149563,1,4,0:1:0:0:
448,192,149563,128,4,149778:0:0:0:0:
64,192,149778,1,4,0:0:0:0:
192,192,149849,1,4,0:0:0:0:
320,192,149920,1,4,0:0:0:0:
448,192,149992,128,4,150206:0:0:0:0:
320,192,150206,128,4,150420:0:0:0:0:
192,192,150420,128,4,150635:0:0:0:0:
64,192,150635,128,4,150849:0:0:0:0:
448,192,150849,128,4,153059:0:0:0:0:
192,192,151059,1,4,0:1:0:0:
64,192,151059,128,4,153059:0:0:0:0:
320,192,153059,5,4,0:1:0:0:
192,192,153059,1,4,0:0:0:0:
