osu file format v14

[General]
AudioFilename: I_leaf.mp3
AudioLeadIn: 0
PreviewTime: 118695
Countdown: 0
SampleSet: None
StackLeniency: 0.7
Mode: 3
LetterboxInBreaks: 0
SpecialStyle: 0
WidescreenStoryboard: 1

[Editor]
DistanceSpacing: 2
BeatDivisor: 3
GridSize: 4
TimelineZoom: 1.7

[Metadata]
Title:I
TitleUnicode:I
Artist:LeaF
ArtistUnicode:LeaF
Creator:Tidek
Version:Black Another
Source:BMS
Tags:of fighters SV _underjoy TheZiemniaX
BeatmapID:922576
BeatmapSetID:426638

[Difficulty]
HPDrainRate:9
CircleSize:4
OverallDifficulty:8.5
ApproachRate:5
SliderMultiplier:1.4
SliderTickRate:1

[Events]
//Background and Video events
0,0,"Black Another.jpg",0,0
//Break Periods
//Storyboard Layer 0 (Background)
//Storyboard Layer 1 (Fail)
//Storyboard Layer 2 (Pass)
//Storyboard Layer 3 (Foreground)
//Storyboard Sound Samples

[TimingPoints]
557,272.727272727273,3,3,1,40,1,0
557,-78.7401574803149,3,3,1,40,0,0
2738,272.727272727273,4,3,1,40,1,0
2738,-156.25,4,3,1,40,0,0
3283,-156.25,4,2,0,35,0,0
19101,250,4,3,1,40,1,0
19101,-85.4700854700855,4,3,1,40,0,0
21851,272.727272727273,4,3,1,40,1,0
21851,-52.3560209424084,4,3,1,40,0,0
21919,-86.2068965517241,4,3,1,40,0,0
21987,-93.4579439252336,4,3,1,40,0,0
22055,-105.263157894737,4,3,1,40,0,0
22123,250,4,3,1,40,1,0
22123,-85.4700854700855,4,3,1,40,0,0
22873,272.727272727273,4,3,1,40,1,0
22873,-52.3560209424084,4,3,1,40,0,0
22975,-86.2068965517241,4,3,1,40,0,0
23077,-93.4579439252336,4,3,1,40,0,0
23179,-105.263157894737,4,3,1,40,0,0
23282,250,4,3,1,40,1,0
23282,-85.4700854700855,4,3,1,40,0,0
23657,272.727272727273,4,3,1,40,1,0
23657,-52.3560209424084,4,3,1,40,0,0
23793,-86.2068965517241,4,3,1,40,0,0
23929,-93.4579439252336,4,3,1,40,0,0
24066,-105.263157894737,4,3,1,40,0,0
24202,250,4,3,1,40,1,0
24202,-85.4700854700855,4,3,1,40,0,0
26202,272.727272727273,4,3,1,40,1,0
26202,-52.3560209424084,4,3,1,40,0,0
26270,-86.2068965517241,4,3,1,40,0,0
26338,-93.4579439252336,4,3,1,40,0,0
26406,-105.263157894737,4,3,1,40,0,0
26474,250,4,3,1,40,1,0
26474,-85.4700854700855,4,3,1,40,0,0
27224,250,4,3,1,40,1,0
27224,-85.4700854700855,4,3,1,40,0,0
35724,260.869565217391,4,3,1,40,1,0
35724,-65.7894736842105,4,3,1,40,0,0
35854,-109.89010989011,4,3,1,40,0,0
35984,272.727272727273,4,3,1,40,1,0
35984,-78.7401574803149,4,3,1,40,0,0
36256,285.714285714286,4,3,1,40,1,0
36256,-59.8802395209581,4,3,1,40,0,0
36398,-100,4,3,1,40,0,0
36541,300,4,3,1,40,1,0
36541,-71.4285714285714,4,3,1,40,0,0
36841,315.789473684211,4,3,1,40,1,0
36841,-54.3478260869565,4,3,1,40,0,0
36998,-90.0900900900901,4,3,1,40,0,0
37156,333.333333333333,4,3,1,40,1,0
37156,-64.1025641025641,4,3,1,40,0,0
37489,272.727272727273,4,3,1,40,1,0
37489,-62.8930817610063,4,3,1,40,0,0
37625,-105.263157894737,4,3,1,40,0,0
37761,-62.8930817610063,4,3,1,40,0,0
37898,-105.263157894737,4,3,1,40,0,0
38034,272.727272727273,4,3,1,35,1,0
38034,-78.7401574803149,4,3,1,35,0,0
46761,-78.7401574803149,4,3,1,40,0,0
55489,266.666666666667,7,3,1,40,1,0
55489,-80.6451612903226,7,3,1,40,0,0
62955,260.869565217391,7,3,1,40,1,0
62955,-81.9672131147541,7,3,1,40,0,0
70259,300,4,3,1,40,1,0
70259,-142.857142857143,4,3,1,40,0,0
71459,285.714285714286,4,2,0,25,1,0
71459,-149.253731343284,4,2,0,25,0,0
72316,272.727272727273,4,2,0,25,1,0
72316,-156.25,4,2,0,25,0,0
73406,260.869565217391,4,2,0,25,1,0
73406,-163.934426229508,4,2,0,25,0,0
74188,250,4,2,1,25,1,0
74188,-161.290322580645,4,2,1,25,0,0
74438,-153.846153846154,4,2,1,25,0,0
74688,-144.927536231884,4,2,1,25,0,0
74938,-140.845070422535,4,2,1,25,0,0
75188,240,4,2,1,25,1,0
75188,-138.888888888889,4,2,1,25,0,0
75428,-133.333333333333,4,2,1,25,0,0
75668,-128.205128205128,4,2,1,25,0,0
75908,230.769230769231,4,2,1,25,1,0
75908,-128.205128205128,4,2,1,25,0,0
76023,-123.456790123457,4,2,1,25,0,0
76138,-119.047619047619,4,2,1,25,0,0
76254,-114.942528735632,4,2,1,25,0,0
76369,-112.359550561798,4,2,1,25,0,0
76484,-107.52688172043,4,2,1,25,0,0
76600,-104.166666666667,4,2,1,25,0,0
76715,-101.010101010101,4,2,1,25,0,0
76831,222.222222222222,4,2,1,25,1,0
76831,-103.092783505155,4,2,1,25,0,0
76942,-99.009900990099,4,2,1,25,0,0
77053,-96.1538461538461,4,2,1,25,0,0
77108,-96.1538461538461,4,3,1,40,0,0
77719,214.285714285714,4,3,1,40,1,0
77719,-100,4,3,1,40,0,0
80504,230.769230769231,4,3,1,40,1,0
80504,-46.5116279069767,4,3,1,40,0,0
80619,-111.111111111111,4,3,1,40,0,0
80734,-140.845070422535,4,3,1,40,0,0
80850,-185.185185185185,4,3,1,40,0,0
80965,214.285714285714,4,3,1,40,1,0
80965,-100,4,3,1,40,0,0
83750,230.769230769231,4,3,1,40,1,0
83750,-46.5116279069767,4,3,1,40,0,0
83865,-111.111111111111,4,3,1,40,0,0
83980,-140.845070422535,4,3,1,40,0,0
84096,-185.185185185185,4,3,1,40,0,0
84211,214.285714285714,4,3,1,40,1,0
84211,-100,4,3,1,40,0,0
87425,214.285714285714,4,3,1,40,1,0
87425,-100,4,3,1,40,0,0
89996,-80,4,3,1,40,0,0
90076,-133.333333333333,4,3,1,40,0,0
90157,-80,4,3,1,40,0,0
90237,-133.333333333333,4,3,1,40,0,0
90317,-80,4,3,1,40,0,0
90398,-133.333333333333,4,3,1,40,0,0
90478,-80,4,3,1,40,0,0
90558,-133.333333333333,4,3,1,40,0,0
90639,272.727272727273,4,3,1,40,1,0
90639,-90.0900900900901,4,3,1,40,0,0
92820,272.727272727273,4,2,1,25,1,0
92820,-105.263157894737,4,2,1,25,0,0
101274,-156.25,4,2,1,25,0,0
101548,214.285714285714,4,2,1,25,1,0
101548,-200,4,2,1,25,0,0
101976,-100,4,3,1,45,0,0
102405,-100,4,3,1,45,0,1
115267,214.285714285714,4,3,1,40,1,0
115267,-80,4,3,1,40,0,0
115374,-133.333333333333,4,3,1,40,0,0
115481,-100,4,3,1,40,0,0
115695,-80,4,3,1,40,0,0
115802,-133.333333333333,4,3,1,40,0,0
115909,-100,4,3,1,40,0,0
116552,-80,4,3,1,40,0,0
116659,-133.333333333333,4,3,1,40,0,0
116767,-100,4,3,1,40,0,0
117195,-80,4,3,1,40,0,0
117302,-133.333333333333,4,3,1,40,0,0
117409,-100,4,3,1,40,0,0
117624,-80,4,3,1,40,0,0
117731,-133.333333333333,4,3,1,40,0,0
117838,-100,4,3,1,40,0,0
118052,-80,4,3,1,40,0,0
118159,-133.333333333333,4,3,1,40,0,0
118267,-100,4,3,1,40,0,0
119767,230.769230769231,4,3,1,40,1,0
119767,-20.6185567010309,4,3,1,40,0,0
119805,-136.986301369863,4,3,1,40,0,0
120228,214.285714285714,4,3,1,40,1,0
120228,-100,4,3,1,40,0,0
120656,230.769230769231,4,3,1,40,1,0
120656,-20.6185567010309,4,3,1,40,0,0
120694,-136.986301369863,4,3,1,40,0,0
121117,214.285714285714,4,3,1,40,1,0
121117,-100,4,3,1,40,0,0
121331,230.769230769231,4,3,1,40,1,0
121331,-20.6185567010309,4,3,1,40,0,0
121369,-136.986301369863,4,3,1,40,0,0
121792,214.285714285714,4,3,1,40,1,0
121792,-100,4,3,1,40,0,0
122649,230.769230769231,4,3,1,40,1,0
122649,-20.6185567010309,4,3,1,40,0,0
122687,-136.986301369863,4,3,1,40,0,0
123110,214.285714285714,4,3,1,40,1,0
123110,-100,4,3,1,40,0,0
123324,230.769230769231,4,3,1,40,1,0
123324,-20.6185567010309,4,3,1,40,0,0
123352,-136.986301369863,4,3,1,40,0,0
123670,214.285714285714,4,3,1,40,1,0
123670,-100,4,3,1,40,0,0
123991,230.769230769231,4,3,1,40,1,0
123991,-20.6185567010309,4,3,1,40,0,0
124029,-136.986301369863,4,3,1,40,0,0
124452,214.285714285714,4,3,1,40,1,0
124452,-100,4,3,1,40,0,0
125952,230.769230769231,4,3,1,40,1,0
125952,-20.6185567010309,4,3,1,40,0,0
125980,-136.986301369863,4,3,1,40,0,0
126298,214.285714285714,4,3,1,40,1,0
126298,-100,4,3,1,40,0,0
126619,230.769230769231,4,3,1,40,1,0
126619,-20.6185567010309,4,3,1,40,0,0
126647,-136.986301369863,4,3,1,40,0,0
126965,214.285714285714,4,3,1,40,1,0
126965,-100,4,3,1,40,0,0
127072,230.769230769231,4,3,1,40,1,0
127072,-20.6185567010309,4,3,1,40,0,0
127100,-136.986301369863,4,3,1,40,0,0
127418,214.285714285714,4,3,1,40,1,0
127418,-100,4,3,1,40,0,0
127953,230.769230769231,4,3,1,40,1,0
127953,-20.6185567010309,4,3,1,40,0,0
127991,-136.986301369863,4,3,1,40,0,0
128414,214.285714285714,4,3,1,40,1,0
128414,-100,4,3,1,40,0,0
128628,230.769230769231,4,3,1,40,1,0
128628,-20.6185567010309,4,3,1,40,0,0
128685,-136.986301369863,4,3,1,40,0,0
129320,214.285714285714,4,3,1,40,1,0
129320,-100,4,3,1,40,0,0
129534,230.769230769231,4,3,1,40,1,0
129534,-20.6185567010309,4,3,1,40,0,0
129562,-136.986301369863,4,3,1,40,0,0
129880,214.285714285714,4,3,1,40,1,0
129880,-100,4,3,1,40,0,0
130201,230.769230769231,4,3,1,40,1,0
130201,-20.6185567010309,4,3,1,40,0,0
130229,-136.986301369863,4,3,1,40,0,0
130547,214.285714285714,4,3,1,40,1,0
130547,-100,4,3,1,40,0,0
131082,230.769230769231,4,3,1,40,1,0
131082,-20.6185567010309,4,3,1,40,0,0
131110,-136.986301369863,4,3,1,40,0,0
131428,214.285714285714,4,3,1,40,1,0
131428,-100,4,3,1,40,0,0
131535,230.769230769231,4,3,1,40,1,0
131535,-20.6185567010309,4,3,1,40,0,0
131563,-136.986301369863,4,3,1,40,0,0
131881,214.285714285714,4,3,1,40,1,0
131881,-100,4,3,1,40,0,0
132421,214.285714285714,4,3,1,40,1,0
132421,-100,4,3,1,40,0,0
133706,-42.5531914893617,4,3,1,40,0,0
133733,-181.818181818182,4,3,1,40,0,0
133813,-45.4545454545455,4,3,1,40,0,0
133840,-181.818181818182,4,3,1,40,0,0
133921,-45.4545454545455,4,3,1,40,0,0
133947,-181.818181818182,4,3,1,40,0,0
134028,-45.4545454545455,4,3,1,40,0,0
134054,-181.818181818182,4,3,1,40,0,0
134135,-45.4545454545455,4,3,1,40,0,0
134188,-181.818181818182,4,3,1,40,0,0
134349,-45.4545454545455,4,3,1,40,0,0
134403,-181.818181818182,4,3,1,40,0,0
134563,-45.4545454545455,4,3,1,40,0,0
134617,-181.818181818182,4,3,1,40,0,0
134778,-45.4545454545455,4,3,1,40,0,0
134831,-181.818181818182,4,3,1,40,0,0
134992,-100,4,3,1,40,0,0
135421,-100,4,3,1,45,0,1
145278,-99.009900990099,4,3,1,45,0,1
146135,-97.0873786407767,4,3,1,45,0,1
146992,-96.1538461538461,4,3,1,45,0,1
147849,-94.3396226415094,4,3,1,45,0,1
148706,-93.4579439252336,4,3,1,45,0,1
149135,-91.743119266055,4,3,1,45,0,1
149563,-90.9090909090909,4,3,1,45,0,1
149992,-92.5925925925926,4,3,1,45,0,1
150206,-94.3396226415094,4,3,1,45,0,1
150420,-96.1538461538461,4,3,1,45,0,1
150635,-98.0392156862745,4,3,1,45,0,1
150849,-100,4,3,1,45,0,1
151059,250,4,3,1,45,1,0
151059,-42.9184549356223,4,3,1,45,0,0
152059,-344.827586206897,4,3,1,45,0,0
153059,-10,4,3,1,45,0,0

[HitObjects]
64,192,557,5,4,0:0:0:0:
192,192,557,1,8,0:0:0:0:
320,192,557,1,0,0:0:0:0:
320,192,693,1,4,0:0:0:0:
448,192,693,1,8,0:0:0:0:
192,192,761,1,0,0:0:0:0:
64,192,829,128,0,966:0:0:0:0:
192,192,966,1,4,0:0:0:0:
320,192,966,1,8,0:0:0:0:
448,192,966,1,0,0:0:0:0:
64,192,1102,1,4,0:0:0:0:
192,192,1102,1,8,0:0:0:0:
320,192,1170,1,0,0:0:0:0:
448,192,1238,128,0,1375:0:0:0:0:
320,192,1375,1,8,0:0:0:0:
64,192,1375,1,4,0:0:0:0:
192,192,1375,1,0,0:0:0:0:
448,192,1511,1,4,0:0:0:0:
320,192,1511,1,8,0:0:0:0:
192,192,1579,1,0,0:0:0:0:
64,192,1647,128,0,1784:0:0:0:0:
192,192,1784,1,4,0:0:0:0:
320,192,1784,1,8,0:0:0:0:
448,192,1784,1,0,0:0:0:0:
64,192,1920,1,4,0:0:0:0:
192,192,1920,1,8,0:0:0:0:
320,192,1988,1,0,0:0:0:0:
448,192,2057,128,0,2193:0:0:0:0:
64,192,2193,1,4,0:0:0:0:
192,192,2193,1,8,0:0:0:0:
320,192,2261,1,8,0:0:0:0:
448,192,2261,1,0,0:0:0:0:
64,192,2329,1,8,0:0:0:0:
192,192,2329,1,4,0:0:0:0:
448,192,2466,1,0,0:0:0:0:
320,192,2500,1,0,0:0:0:0:
192,192,2534,1,0,0:0:0:0:
64,192,2568,1,0,0:0:0:0:
448,192,2602,1,0,0:0:0:0:
320,192,2636,1,0,0:0:0:0:
192,192,2670,1,0,0:0:0:0:
64,192,2704,1,0,0:0:0:0:
320,192,2738,1,4,0:1:0:0:
448,192,2738,1,0,0:0:0:0:
192,192,3283,1,0,0:0:0:0:
64,192,3828,1,2,0:0:0:0:
448,192,3828,1,0,0:0:0:0:
320,192,4374,1,0,0:0:0:0:
64,192,4919,1,2,0:0:0:0:
448,192,4919,1,0,0:0:0:0:
64,192,6010,1,2,0:0:0:0:
320,192,6010,1,0,0:0:0:0:
64,192,7101,1,2,0:0:0:0:
192,192,7101,1,0,0:0:0:0:
448,192,7101,1,0,0:0:0:0:
320,192,7647,1,0,0:0:0:0:
64,192,8192,1,2,0:0:0:0:
448,192,8192,1,0,0:0:0:0:
192,192,8738,1,2,0:0:0:0:
448,192,8738,1,0,0:0:0:0:
320,192,9283,1,2,0:0:0:0:
448,192,9283,1,0,0:0:0:0:
64,192,10374,1,2,0:0:0:0:
448,192,10374,1,0,0:0:0:0:
64,192,11465,1,2,0:0:0:0:
192,192,11465,1,0,0:0:0:0:
448,192,11465,1,0,0:0:0:0:
64,192,12010,1,2,0:0:0:0:
320,192,12010,128,0,12556:0:0:0:0:
192,192,12556,1,2,0:0:0:0:
448,192,12556,128,0,13101:0:0:0:0:
320,192,13101,128,0,13647:0:0:0:0:
64,192,13101,1,2,0:0:0:0:
192,192,13647,128,0,15828:0:0:0:0:
448,192,13647,1,2,0:0:0:0:
320,192,14738,1,2,0:0:0:0:
64,192,14738,128,0,15828:0:0:0:0:
320,192,15828,1,0,0:0:0:0:
448,192,15828,1,0,0:0:0:0:
64,192,16374,1,2,0:0:0:0:
320,192,16374,128,0,16919:0:0:0:0:
192,192,16919,1,2,0:0:0:0:
448,192,16919,128,0,17465:0:0:0:0:
320,192,17465,128,0,18010:0:0:0:0:
64,192,17465,1,2,0:0:0:0:
448,192,18010,1,2,0:0:0:0:
192,192,18010,128,0,19101:0:0:0:0:
448,192,19101,1,4,0:1:0:0:
320,192,19132,1,0,0:0:0:0:
192,192,19163,1,0,0:0:0:0:
64,192,19194,1,0,0:0:0:0:
448,192,19226,1,0,0:0:0:0:
320,192,19257,1,0,0:0:0:0:
192,192,19288,1,8,0:0:0:0:
64,192,19319,1,0,0:0:0:0:
448,192,19351,1,4,0:1:0:0:
320,192,19351,1,8,0:0:0:0:
192,192,19413,1,8,0:0:0:0:
64,192,19476,1,8,0:0:0:0:
448,192,19601,1,8,0:0:0:0:
320,192,19601,1,4,0:1:0:0:
192,192,19663,1,0,0:0:0:0:
320,192,19726,1,8,0:0:0:0:
448,192,19788,1,0,0:0:0:0:
64,192,19851,1,8,0:0:0:0:
192,192,19851,1,4,0:1:0:0:
320,192,19934,1,0,0:0:0:0:
320,192,20017,1,0,0:0:0:0:
64,192,20101,1,4,0:1:0:0:
192,192,20101,1,2,0:0:0:0:
448,192,20101,1,8,0:0:0:0:
320,192,20226,1,8,0:0:0:0:
448,192,20226,1,0,0:0:0:0:
192,192,20351,1,8,0:0:0:0:
64,192,20351,1,2,0:0:0:0:
320,192,20476,1,8,0:0:0:0:
192,192,20476,1,0,0:0:0:0:
448,192,20601,1,8,0:0:0:0:
320,192,20601,1,0,0:0:0:0:
192,192,20726,1,8,0:0:0:0:
64,192,20726,1,0,0:0:0:0:
64,192,20851,1,8,0:0:0:0:
448,192,20851,1,2,0:0:0:0:
320,192,20976,1,0,0:0:0:0:
192,192,20976,1,8,0:0:0:0:
448,192,21101,1,8,0:0:0:0:
320,192,21101,1,0,0:0:0:0:
64,192,21226,1,8,0:0:0:0:
192,192,21226,1,2,0:0:0:0:
64,192,21351,1,8,0:0:0:0:
448,192,21351,1,2,0:0:0:0:
320,192,21476,1,8,0:0:0:0:
448,192,21476,1,0,0:0:0:0:
192,192,21601,1,8,0:0:0:0:
64,192,21601,1,2,0:0:0:0:
448,192,21726,1,8,0:0:0:0:
320,192,21726,1,0,0:0:0:0:
192,192,21851,128,0,22123:0:0:0:0:
320,192,22123,1,2,0:0:0:0:
448,192,22123,1,8,0:0:0:0:
64,192,22248,1,2,0:0:0:0:
192,192,22248,1,8,0:0:0:0:
320,192,22310,1,2,0:0:0:0:
64,192,22373,1,8,0:0:0:0:
448,192,22373,1,2,0:0:0:0:
192,192,22435,1,2,0:0:0:0:
320,192,22498,1,8,0:0:0:0:
448,192,22498,1,2,0:0:0:0:
64,192,22623,1,8,0:0:0:0:
448,192,22623,1,2,0:0:0:0:
192,192,22748,1,8,0:0:0:0:
320,192,22748,1,0,0:0:0:0:
64,192,22873,1,2,0:0:0:0:
448,192,22873,128,8,23282:0:0:0:0:
64,192,23282,1,8,0:0:0:0:
192,192,23282,1,2,0:0:0:0:
64,192,23407,1,2,0:0:0:0:
448,192,23407,1,8,0:0:0:0:
192,192,23532,1,8,0:0:0:0:
320,192,23532,1,0,0:0:0:0:
64,192,23657,128,0,24202:0:0:0:0:
448,192,23657,1,2,0:0:0:0:
448,192,24202,1,8,0:0:0:0:
192,192,24202,1,0,0:0:0:0:
64,192,24327,1,8,0:0:0:0:
320,192,24327,1,0,0:0:0:0:
64,192,24452,1,2,0:0:0:0:
192,192,24452,1,8,0:0:0:0:
320,192,24577,1,8,0:0:0:0:
448,192,24577,1,0,0:0:0:0:
448,192,24702,1,2,0:0:0:0:
64,192,24702,1,8,0:0:0:0:
192,192,24827,1,8,0:0:0:0:
320,192,24827,1,0,0:0:0:0:
64,192,24952,1,2,0:0:0:0:
192,192,24952,1,8,0:0:0:0:
320,192,25077,1,8,0:0:0:0:
448,192,25077,128,2,25327:0:0:0:0:
64,192,25202,1,2,0:0:0:0:
192,192,25202,1,8,0:0:0:0:
64,192,25327,1,8,0:0:0:0:
320,192,25327,1,0,0:0:0:0:
192,192,25452,1,8,0:0:0:0:
448,192,25452,1,0,0:0:0:0:
192,192,25577,1,2,0:0:0:0:
320,192,25577,1,8,0:0:0:0:
64,192,25702,1,8,0:0:0:0:
448,192,25702,1,8,0:0:0:0:
320,192,25827,1,2,0:0:0:0:
64,192,25827,1,0,0:0:0:0:
192,192,25952,1,8,0:0:0:0:
448,192,25952,1,2,0:0:0:0:
64,192,26077,1,8,0:0:0:0:
320,192,26077,1,0,0:0:0:0:
192,192,26202,128,0,26474:0:0:0:0:
64,192,26474,1,2,0:0:0:0:
448,192,26474,1,8,0:0:0:0:
192,192,26599,1,8,0:0:0:0:
320,192,26599,1,0,0:0:0:0:
320,192,26724,1,2,0:0:0:0:
448,192,26724,1,8,0:0:0:0:
64,192,26849,1,8,0:0:0:0:
192,192,26849,1,0,0:0:0:0:
64,192,26974,1,2,0:0:0:0:
320,192,26974,1,8,0:0:0:0:
192,192,27099,1,8,0:0:0:0:
448,192,27099,128,0,27349:0:0:0:0:
64,192,27224,1,2,0:0:0:0:
320,192,27224,1,8,0:0:0:0:
64,192,27349,1,8,0:0:0:0:
192,192,27349,1,0,0:0:0:0:
320,192,27474,1,2,0:0:0:0:
448,192,27474,1,8,0:0:0:0:
64,192,27599,1,8,0:0:0:0:
192,192,27599,1,0,0:0:0:0:
448,192,27724,1,8,0:0:0:0:
320,192,27755,1,0,0:0:0:0:
192,192,27786,1,0,0:0:0:0:
64,192,27817,1,0,0:0:0:0:
448,192,27849,1,0,0:0:0:0:
320,192,27880,1,0,0:0:0:0:
192,192,27911,1,0,0:0:0:0:
64,192,27942,1,0,0:0:0:0:
448,192,27974,128,0,28224:0:0:0:0:
64,192,28224,1,8,0:0:0:0:
192,192,28224,1,4,0:1:0:0:
320,192,28224,1,0,0:0:0:0:
320,192,28349,1,8,0:0:0:0:
448,192,28349,1,0,0:0:0:0:
192,192,28474,1,8,0:0:0:0:
320,192,28474,1,2,0:0:0:0:
64,192,28599,1,8,0:0:0:0:
192,192,28599,1,0,0:0:0:0:
64,192,28724,1,8,0:0:0:0:
448,192,28724,1,0,0:0:0:0:
320,192,28849,1,2,0:0:0:0:
448,192,28849,1,8,0:0:0:0:
64,192,28974,1,8,0:0:0:0:
192,192,28974,1,2,0:0:0:0:
192,192,29099,1,8,0:0:0:0:
320,192,29099,1,0,0:0:0:0:
320,192,29224,1,8,0:0:0:0:
448,192,29224,1,0,0:0:0:0:
64,192,29349,1,2,0:0:0:0:
448,192,29349,1,8,0:0:0:0:
64,192,29474,1,2,0:0:0:0:
448,192,29474,1,8,0:0:0:0:
192,192,29599,1,8,0:0:0:0:
320,192,29599,1,0,0:0:0:0:
64,192,29724,1,2,0:0:0:0:
192,192,29724,1,8,0:0:0:0:
320,192,29849,1,8,0:0:0:0:
448,192,29849,1,0,0:0:0:0:
192,192,29974,1,2,0:0:0:0:
448,192,29974,1,8,0:0:0:0:
64,192,30099,1,8,0:0:0:0:
320,192,30099,1,0,0:0:0:0:
192,192,30224,1,8,0:0:0:0:
64,192,30224,1,2,0:0:0:0:
448,192,30349,1,2,0:0:0:0:
320,192,30349,1,8,0:0:0:0:
192,192,30411,1,2,0:0:0:0:
64,192,30474,1,2,0:0:0:0:
448,192,30474,1,8,0:0:0:0:
320,192,30536,1,2,0:0:0:0:
64,192,30599,1,2,0:0:0:0:
192,192,30599,1,8,0:0:0:0:
320,192,30724,1,8,0:0:0:0:
448,192,30724,1,2,0:0:0:0:
64,192,30849,1,8,0:0:0:0:
192,192,30849,1,0,0:0:0:0:
192,192,30974,1,2,0:0:0:0:
320,192,30974,1,8,0:0:0:0:
320,192,31099,1,8,0:0:0:0:
448,192,31099,128,0,31349:0:0:0:0:
64,192,31224,1,8,0:0:0:0:
192,192,31224,1,0,0:0:0:0:
64,192,31349,1,8,0:0:0:0:
320,192,31349,1,2,0:0:0:0:
192,192,31474,1,2,0:0:0:0:
448,192,31474,1,8,0:0:0:0:
64,192,31599,1,8,0:0:0:0:
192,192,31599,1,0,0:0:0:0:
320,192,31724,1,8,0:0:0:0:
448,192,31724,1,2,0:0:0:0:
64,192,31849,1,8,0:0:0:0:
320,192,31849,1,0,0:0:0:0:
192,192,31974,1,2,0:0:0:0:
448,192,31974,1,8,0:0:0:0:
320,192,32099,1,8,0:0:0:0:
192,192,32099,1,0,0:0:0:0:
64,192,32224,1,8,0:0:0:0:
448,192,32224,1,0,0:0:0:0:
192,192,32349,1,8,0:0:0:0:
320,192,32349,1,0,0:0:0:0:
320,192,32474,1,2,0:0:0:0:
448,192,32474,1,8,0:0:0:0:
64,192,32599,1,8,0:0:0:0:
448,192,32599,1,0,0:0:0:0:
64,192,32724,1,8,0:0:0:0:
192,192,32724,1,2,0:0:0:0:
448,192,32849,1,8,0:0:0:0:
320,192,32849,1,0,0:0:0:0:
192,192,32974,1,2,0:0:0:0:
320,192,32974,1,8,0:0:0:0:
192,192,33099,5,8,0:0:0:0:
64,192,33099,128,2,33349:0:0:0:0:
320,192,33224,1,2,0:0:0:0:
448,192,33224,1,8,0:0:0:0:
192,192,33349,1,8,0:0:0:0:
448,192,33349,1,0,0:0:0:0:
64,192,33474,1,8,0:0:0:0:
320,192,33474,1,0,0:0:0:0:
64,192,33599,1,2,0:0:0:0:
192,192,33599,1,8,0:0:0:0:
320,192,33724,1,8,0:0:0:0:
448,192,33724,1,2,0:0:0:0:
64,192,33849,1,8,0:0:0:0:
448,192,33849,1,0,0:0:0:0:
192,192,33974,1,2,0:0:0:0:
320,192,33974,1,8,0:0:0:0:
320,192,34099,1,8,0:0:0:0:
448,192,34099,1,0,0:0:0:0:
64,192,34224,5,2,0:0:0:0:
448,192,34224,1,8,0:0:0:0:
192,192,34286,1,8,0:0:0:0:
448,192,34349,1,8,0:0:0:0:
320,192,34349,1,0,0:0:0:0:
192,192,34411,1,8,0:0:0:0:
64,192,34474,1,2,0:0:0:0:
448,192,34474,1,8,0:0:0:0:
320,192,34536,1,8,0:0:0:0:
192,192,34599,1,8,0:0:0:0:
64,192,34599,1,0,0:0:0:0:
320,192,34661,1,8,0:0:0:0:
64,192,34724,1,2,0:0:0:0:
448,192,34724,1,8,0:0:0:0:
192,192,34786,1,8,0:0:0:0:
320,192,34849,1,8,0:0:0:0:
448,192,34849,1,0,0:0:0:0:
192,192,34911,1,8,0:0:0:0:
64,192,34974,1,2,0:0:0:0:
448,192,34974,1,8,0:0:0:0:
320,192,35036,1,8,0:0:0:0:
192,192,35099,1,8,0:0:0:0:
64,192,35099,1,0,0:0:0:0:
320,192,35161,1,8,0:0:0:0:
64,192,35224,1,2,0:0:0:0:
448,192,35224,1,8,0:0:0:0:
192,192,35286,1,8,0:0:0:0:
320,192,35349,1,8,0:0:0:0:
448,192,35349,1,0,0:0:0:0:
192,192,35411,1,8,0:0:0:0:
64,192,35474,1,2,0:0:0:0:
448,192,35474,1,8,0:0:0:0:
320,192,35536,1,8,0:0:0:0:
64,192,35599,1,8,0:0:0:0:
192,192,35599,1,0,0:0:0:0:
320,192,35661,1,8,0:0:0:0:
64,192,35724,128,0,35984:0:0:0:0:
448,192,35724,128,0,35984:0:0:0:0:
192,192,35984,128,0,36256:0:0:0:0:
320,192,36256,128,0,36541:0:0:0:0:
448,192,36256,128,0,36541:0:0:0:0:
64,192,36541,128,0,36841:0:0:0:0:
192,192,36841,128,0,37156:0:0:0:0:
320,192,36841,128,0,37156:0:0:0:0:
448,192,37156,128,0,37406:0:0:0:0:
64,192,37489,1,4,0:1:0:0:
192,192,37489,1,4,0:0:0:0:
320,192,37489,1,8,0:0:0:0:
448,192,37489,1,0,0:0:0:0:
448,192,37761,1,8,0:0:0:0:
64,192,37761,1,4,0:0:0:0:
192,192,37761,1,4,0:1:0:0:
320,192,37761,1,0,0:0:0:0:
192,192,38034,1,4,0:1:0:0:
320,192,38034,1,4,0:0:0:0:
448,192,38034,1,8,0:0:0:0:
64,192,38034,128,0,38306:0:0:0:0:
192,192,38170,1,0,0:0:0:0:
448,192,38306,1,8,0:0:0:0:
320,192,38443,128,0,38715:0:0:0:0:
64,192,38579,1,8,0:0:0:0:
192,192,38715,1,0,0:0:0:0:
64,192,38852,128,8,39124:0:0:0:0:
320,192,38852,1,0,0:0:0:0:
448,192,38988,1,0,0:0:0:0:
192,192,39124,1,8,0:0:0:0:
448,192,39261,128,0,39534:0:0:0:0:
320,192,39397,1,8,0:0:0:0:
192,192,39534,1,0,0:0:0:0:
320,192,39670,128,0,39943:0:0:0:0:
64,192,39670,1,8,0:0:0:0:
448,192,39806,1,0,0:0:0:0:
192,192,39943,128,8,40215:0:0:0:0:
64,192,39943,1,0,0:0:0:0:
320,192,40079,1,0,0:0:0:0:
448,192,40215,128,0,40488:0:0:0:0:
64,192,40215,1,8,0:0:0:0:
192,192,40352,1,0,0:0:0:0:
320,192,40488,1,8,0:0:0:0:
192,192,40624,128,0,40897:0:0:0:0:
448,192,40761,1,8,0:0:0:0:
320,192,40897,1,0,0:0:0:0:
192,192,40965,1,8,0:0:0:0:
448,192,41034,128,0,41306:0:0:0:0:
64,192,41034,1,8,0:0:0:0:
192,192,41170,1,0,0:0:0:0:
320,192,41306,1,8,0:0:0:0:
192,192,41443,128,0,41715:0:0:0:0:
448,192,41579,1,8,0:0:0:0:
320,192,41715,1,0,0:0:0:0:
448,192,41852,128,0,42124:0:0:0:0:
64,192,41852,1,8,0:0:0:0:
320,192,41988,1,0,0:0:0:0:
192,192,42124,128,0,42397:0:0:0:0:
64,192,42124,1,8,0:0:0:0:
320,192,42261,1,0,0:0:0:0:
320,192,42397,1,8,0:0:0:0:
448,192,42397,1,0,0:0:0:0:
64,192,42397,128,0,42670:0:0:0:0:
192,192,42534,1,0,0:0:0:0:
448,192,42670,1,8,0:0:0:0:
320,192,42806,128,0,43079:0:0:0:0:
64,192,42943,1,8,0:0:0:0:
192,192,43079,1,0,0:0:0:0:
64,192,43215,128,0,43488:0:0:0:0:
320,192,43215,1,8,0:0:0:0:
448,192,43352,1,0,0:0:0:0:
192,192,43488,1,8,0:0:0:0:
448,192,43624,128,0,43897:0:0:0:0:
320,192,43761,1,8,0:0:0:0:
192,192,43897,1,0,0:0:0:0:
320,192,44034,128,0,44306:0:0:0:0:
64,192,44034,1,8,0:0:0:0:
448,192,44170,1,0,0:0:0:0:
192,192,44306,128,0,44579:0:0:0:0:
64,192,44306,1,8,0:0:0:0:
320,192,44443,1,0,0:0:0:0:
64,192,44579,1,8,0:0:0:0:
448,192,44579,128,0,44852:0:0:0:0:
192,192,44715,1,0,0:0:0:0:
320,192,44852,1,8,0:0:0:0:
192,192,44988,128,0,45261:0:0:0:0:
448,192,45124,1,8,0:0:0:0:
320,192,45261,1,0,0:0:0:0:
192,192,45329,1,8,0:0:0:0:
64,192,45397,1,8,0:0:0:0:
448,192,45397,128,0,45670:0:0:0:0:
192,192,45534,1,0,0:0:0:0:
320,192,45670,1,8,0:0:0:0:
192,192,45806,128,0,46079:0:0:0:0:
448,192,45943,1,8,0:0:0:0:
320,192,46079,1,0,0:0:0:0:
192,192,46147,1,0,0:0:0:0:
64,192,46215,1,8,0:0:0:0:
448,192,46215,128,0,46488:0:0:0:0:
320,192,46352,1,0,0:0:0:0:
64,192,46488,1,8,0:0:0:0:
192,192,46488,128,0,46693:0:0:0:0:
320,192,46624,1,0,0:0:0:0:
448,192,46761,1,8,0:0:0:0:
320,192,46761,1,4,0:1:0:0:
192,192,46761,1,0,0:0:0:0:
64,192,46761,128,0,47034:0:0:0:0:
192,192,46897,1,0,0:0:0:0:
448,192,47034,1,8,0:0:0:0:
320,192,47170,128,0,47443:0:0:0:0:
64,192,47306,1,8,0:0:0:0:
192,192,47443,1,0,0:0:0:0:
64,192,47579,128,0,47852:0:0:0:0:
320,192,47579,1,8,0:0:0:0:
192,192,47715,1,0,0:0:0:0:
448,192,47852,1,8,0:0:0:0:
320,192,47920,1,0,0:0:0:0:
192,192,47988,1,0,0:0:0:0:
64,192,48056,1,0,0:0:0:0:
448,192,48124,1,8,0:0:0:0:
320,192,48193,1,0,0:0:0:0:
192,192,48261,1,0,0:0:0:0:
64,192,48329,1,0,0:0:0:0:
448,192,48397,1,8,0:0:0:0:
192,192,48465,1,0,0:0:0:0:
320,192,48534,1,0,0:0:0:0:
64,192,48602,1,0,0:0:0:0:
448,192,48670,1,8,0:0:0:0:
192,192,48738,1,0,0:0:0:0:
320,192,48806,1,0,0:0:0:0:
448,192,48874,1,0,0:0:0:0:
64,192,48943,1,8,0:0:0:0:
192,192,49011,1,0,0:0:0:0:
320,192,49079,1,0,0:0:0:0:
448,192,49147,1,0,0:0:0:0:
64,192,49215,1,8,0:0:0:0:
192,192,49284,1,0,0:0:0:0:
320,192,49352,1,0,0:0:0:0:
448,192,49420,1,0,0:0:0:0:
64,192,49488,1,8,0:0:0:0:
320,192,49556,1,0,0:0:0:0:
192,192,49624,1,0,0:0:0:0:
448,192,49693,1,0,0:0:0:0:
64,192,49761,1,8,0:0:0:0:
320,192,49829,1,0,0:0:0:0:
192,192,49897,1,0,0:0:0:0:
320,192,49965,1,0,0:0:0:0:
448,192,50034,1,8,0:0:0:0:
192,192,50170,128,0,50443:0:0:0:0:
448,192,50306,1,8,0:0:0:0:
320,192,50443,1,0,0:0:0:0:
448,192,50579,128,0,50852:0:0:0:0:
64,192,50579,1,8,0:0:0:0:
320,192,50715,1,0,0:0:0:0:
192,192,50852,128,0,51124:0:0:0:0:
64,192,50852,1,8,0:0:0:0:
320,192,50988,1,0,0:0:0:0:
320,192,51124,1,8,0:0:0:0:
448,192,51124,1,0,0:0:0:0:
64,192,51124,128,0,51397:0:0:0:0:
192,192,51261,1,0,0:0:0:0:
448,192,51397,1,8,0:0:0:0:
320,192,51534,128,0,51806:0:0:0:0:
64,192,51670,1,8,0:0:0:0:
192,192,51806,1,0,0:0:0:0:
64,192,51943,128,0,52215:0:0:0:0:
320,192,51943,1,8,0:0:0:0:
192,192,52079,1,0,0:0:0:0:
448,192,52215,1,8,0:0:0:0:
320,192,52284,1,0,0:0:0:0:
192,192,52352,1,0,0:0:0:0:
64,192,52420,1,0,0:0:0:0:
448,192,52488,1,8,0:0:0:0:
320,192,52556,1,0,0:0:0:0:
192,192,52624,1,0,0:0:0:0:
64,192,52693,1,0,0:0:0:0:
448,192,52761,1,8,0:0:0:0:
192,192,52829,1,0,0:0:0:0:
320,192,52897,1,0,0:0:0:0:
64,192,52965,1,0,0:0:0:0:
448,192,53034,1,8,0:0:0:0:
192,192,53102,1,0,0:0:0:0:
320,192,53170,1,0,0:0:0:0:
448,192,53238,1,0,0:0:0:0:
64,192,53306,1,8,0:0:0:0:
192,192,53374,1,0,0:0:0:0:
320,192,53443,1,0,0:0:0:0:
448,192,53511,1,0,0:0:0:0:
64,192,53579,1,8,0:0:0:0:
192,192,53647,1,0,0:0:0:0:
320,192,53715,1,0,0:0:0:0:
448,192,53784,1,0,0:0:0:0:
64,192,53852,1,8,0:0:0:0:
320,192,53920,1,0,0:0:0:0:
192,192,53988,1,0,0:0:0:0:
448,192,54056,1,0,0:0:0:0:
64,192,54124,1,8,0:0:0:0:
320,192,54193,1,0,0:0:0:0:
192,192,54261,1,0,0:0:0:0:
64,192,54329,1,0,0:0:0:0:
448,192,54397,1,8,0:0:0:0:
192,192,54534,128,0,54806:0:0:0:0:
448,192,54670,1,8,0:0:0:0:
320,192,54806,1,0,0:0:0:0:
448,192,54874,1,0,0:0:0:0:
64,192,54943,1,4,0:1:0:0:
192,192,54943,1,8,0:0:0:0:
320,192,54943,1,0,0:0:0:0:
448,192,55079,1,8,0:0:0:0:
320,192,55079,1,0,0:0:0:0:
64,192,55147,1,8,0:0:0:0:
192,192,55147,1,0,0:0:0:0:
448,192,55215,128,4,55352:0:1:0:0:
320,192,55215,128,0,55352:0:0:0:0:
64,192,55352,1,8,0:0:0:0:
192,192,55352,1,0,0:0:0:0:
320,192,55420,1,8,0:0:0:0:
192,192,55488,1,4,0:1:0:0:
64,192,55489,1,8,0:0:0:0:
448,192,55489,128,0,55622:0:0:0:0:
320,192,55622,128,0,55755:0:0:0:0:
192,192,55755,128,8,55889:0:0:0:0:
448,192,55755,1,0,0:0:0:0:
64,192,55889,128,0,56022:0:0:0:0:
192,192,56022,1,8,0:0:0:0:
448,192,56022,1,0,0:0:0:0:
448,192,56155,128,0,56289:0:0:0:0:
64,192,56289,1,8,0:0:0:0:
192,192,56289,1,0,0:0:0:0:
320,192,56422,128,0,56555:0:0:0:0:
192,192,56555,1,8,0:0:0:0:
448,192,56555,1,0,0:0:0:0:
64,192,56689,128,0,56822:0:0:0:0:
448,192,56822,1,8,0:0:0:0:
192,192,56822,1,0,0:0:0:0:
64,192,56955,128,0,57089:0:0:0:0:
448,192,57089,1,8,0:0:0:0:
192,192,57089,128,0,57222:0:0:0:0:
320,192,57222,128,0,57355:0:0:0:0:
64,192,57355,128,8,57489:0:0:0:0:
192,192,57355,128,0,57489:0:0:0:0:
320,192,57489,128,0,57622:0:0:0:0:
448,192,57489,128,0,57622:0:0:0:0:
64,192,57622,1,8,0:0:0:0:
192,192,57622,1,0,0:0:0:0:
64,192,57755,1,8,0:0:0:0:
320,192,57755,1,0,0:0:0:0:
64,192,57889,1,8,0:0:0:0:
448,192,57889,1,0,0:0:0:0:
192,192,58022,1,8,0:0:0:0:
448,192,58022,1,0,0:0:0:0:
320,192,58155,128,8,58289:0:0:0:0:
448,192,58155,128,0,58289:0:0:0:0:
64,192,58289,128,0,58422:0:0:0:0:
192,192,58289,128,0,58422:0:0:0:0:
320,192,58422,1,8,0:0:0:0:
448,192,58422,1,0,0:0:0:0:
64,192,58489,1,8,0:0:0:0:
192,192,58489,1,0,0:0:0:0:
320,192,58555,1,8,0:0:0:0:
448,192,58555,1,0,0:0:0:0:
320,192,58689,1,8,0:0:0:0:
448,192,58689,1,0,0:0:0:0:
192,192,58822,1,8,0:0:0:0:
448,192,58822,1,0,0:0:0:0:
64,192,58955,1,8,0:0:0:0:
448,192,58955,1,0,0:0:0:0:
64,192,59089,1,8,0:0:0:0:
320,192,59089,1,0,0:0:0:0:
64,192,59222,1,8,0:0:0:0:
192,192,59222,1,4,0:1:0:0:
448,192,59222,1,0,0:0:0:0:
320,192,59311,1,0,0:0:0:0:
192,192,59400,1,0,0:0:0:0:
64,192,59489,1,8,0:0:0:0:
448,192,59489,1,0,0:0:0:0:
192,192,59577,1,0,0:0:0:0:
320,192,59666,1,0,0:0:0:0:
64,192,59755,1,8,0:0:0:0:
448,192,59755,1,0,0:0:0:0:
320,192,59844,1,0,0:0:0:0:
192,192,59933,1,0,0:0:0:0:
64,192,60022,1,8,0:0:0:0:
448,192,60022,1,0,0:0:0:0:
192,192,60111,1,0,0:0:0:0:
320,192,60200,1,0,0:0:0:0:
64,192,60289,1,8,0:0:0:0:
448,192,60289,1,0,0:0:0:0:
320,192,60377,1,0,0:0:0:0:
192,192,60466,1,0,0:0:0:0:
448,192,60555,1,8,0:0:0:0:
64,192,60555,1,0,0:0:0:0:
192,192,60644,1,0,0:0:0:0:
320,192,60733,1,0,0:0:0:0:
64,192,60822,1,8,0:0:0:0:
448,192,60822,1,0,0:0:0:0:
320,192,60911,1,0,0:0:0:0:
192,192,61000,1,0,0:0:0:0:
320,192,61089,128,8,61222:0:0:0:0:
448,192,61089,128,0,61222:0:0:0:0:
64,192,61222,128,0,61355:0:0:0:0:
192,192,61222,128,0,61355:0:0:0:0:
320,192,61355,1,8,0:0:0:0:
448,192,61355,1,0,0:0:0:0:
192,192,61489,128,0,61622:0:0:0:0:
64,192,61489,128,8,61622:0:0:0:0:
320,192,61622,1,0,0:0:0:0:
192,192,61755,128,8,61889:0:0:0:0:
64,192,61755,128,0,61889:0:0:0:0:
320,192,61889,1,8,0:0:0:0:
448,192,61889,1,0,0:0:0:0:
64,192,61955,1,8,0:0:0:0:
192,192,61955,1,0,0:0:0:0:
320,192,62022,1,8,0:0:0:0:
448,192,62022,1,0,0:0:0:0:
64,192,62089,1,8,0:0:0:0:
192,192,62089,1,0,0:0:0:0:
320,192,62155,1,8,0:0:0:0:
448,192,62155,1,0,0:0:0:0:
192,192,62289,1,8,0:0:0:0:
448,192,62289,1,0,0:0:0:0:
64,192,62422,128,0,62555:0:0:0:0:
448,192,62422,128,0,62555:0:0:0:0:
192,192,62555,1,8,0:0:0:0:
320,192,62555,1,0,0:0:0:0:
192,192,62689,128,0,62822:0:0:0:0:
320,192,62689,128,0,62822:0:0:0:0:
64,192,62822,1,8,0:0:0:0:
448,192,62822,1,0,0:0:0:0:
192,192,62889,1,8,0:0:0:0:
320,192,62889,1,0,0:0:0:0:
64,192,62955,1,4,0:1:0:0:
448,192,62955,1,8,0:0:0:0:
192,192,63020,1,0,0:0:0:0:
320,192,63085,1,0,0:0:0:0:
448,192,63150,1,0,0:0:0:0:
64,192,63215,1,8,0:0:0:0:
192,192,63215,1,0,0:0:0:0:
320,192,63281,1,0,0:0:0:0:
448,192,63346,1,0,0:0:0:0:
64,192,63411,1,0,0:0:0:0:
320,192,63476,1,8,0:0:0:0:
192,192,63476,1,0,0:0:0:0:
448,192,63541,1,0,0:0:0:0:
64,192,63607,1,0,0:0:0:0:
192,192,63672,1,0,0:0:0:0:
448,192,63737,1,8,0:0:0:0:
320,192,63737,1,0,0:0:0:0:
64,192,63802,1,0,0:0:0:0:
192,192,63868,1,0,0:0:0:0:
320,192,63933,1,0,0:0:0:0:
448,192,63998,1,8,0:0:0:0:
64,192,63998,1,0,0:0:0:0:
320,192,64063,1,0,0:0:0:0:
192,192,64128,1,0,0:0:0:0:
64,192,64194,1,0,0:0:0:0:
448,192,64259,1,8,0:0:0:0:
320,192,64259,1,0,0:0:0:0:
192,192,64324,1,0,0:0:0:0:
64,192,64389,1,0,0:0:0:0:
448,192,64455,1,0,0:0:0:0:
320,192,64520,1,8,0:0:0:0:
192,192,64520,1,0,0:0:0:0:
64,192,64585,1,0,0:0:0:0:
448,192,64650,1,0,0:0:0:0:
320,192,64715,1,0,0:0:0:0:
192,192,64781,1,8,0:0:0:0:
64,192,64781,1,0,0:0:0:0:
448,192,64846,1,0,0:0:0:0:
320,192,64911,1,0,0:0:0:0:
192,192,64976,1,0,0:0:0:0:
448,192,65041,1,8,0:0:0:0:
64,192,65041,1,0,0:0:0:0:
320,192,65172,1,8,0:0:0:0:
64,192,65172,1,0,0:0:0:0:
192,192,65302,1,8,0:0:0:0:
64,192,65302,1,0,0:0:0:0:
320,192,65433,1,8,0:0:0:0:
448,192,65433,1,0,0:0:0:0:
192,192,65563,1,8,0:0:0:0:
64,192,65563,1,0,0:0:0:0:
448,192,65694,1,0,0:0:0:0:
64,192,65824,1,8,0:0:0:0:
192,192,65824,1,0,0:0:0:0:
320,192,65889,1,8,0:0:0:0:
448,192,65889,1,0,0:0:0:0:
64,192,65955,1,8,0:0:0:0:
192,192,65955,1,0,0:0:0:0:
320,192,66085,1,8,0:0:0:0:
448,192,66085,1,0,0:0:0:0:
192,192,66215,1,8,0:0:0:0:
448,192,66215,1,0,0:0:0:0:
64,192,66346,1,8,0:0:0:0:
448,192,66346,1,0,0:0:0:0:
64,192,66476,1,8,0:0:0:0:
320,192,66476,1,0,0:0:0:0:
64,192,66607,1,4,0:1:0:0:
192,192,66607,1,8,0:0:0:0:
448,192,66607,1,0,0:0:0:0:
320,192,66672,1,0,0:0:0:0:
192,192,66737,1,0,0:0:0:0:
64,192,66802,1,0,0:0:0:0:
320,192,66868,1,8,0:0:0:0:
448,192,66868,1,0,0:0:0:0:
192,192,66933,1,0,0:0:0:0:
64,192,66998,1,0,0:0:0:0:
448,192,67063,1,0,0:0:0:0:
192,192,67128,1,8,0:0:0:0:
320,192,67128,1,0,0:0:0:0:
64,192,67194,1,0,0:0:0:0:
448,192,67259,1,0,0:0:0:0:
320,192,67324,1,0,0:0:0:0:
192,192,67389,1,8,0:0:0:0:
64,192,67389,1,0,0:0:0:0:
448,192,67455,1,0,0:0:0:0:
320,192,67520,1,0,0:0:0:0:
192,192,67585,1,0,0:0:0:0:
448,192,67650,1,8,0:0:0:0:
64,192,67650,1,0,0:0:0:0:
192,192,67715,1,0,0:0:0:0:
320,192,67781,1,0,0:0:0:0:
448,192,67846,1,0,0:0:0:0:
192,192,67911,1,8,0:0:0:0:
64,192,67911,1,0,0:0:0:0:
320,192,67976,1,0,0:0:0:0:
448,192,68041,1,0,0:0:0:0:
64,192,68107,1,0,0:0:0:0:
320,192,68172,1,8,0:0:0:0:
192,192,68172,1,0,0:0:0:0:
448,192,68237,1,0,0:0:0:0:
64,192,68302,1,0,0:0:0:0:
192,192,68368,1,0,0:0:0:0:
448,192,68433,1,8,0:0:0:0:
320,192,68433,1,0,0:0:0:0:
192,192,68563,1,8,0:0:0:0:
448,192,68563,1,0,0:0:0:0:
64,192,68694,1,8,0:0:0:0:
448,192,68694,1,0,0:0:0:0:
64,192,68824,1,8,0:0:0:0:
320,192,68824,1,0,0:0:0:0:
64,192,68955,1,8,0:0:0:0:
192,192,68955,1,0,0:0:0:0:
320,192,69085,1,8,0:0:0:0:
448,192,69085,1,0,0:0:0:0:
64,192,69215,1,8,0:0:0:0:
192,192,69215,1,0,0:0:0:0:
320,192,69281,1,8,0:0:0:0:
448,192,69281,1,0,0:0:0:0:
64,192,69346,1,8,0:0:0:0:
192,192,69346,1,0,0:0:0:0:
320,192,69411,1,8,0:0:0:0:
448,192,69411,1,0,0:0:0:0:
64,192,69476,1,8,0:0:0:0:
192,192,69476,1,0,0:0:0:0:
64,192,69607,1,8,0:0:0:0:
320,192,69607,1,0,0:0:0:0:
64,192,69737,128,0,69868:0:0:0:0:
448,192,69737,128,0,69868:0:0:0:0:
192,192,69868,1,8,0:0:0:0:
320,192,69868,1,0,0:0:0:0:
448,192,69998,1,0,0:0:0:0:
320,192,70031,1,0,0:0:0:0:
192,192,70063,1,0,0:0:0:0:
64,192,70096,1,0,0:0:0:0:
448,192,70128,1,0,0:0:0:0:
320,192,70161,1,0,0:0:0:0:
192,192,70194,1,0,0:0:0:0:
64,192,70226,1,0,0:0:0:0:
448,192,70259,128,8,74188:0:0:0:0:
320,192,70259,128,4,72316:0:1:0:0:
64,192,74188,1,8,0:3:0:0:
192,192,74188,1,0,0:0:0:0:
320,192,74438,1,8,0:3:0:0:
448,192,74438,1,0,0:0:0:0:
192,192,74688,1,8,0:3:0:0:
64,192,74688,1,0,0:0:0:0:
448,192,74938,1,8,0:3:0:0:
320,192,74938,1,0,0:0:0:0:
64,192,75188,1,8,0:3:0:0:
192,192,75188,1,0,0:0:0:0:
448,192,75428,1,8,0:3:0:0:
320,192,75428,1,0,0:0:0:0:
192,192,75668,1,8,0:3:0:0:
64,192,75668,1,0,0:0:0:0:
320,192,75908,1,8,0:3:0:0:
448,192,75908,1,0,0:0:0:0:
64,192,76023,1,8,0:3:0:0:
192,192,76023,1,0,0:0:0:0:
320,192,76138,1,8,0:3:0:0:
448,192,76138,1,0,0:0:0:0:
64,192,76254,1,8,0:3:0:0:
192,192,76254,1,0,0:0:0:0:
320,192,76369,1,8,0:3:0:0:
448,192,76369,1,0,0:0:0:0:
64,192,76484,1,8,0:3:0:0:
192,192,76484,1,0,0:0:0:0:
320,192,76600,1,8,0:3:0:0:
448,192,76600,1,0,0:0:0:0:
64,192,76715,1,8,0:3:0:0:
192,192,76715,1,0,0:0:0:0:
320,192,76831,1,8,0:3:0:0:
448,192,76831,1,0,0:0:0:0:
64,192,76942,1,8,0:3:0:0:
192,192,76942,1,0,0:0:0:0:
320,192,77053,1,8,0:3:0:0:
448,192,77053,1,0,0:0:0:0:
64,192,77275,1,4,0:1:0:0:
448,192,77275,1,8,0:0:0:0:
192,192,77275,1,4,0:0:0:0:
64,192,77386,1,4,0:0:0:0:
192,192,77386,1,4,0:1:0:0:
448,192,77386,1,8,0:0:0:0:
64,192,77497,1,8,0:0:0:0:
320,192,77497,1,4,0:1:0:0:
448,192,77497,1,4,0:0:0:0:
448,192,77608,1,4,0:1:0:0:
64,192,77608,1,8,0:0:0:0:
320,192,77608,1,4,0:0:0:0:
64,192,77719,1,4,0:0:0:0:
192,192,77719,1,4,0:1:0:0:
320,192,77719,1,8,0:0:0:0:
448,192,77719,1,0,0:0:0:0:
64,192,77826,1,2,0:0:0:0:
192,192,77826,1,8,0:0:0:0:
320,192,77933,1,8,0:0:0:0:
448,192,77933,1,0,0:0:0:0:
448,192,78040,1,8,0:0:0:0:
64,192,78040,1,0,0:0:0:0:
64,192,78147,1,0,0:0:0:0:
192,192,78147,1,0,0:0:0:0:
320,192,78201,1,0,0:0:0:0:
448,192,78254,1,0,0:0:0:0:
64,192,78254,1,0,0:0:0:0:
192,192,78308,1,0,0:0:0:0:
448,192,78361,1,8,0:0:0:0:
320,192,78361,1,0,0:0:0:0:
64,192,78469,1,8,0:0:0:0:
192,192,78469,1,2,0:0:0:0:
320,192,78576,1,8,0:0:0:0:
448,192,78576,1,0,0:0:0:0:
64,192,78683,1,8,0:0:0:0:
192,192,78683,1,0,0:0:0:0:
448,192,78790,1,0,0:0:0:0:
64,192,78790,1,0,0:0:0:0:
192,192,78844,1,0,0:0:0:0:
448,192,78897,1,8,0:0:0:0:
320,192,78897,1,0,0:0:0:0:
192,192,79004,1,8,0:0:0:0:
64,192,79004,1,2,0:0:0:0:
320,192,79111,1,8,0:0:0:0:
192,192,79111,1,0,0:0:0:0:
448,192,79219,1,8,0:0:0:0:
320,192,79219,1,0,0:0:0:0:
192,192,79272,1,8,0:0:0:0:
64,192,79272,1,0,0:0:0:0:
448,192,79326,1,8,0:0:0:0:
320,192,79326,1,0,0:0:0:0:
64,192,79433,1,8,0:0:0:0:
192,192,79433,1,2,0:0:0:0:
192,192,79540,1,8,0:0:0:0:
320,192,79540,1,0,0:0:0:0:
448,192,79647,1,8,0:0:0:0:
320,192,79647,1,2,0:0:0:0:
64,192,79754,1,0,0:0:0:0:
192,192,79754,1,0,0:0:0:0:
320,192,79808,1,0,0:0:0:0:
448,192,79861,1,0,0:0:0:0:
64,192,79861,1,0,0:0:0:0:
192,192,79915,1,0,0:0:0:0:
320,192,79969,1,8,0:0:0:0:
448,192,79969,1,0,0:0:0:0:
64,192,80076,1,8,0:0:0:0:
192,192,80076,1,0,0:0:0:0:
64,192,80183,1,8,0:0:0:0:
448,192,80183,1,2,0:0:0:0:
320,192,80290,1,8,0:0:0:0:
192,192,80290,1,0,0:0:0:0:
448,192,80397,1,0,0:0:0:0:
64,192,80504,128,0,80965:0:0:0:0:
192,192,80965,1,8,0:0:0:0:
320,192,80965,1,4,0:1:0:0:
448,192,80965,1,0,0:0:0:0:
64,192,81072,1,8,0:0:0:0:
192,192,81072,1,2,0:0:0:0:
448,192,81179,1,8,0:0:0:0:
320,192,81179,1,0,0:0:0:0:
448,192,81286,1,8,0:0:0:0:
64,192,81286,1,0,0:0:0:0:
64,192,81393,1,0,0:0:0:0:
192,192,81393,1,0,0:0:0:0:
320,192,81447,1,0,0:0:0:0:
64,192,81500,1,0,0:0:0:0:
448,192,81500,1,0,0:0:0:0:
192,192,81554,1,0,0:0:0:0:
448,192,81607,1,8,0:0:0:0:
320,192,81607,1,0,0:0:0:0:
192,192,81715,1,2,0:0:0:0:
64,192,81715,1,8,0:0:0:0:
320,192,81822,1,8,0:0:0:0:
448,192,81822,1,0,0:0:0:0:
192,192,81929,1,8,0:0:0:0:
64,192,81929,1,0,0:0:0:0:
64,192,82036,1,0,0:0:0:0:
448,192,82036,1,0,0:0:0:0:
192,192,82090,1,0,0:0:0:0:
448,192,82143,1,8,0:0:0:0:
320,192,82143,1,0,0:0:0:0:
192,192,82250,1,8,0:0:0:0:
64,192,82250,1,2,0:0:0:0:
192,192,82357,1,8,0:0:0:0:
320,192,82357,1,0,0:0:0:0:
320,192,82465,1,8,0:0:0:0:
448,192,82465,1,0,0:0:0:0:
64,192,82518,1,8,0:0:0:0:
192,192,82518,1,0,0:0:0:0:
448,192,82572,1,8,0:0:0:0:
320,192,82572,1,0,0:0:0:0:
64,192,82679,1,8,0:0:0:0:
192,192,82679,1,2,0:0:0:0:
320,192,82786,1,8,0:0:0:0:
192,192,82786,1,0,0:0:0:0:
320,192,82893,1,8,0:0:0:0:
448,192,82893,1,2,0:0:0:0:
64,192,83000,1,0,0:0:0:0:
192,192,83000,1,0,0:0:0:0:
320,192,83054,1,0,0:0:0:0:
448,192,83107,1,0,0:0:0:0:
64,192,83107,1,0,0:0:0:0:
192,192,83161,1,0,0:0:0:0:
448,192,83215,1,8,0:0:0:0:
320,192,83215,1,0,0:0:0:0:
192,192,83322,1,8,0:0:0:0:
64,192,83322,1,0,0:0:0:0:
64,192,83429,1,8,0:0:0:0:
448,192,83429,1,2,0:0:0:0:
320,192,83536,1,8,0:0:0:0:
192,192,83536,1,0,0:0:0:0:
448,192,83643,1,0,0:0:0:0:
64,192,83750,128,0,84211:0:0:0:0:
320,192,84211,1,8,0:0:0:0:
192,192,84211,1,4,0:1:0:0:
448,192,84211,1,0,0:0:0:0:
64,192,84318,1,8,0:0:0:0:
192,192,84318,1,0,0:0:0:0:
320,192,84371,1,8,0:0:0:0:
448,192,84371,1,0,0:0:0:0:
64,192,84425,1,8,0:0:0:0:
192,192,84425,1,0,0:0:0:0:
320,192,84532,1,8,0:0:0:0:
448,192,84532,1,2,0:0:0:0:
192,192,84639,1,8,0:0:0:0:
320,192,84639,1,0,0:0:0:0:
64,192,84746,1,8,0:0:0:0:
192,192,84746,1,0,0:0:0:0:
448,192,84853,1,4,0:0:0:0:
64,192,84853,1,0,0:0:0:0:
192,192,84961,1,4,0:0:0:0:
320,192,84961,1,0,0:0:0:0:
448,192,85068,1,4,0:0:0:0:
320,192,85068,1,2,0:0:0:0:
448,192,85175,1,0,0:0:0:0:
192,192,85282,1,4,0:0:0:0:
64,192,85282,1,2,0:0:0:0:
64,192,85389,1,0,0:0:0:0:
192,192,85496,1,2,0:0:0:0:
320,192,85496,1,8,0:0:0:0:
320,192,85603,1,8,0:0:0:0:
192,192,85603,1,2,0:0:0:0:
64,192,85711,1,0,0:0:0:0:
448,192,85711,1,0,0:0:0:0:
192,192,85764,1,0,0:0:0:0:
448,192,85818,1,0,0:0:0:0:
320,192,85818,1,0,0:0:0:0:
192,192,85871,1,0,0:0:0:0:
448,192,85925,1,8,0:0:0:0:
64,192,85925,1,2,0:0:0:0:
192,192,86032,1,8,0:0:0:0:
320,192,86032,1,2,0:0:0:0:
64,192,86139,1,0,0:0:0:0:
448,192,86139,1,0,0:0:0:0:
320,192,86193,1,0,0:0:0:0:
64,192,86246,1,8,0:0:0:0:
192,192,86246,1,2,0:0:0:0:
192,192,86353,1,8,0:0:0:0:
320,192,86353,1,2,0:0:0:0:
320,192,86461,1,8,0:0:0:0:
448,192,86461,1,2,0:0:0:0:
64,192,86568,1,0,0:0:0:0:
448,192,86568,1,0,0:0:0:0:
320,192,86621,1,0,0:0:0:0:
192,192,86675,1,4,0:0:0:0:
64,192,86675,1,0,0:0:0:0:
320,192,86782,1,2,0:0:0:0:
448,192,86782,1,4,0:0:0:0:
64,192,86889,1,2,0:0:0:0:
192,192,86889,1,4,0:0:0:0:
64,192,86996,1,8,0:0:0:0:
320,192,86996,1,4,0:1:0:0:
448,192,86996,1,0,0:0:0:0:
192,192,87103,1,8,0:0:0:0:
64,192,87211,1,4,0:1:0:0:
448,192,87211,1,0,0:0:0:0:
320,192,87211,1,0,0:0:0:0:
192,192,87318,1,2,0:0:0:0:
320,192,87318,1,8,0:0:0:0:
64,192,87425,1,4,0:1:0:0:
448,192,87425,1,4,0:0:0:0:
192,192,87425,1,0,0:0:0:0:
64,192,87532,1,0,0:0:0:0:
448,192,87639,1,4,0:0:0:0:
192,192,87639,1,2,0:0:0:0:
448,192,87746,1,0,0:0:0:0:
320,192,87853,1,4,0:0:0:0:
64,192,87853,1,2,0:0:0:0:
64,192,87960,1,0,0:0:0:0:
448,192,88067,1,2,0:0:0:0:
192,192,88067,1,4,0:0:0:0:
448,192,88175,1,0,0:0:0:0:
64,192,88282,1,2,0:0:0:0:
192,192,88282,1,4,0:1:0:0:
320,192,88282,1,4,0:0:0:0:
192,192,88389,1,0,0:0:0:0:
320,192,88496,1,4,0:0:0:0:
64,192,88496,1,2,0:0:0:0:
320,192,88603,1,0,0:0:0:0:
192,192,88710,1,4,0:0:0:0:
448,192,88710,1,2,0:0:0:0:
192,192,88817,1,0,0:0:0:0:
64,192,88925,1,4,0:0:0:0:
320,192,88925,1,2,0:0:0:0:
320,192,89032,1,0,0:0:0:0:
64,192,89139,1,4,0:0:0:0:
192,192,89139,1,2,0:0:0:0:
448,192,89139,1,4,0:1:0:0:
192,192,89246,1,8,0:0:0:0:
320,192,89246,1,0,0:0:0:0:
320,192,89353,1,2,0:0:0:0:
448,192,89353,1,4,0:0:0:0:
64,192,89460,1,8,0:0:0:0:
192,192,89460,1,0,0:0:0:0:
64,192,89567,1,2,0:0:0:0:
320,192,89567,1,4,0:1:0:0:
448,192,89567,1,4,0:0:0:0:
192,192,89675,1,8,0:0:0:0:
320,192,89675,1,0,0:0:0:0:
64,192,89782,1,4,0:0:0:0:
192,192,89782,1,2,0:0:0:0:
320,192,89889,1,8,0:0:0:0:
448,192,89889,1,0,0:0:0:0:
64,192,89996,1,8,0:0:0:0:
192,192,89996,1,2,0:0:0:0:
320,192,89996,1,4,0:1:0:0:
448,192,89996,1,4,0:0:0:0:
448,192,90157,1,8,0:0:0:0:
320,192,90157,1,2,0:0:0:0:
192,192,90157,1,4,0:1:0:0:
64,192,90157,1,4,0:0:0:0:
192,192,90317,1,8,0:0:0:0:
64,192,90317,1,2,0:0:0:0:
320,192,90317,1,4,0:1:0:0:
448,192,90317,1,4,0:0:0:0:
448,192,90478,1,8,0:0:0:0:
320,192,90478,1,2,0:0:0:0:
192,192,90478,1,4,0:1:0:0:
64,192,90478,1,4,0:0:0:0:
64,192,90639,128,4,91729:0:0:0:0:
192,192,90639,128,4,92002:0:1:0:0:
320,192,90639,128,2,92275:0:0:0:0:
448,192,90639,128,8,92820:0:0:0:0:
64,192,92275,1,8,0:0:0:0:
192,192,92275,1,0,0:0:0:0:
192,192,92411,1,8,0:0:0:0:
64,192,92411,1,0,0:0:0:0:
64,192,92548,1,8,0:0:0:0:
192,192,92548,1,0,0:0:0:0:
192,192,92684,1,8,0:0:0:0:
64,192,92684,1,0,0:0:0:0:
320,192,92820,1,8,0:3:0:0:
192,192,92820,1,0,0:0:0:0:
64,192,92820,1,0,0:0:0:0:
64,192,93092,1,0,0:0:0:0:
192,192,93229,1,0,0:0:0:0:
320,192,93365,1,0,0:0:0:0:
448,192,93501,1,0,0:0:0:0:
192,192,93638,1,0,0:0:0:0:
320,192,93774,1,0,0:0:0:0:
64,192,93910,1,8,0:3:0:0:
448,192,93910,1,0,0:0:0:0:
192,192,94047,1,0,0:0:0:0:
320,192,94183,1,0,0:0:0:0:
448,192,94320,1,0,0:0:0:0:
448,192,94456,1,0,0:0:0:0:
192,192,94592,1,0,0:0:0:0:
320,192,94729,1,0,0:0:0:0:
192,192,94865,1,0,0:0:0:0:
64,192,95001,1,8,0:3:0:0:
448,192,95001,1,0,0:0:0:0:
64,192,95274,1,0,0:0:0:0:
192,192,95410,1,0,0:0:0:0:
320,192,95547,1,8,0:3:0:0:
64,192,95547,1,0,0:0:0:0:
448,192,95683,1,0,0:0:0:0:
192,192,95820,1,0,0:0:0:0:
320,192,95956,1,0,0:0:0:0:
64,192,96092,1,8,0:3:0:0:
448,192,96092,1,0,0:0:0:0:
320,192,96229,1,0,0:0:0:0:
192,192,96365,1,0,0:0:0:0:
64,192,96501,1,0,0:0:0:0:
192,192,96638,1,8,0:3:0:0:
448,192,96638,1,0,0:0:0:0:
320,192,96774,1,0,0:0:0:0:
448,192,96910,1,0,0:0:0:0:
64,192,97183,1,8,0:3:0:0:
448,192,97183,1,0,0:0:0:0:
192,192,97456,1,0,0:0:0:0:
64,192,97592,1,0,0:0:0:0:
320,192,97729,1,0,0:0:0:0:
192,192,97865,1,0,0:0:0:0:
448,192,98001,1,0,0:0:0:0:
320,192,98138,1,0,0:0:0:0:
64,192,98274,1,8,0:3:0:0:
448,192,98274,1,0,0:0:0:0:
192,192,98547,1,0,0:0:0:0:
320,192,98683,1,0,0:0:0:0:
320,192,98820,1,0,0:0:0:0:
64,192,98956,1,0,0:0:0:0:
320,192,99092,1,0,0:0:0:0:
192,192,99229,1,0,0:0:0:0:
64,192,99365,1,8,0:3:0:0:
448,192,99365,1,0,0:0:0:0:
192,192,99638,1,0,0:0:0:0:
320,192,99774,1,0,0:0:0:0:
64,192,99910,1,8,0:3:0:0:
448,192,99910,1,0,0:0:0:0:
192,192,100047,1,0,0:0:0:0:
320,192,100320,1,0,0:0:0:0:
64,192,100456,1,8,0:3:0:0:
448,192,100456,1,0,0:0:0:0:
192,192,100729,1,0,0:0:0:0:
64,192,101001,1,8,0:3:0:0:
448,192,101001,1,0,0:0:0:0:
64,192,101138,1,8,0:3:0:0:
448,192,101138,1,0,0:0:0:0:
64,192,101274,1,8,0:3:0:0:
448,192,101274,1,0,0:0:0:0:
448,192,101976,1,4,0:0:0:0:
320,192,101976,1,2,0:0:0:0:
448,192,102083,1,4,0:0:0:0:
320,192,102083,1,2,0:0:0:0:
192,192,102190,1,4,0:0:0:0:
64,192,102190,1,2,0:0:0:0:
64,192,102298,1,2,0:0:0:0:
192,192,102298,1,4,0:0:0:0:
320,192,102405,1,4,0:0:0:0:
448,192,102405,128,2,102619:0:0:0:0:
192,192,102512,1,0,0:0:0:0:
64,192,102619,1,2,0:0:0:0:
320,192,102619,128,4,102833:0:0:0:0:
448,192,102726,1,0,0:0:0:0:
192,192,102833,1,4,0:0:0:0:
64,192,102833,128,2,103048:0:0:0:0:
320,192,102940,1,0,0:0:0:0:
448,192,103048,1,4,0:0:0:0:
192,192,103048,128,2,103262:0:0:0:0:
320,192,103155,1,0,0:0:0:0:
448,192,103262,1,4,0:0:0:0:
64,192,103262,128,2,103476:0:0:0:0:
192,192,103369,1,0,0:0:0:0:
320,192,103476,1,2,0:0:0:0:
448,192,103476,1,4,0:0:0:0:
448,192,103583,1,4,0:0:0:0:
320,192,103583,1,2,0:0:0:0:
192,192,103690,1,2,0:0:0:0:
64,192,103690,128,4,103905:0:0:0:0:
320,192,103798,1,0,0:0:0:0:
192,192,103905,128,4,104119:0:0:0:0:
448,192,103905,1,2,0:0:0:0:
64,192,104012,1,0,0:0:0:0:
320,192,104119,1,4,0:0:0:0:
448,192,104119,128,2,104333:0:0:0:0:
192,192,104226,1,0,0:0:0:0:
320,192,104333,128,2,104548:0:0:0:0:
64,192,104333,1,4,0:0:0:0:
448,192,104440,1,0,0:0:0:0:
64,192,104548,1,2,0:0:0:0:
192,192,104548,128,4,104762:0:0:0:0:
320,192,104655,1,0,0:0:0:0:
64,192,104762,128,4,104976:0:0:0:0:
448,192,104762,1,2,0:0:0:0:
192,192,104869,1,0,0:0:0:0:
448,192,104976,1,4,0:0:0:0:
320,192,104976,128,2,105190:0:0:0:0:
64,192,105083,1,0,0:0:0:0:
448,192,105190,1,4,0:0:0:0:
192,192,105190,128,2,105405:0:0:0:0:
320,192,105298,1,0,0:0:0:0:
64,192,105405,128,4,105619:0:0:0:0:
448,192,105405,1,2,0:0:0:0:
320,192,105512,1,0,0:0:0:0:
192,192,105619,1,4,0:0:0:0:
448,192,105619,128,2,105833:0:0:0:0:
64,192,105726,1,0,0:0:0:0:
192,192,105833,1,4,0:0:0:0:
320,192,105833,128,2,106048:0:0:0:0:
448,192,105940,1,0,0:0:0:0:
64,192,106048,1,4,0:0:0:0:
192,192,106048,128,2,106262:0:0:0:0:
320,192,106155,1,0,0:0:0:0:
64,192,106262,128,2,106690:0:0:0:0:
448,192,106262,128,4,106690:0:0:0:0:
320,192,106369,1,0,0:0:0:0:
192,192,106476,1,0,0:0:0:0:
320,192,106583,1,0,0:0:0:0:
192,192,106690,128,4,106905:0:0:0:0:
320,192,106690,1,2,0:0:0:0:
64,192,106798,1,0,0:0:0:0:
320,192,106905,128,4,107119:0:0:0:0:
448,192,106905,1,2,0:0:0:0:
192,192,107012,1,0,0:0:0:0:
64,192,107119,128,4,107333:0:0:0:0:
448,192,107119,1,2,0:0:0:0:
192,192,107226,1,0,0:0:0:0:
448,192,107333,128,4,107547:0:0:0:0:
320,192,107333,1,2,0:0:0:0:
64,192,107440,1,0,0:0:0:0:
320,192,107547,128,4,107762:0:0:0:0:
192,192,107547,1,2,0:0:0:0:
448,192,107655,1,0,0:0:0:0:
64,192,107762,1,4,0:0:0:0:
192,192,107762,128,2,107976:0:0:0:0:
320,192,107869,1,0,0:0:0:0:
64,192,107976,128,4,108405:0:0:0:0:
448,192,107976,128,2,108405:0:0:0:0:
320,192,108083,1,0,0:0:0:0:
192,192,108190,1,0,0:0:0:0:
320,192,108297,1,0,0:0:0:0:
192,192,108405,128,2,108833:0:0:0:0:
320,192,108405,128,4,108833:0:0:0:0:
64,192,108512,1,0,0:0:0:0:
448,192,108619,1,0,0:0:0:0:
64,192,108726,1,0,0:0:0:0:
64,192,108833,1,2,0:0:0:0:
448,192,108833,128,4,109047:0:0:0:0:
320,192,108940,1,0,0:0:0:0:
192,192,109047,128,2,109262:0:0:0:0:
64,192,109047,1,4,0:0:0:0:
448,192,109155,1,0,0:0:0:0:
64,192,109262,128,4,109476:0:0:0:0:
320,192,109262,1,2,0:0:0:0:
192,192,109369,1,0,0:0:0:0:
448,192,109476,128,4,109690:0:0:0:0:
320,192,109476,1,2,0:0:0:0:
192,192,109583,1,0,0:0:0:0:
320,192,109690,128,4,109905:0:0:0:0:
64,192,109690,1,2,0:0:0:0:
448,192,109797,1,0,0:0:0:0:
192,192,109905,128,2,110119:0:0:0:0:
64,192,109905,1,4,0:0:0:0:
320,192,110012,1,0,0:0:0:0:
448,192,110119,128,4,110333:0:0:0:0:
64,192,110119,1,2,0:0:0:0:
192,192,110226,1,0,0:0:0:0:
320,192,110333,128,4,110547:0:0:0:0:
64,192,110333,1,2,0:0:0:0:
448,192,110440,1,0,0:0:0:0:
64,192,110547,1,8,0:0:0:0:
192,192,110547,1,0,0:0:0:0:
320,192,110601,1,8,0:0:0:0:
448,192,110601,1,0,0:0:0:0:
64,192,110655,1,8,0:0:0:0:
192,192,110655,1,0,0:0:0:0:
320,192,110708,1,8,0:0:0:0:
448,192,110708,1,0,0:0:0:0:
192,192,110762,128,4,110976:0:0:0:0:
64,192,110762,1,2,0:0:0:0:
448,192,110976,1,8,0:0:0:0:
320,192,110976,1,0,0:0:0:0:
64,192,111030,1,8,0:0:0:0:
192,192,111030,1,0,0:0:0:0:
320,192,111083,1,8,0:0:0:0:
448,192,111083,1,0,0:0:0:0:
64,192,111137,1,8,0:0:0:0:
192,192,111137,1,0,0:0:0:0:
320,192,111190,128,4,111405:0:0:0:0:
448,192,111190,1,2,0:0:0:0:
448,192,111405,128,4,111619:0:0:0:0:
64,192,111405,1,2,0:0:0:0:
64,192,111619,1,2,0:0:0:0:
192,192,111619,1,4,0:0:0:0:
320,192,111690,1,2,0:0:0:0:
448,192,111690,1,4,0:0:0:0:
64,192,111762,1,2,0:0:0:0:
192,192,111762,1,4,0:0:0:0:
448,192,111833,1,2,0:0:0:0:
320,192,111833,128,4,112047:0:0:0:0:
64,192,111940,1,0,0:0:0:0:
192,192,112047,128,2,112262:0:0:0:0:
448,192,112047,1,4,0:0:0:0:
320,192,112155,1,0,0:0:0:0:
64,192,112262,1,2,0:0:0:0:
448,192,112262,128,4,112476:0:0:0:0:
320,192,112262,1,2,0:2:0:0:
192,192,112369,1,0,0:0:0:0:
64,192,112476,128,2,112690:0:0:0:0:
320,192,112476,1,4,0:0:0:0:
448,192,112583,1,0,0:0:0:0:
192,192,112690,128,2,112905:0:0:0:0:
320,192,112690,1,4,0:0:0:0:
64,192,112797,1,0,0:0:0:0:
320,192,112905,128,2,113119:0:0:0:0:
448,192,112905,1,4,0:0:0:0:
192,192,113012,1,0,0:0:0:0:
64,192,113119,128,2,113333:0:0:0:0:
448,192,113119,1,4,0:0:0:0:
192,192,113119,1,2,0:2:0:0:
320,192,113226,1,0,0:0:0:0:
448,192,113333,128,4,113547:0:0:0:0:
192,192,113333,1,2,0:0:0:0:
64,192,113440,1,0,0:0:0:0:
320,192,113547,128,4,113762:0:0:0:0:
192,192,113547,1,2,0:0:0:0:
448,192,113655,1,0,0:0:0:0:
64,192,113762,1,2,0:0:0:0:
192,192,113762,128,4,113976:0:0:0:0:
320,192,113869,1,0,0:0:0:0:
64,192,113976,128,4,114190:0:0:0:0:
320,192,113976,1,2,0:2:0:0:
448,192,113976,1,2,0:0:0:0:
192,192,114083,1,0,0:0:0:0:
320,192,114190,1,4,0:0:0:0:
448,192,114190,1,2,0:0:0:0:
64,192,114262,1,4,0:0:0:0:
192,192,114262,1,2,0:0:0:0:
320,192,114333,1,4,0:0:0:0:
448,192,114333,1,2,0:0:0:0:
64,192,114405,1,4,0:0:0:0:
192,192,114405,128,2,114619:0:0:0:0:
448,192,114512,1,0,0:0:0:0:
64,192,114619,1,2,0:0:0:0:
320,192,114619,128,4,114833:0:0:0:0:
448,192,114726,1,0,0:0:0:0:
192,192,114833,128,4,115047:0:0:0:0:
64,192,114833,1,2,0:0:0:0:
320,192,114940,1,0,0:0:0:0:
64,192,115047,128,4,115262:0:0:0:0:
448,192,115047,1,2,0:0:0:0:
192,192,115155,1,0,0:0:0:0:
320,192,115262,1,8,0:0:0:0:
448,192,115262,128,0,115481:0:0:0:0:
64,192,115481,128,0,115695:0:0:0:0:
320,192,115695,1,0,0:0:0:0:
448,192,115695,1,8,0:0:0:0:
64,192,115909,128,0,116124:0:0:0:0:
320,192,116124,1,0,0:0:0:0:
448,192,116124,1,8,0:0:0:0:
192,192,116195,1,0,0:0:0:0:
320,192,116267,1,0,0:0:0:0:
64,192,116338,1,0,0:0:0:0:
64,192,116445,1,0,0:0:0:0:
320,192,116552,1,8,0:0:0:0:
448,192,116552,128,0,116767:0:0:0:0:
64,192,116767,128,0,116981:0:0:0:0:
192,192,116981,1,8,0:0:0:0:
320,192,117195,1,0,0:0:0:0:
448,192,117195,1,8,0:0:0:0:
64,192,117409,1,0,0:0:0:0:
192,192,117409,1,8,0:0:0:0:
192,192,117517,1,8,0:0:0:0:
320,192,117624,1,0,0:0:0:0:
448,192,117624,1,8,0:0:0:0:
192,192,117838,1,8,0:0:0:0:
64,192,117838,128,0,118052:0:0:0:0:
320,192,118052,1,8,0:0:0:0:
448,192,118052,128,0,118267:0:0:0:0:
64,192,118267,1,8,0:0:0:0:
192,192,118267,1,0,0:0:0:0:
320,192,118374,1,8,0:0:0:0:
448,192,118374,1,0,0:0:0:0:
64,192,118481,1,0,0:0:0:0:
192,192,118508,1,0,0:0:0:0:
320,192,118534,1,0,0:0:0:0:
448,192,118561,1,0,0:0:0:0:
64,192,118588,1,0,0:0:0:0:
192,192,118615,1,0,0:0:0:0:
320,192,118642,1,0,0:0:0:0:
448,192,118668,1,0,0:0:0:0:
64,192,118695,1,4,0:0:0:0:
192,192,118695,1,4,0:1:0:0:
320,192,118802,1,2,0:0:0:0:
448,192,118802,1,0,0:0:0:0:
64,192,118909,1,4,0:0:0:0:
448,192,118909,1,0,0:0:0:0:
192,192,119017,1,2,0:0:0:0:
320,192,119017,1,0,0:0:0:0:
64,192,119124,1,4,0:0:0:0:
192,192,119124,1,0,0:0:0:0:
320,192,119231,1,2,0:0:0:0:
448,192,119231,1,0,0:0:0:0:
64,192,119338,1,4,0:0:0:0:
320,192,119338,1,0,0:0:0:0:
192,192,119445,1,2,0:0:0:0:
448,192,119445,1,0,0:0:0:0:
64,192,119552,1,4,0:0:0:0:
192,192,119552,1,0,0:0:0:0:
320,192,119659,1,2,0:0:0:0:
448,192,119659,1,0,0:0:0:0:
192,192,119767,1,8,0:0:0:0:
64,192,119767,128,0,120228:0:0:0:0:
192,192,120228,1,4,0:0:0:0:
448,192,120228,1,0,0:0:0:0:
320,192,120335,1,2,0:0:0:0:
64,192,120335,1,0,0:0:0:0:
64,192,120442,1,4,0:0:0:0:
192,192,120442,1,0,0:0:0:0:
448,192,120549,1,2,0:0:0:0:
320,192,120549,1,0,0:0:0:0:
192,192,120656,1,8,0:0:0:0:
64,192,120656,128,0,121117:0:0:0:0:
192,192,121117,1,4,0:0:0:0:
448,192,121117,1,0,0:0:0:0:
320,192,121224,1,2,0:0:0:0:
448,192,121224,1,0,0:0:0:0:
192,192,121331,1,8,0:0:0:0:
64,192,121331,128,0,121792:0:0:0:0:
448,192,121792,1,4,0:0:0:0:
192,192,121792,1,0,0:0:0:0:
64,192,121899,1,2,0:0:0:0:
320,192,121899,1,0,0:0:0:0:
64,192,122006,1,4,0:0:0:0:
192,192,122006,1,0,0:0:0:0:
448,192,122113,1,2,0:0:0:0:
320,192,122113,1,0,0:0:0:0:
448,192,122220,1,4,0:0:0:0:
64,192,122220,1,0,0:0:0:0:
192,192,122327,1,2,0:0:0:0:
320,192,122327,1,0,0:0:0:0:
64,192,122434,1,4,0:0:0:0:
192,192,122434,1,0,0:0:0:0:
320,192,122542,1,2,0:0:0:0:
448,192,122542,1,0,0:0:0:0:
192,192,122649,1,8,0:0:0:0:
64,192,122649,128,0,123110:0:0:0:0:
192,192,123110,1,4,0:0:0:0:
448,192,123110,1,0,0:0:0:0:
448,192,123217,1,2,0:0:0:0:
320,192,123217,1,0,0:0:0:0:
192,192,123324,1,8,0:0:0:0:
64,192,123324,128,0,123670:0:0:0:0:
192,192,123670,1,2,0:0:0:0:
448,192,123670,1,0,0:0:0:0:
448,192,123777,1,4,0:0:0:0:
320,192,123777,1,0,0:0:0:0:
64,192,123884,1,2,0:0:0:0:
192,192,123884,1,0,0:0:0:0:
320,192,123991,1,8,0:0:0:0:
448,192,123991,128,0,124452:0:0:0:0:
64,192,124452,1,4,0:0:0:0:
320,192,124452,1,0,0:0:0:0:
192,192,124559,1,2,0:0:0:0:
448,192,124559,1,0,0:0:0:0:
448,192,124666,1,4,0:0:0:0:
320,192,124666,1,0,0:0:0:0:
64,192,124773,1,2,0:0:0:0:
192,192,124773,1,0,0:0:0:0:
320,192,124880,1,8,0:0:0:0:
448,192,124880,1,0,0:0:0:0:
192,192,124987,1,8,0:0:0:0:
448,192,124987,1,0,0:0:0:0:
64,192,125094,1,8,0:0:0:0:
448,192,125094,1,0,0:0:0:0:
64,192,125202,1,8,0:0:0:0:
320,192,125202,1,0,0:0:0:0:
192,192,125309,1,8,0:0:0:0:
64,192,125309,1,0,0:0:0:0:
448,192,125362,1,8,0:0:0:0:
320,192,125362,1,0,0:0:0:0:
192,192,125416,1,8,0:0:0:0:
64,192,125416,1,0,0:0:0:0:
448,192,125469,1,8,0:0:0:0:
320,192,125469,1,0,0:0:0:0:
64,192,125523,1,0,0:0:0:0:
192,192,125550,1,0,0:0:0:0:
320,192,125577,1,0,0:0:0:0:
448,192,125603,1,0,0:0:0:0:
64,192,125630,1,0,0:0:0:0:
192,192,125657,1,0,0:0:0:0:
320,192,125684,1,0,0:0:0:0:
448,192,125710,1,0,0:0:0:0:
192,192,125737,1,4,0:1:0:0:
64,192,125737,1,4,0:0:0:0:
320,192,125844,1,2,0:0:0:0:
448,192,125844,1,0,0:0:0:0:
192,192,125952,1,8,0:0:0:0:
64,192,125952,128,0,126298:0:0:0:0:
192,192,126298,1,2,0:0:0:0:
448,192,126298,1,0,0:0:0:0:
320,192,126405,1,4,0:0:0:0:
448,192,126405,1,0,0:0:0:0:
64,192,126512,1,2,0:0:0:0:
192,192,126512,1,0,0:0:0:0:
320,192,126619,1,8,0:0:0:0:
448,192,126619,128,0,126965:0:0:0:0:
64,192,126965,1,2,0:0:0:0:
192,192,126965,1,0,0:0:0:0:
320,192,127072,1,8,0:0:0:0:
448,192,127072,128,0,127418:0:0:0:0:
64,192,127418,1,2,0:0:0:0:
320,192,127418,1,0,0:0:0:0:
64,192,127525,1,4,0:0:0:0:
192,192,127525,1,0,0:0:0:0:
448,192,127632,1,2,0:0:0:0:
192,192,127632,1,0,0:0:0:0:
320,192,127739,1,4,0:0:0:0:
448,192,127739,1,0,0:0:0:0:
64,192,127846,1,2,0:0:0:0:
192,192,127846,1,0,0:0:0:0:
320,192,127953,1,8,0:0:0:0:
448,192,127953,128,0,128414:0:0:0:0:
64,192,128414,1,4,0:0:0:0:
320,192,128414,1,0,0:0:0:0:
64,192,128521,1,2,0:0:0:0:
192,192,128521,1,0,0:0:0:0:
320,192,128628,1,8,0:0:0:0:
448,192,128628,128,0,129320:0:0:0:0:
192,192,129320,1,4,0:0:0:0:
320,192,129320,1,0,0:0:0:0:
64,192,129427,1,2,0:0:0:0:
192,192,129427,1,0,0:0:0:0:
320,192,129534,1,8,0:0:0:0:
448,192,129534,128,0,129880:0:0:0:0:
64,192,129880,1,2,0:0:0:0:
320,192,129880,1,0,0:0:0:0:
64,192,129987,1,4,0:0:0:0:
192,192,129987,1,0,0:0:0:0:
320,192,130094,1,2,0:0:0:0:
448,192,130094,1,0,0:0:0:0:
192,192,130201,1,8,0:0:0:0:
64,192,130201,128,0,130547:0:0:0:0:
192,192,130547,1,2,0:0:0:0:
448,192,130547,1,0,0:0:0:0:
320,192,130654,1,4,0:0:0:0:
448,192,130654,1,0,0:0:0:0:
64,192,130761,1,2,0:0:0:0:
320,192,130761,1,0,0:0:0:0:
64,192,130868,1,4,0:0:0:0:
192,192,130868,1,0,0:0:0:0:
320,192,130975,1,2,0:0:0:0:
448,192,130975,1,0,0:0:0:0:
192,192,131082,1,8,0:0:0:0:
64,192,131082,128,0,131428:0:0:0:0:
320,192,131428,1,2,0:0:0:0:
448,192,131428,1,0,0:0:0:0:
192,192,131535,1,8,0:0:0:0:
64,192,131535,128,0,131881:0:0:0:0:
192,192,131881,1,2,0:0:0:0:
448,192,131881,1,0,0:0:0:0:
64,192,131988,1,4,0:0:0:0:
320,192,131988,1,0,0:0:0:0:
64,192,132095,1,2,0:0:0:0:
192,192,132095,1,0,0:0:0:0:
320,192,132202,1,4,0:0:0:0:
448,192,132202,1,0,0:0:0:0:
64,192,132309,1,2,0:0:0:0:
448,192,132309,1,0,0:0:0:0:
192,192,132416,1,8,0:0:0:0:
320,192,132416,1,4,0:1:0:0:
448,192,132416,1,0,0:0:0:0:
64,192,132416,1,0,0:0:0:0:
64,192,132528,1,8,0:0:0:0:
192,192,132528,1,0,0:0:0:0:
320,192,132635,1,8,0:0:0:0:
448,192,132635,1,0,0:0:0:0:
320,192,132742,1,8,0:0:0:0:
448,192,132742,1,0,0:0:0:0:
64,192,132849,1,8,0:0:0:0:
192,192,132849,1,0,0:0:0:0:
320,192,132903,1,8,0:0:0:0:
64,192,132956,1,8,0:0:0:0:
448,192,132956,1,0,0:0:0:0:
192,192,133010,1,8,0:0:0:0:
320,192,133063,1,8,0:0:0:0:
448,192,133063,1,0,0:0:0:0:
192,192,133117,1,8,0:0:0:0:
64,192,133171,1,8,0:0:0:0:
448,192,133171,1,0,0:0:0:0:
320,192,133224,1,8,0:0:0:0:
64,192,133278,1,8,0:0:0:0:
192,192,133278,1,0,0:0:0:0:
320,192,133331,1,8,0:0:0:0:
64,192,133385,1,8,0:0:0:0:
448,192,133385,1,0,0:0:0:0:
192,192,133438,1,8,0:0:0:0:
320,192,133492,1,8,0:0:0:0:
448,192,133492,1,0,0:0:0:0:
192,192,133546,1,8,0:0:0:0:
64,192,133599,1,8,0:0:0:0:
448,192,133599,1,0,0:0:0:0:
320,192,133653,1,8,0:0:0:0:
64,192,133706,1,8,0:0:0:0:
192,192,133706,1,0,0:0:0:0:
448,192,133813,1,8,0:0:0:0:
320,192,133813,1,0,0:0:0:0:
64,192,133921,1,8,0:0:0:0:
192,192,133921,1,0,0:0:0:0:
448,192,134028,1,8,0:0:0:0:
320,192,134028,1,0,0:0:0:0:
64,192,134135,1,4,0:0:0:0:
192,192,134135,1,4,0:1:0:0:
320,192,134135,1,0,0:0:0:0:
448,192,134135,1,0,0:0:0:0:
448,192,134349,1,4,0:1:0:0:
320,192,134349,1,4,0:0:0:0:
192,192,134349,1,0,0:0:0:0:
64,192,134349,1,0,0:0:0:0:
64,192,134563,1,4,0:0:0:0:
192,192,134563,1,4,0:1:0:0:
320,192,134563,1,0,0:0:0:0:
448,192,134563,1,0,0:0:0:0:
448,192,134778,1,4,0:1:0:0:
320,192,134778,1,4,0:0:0:0:
192,192,134778,1,0,0:0:0:0:
64,192,134778,1,0,0:0:0:0:
320,192,134992,1,2,0:0:0:0:
448,192,134992,1,4,0:0:0:0:
64,192,134992,1,4,0:1:0:0:
192,192,134992,1,0,0:0:0:0:
192,192,135099,1,2,0:0:0:0:
64,192,135099,1,4,0:0:0:0:
448,192,135206,1,2,0:0:0:0:
320,192,135206,1,4,0:0:0:0:
320,192,135313,1,2,0:0:0:0:
448,192,135313,1,4,0:0:0:0:
448,192,135421,128,2,135635:0:0:0:0:
64,192,135421,1,4,0:0:0:0:
192,192,135528,1,0,0:0:0:0:
64,192,135635,1,2,0:0:0:0:
320,192,135635,128,4,135849:0:0:0:0:
448,192,135742,1,0,0:0:0:0:
64,192,135849,128,4,136063:0:0:0:0:
192,192,135849,1,2,0:0:0:0:
320,192,135956,1,0,0:0:0:0:
448,192,136063,1,4,0:0:0:0:
192,192,136063,128,2,136278:0:0:0:0:
320,192,136171,1,0,0:0:0:0:
448,192,136278,1,2,0:0:0:0:
64,192,136278,128,4,136492:0:0:0:0:
192,192,136385,1,0,0:0:0:0:
320,192,136492,1,2,0:0:0:0:
448,192,136492,1,4,0:0:0:0:
320,192,136599,1,2,0:0:0:0:
448,192,136599,1,4,0:0:0:0:
64,192,136706,128,4,136921:0:0:0:0:
192,192,136706,1,2,0:0:0:0:
320,192,136813,1,0,0:0:0:0:
448,192,136921,1,4,0:0:0:0:
192,192,136921,128,2,137135:0:0:0:0:
64,192,137028,1,0,0:0:0:0:
320,192,137135,1,2,0:0:0:0:
448,192,137135,128,4,137349:0:0:0:0:
192,192,137242,1,0,0:0:0:0:
320,192,137349,128,4,137563:0:0:0:0:
64,192,137349,1,2,0:0:0:0:
448,192,137456,1,0,0:0:0:0:
192,192,137563,128,2,137778:0:0:0:0:
64,192,137563,1,4,0:0:0:0:
320,192,137671,1,0,0:0:0:0:
448,192,137778,1,4,0:0:0:0:
64,192,137778,128,2,137992:0:0:0:0:
192,192,137885,1,0,0:0:0:0:
320,192,137992,128,2,138206:0:0:0:0:
448,192,137992,1,4,0:0:0:0:
64,192,138099,1,0,0:0:0:0:
192,192,138206,128,4,138421:0:0:0:0:
448,192,138206,1,2,0:0:0:0:
320,192,138313,1,0,0:0:0:0:
64,192,138421,128,2,138635:0:0:0:0:
448,192,138421,1,4,0:0:0:0:
320,192,138528,1,0,0:0:0:0:
192,192,138635,1,2,0:0:0:0:
448,192,138635,128,4,138849:0:0:0:0:
64,192,138742,1,0,0:0:0:0:
192,192,138849,1,2,0:0:0:0:
320,192,138849,128,4,139063:0:0:0:0:
64,192,138956,1,0,0:0:0:0:
192,192,139063,128,4,139278:0:0:0:0:
448,192,139063,1,2,0:0:0:0:
64,192,139171,1,0,0:0:0:0:
320,192,139278,1,4,0:0:0:0:
448,192,139278,1,2,0:0:0:0:
64,192,139331,1,0,0:0:0:0:
192,192,139385,1,0,0:0:0:0:
448,192,139438,1,0,0:0:0:0:
320,192,139492,1,0,0:0:0:0:
192,192,139546,1,0,0:0:0:0:
64,192,139599,1,0,0:0:0:0:
192,192,139653,1,0,0:0:0:0:
320,192,139706,1,4,0:0:0:0:
448,192,139706,128,2,139921:0:0:0:0:
64,192,139760,1,0,0:0:0:0:
192,192,139813,1,0,0:0:0:0:
320,192,139867,1,0,0:0:0:0:
192,192,139921,128,4,140135:0:0:0:0:
64,192,139921,1,2,0:0:0:0:
320,192,140028,1,0,0:0:0:0:
448,192,140135,1,2,0:0:0:0:
64,192,140135,128,4,140349:0:0:0:0:
192,192,140242,1,0,0:0:0:0:
320,192,140349,1,4,0:0:0:0:
448,192,140349,128,2,140563:0:0:0:0:
64,192,140456,1,0,0:0:0:0:
192,192,140563,1,4,0:0:0:0:
320,192,140563,128,2,140778:0:0:0:0:
448,192,140671,1,0,0:0:0:0:
192,192,140778,128,4,140992:0:0:0:0:
64,192,140778,1,2,0:0:0:0:
320,192,140885,1,0,0:0:0:0:
64,192,140992,128,4,141421:0:0:0:0:
448,192,140992,128,2,141421:0:0:0:0:
320,192,141099,1,0,0:0:0:0:
192,192,141206,1,0,0:0:0:0:
320,192,141313,1,0,0:0:0:0:
320,192,141421,128,4,141849:0:0:0:0:
192,192,141421,1,2,0:0:0:0:
64,192,141528,1,0,0:0:0:0:
448,192,141635,1,0,0:0:0:0:
64,192,141742,1,0,0:0:0:0:
64,192,141849,1,4,0:1:0:0:
448,192,141849,128,4,142063:0:0:0:0:
192,192,141849,1,2,0:0:0:0:
320,192,141956,1,0,0:0:0:0:
192,192,142063,128,4,142278:0:0:0:0:
64,192,142063,1,2,0:0:0:0:
448,192,142171,1,0,0:0:0:0:
64,192,142278,128,4,142492:0:0:0:0:
320,192,142278,1,2,0:0:0:0:
192,192,142385,1,0,0:0:0:0:
320,192,142492,128,2,142706:0:0:0:0:
448,192,142492,1,4,0:0:0:0:
64,192,142599,1,0,0:0:0:0:
448,192,142706,128,4,142921:0:0:0:0:
192,192,142706,1,2,0:0:0:0:
320,192,142813,1,0,0:0:0:0:
192,192,142921,128,2,143135:0:0:0:0:
64,192,142921,1,4,0:0:0:0:
320,192,143028,1,0,0:0:0:0:
448,192,143135,128,4,143349:0:0:0:0:
64,192,143135,1,2,0:0:0:0:
192,192,143242,1,0,0:0:0:0:
320,192,143349,128,2,143563:0:0:0:0:
64,192,143349,1,4,0:0:0:0:
448,192,143456,1,0,0:0:0:0:
64,192,143563,1,8,0:0:0:0:
192,192,143563,1,0,0:0:0:0:
320,192,143617,1,8,0:0:0:0:
448,192,143617,1,0,0:0:0:0:
64,192,143671,1,8,0:0:0:0:
192,192,143671,1,0,0:0:0:0:
320,192,143724,1,8,0:0:0:0:
448,192,143724,1,0,0:0:0:0:
64,192,143778,1,4,0:0:0:0:
192,192,143778,128,2,143992:0:0:0:0:
320,192,143992,1,8,0:0:0:0:
448,192,143992,1,0,0:0:0:0:
64,192,144045,1,8,0:0:0:0:
192,192,144045,1,0,0:0:0:0:
320,192,144099,1,8,0:0:0:0:
448,192,144099,1,0,0:0:0:0:
64,192,144153,1,8,0:0:0:0:
192,192,144153,1,0,0:0:0:0:
448,192,144206,1,4,0:0:0:0:
320,192,144206,128,2,144420:0:0:0:0:
192,192,144313,1,0,0:0:0:0:
64,192,144420,1,2,0:0:0:0:
448,192,144420,128,4,144635:0:0:0:0:
320,192,144528,1,0,0:0:0:0:
64,192,144635,1,4,0:0:0:0:
192,192,144635,1,2,0:0:0:0:
320,192,144706,1,2,0:0:0:0:
448,192,144706,1,4,0:0:0:0:
64,192,144778,1,2,0:0:0:0:
192,192,144778,1,4,0:0:0:0:
320,192,144849,1,2,0:0:0:0:
448,192,144849,128,4,145063:0:0:0:0:
192,192,144956,1,0,0:0:0:0:
64,192,145063,1,4,0:0:0:0:
320,192,145063,128,2,145278:0:0:0:0:
192,192,145170,1,0,0:0:0:0:
64,192,145278,1,4,0:0:0:0:
192,192,145278,1,2,0:0:0:0:
448,192,145278,1,4,0:1:0:0:
64,192,145385,1,0,0:0:0:0:
320,192,145492,1,2,0:0:0:0:
448,192,145492,1,4,0:0:0:0:
448,192,145599,1,0,0:0:0:0:
64,192,145706,1,4,0:0:0:0:
192,192,145706,1,2,0:0:0:0:
64,192,145813,1,0,0:0:0:0:
320,192,145920,1,2,0:0:0:0:
448,192,145920,1,4,0:0:0:0:
448,192,146028,1,0,0:0:0:0:
192,192,146135,1,2,0:0:0:0:
64,192,146135,1,4,0:1:0:0:
320,192,146135,1,4,0:0:0:0:
192,192,146242,1,0,0:0:0:0:
320,192,146349,1,2,0:0:0:0:
448,192,146349,1,4,0:0:0:0:
320,192,146456,1,0,0:0:0:0:
192,192,146563,1,4,0:0:0:0:
64,192,146563,1,2,0:0:0:0:
192,192,146670,1,0,0:0:0:0:
320,192,146778,1,2,0:0:0:0:
448,192,146778,1,4,0:0:0:0:
320,192,146885,1,0,0:0:0:0:
64,192,146992,1,4,0:0:0:0:
192,192,146992,1,2,0:0:0:0:
448,192,146992,1,4,0:1:0:0:
64,192,147099,1,0,0:0:0:0:
320,192,147206,1,2,0:0:0:0:
448,192,147206,1,4,0:0:0:0:
448,192,147313,1,0,0:0:0:0:
64,192,147420,1,4,0:0:0:0:
192,192,147420,1,2,0:0:0:0:
64,192,147528,1,0,0:0:0:0:
320,192,147635,1,2,0:0:0:0:
448,192,147635,1,4,0:0:0:0:
448,192,147742,1,0,0:0:0:0:
64,192,147849,1,4,0:0:0:0:
192,192,147849,1,2,0:0:0:0:
320,192,147849,1,4,0:1:0:0:
192,192,147956,1,0,0:0:0:0:
320,192,148063,1,2,0:0:0:0:
448,192,148063,1,4,0:0:0:0:
320,192,148170,1,0,0:0:0:0:
64,192,148278,1,4,0:0:0:0:
192,192,148278,1,2,0:0:0:0:
192,192,148385,1,0,0:0:0:0:
320,192,148492,1,2,0:0:0:0:
448,192,148492,1,4,0:0:0:0:
320,192,148599,1,8,0:0:0:0:
64,192,148706,1,4,0:0:0:0:
192,192,148706,1,2,0:0:0:0:
448,192,148706,1,4,0:1:0:0:
64,192,148813,1,0,0:0:0:0:
320,192,148920,1,4,0:0:0:0:
448,192,148920,1,2,0:0:0:0:
192,192,149028,1,0,0:0:0:0:
64,192,149135,1,4,0:0:0:0:
320,192,149135,1,2,0:0:0:0:
448,192,149135,1,4,0:1:0:0:
448,192,149242,1,0,0:0:0:0:
64,192,149349,1,2,0:0:0:0:
192,192,149349,1,4,0:0:0:0:
320,192,149456,1,0,0:0:0:0:
64,192,149563,1,4,0:0:0:0:
192,192,149563,1,2,0:0:0:0:
448,192,149563,1,4,0:1:0:0:
192,192,149670,1,0,0:0:0:0:
320,192,149778,1,4,0:0:0:0:
448,192,149778,1,2,0:0:0:0:
64,192,149849,1,4,0:0:0:0:
192,192,149849,1,2,0:0:0:0:
320,192,149920,1,4,0:0:0:0:
448,192,149920,1,2,0:0:0:0:
192,192,149992,1,4,0:0:0:0:
64,192,149992,1,2,0:0:0:0:
448,192,149992,1,4,0:1:0:0:
320,192,150099,1,0,0:0:0:0:
64,192,150206,1,4,0:0:0:0:
192,192,150206,1,2,0:0:0:0:
448,192,150313,1,0,0:0:0:0:
64,192,150420,1,4,0:0:0:0:
192,192,150420,1,2,0:0:0:0:
320,192,150420,1,4,0:1:0:0:
192,192,150528,1,0,0:0:0:0:
320,192,150635,1,2,0:0:0:0:
448,192,150635,1,4,0:0:0:0:
64,192,150742,1,0,0:0:0:0:
320,192,150849,1,2,0:0:0:0:
448,192,150849,128,4,153059:0:0:0:0:
320,192,151059,1,4,0:1:0:0:
192,192,151059,1,4,0:0:0:0:
64,192,151059,128,2,153059:0:0:0:0:
192,192,153059,5,4,0:0:0:0:
320,192,153059,1,4,0:1:0:0:
