osu file format v14

[General]
AudioFilename: audio.mp3
AudioLeadIn: 0
PreviewTime: 99365
Countdown: 1
SampleSet: None
StackLeniency: 0.7
Mode: 0
LetterboxInBreaks: 1
WidescreenStoryboard: 1

[Editor]
DistanceSpacing: 3.5
BeatDivisor: 4
GridSize: 32
TimelineZoom: 4.399998

[Metadata]
Title:I
TitleUnicode:I
Artist:LeaF
ArtistUnicode:LeaF
Creator:MemeMeme_YT
Version:syntax error.
Source:
Tags:
BeatmapID:1801617
BeatmapSetID:861133

[Difficulty]
HPDrainRate:2
CircleSize:4
OverallDifficulty:2
ApproachRate:10
SliderMultiplier:1.4
SliderTickRate:1

[Events]
//Background and Video events
0,0,"abqlg9am3gf01.png",0,0
//Break Periods
2,2938,18651
2,70459,73738
2,93020,101526
2,115675,118245
2,133423,134538
//Storyboard Layer 0 (Background)
//Storyboard Layer 1 (Fail)
//Storyboard Layer 2 (Pass)
//Storyboard Layer 3 (Foreground)
//Storyboard Sound Samples

[TimingPoints]
557,272.727272727273,3,2,0,75,1,0
2193,-181.818181818182,3,2,0,75,0,0
2738,1090.90909090909,4,2,0,75,1,0
19101,250,4,2,0,40,1,0
19101,-303.030303030303,4,2,0,40,0,0
20101,-50,4,2,0,40,0,0
20226,-83.3333333333333,4,2,0,40,0,0
21851,1090.90909090909,4,2,0,55,1,0
22123,250,4,2,0,55,1,0
22873,1090.90909090909,4,2,0,55,1,0
23282,250,4,2,0,55,1,0
23657,1090.90909090909,4,2,0,55,1,0
24202,250,4,2,0,55,1,0
26202,1090.90909090909,4,2,0,55,1,0
26474,250,4,2,0,55,1,0
27224,250,4,2,0,55,1,0
27786,-303.030303030303,4,2,0,55,0,0
28224,-75.187969924812,4,2,0,55,0,0
35724,260.869565217391,4,2,0,55,1,0
35724,-303.030303030303,4,2,0,55,0,0
35984,272.727272727273,4,2,0,55,1,0
35984,-303.030303030303,4,2,0,55,0,0
36256,285.714285714286,4,2,0,55,1,0
36256,-303.030303030303,4,2,0,55,0,0
36541,300,4,2,0,55,1,0
36541,-303.030303030303,4,2,0,55,0,0
36841,315.789473684211,4,2,0,55,1,0
36841,-303.030303030303,4,2,0,55,0,0
37156,333.333333333333,4,2,0,55,1,0
37156,-303.030303030303,4,2,0,55,0,0
37489,272.727272727273,4,2,0,55,1,0
38034,272.727272727273,4,2,0,55,1,0
54943,-166.666666666667,4,2,0,55,0,0
55489,266.666666666667,7,2,0,55,1,0
59222,-222.222222222222,7,2,0,55,0,0
62955,260.869565217391,7,2,0,55,1,0
62955,-99.009900990099,7,2,0,55,0,0
70259,300,4,2,0,55,1,0
71459,285.714285714286,4,2,0,35,1,0
72316,272.727272727273,4,2,0,15,1,0
73406,260.869565217391,4,2,0,5,1,0
74188,250,4,2,0,55,1,0
75188,240,4,2,0,55,1,0
75908,230.769230769231,4,2,0,55,1,0
76831,222.222222222222,4,2,0,55,1,0
77719,214.285714285714,4,2,0,55,1,0
77719,-66.6666666666667,4,2,0,55,0,0
80504,923.076923076923,4,2,0,55,1,0
80965,214.285714285714,4,2,0,55,1,0
80965,-66.6666666666667,4,2,0,55,0,0
83750,923.076923076923,4,2,0,55,1,0
84211,214.285714285714,4,2,0,55,1,0
85068,-90.9090909090909,4,2,0,55,0,0
85925,-83.3333333333333,4,2,0,55,0,0
87425,214.285714285714,4,2,0,55,1,1
89139,-303.030303030303,4,2,0,55,0,1
89353,-151.515151515152,4,2,0,55,0,1
89567,-101.010101010101,4,2,0,55,0,1
89782,-75.7575757575758,4,2,0,55,0,1
90639,1090.90909090909,4,2,0,55,1,0
92820,1090.90909090909,4,2,0,55,1,0
101548,214.285714285714,4,2,0,55,1,0
112476,-80,4,2,0,55,0,0
112690,-66.6666666666667,4,2,0,55,0,0
112905,-57.1428571428571,4,2,0,55,0,0
113119,-50,4,2,0,55,0,0
113333,-44.4444444444445,4,2,0,55,0,0
113547,-40,4,2,0,55,0,0
113762,-36.3636363636364,4,2,0,55,0,0
113976,-66.6666666666667,4,2,0,55,0,0
115267,214.285714285714,4,2,0,55,1,0
119767,923.076923076923,4,2,0,55,1,0
120228,214.285714285714,4,2,0,55,1,0
120656,923.076923076923,4,2,0,55,1,0
121117,214.285714285714,4,2,0,55,1,0
121331,923.076923076923,4,2,0,55,1,0
121792,214.285714285714,4,2,0,55,1,0
122649,923.076923076923,4,2,0,55,1,0
123110,214.285714285714,4,2,0,55,1,0
123324,923.076923076923,4,2,0,55,1,0
123670,214.285714285714,4,2,0,55,1,0
123991,923.076923076923,4,2,0,55,1,0
124452,214.285714285714,4,2,0,55,1,0
124934,-222.222222222222,4,2,0,55,0,0
125737,-100,4,2,0,55,0,0
125952,923.076923076923,4,2,0,55,1,0
126298,214.285714285714,4,2,0,55,1,0
126619,923.076923076923,4,2,0,55,1,0
126965,214.285714285714,4,2,0,55,1,0
127072,923.076923076923,4,2,0,55,1,0
127418,214.285714285714,4,2,0,55,1,0
127953,923.076923076923,4,2,0,55,1,0
128414,214.285714285714,4,2,0,55,1,0
128628,923.076923076923,4,2,0,55,1,0
129320,214.285714285714,4,2,0,55,1,0
129534,923.076923076923,4,2,0,55,1,0
129880,214.285714285714,4,2,0,55,1,0
130201,923.076923076923,4,2,0,55,1,0
130547,214.285714285714,4,2,0,55,1,0
131082,923.076923076923,4,2,0,55,1,0
131428,214.285714285714,4,2,0,55,1,0
131535,923.076923076923,4,2,0,55,1,0
131881,214.285714285714,4,2,0,55,1,0
132421,214.285714285714,4,2,0,55,1,0
134135,857.142857142857,4,2,0,55,1,0
134295,214.285714285714,4,2,0,55,1,0
134348,857.142857142857,4,2,0,55,1,0
134508,214.285714285714,4,2,0,55,1,0
134561,857.142857142857,4,2,0,55,1,0
134721,214.285714285714,4,2,0,55,1,0
134774,857.142857142857,4,2,0,55,1,0
134988,214.285714285714,4,2,0,55,1,0
148702,-25,4,2,0,55,0,0
149559,-100,4,2,0,55,0,0
151059,1000,4,2,0,55,1,0
152934,250,4,2,0,55,1,0
153059,250,4,2,0,55,1,0

[HitObjects]
118,85,557,6,0,L|203:113,1,70
77,326,829,1,0,0:0:0:0:
287,198,966,6,0,L|314:105,1,70
96,255,1238,1,0,0:0:0:0:
248,61,1375,6,0,L|239:156,1,70
99,329,1647,1,0,0:0:0:0:
287,171,1784,6,0,L|290:94,1,70
89,244,2057,1,0,0:0:0:0:
115,112,2193,5,0,0:0:0:0:
153,56,2261,1,0,0:0:0:0:
219,49,2329,1,0,0:0:0:0:
265,97,2397,1,0,0:0:0:0:
251,163,2466,1,0,0:0:0:0:
247,230,2534,1,0,0:0:0:0:
285,285,2602,1,0,0:0:0:0:
351,294,2670,1,0,0:0:0:0:
378,280,2738,1,0,0:0:0:0:
180,107,19101,5,0,0:0:0:0:
181,147,19163,1,0,0:0:0:0:
188,186,19226,1,0,0:0:0:0:
213,216,19288,1,0,0:0:0:0:
248,235,19351,1,0,0:0:0:0:
288,236,19413,1,0,0:0:0:0:
316,207,19476,1,0,0:0:0:0:
325,167,19538,1,0,0:0:0:0:
311,128,19601,1,0,0:0:0:0:
298,89,19663,1,0,0:0:0:0:
321,55,19726,1,0,0:0:0:0:
360,46,19788,1,0,0:0:0:0:
398,58,19851,1,0,0:0:0:0:
416,93,19913,1,0,0:0:0:0:
413,133,19976,1,0,0:0:0:0:
397,169,20038,1,0,0:0:0:0:
385,202,20101,6,0,L|339:343,1,140
54,272,20351,1,0,0:0:0:0:
275,78,20476,1,0,0:0:0:0:
200,362,20601,1,0,0:0:0:0:
111,81,20726,1,0,0:0:0:0:
413,133,20851,5,0,0:0:0:0:
144,252,20976,1,0,0:0:0:0:
413,133,21101,1,0,0:0:0:0:
124,190,21226,1,0,0:0:0:0:
371,347,21351,5,0,0:0:0:0:
280,67,21476,1,0,0:0:0:0:
66,39,21601,6,0,L|71:149,1,83.9999974365235
69,122,22123,2,0,L|64:30,1,70
254,208,22373,5,0,0:0:0:0:
455,67,22498,1,0,0:0:0:0:
387,302,22623,1,0,0:0:0:0:
152,229,22748,2,0,L|166:129,1,70
335,54,23282,5,0,0:0:0:0:
287,294,23407,1,0,0:0:0:0:
54,215,23532,6,0,L|126:159,1,70
349,68,24202,5,0,0:0:0:0:
281,303,24327,1,0,0:0:0:0:
282,58,24452,1,0,0:0:0:0:
396,274,24577,1,0,0:0:0:0:
151,253,24702,5,0,0:0:0:0:
380,167,24827,1,0,0:0:0:0:
151,79,24952,6,0,L|165:158,1,70
336,321,25202,1,0,0:0:0:0:
363,77,25327,5,0,0:0:0:0:
200,260,25452,1,0,0:0:0:0:
235,17,25577,1,0,0:0:0:0:
335,240,25702,1,0,0:0:0:0:
302,36,25827,5,0,0:0:0:0:
257,276,25952,1,0,0:0:0:0:
55,136,26077,6,0,L|128:133,1,70
350,101,26474,5,0,0:0:0:0:
196,291,26599,1,0,0:0:0:0:
192,46,26724,1,0,0:0:0:0:
311,259,26849,1,0,0:0:0:0:
298,14,26974,1,0,0:0:0:0:
139,200,27099,1,0,0:0:0:0:
383,201,27224,5,0,0:0:0:0:
155,111,27349,1,0,0:0:0:0:
242,339,27474,1,0,0:0:0:0:
279,96,27599,1,0,0:0:0:0:
84,244,27724,1,0,0:0:0:0:
66,207,27786,1,0,0:0:0:0:
70,166,27849,1,0,0:0:0:0:
90,131,27911,1,0,0:0:0:0:
127,115,27974,1,0,0:0:0:0:
161,135,28036,1,0,0:0:0:0:
184,167,28099,1,0,0:0:0:0:
214,193,28161,1,0,0:0:0:0:
253,211,28224,6,0,L|359:171,1,93.0999961643983
33,66,28474,2,0,L|131:37,1,93.0999961643983
434,132,28724,5,0,0:0:0:0:
153,297,28849,1,0,0:0:0:0:
297,4,28974,1,0,0:0:0:0:
364,322,29099,1,0,0:0:0:0:
80,161,29224,6,0,L|186:106,1,93.0999961643983
474,214,29474,2,0,L|366:274,1,93.0999961643983
78,163,29724,2,0,L|171:202,1,93.0999961643983
473,98,29974,2,0,L|377:65,1,93.0999961643983
59,74,30224,5,0,0:0:0:0:
211,362,30349,1,0,0:0:0:0:
372,79,30474,1,0,0:0:0:0:
211,362,30599,5,0,0:0:0:0:
59,74,30724,1,0,0:0:0:0:
372,79,30849,1,0,0:0:0:0:
211,362,30974,6,0,L|209:238,1,93.0999961643983
61,180,31224,5,0,0:0:0:0:
367,68,31349,1,0,0:0:0:0:
378,323,31474,1,0,0:0:0:0:
144,95,31599,1,0,0:0:0:0:
433,245,31724,5,0,0:0:0:0:
116,322,31849,1,0,0:0:0:0:
374,124,31974,1,0,0:0:0:0:
311,323,32099,1,0,0:0:0:0:
116,61,32224,6,0,L|87:160,1,93.0999961643983
406,227,32474,2,0,L|382:324,1,93.0999961643983
63,257,32724,2,0,L|98:151,1,93.0999961643983
414,216,32974,2,0,L|440:111,1,93.0999961643983
111,96,33224,6,0,L|191:181,1,93.0999961643983
162,307,33474,2,0,L|242:234,1,93.0999961643983
502,64,33724,2,0,L|467:171,1,93.0999961643983
163,49,33974,2,0,L|289:46,1,93.0999961643983
54,306,34224,5,0,0:0:0:0:
303,96,34349,1,0,0:0:0:0:
478,370,34474,1,0,0:0:0:0:
213,180,34599,1,0,0:0:0:0:
450,138,34724,1,0,0:0:0:0:
159,284,34849,1,0,0:0:0:0:
91,78,34974,1,0,0:0:0:0:
377,233,35099,1,0,0:0:0:0:
67,335,35224,1,0,0:0:0:0:
296,104,35349,1,0,0:0:0:0:
276,306,35474,1,0,0:0:0:0:
13,113,35599,1,0,0:0:0:0:
84,142,35724,5,0,0:0:0:0:
124,145,35789,1,0,0:0:0:0:
161,131,35854,1,0,0:0:0:0:
193,107,35919,1,0,0:0:0:0:
230,96,35984,5,0,0:0:0:0:
269,101,36052,1,0,0:0:0:0:
306,116,36120,1,0,0:0:0:0:
318,154,36188,1,0,0:0:0:0:
311,191,36256,5,0,0:0:0:0:
296,228,36327,1,0,0:0:0:0:
263,250,36398,1,0,0:0:0:0:
223,258,36470,1,0,0:0:0:0:
184,255,36541,5,0,0:0:0:0:
148,234,36616,1,0,0:0:0:0:
127,199,36691,1,0,0:0:0:0:
122,158,36766,1,0,0:0:0:0:
122,119,36841,5,0,0:0:0:0:
148,88,36919,1,0,0:0:0:0:
187,78,36998,1,0,0:0:0:0:
227,81,37077,1,0,0:0:0:0:
261,98,37156,5,0,0:0:0:0:
284,130,37239,1,0,0:0:0:0:
301,166,37322,1,0,0:0:0:0:
310,205,37406,1,0,0:0:0:0:
184,255,37489,6,0,L|30:303,1,140
167,65,38034,6,0,B|148:141|148:141|197:216|197:216|190:274,1,210
420,46,38852,2,0,B|417:122|396:131|398:256,1,210
95,45,39670,2,0,L|63:213,1,140
231,61,40215,6,0,B|259:94|318:88|318:88|331:151|311:173|259:136,1,210
146,17,41034,6,0,B|130:100|130:100|180:117|180:117|173:141|173:141|158:137|158:137|148:180,1,210
291,223,41852,2,0,B|319:118|319:118|327:122|330:152,1,140
144,54,42397,6,0,L|89:273,1,210
92,257,43215,2,0,L|144:51,1,210
381,42,44034,6,0,L|338:132,2,70
79,278,44579,6,0,B|76:193|76:193|109:216|167:216|202:187,1,210
316,177,45397,2,0,B|305:253|309:253|363:242|363:242|372:282|372:282|406:278|406:278|405:246,1,210
225,84,46215,2,0,B|192:138|192:138|196:157|233:175|238:203,1,140
392,48,46761,6,0,B|359:135|359:135|386:173|386:173|352:253,1,210
151,76,47579,6,0,L|124:284,1,210
445,110,48397,6,0,B|384:86|384:86|340:132|340:132|313:122,1,140
118,52,48943,6,0,B|88:116|88:116|155:195|155:195|146:241,1,210
403,76,49761,2,0,B|367:142|367:142|371:285,1,210
269,59,50579,6,0,B|216:138|216:138|219:153|219:153|264:144,1,140
404,105,51124,6,0,B|428:184|428:184|403:221|403:221|469:199|469:199|481:232,1,210
253,47,51943,6,0,B|254:133|254:133|242:149|242:149|282:154|282:154|256:171|256:171|258:206,1,210
81,77,52761,5,0,0:0:0:0:
322,115,52897,1,0,0:0:0:0:
164,303,53034,5,0,0:0:0:0:
208,62,53170,1,0,0:0:0:0:
390,224,53306,6,0,B|349:221|349:221|328:242|280:240|250:224|229:201|209:163,1,210
313,101,54124,2,0,B|355:112|355:112|309:280,1,210
104,81,54943,5,0,0:0:0:0:
142,143,55011,1,0,0:0:0:0:
203,182,55079,1,0,0:0:0:0:
270,153,55147,1,0,0:0:0:0:
317,97,55215,1,0,0:0:0:0:
388,117,55284,1,0,0:0:0:0:
394,189,55352,1,0,0:0:0:0:
348,246,55420,1,0,0:0:0:0:
286,282,55489,5,0,0:0:0:0:
52,210,55622,1,0,0:0:0:0:
295,186,55755,1,0,0:0:0:0:
119,13,55889,1,0,0:0:0:0:
173,251,56022,5,0,0:0:0:0:
307,46,56155,1,0,0:0:0:0:
427,260,56289,1,0,0:0:0:0:
223,124,56422,1,0,0:0:0:0:
219,368,56555,5,0,0:0:0:0:
338,152,56689,1,0,0:0:0:0:
311,317,56822,1,0,0:0:0:0:
184,107,56955,1,0,0:0:0:0:
94,43,57089,5,0,0:0:0:0:
124,285,57222,1,0,0:0:0:0:
249,75,57355,2,0,B|236:80|236:80|240:82|240:82|237:86|237:86|239:89|239:89|235:91|235:91|237:96|237:96|241:94|241:94|241:101|241:101|238:101|238:101|236:106|236:106|241:107|241:107|241:113|241:113|234:110,1,70
461,217,57622,5,0,0:0:0:0:
423,66,57755,1,0,0:0:0:0:
311,285,57889,1,0,0:0:0:0:
147,103,58022,1,0,0:0:0:0:
124,285,58155,6,0,L|182:202,1,70
325,41,58422,5,0,0:0:0:0:
320,285,58555,1,0,0:0:0:0:
199,70,58689,1,0,0:0:0:0:
179,313,58822,1,0,0:0:0:0:
362,152,58955,5,0,0:0:0:0:
116,133,59089,1,0,0:0:0:0:
43,50,59222,5,0,0:0:0:0:
48,105,59289,1,0,0:0:0:0:
64,157,59355,1,0,0:0:0:0:
105,193,59422,1,0,0:0:0:0:
159,183,59489,1,0,0:0:0:0:
206,156,59555,1,0,0:0:0:0:
261,153,59622,1,0,0:0:0:0:
299,192,59689,1,0,0:0:0:0:
307,245,59755,1,0,0:0:0:0:
278,292,59822,1,0,0:0:0:0:
223,299,59889,1,0,0:0:0:0:
175,271,59955,1,0,0:0:0:0:
170,215,60022,1,0,0:0:0:0:
178,160,60089,1,0,0:0:0:0:
190,106,60155,1,0,0:0:0:0:
224,62,60222,1,0,0:0:0:0:
278,51,60289,5,0,0:0:0:0:
325,77,60355,1,0,0:0:0:0:
340,130,60422,1,0,0:0:0:0:
343,185,60489,1,0,0:0:0:0:
312,230,60555,1,0,0:0:0:0:
265,260,60622,1,0,0:0:0:0:
210,271,60689,1,0,0:0:0:0:
155,272,60755,1,0,0:0:0:0:
106,245,60822,1,0,0:0:0:0:
74,199,60889,1,0,0:0:0:0:
59,146,60955,1,0,0:0:0:0:
65,90,61022,1,0,0:0:0:0:
107,54,61089,5,0,0:0:0:0:
143,94,61155,1,0,0:0:0:0:
155,148,61222,1,0,0:0:0:0:
138,200,61289,1,0,0:0:0:0:
116,249,61355,1,0,0:0:0:0:
116,304,61422,1,0,0:0:0:0:
153,344,61489,1,0,0:0:0:0:
206,332,61555,1,0,0:0:0:0:
244,292,61622,1,0,0:0:0:0:
236,237,61689,1,0,0:0:0:0:
259,187,61755,1,0,0:0:0:0:
313,177,61822,1,0,0:0:0:0:
339,225,61889,1,0,0:0:0:0:
346,279,61955,1,0,0:0:0:0:
395,303,62022,1,0,0:0:0:0:
450,301,62089,1,0,0:0:0:0:
471,250,62155,5,0,0:0:0:0:
437,206,62222,1,0,0:0:0:0:
405,160,62289,1,0,0:0:0:0:
393,106,62355,1,0,0:0:0:0:
391,50,62422,1,0,0:0:0:0:
445,59,62489,1,0,0:0:0:0:
456,112,62555,1,0,0:0:0:0:
424,157,62622,1,0,0:0:0:0:
389,200,62689,1,0,0:0:0:0:
339,225,62755,1,0,0:0:0:0:
290,252,62822,1,0,0:0:0:0:
234,253,62889,1,0,0:0:0:0:
125,190,62955,5,0,0:0:0:0:
155,91,63085,1,0,0:0:0:0:
275,306,63215,1,0,0:0:0:0:
349,68,63346,1,0,0:0:0:0:
102,57,63476,6,0,L|56:113,1,70.6999985975647
301,156,63737,2,0,L|344:98,1,70.6999985975647
111,188,63998,2,0,L|181:218,1,70.6999985975647
383,79,64259,2,0,L|299:49,1,70.6999985975647
68,42,64520,5,0,0:0:0:0:
279,168,64650,1,0,0:0:0:0:
66,296,64781,6,0,L|111:220,1,70.6999985975647
244,33,65041,5,0,0:0:0:0:
198,277,65172,1,0,0:0:0:0:
444,288,65302,1,0,0:0:0:0:
225,169,65433,1,0,0:0:0:0:
445,58,65563,5,0,0:0:0:0:
371,295,65694,1,0,0:0:0:0:
199,117,65824,1,0,0:0:0:0:
294,346,65955,1,0,0:0:0:0:
428,168,66085,6,0,L|332:142,1,70.6999985975647
120,82,66346,2,0,L|216:108,1,70.6999985975647
120,82,66607,5,0,0:0:0:0:
357,147,66737,1,0,0:0:0:0:
138,264,66868,1,0,0:0:0:0:
377,321,66998,1,0,0:0:0:0:
263,102,67128,5,0,0:0:0:0:
498,179,67259,1,0,0:0:0:0:
256,229,67389,1,0,0:0:0:0:
492,305,67520,1,0,0:0:0:0:
395,78,67650,5,0,0:0:0:0:
306,310,67781,1,0,0:0:0:0:
165,107,67911,1,0,0:0:0:0:
75,336,68041,1,0,0:0:0:0:
313,266,68172,5,0,0:0:0:0:
405,37,68302,1,0,0:0:0:0:
242,225,68433,1,0,0:0:0:0:
316,25,68563,1,0,0:0:0:0:
77,95,68694,6,0,L|80:169,1,70.6999985975647
325,127,68955,5,0,0:0:0:0:
325,127,69020,1,0,0:0:0:0:
325,127,69085,1,0,0:0:0:0:
134,283,69215,1,0,0:0:0:0:
134,283,69281,1,0,0:0:0:0:
134,283,69346,1,0,0:0:0:0:
130,36,69476,1,0,0:0:0:0:
130,36,69541,1,0,0:0:0:0:
130,36,69607,1,0,0:0:0:0:
315,199,69737,1,0,0:0:0:0:
315,199,69802,1,0,0:0:0:0:
315,199,69868,1,0,0:0:0:0:
77,133,69998,5,2,0:0:0:0:
77,133,70063,1,2,0:0:0:0:
77,133,70128,1,2,0:0:0:0:
256,192,70259,5,2,0:0:0:0:
283,33,74188,5,2,0:0:0:0:
155,242,74313,1,2,0:0:0:0:
377,139,74438,1,2,0:0:0:0:
264,356,74563,1,2,0:0:0:0:
132,149,74688,5,0,0:0:0:0:
341,276,74813,1,0,0:0:0:0:
225,59,74938,1,0,0:0:0:0:
427,196,75063,1,0,0:0:0:0:
338,32,75188,5,0,0:0:0:0:
155,242,75308,1,0,0:0:0:0:
356,102,75428,1,0,0:0:0:0:
198,289,75548,1,0,0:0:0:0:
87,70,75668,5,0,0:0:0:0:
274,228,75788,1,0,0:0:0:0:
32,146,75908,1,0,0:0:0:0:
218,303,76023,1,0,0:0:0:0:
274,65,76138,5,0,0:0:0:0:
132,266,76254,1,0,0:0:0:0:
190,28,76369,1,0,0:0:0:0:
243,266,76484,1,0,0:0:0:0:
468,166,76600,5,0,0:0:0:0:
229,111,76715,1,0,0:0:0:0:
400,300,76831,1,0,0:0:0:0:
165,229,76942,1,0,0:0:0:0:
46,61,77275,5,0,0:0:0:0:
46,61,77331,1,0,0:0:0:0:
46,61,77386,1,0,0:0:0:0:
46,61,77442,1,0,0:0:0:0:
46,61,77497,1,0,0:0:0:0:
274,149,77608,5,0,0:0:0:0:
446,294,77719,5,0,0:0:0:0:
85,224,77826,1,0,0:0:0:0:
421,76,77933,1,0,0:0:0:0:
183,355,78040,1,0,0:0:0:0:
177,73,78147,6,0,B|149:112|149:112|162:116|162:116|141:172,1,105.000004005432
287,271,78361,2,0,B|306:212|306:212|312:211|312:211|308:208|308:208|314:204|314:204|322:172,1,105.000004005432
256,59,78576,5,0,0:0:0:0:
158,298,78683,1,0,0:0:0:0:
51,102,78790,1,0,0:0:0:0:
393,233,78897,1,0,0:0:0:0:
399,101,79004,5,0,0:0:0:0:
93,304,79111,1,0,0:0:0:0:
256,59,79219,5,0,0:0:0:0:
221,285,79326,1,0,0:0:0:0:
134,158,79433,6,0,L|265:190,1,105.000004005432
443,143,79647,2,0,L|310:113,1,105.000004005432
122,62,79861,6,0,L|56:194,1,105.000004005432
431,54,80076,2,0,L|321:78,2,105.000004005432
123,70,80965,5,0,0:0:0:0:
452,231,81072,1,0,0:0:0:0:
316,349,81179,1,0,0:0:0:0:
275,145,81286,1,0,0:0:0:0:
150,244,81393,6,0,L|193:109,1,105.000004005432
504,318,81607,1,0,0:0:0:0:
158,185,81715,2,0,L|142:181,1,13.125000500679
434,39,81822,5,0,0:0:0:0:
226,341,81929,1,0,0:0:0:0:
306,44,82036,5,0,0:0:0:0:
350,272,82143,1,0,0:0:0:0:
45,67,82250,6,0,L|56:193,1,105.000004005432
421,122,82465,6,0,L|305:167,1,105.000004005432
98,52,82679,5,0,0:0:0:0:
315,347,82786,1,0,0:0:0:0:
451,6,82893,1,0,0:0:0:0:
223,294,83000,1,0,0:0:0:0:
69,77,83107,5,0,0:0:0:0:
415,209,83215,1,0,0:0:0:0:
67,325,83322,1,0,0:0:0:0:
330,69,83429,1,0,0:0:0:0:
228,182,83536,5,0,0:0:0:0:
115,232,84211,5,0,0:0:0:0:
115,232,84264,1,0,0:0:0:0:
115,232,84318,1,0,0:0:0:0:
115,232,84371,1,0,0:0:0:0:
115,232,84425,1,0,0:0:0:0:
329,114,84532,1,0,0:0:0:0:
88,70,84639,1,0,0:0:0:0:
280,220,84746,1,0,0:0:0:0:
170,1,84853,1,0,0:0:0:0:
179,247,84961,1,0,0:0:0:0:
425,137,85068,5,0,0:0:0:0:
425,137,85121,1,0,0:0:0:0:
425,137,85175,1,0,0:0:0:0:
425,137,85228,1,0,0:0:0:0:
425,137,85282,1,0,0:0:0:0:
231,324,85389,1,0,0:0:0:0:
136,71,85496,1,0,0:0:0:0:
31,318,85603,1,0,0:0:0:0:
243,148,85711,1,0,0:0:0:0:
422,348,85818,1,0,0:0:0:0:
156,223,85925,5,0,0:0:0:0:
156,223,85978,1,0,0:0:0:0:
156,223,86032,1,0,0:0:0:0:
156,223,86086,1,0,0:0:0:0:
156,223,86139,1,0,0:0:0:0:
439,145,86246,1,0,0:0:0:0:
161,48,86353,1,0,0:0:0:0:
290,314,86461,1,0,0:0:0:0:
304,20,86568,1,0,0:0:0:0:
155,273,86675,1,0,0:0:0:0:
53,308,86782,6,0,L|71:206,1,83.9999974365235
316,70,86996,2,0,L|296:158,1,83.9999974365235
106,378,87211,2,0,L|130:287,1,83.9999974365235
118,52,87425,5,0,0:0:0:0:
188,286,87532,1,0,0:0:0:0:
249,49,87639,1,0,0:0:0:0:
271,292,87746,1,0,0:0:0:0:
357,62,87853,5,0,0:0:0:0:
341,306,87960,1,0,0:0:0:0:
305,63,88067,1,0,0:0:0:0:
288,309,88175,1,0,0:0:0:0:
136,117,88282,5,0,0:0:0:0:
331,264,88389,1,0,0:0:0:0:
197,59,88496,1,0,0:0:0:0:
222,302,88603,1,0,0:0:0:0:
304,71,88710,5,0,0:0:0:0:
275,314,88817,1,0,0:0:0:0:
373,87,88925,1,0,0:0:0:0:
343,329,89032,1,0,0:0:0:0:
314,253,89139,6,0,L|298:241,1,11.5499999647522
264,241,89246,2,0,L|282:240,1,11.5499999647522
350,208,89353,6,0,L|321:197,1,23.0999999295044
247,190,89460,2,0,L|276:191,1,23.0999999295044
389,162,89567,6,0,L|351:147,1,34.6499998942566
232,143,89675,2,0,L|280:140,1,34.6499998942566
428,123,89782,6,0,L|377:102,1,46.1999998590088
222,93,89889,2,0,L|271:89,1,46.1999998590088
105,95,89996,6,0,L|115:220,1,92.3999997180176
105,95,90210,2,0,L|115:220,1,92.3999997180176
105,95,90425,2,0,L|115:220,1,92.3999997180176
154,163,90639,6,0,B|196:200|274:204|274:204|272:247|272:247|258:270|171:303|171:303,1,280
86,95,101976,6,0,L|152:131,1,70
363,244,102190,2,0,L|297:208,1,70
57,246,102405,6,0,L|123:210,1,70
334,97,102619,2,0,L|268:133,1,70
50,26,102833,6,0,L|47:102,1,70
258,224,103048,2,0,L|256:307,1,70
113,95,103262,6,0,L|199:122,1,70
402,217,103476,2,0,L|319:196,1,70
143,46,103690,5,0,0:0:0:0:
164,292,103798,1,0,0:0:0:0:
277,75,103905,1,0,0:0:0:0:
386,294,104012,1,0,0:0:0:0:
204,130,104119,6,0,L|204:222,1,70
382,367,104333,2,0,L|356:277,1,70
166,149,104548,2,0,L|201:78,1,70
440,112,104762,2,0,L|353:96,1,70
162,227,104976,6,0,L|230:270,1,70
340,50,105190,2,0,L|275:77,1,70
378,301,105405,2,0,L|357:221,1,70
172,76,105619,2,0,L|157:149,1,70
397,95,105833,6,0,L|356:178,1,70
197,338,106048,2,0,L|176:242,1,70
284,47,106262,6,0,B|270:89|290:115|290:115|291:150|255:175|255:175|203:187|161:164|161:164|153:137|153:137|161:111,1,280
39,343,106798,1,0,0:0:0:0:
258,235,106905,6,0,L|215:156,1,70
468,152,107119,2,0,L|427:227,1,70
224,87,107333,2,0,L|306:76,1,70
422,285,107547,2,0,L|344:297,1,70
193,107,107762,6,0,L|191:192,1,70
414,75,107976,6,0,L|414:88,33,8.75
197,71,108512,6,0,L|176:143,1,70
398,209,108833,6,0,L|320:220,1,70
92,284,109047,2,0,L|180:270,1,70
311,77,109262,2,0,L|314:154,1,70
204,365,109476,2,0,L|200:283,1,70
58,95,109690,6,0,L|50:167,1,70
280,254,109905,2,0,L|197:222,1,70
402,71,110119,6,0,L|382:148,1,70
160,39,110333,2,0,L|141:126,1,70
372,198,110547,5,0,0:0:0:0:
372,198,110601,1,0,0:0:0:0:
372,198,110655,1,0,0:0:0:0:
141,278,110762,1,0,0:0:0:0:
293,91,110869,1,0,0:0:0:0:
239,165,110976,5,0,0:0:0:0:
239,165,111030,1,0,0:0:0:0:
239,165,111083,1,0,0:0:0:0:
439,305,111190,1,0,0:0:0:0:
199,253,111297,5,0,0:0:0:0:
85,33,111405,6,0,L|78:114,1,70
304,196,111619,2,0,L|312:125,1,70
212,350,111833,2,0,L|226:259,1,70
173,41,112047,2,0,L|158:117,1,70
406,117,112262,6,0,L|394:187,1,70
406,117,112476,2,0,L|389:216,1,87.5
33,122,112690,6,0,L|74:229,1,105.000004005432
33,122,112905,2,0,L|83:255,1,122.500001168251
263,321,113119,6,0,L|283:167,1,140
263,321,113333,2,0,L|283:157,1,157.500006008148
142,44,113547,6,0,L|155:228,1,175
142,44,113762,2,0,L|159:269,1,192.500001835823
268,37,113976,5,0,0:0:0:0:
57,337,114083,1,0,0:0:0:0:
390,183,114190,1,0,0:0:0:0:
390,183,114244,1,0,0:0:0:0:
390,183,114297,1,0,0:0:0:0:
20,158,114405,1,0,0:0:0:0:
148,99,114512,6,0,P|210:87|257:116,1,105.000004005432
232,278,114726,2,0,P|170:290|123:261,1,105.000004005432
279,146,114940,6,0,P|291:208|262:255,1,105.000004005432
100,230,115154,2,0,P|88:168|117:121,3,105.000004005432
89,97,118695,6,0,L|47:175,1,70
249,307,118909,2,0,L|316:288,1,70
399,55,119124,2,0,L|380:134,1,70
138,113,119338,6,0,L|134:191,1,70
353,73,119552,2,0,L|251:71,1,70
60,79,120228,2,0,L|62:165,1,70
303,187,120442,2,0,L|297:112,1,70
241,126,120656,1,0,0:0:0:0:
101,250,121117,6,0,L|120:164,1,70
113,124,121331,1,0,0:0:0:0:
273,244,121792,6,0,L|300:157,1,70
440,207,122006,2,0,L|407:149,1,35
400,141,122113,1,0,0:0:0:0:
160,92,122220,1,0,0:0:0:0:
188,335,122327,1,0,0:0:0:0:
112,212,122434,2,0,L|201:199,1,70
169,145,122649,1,0,0:0:0:0:
264,55,123110,5,0,0:0:0:0:
110,245,123217,2,0,L|98:167,1,70
264,266,123670,5,0,0:0:0:0:
396,60,123777,1,0,0:0:0:0:
170,155,123884,2,0,L|257:143,1,70
135,353,124452,5,0,0:0:0:0:
253,138,124559,1,0,0:0:0:0:
371,352,124666,1,0,0:0:0:0:
152,241,124773,1,0,0:0:0:0:
392,197,124880,1,0,0:0:0:0:
340,177,124934,1,0,0:0:0:0:
288,157,124987,1,0,0:0:0:0:
236,137,125041,1,0,0:0:0:0:
184,117,125094,1,0,0:0:0:0:
132,96,125148,1,0,0:0:0:0:
80,75,125202,1,0,0:0:0:0:
93,127,125255,1,0,0:0:0:0:
107,180,125309,1,0,0:0:0:0:
121,232,125362,1,0,0:0:0:0:
135,285,125416,1,0,0:0:0:0:
180,255,125469,5,0,0:0:0:0:
226,224,125523,1,0,0:0:0:0:
272,193,125577,1,0,0:0:0:0:
318,163,125630,1,0,0:0:0:0:
274,62,125737,5,0,0:0:0:0:
294,305,125844,6,0,L|339:224,1,70
168,295,126298,1,0,0:0:0:0:
235,59,126405,1,0,0:0:0:0:
49,218,126512,2,0,L|119:156,1,70
324,96,126965,2,0,L|313:190,1,70
92,50,127418,5,0,0:0:0:0:
106,294,127525,1,0,0:0:0:0:
211,73,127632,1,0,0:0:0:0:
301,300,127739,1,0,0:0:0:0:
82,189,127846,2,0,L|177:201,1,70
393,91,128414,1,0,0:0:0:0:
216,260,128521,2,0,L|195:161,1,70
411,100,129320,5,0,0:0:0:0:
166,90,129427,2,0,L|171:172,1,70
88,281,129880,5,0,0:0:0:0:
302,163,129987,1,0,0:0:0:0:
236,302,130094,2,0,L|182:215,1,70
108,52,130547,5,0,0:0:0:0:
99,296,130654,1,0,0:0:0:0:
250,104,130761,1,0,0:0:0:0:
423,276,130868,1,0,0:0:0:0:
185,217,130975,2,0,L|172:147,1,70
78,60,131428,2,0,L|62:160,1,70
337,57,131881,5,0,0:0:0:0:
252,286,131988,1,0,0:0:0:0:
166,56,132095,1,0,0:0:0:0:
101,291,132202,1,0,0:0:0:0:
279,124,132309,1,0,0:0:0:0:
29,183,132421,6,0,L|96:196,3,35
69,143,132635,2,0,L|97:183,3,35
91,122,132849,6,0,P|113:129|158:135,3,35
122,77,133063,6,0,L|189:90,3,35
80,64,134988,5,0,0:0:0:0:
80,64,135041,1,0,0:0:0:0:
80,64,135095,1,0,0:0:0:0:
80,64,135148,1,0,0:0:0:0:
80,64,135202,1,0,0:0:0:0:
314,134,135309,1,0,0:0:0:0:
149,315,135416,1,0,0:0:0:0:
204,76,135523,2,0,L|226:175,1,70
413,297,135738,5,0,0:0:0:0:
354,59,135845,1,0,0:0:0:0:
252,281,135952,1,0,0:0:0:0:
43,153,136059,2,0,L|134:188,1,70
316,49,136273,6,0,L|309:94,2,35
215,274,136488,6,0,L|219:234,2,35
84,67,136702,5,0,0:0:0:0:
84,67,136755,1,0,0:0:0:0:
84,67,136809,1,0,0:0:0:0:
84,67,136863,1,0,0:0:0:0:
84,67,136916,1,0,0:0:0:0:
325,105,137023,6,0,L|372:180,1,70
179,330,137238,2,0,L|146:256,1,70
325,105,137452,2,0,L|372:180,1,70
179,330,137666,2,0,L|146:256,1,70
131,22,137880,5,0,0:0:0:0:
272,224,137988,1,0,0:0:0:0:
271,70,138095,1,0,0:0:0:0:
116,259,138202,1,0,0:0:0:0:
193,146,138309,1,0,0:0:0:0:
418,241,138416,1,0,0:0:0:0:
214,376,138523,1,0,0:0:0:0:
338,165,138630,1,0,0:0:0:0:
105,82,138738,1,0,0:0:0:0:
248,280,138845,1,0,0:0:0:0:
311,43,138952,1,0,0:0:0:0:
147,225,139059,1,0,0:0:0:0:
338,165,139166,1,0,0:0:0:0:
456,45,139273,6,0,L|375:325,1,280
177,170,139809,5,0,0:0:0:0:
418,207,139916,1,0,0:0:0:0:
280,240,140023,2,0,L|294:165,1,70
86,34,140238,5,0,0:0:0:0:
73,278,140345,1,0,0:0:0:0:
174,55,140452,1,0,0:0:0:0:
74,114,140559,2,0,L|96:186,1,70
331,239,140773,2,0,L|403:236,1,70
250,39,140988,2,0,L|244:48,16,8.75
250,39,141416,2,0,L|244:48,16,8.75
90,103,141845,6,0,L|185:116,1,70
348,267,142059,2,0,L|247:252,1,70
380,34,142273,2,0,L|362:106,1,70
195,283,142488,2,0,L|109:268,1,70
234,51,142702,6,0,L|229:145,1,70
360,327,142916,2,0,L|364:249,1,70
131,180,143130,2,0,L|57:157,1,70
297,79,143345,5,0,0:0:0:0:
256,320,143452,1,0,0:0:0:0:
149,99,143559,5,0,0:0:0:0:
149,99,143613,1,0,0:0:0:0:
149,99,143666,1,0,0:0:0:0:
149,99,143720,1,0,0:0:0:0:
149,99,143773,1,0,0:0:0:0:
354,164,143988,6,0,L|383:133,4,35
122,240,144416,5,0,0:0:0:0:
216,97,144630,1,0,0:0:0:0:
216,97,144684,1,0,0:0:0:0:
216,97,144738,1,0,0:0:0:0:
216,97,144791,1,0,0:0:0:0:
216,97,144845,1,0,0:0:0:0:
392,278,145059,1,0,0:0:0:0:
374,58,145273,6,0,L|324:137,1,70
165,295,145488,2,0,L|176:219,1,70
29,29,145702,2,0,L|86:95,1,70
275,222,145916,2,0,L|316:149,1,70
67,121,146130,6,0,L|59:205,1,70
276,70,146345,2,0,L|257:151,1,70
386,347,146559,2,0,L|374:247,1,70
138,227,146773,2,0,L|220:261,1,70
379,84,146987,6,0,L|347:177,1,70
126,60,147202,2,0,L|101:132,1,70
267,307,147416,2,0,L|242:207,1,70
12,180,147630,2,0,L|105:175,1,70
308,77,147845,6,0,L|304:168,1,70
151,337,148059,2,0,L|168:266,1,70
401,197,148273,2,0,L|330:174,1,70
116,63,148487,2,0,L|82:133,1,70
256,35,148702,5,0,0:0:0:0:
256,349,148809,1,0,0:0:0:0:
367,80,148916,5,0,0:0:0:0:
144,303,149023,1,0,0:0:0:0:
412,191,149130,5,0,0:0:0:0:
99,191,149237,1,0,0:0:0:0:
367,303,149345,5,0,0:0:0:0:
144,80,149452,1,0,0:0:0:0:
275,287,149559,6,0,L|261:195,1,70
23,259,149773,1,0,0:0:0:0:
23,259,149827,1,0,0:0:0:0:
23,259,149880,1,0,0:0:0:0:
192,82,149987,6,0,L|186:248,1,140
336,98,150416,5,0,0:0:0:0:
348,237,150630,2,0,L|354:227,31,8.75
256,192,151059,12,0,153043,0:0:0:0:
256,192,153059,6,0,L|256:182,1,8.75
