osu file format v14

[General]
AudioFilename: audio.mp3
AudioLeadIn: 0
PreviewTime: -1
Countdown: 0
SampleSet: None
StackLeniency: 0.7
Mode: 3
LetterboxInBreaks: 0
SpecialStyle: 0
WidescreenStoryboard: 0

[Editor]
DistanceSpacing: 0.8
BeatDivisor: 8
GridSize: 32
TimelineZoom: 2.799999

[Metadata]
Title:Go Beyond!! 100-200-400
TitleUnicode:Go Beyond!! 100→200→400
Artist:LeaF
ArtistUnicode:LeaF
Creator:Toshiyuki Doma
Version:Fascination Beyond!
Source:
Tags:fascination maxx dance dance revolution ddr konami bemani konmai
BeatmapID:1463938
BeatmapSetID:691813

[Difficulty]
HPDrainRate:8
CircleSize:4
OverallDifficulty:9
ApproachRate:5
SliderMultiplier:1.4
SliderTickRate:1

[Events]
//Background and Video events
0,0,"bg.jpg",0,0
//Break Periods
//Storyboard Layer 0 (Background)
//Storyboard Layer 1 (Fail)
//Storyboard Layer 2 (Pass)
//Storyboard Layer 3 (Foreground)
//Storyboard Sound Samples

[TimingPoints]
640,300,4,1,0,0,1,0
2440,1,4,1,0,0,1,0
2515,999999999,4,1,0,0,1,0
3040,2400,4,1,0,0,1,0
21040,1200,4,1,0,0,1,0
21190,800,4,1,0,0,1,0
21340,600,4,1,0,0,1,0
21490,480,4,1,0,0,1,0
21640,400,4,1,0,0,1,0
22240,300,4,1,0,0,1,0
26740,1,4,1,0,0,1,0
26741,999999999,4,1,0,0,1,0
27040,300,4,1,0,0,1,0
31540,1,4,1,0,0,1,0
31541,999999999,4,1,0,0,1,0
31840,300,4,1,0,0,1,0
33640,1,4,1,0,0,1,0
33715,999999999,4,1,0,0,1,0
34090,300,4,1,0,0,1,0
35440,1,4,1,0,0,1,0
35441,999999999,4,1,0,0,1,0
35741,1,4,1,0,0,1,0
35742,999999999,4,1,0,0,1,0
35965,1,4,1,0,0,1,0
35966,999999999,4,1,0,0,1,0
36040,300,4,1,0,0,1,0
36340,1,4,1,0,0,1,0
36341,999999999,4,1,0,0,1,0
36640,300,4,1,0,0,1,0
38590,1,4,1,0,0,1,0
38591,999999999,4,1,0,0,1,0
38890,300,4,1,0,0,1,0
40240,1,4,1,0,0,1,0
40315,999999999,4,1,0,0,1,0
40840,300,4,1,0,0,1,0
51640,600,4,1,0,0,1,0
61240,400,4,1,0,0,1,0
70840,600,4,1,0,0,1,0
80440,2400,4,1,0,0,1,0
82840,1200,4,1,0,0,1,0
84340,600,4,1,0,0,1,0
89140,300,4,1,0,0,1,0
90940,600,4,1,0,0,1,0
91540,300,4,1,0,0,1,0
92740,999999999,4,1,0,0,1,0
93190,300,4,1,0,0,1,0
95740,600,4,1,0,0,1,0
96340,300,4,1,0,0,1,0
97540,600,4,1,0,0,1,0
98740,300,4,1,0,0,1,0
102340,999999999,4,1,0,0,1,0
102790,300,4,1,0,0,1,0
108040,999999999,4,1,0,0,1,0
108265,300,4,1,0,0,1,0
110740,1,4,1,0,0,1,0
110777,999999999,4,1,0,0,1,0
111940,300,4,1,0,0,1,0
356441,300,4,1,0,0,1,0

[HitObjects]
64,192,3040,5,0,0:0:0:0:
320,192,3040,1,0,0:0:0:0:
448,192,3040,1,0,0:0:0:0:
192,192,3640,1,0,0:0:0:0:
64,192,4240,1,0,0:0:0:0:
320,192,4840,1,0,0:0:0:0:
448,192,5440,1,0,0:0:0:0:
192,192,7240,1,0,0:0:0:0:
320,192,7840,1,0,0:0:0:0:
64,192,8440,1,0,0:0:0:0:
192,192,9040,1,0,0:0:0:0:
448,192,9640,1,0,0:0:0:0:
320,192,10240,1,0,0:0:0:0:
192,192,12040,1,0,0:0:0:0:
64,192,12640,1,0,0:0:0:0:
320,192,12640,1,0,0:0:0:0:
448,192,12640,1,0,0:0:0:0:
320,192,13240,1,0,0:0:0:0:
64,192,13840,1,0,0:0:0:0:
192,192,14440,1,0,0:0:0:0:
448,192,15040,1,0,0:0:0:0:
192,192,16840,1,0,0:0:0:0:
320,192,17440,1,0,0:0:0:0:
192,192,18040,1,0,0:0:0:0:
320,192,18640,1,0,0:0:0:0:
448,192,19240,1,0,0:0:0:0:
192,192,19840,1,0,0:0:0:0:
64,192,21040,1,0,0:0:0:0:
448,192,21190,1,0,0:0:0:0:
64,192,21340,1,0,0:0:0:0:
448,192,21490,1,0,0:0:0:0:
64,192,21640,1,0,0:0:0:0:
192,192,21640,1,0,0:0:0:0:
320,192,21715,1,0,0:0:0:0:
448,192,21715,1,0,0:0:0:0:
192,192,21790,1,0,0:0:0:0:
64,192,21790,1,0,0:0:0:0:
320,192,21865,1,0,0:0:0:0:
448,192,21865,1,0,0:0:0:0:
192,192,21940,1,0,0:0:0:0:
64,192,21940,1,0,0:0:0:0:
320,192,22015,1,0,0:0:0:0:
448,192,22015,1,0,0:0:0:0:
192,192,22090,1,0,0:0:0:0:
64,192,22090,1,0,0:0:0:0:
320,192,22165,1,0,0:0:0:0:
448,192,22240,1,0,0:0:0:0:
192,192,22240,1,0,0:0:0:0:
64,192,22240,1,0,0:0:0:0:
192,192,22390,1,0,0:0:0:0:
320,192,22390,1,0,0:0:0:0:
320,192,22540,1,0,0:0:0:0:
448,192,22540,1,0,0:0:0:0:
64,192,22690,1,0,0:0:0:0:
448,192,22690,1,0,0:0:0:0:
320,192,22840,1,0,0:0:0:0:
64,192,22840,1,0,0:0:0:0:
192,192,22990,1,0,0:0:0:0:
448,192,22990,1,0,0:0:0:0:
320,192,23140,1,0,0:0:0:0:
448,192,23140,1,0,0:0:0:0:
192,192,23290,1,0,0:0:0:0:
64,192,23290,1,0,0:0:0:0:
448,192,23440,1,0,0:0:0:0:
64,192,23440,1,0,0:0:0:0:
192,192,23590,1,0,0:0:0:0:
448,192,23590,1,0,0:0:0:0:
192,192,23740,1,0,0:0:0:0:
320,192,23740,1,0,0:0:0:0:
320,192,23890,1,0,0:0:0:0:
64,192,23890,1,0,0:0:0:0:
64,192,24040,1,0,0:0:0:0:
448,192,24040,1,0,0:0:0:0:
192,192,24190,1,0,0:0:0:0:
448,192,24190,1,0,0:0:0:0:
64,192,24340,1,0,0:0:0:0:
448,192,24340,1,0,0:0:0:0:
320,192,24490,1,0,0:0:0:0:
64,192,24490,1,0,0:0:0:0:
192,192,24640,1,0,0:0:0:0:
448,192,24640,1,0,0:0:0:0:
448,192,24790,1,0,0:0:0:0:
64,192,24790,1,0,0:0:0:0:
64,192,24940,1,0,0:0:0:0:
320,192,24940,1,0,0:0:0:0:
64,192,25090,1,0,0:0:0:0:
448,192,25090,1,0,0:0:0:0:
64,192,25240,1,0,0:0:0:0:
192,192,25240,1,0,0:0:0:0:
320,192,25390,1,0,0:0:0:0:
448,192,25390,1,0,0:0:0:0:
192,192,25540,1,0,0:0:0:0:
448,192,25540,1,0,0:0:0:0:
64,192,25690,1,0,0:0:0:0:
320,192,25690,1,0,0:0:0:0:
192,192,25840,1,0,0:0:0:0:
64,192,25840,1,0,0:0:0:0:
192,192,25990,1,0,0:0:0:0:
448,192,25990,1,0,0:0:0:0:
448,192,26140,1,0,0:0:0:0:
64,192,26140,1,0,0:0:0:0:
192,192,26290,1,0,0:0:0:0:
448,192,26290,1,0,0:0:0:0:
320,192,26440,1,0,0:0:0:0:
64,192,26440,1,0,0:0:0:0:
64,192,26590,1,0,0:0:0:0:
448,192,26590,1,0,0:0:0:0:
64,192,26740,1,0,0:0:0:0:
192,192,26740,1,0,0:0:0:0:
448,192,26740,1,0,0:0:0:0:
64,192,27040,1,0,0:0:0:0:
320,192,27040,1,0,0:0:0:0:
192,192,27190,1,0,0:0:0:0:
448,192,27190,1,0,0:0:0:0:
448,192,27340,1,0,0:0:0:0:
320,192,27340,1,0,0:0:0:0:
64,192,27490,1,0,0:0:0:0:
448,192,27490,1,0,0:0:0:0:
320,192,27640,1,0,0:0:0:0:
64,192,27640,1,0,0:0:0:0:
192,192,27790,1,0,0:0:0:0:
448,192,27790,1,0,0:0:0:0:
320,192,27940,1,0,0:0:0:0:
448,192,27940,1,0,0:0:0:0:
448,192,28090,1,0,0:0:0:0:
64,192,28090,1,0,0:0:0:0:
320,192,28240,1,0,0:0:0:0:
64,192,28240,1,0,0:0:0:0:
192,192,28390,1,0,0:0:0:0:
320,192,28390,1,0,0:0:0:0:
448,192,28540,1,0,0:0:0:0:
64,192,28540,1,0,0:0:0:0:
320,192,28690,1,0,0:0:0:0:
448,192,28690,1,0,0:0:0:0:
192,192,28840,1,0,0:0:0:0:
64,192,28840,1,0,0:0:0:0:
64,192,28990,1,0,0:0:0:0:
448,192,28990,1,0,0:0:0:0:
448,192,29140,1,0,0:0:0:0:
192,192,29140,1,0,0:0:0:0:
320,192,29290,1,0,0:0:0:0:
192,192,29290,1,0,0:0:0:0:
320,192,29440,1,0,0:0:0:0:
448,192,29440,1,0,0:0:0:0:
64,192,29590,1,0,0:0:0:0:
448,192,29590,1,0,0:0:0:0:
64,192,29740,1,0,0:0:0:0:
320,192,29740,1,0,0:0:0:0:
192,192,29890,1,0,0:0:0:0:
448,192,29890,1,0,0:0:0:0:
64,192,30040,1,0,0:0:0:0:
192,192,30040,1,0,0:0:0:0:
64,192,30190,1,0,0:0:0:0:
448,192,30190,1,0,0:0:0:0:
320,192,30340,1,0,0:0:0:0:
448,192,30340,1,0,0:0:0:0:
64,192,30490,1,0,0:0:0:0:
320,192,30490,1,0,0:0:0:0:
64,192,30640,1,0,0:0:0:0:
448,192,30640,1,0,0:0:0:0:
192,192,30790,1,0,0:0:0:0:
448,192,30790,1,0,0:0:0:0:
320,192,30940,1,0,0:0:0:0:
64,192,30940,1,0,0:0:0:0:
64,192,31090,1,0,0:0:0:0:
448,192,31090,1,0,0:0:0:0:
320,192,31240,1,0,0:0:0:0:
64,192,31240,1,0,0:0:0:0:
192,192,31390,1,0,0:0:0:0:
448,192,31390,1,0,0:0:0:0:
448,192,31540,1,0,0:0:0:0:
320,192,31540,1,0,0:0:0:0:
64,192,31540,1,0,0:0:0:0:
64,192,31840,1,0,0:0:0:0:
192,192,31840,1,0,0:0:0:0:
320,192,31840,1,0,0:0:0:0:
448,192,31990,1,0,0:0:0:0:
192,192,31990,1,0,0:0:0:0:
64,192,31990,1,0,0:0:0:0:
64,192,32140,1,0,0:0:0:0:
320,192,32140,1,0,0:0:0:0:
448,192,32140,1,0,0:0:0:0:
320,192,32290,1,0,0:0:0:0:
448,192,32290,1,0,0:0:0:0:
192,192,32290,1,0,0:0:0:0:
64,192,32440,1,0,0:0:0:0:
192,192,32440,1,0,0:0:0:0:
448,192,32440,1,0,0:0:0:0:
448,192,32590,1,0,0:0:0:0:
320,192,32590,1,0,0:0:0:0:
64,192,32590,1,0,0:0:0:0:
64,192,32740,1,0,0:0:0:0:
192,192,32740,1,0,0:0:0:0:
320,192,32740,1,0,0:0:0:0:
448,192,32890,1,0,0:0:0:0:
320,192,32890,1,0,0:0:0:0:
192,192,32890,1,0,0:0:0:0:
64,192,33040,1,0,0:0:0:0:
192,192,33040,1,0,0:0:0:0:
320,192,33040,1,0,0:0:0:0:
448,192,33190,1,0,0:0:0:0:
192,192,33190,1,0,0:0:0:0:
64,192,33190,1,0,0:0:0:0:
192,192,33340,1,0,0:0:0:0:
320,192,33340,1,0,0:0:0:0:
448,192,33340,1,0,0:0:0:0:
320,192,33490,1,0,0:0:0:0:
64,192,33490,1,0,0:0:0:0:
448,192,33490,1,0,0:0:0:0:
64,192,33640,1,0,0:0:0:0:
192,192,33640,1,0,0:0:0:0:
64,192,34090,1,0,0:0:0:0:
320,192,34090,1,0,0:0:0:0:
192,192,34240,1,0,0:0:0:0:
448,192,34240,1,0,0:0:0:0:
64,192,34240,1,0,0:0:0:0:
448,192,34390,1,0,0:0:0:0:
192,192,34390,1,0,0:0:0:0:
320,192,34390,1,0,0:0:0:0:
64,192,34540,1,0,0:0:0:0:
192,192,34540,1,0,0:0:0:0:
448,192,34540,1,0,0:0:0:0:
448,192,34690,1,0,0:0:0:0:
320,192,34690,1,0,0:0:0:0:
192,192,34690,1,0,0:0:0:0:
64,192,34840,1,0,0:0:0:0:
192,192,34840,1,0,0:0:0:0:
320,192,34840,1,0,0:0:0:0:
448,192,34990,1,0,0:0:0:0:
192,192,34990,1,0,0:0:0:0:
64,192,34990,1,0,0:0:0:0:
64,192,35140,1,0,0:0:0:0:
320,192,35140,1,0,0:0:0:0:
448,192,35140,1,0,0:0:0:0:
192,192,35290,1,0,0:0:0:0:
320,192,35290,1,0,0:0:0:0:
448,192,35290,1,0,0:0:0:0:
448,192,35440,1,0,0:0:0:0:
192,192,35440,1,0,0:0:0:0:
64,192,35440,1,0,0:0:0:0:
64,192,35740,1,0,0:0:0:0:
320,192,35740,1,0,0:0:0:0:
192,192,35740,1,0,0:0:0:0:
448,192,36040,1,0,0:0:0:0:
64,192,36040,1,0,0:0:0:0:
320,192,36040,1,0,0:0:0:0:
64,192,36640,1,0,0:0:0:0:
192,192,36640,1,0,0:0:0:0:
320,192,36640,1,0,0:0:0:0:
448,192,36790,1,0,0:0:0:0:
320,192,36790,1,0,0:0:0:0:
64,192,36790,1,0,0:0:0:0:
64,192,36940,1,0,0:0:0:0:
192,192,36940,1,0,0:0:0:0:
320,192,36940,1,0,0:0:0:0:
448,192,37090,1,0,0:0:0:0:
64,192,37090,1,0,0:0:0:0:
192,192,37090,1,0,0:0:0:0:
192,192,37240,1,0,0:0:0:0:
320,192,37240,1,0,0:0:0:0:
448,192,37240,1,0,0:0:0:0:
448,192,37390,1,0,0:0:0:0:
192,192,37390,1,0,0:0:0:0:
64,192,37390,1,0,0:0:0:0:
64,192,37540,1,0,0:0:0:0:
320,192,37540,1,0,0:0:0:0:
448,192,37540,1,0,0:0:0:0:
64,192,37690,1,0,0:0:0:0:
192,192,37690,1,0,0:0:0:0:
320,192,37690,1,0,0:0:0:0:
448,192,37840,1,0,0:0:0:0:
192,192,37840,1,0,0:0:0:0:
64,192,37840,1,0,0:0:0:0:
64,192,37990,1,0,0:0:0:0:
320,192,37990,1,0,0:0:0:0:
448,192,37990,1,0,0:0:0:0:
192,192,38140,1,0,0:0:0:0:
320,192,38140,1,0,0:0:0:0:
448,192,38140,1,0,0:0:0:0:
64,192,38290,1,0,0:0:0:0:
320,192,38290,1,0,0:0:0:0:
192,192,38290,1,0,0:0:0:0:
64,192,38440,1,0,0:0:0:0:
192,192,38440,1,0,0:0:0:0:
448,192,38440,1,0,0:0:0:0:
64,192,38890,1,0,0:0:0:0:
192,192,38890,1,0,0:0:0:0:
320,192,38890,1,0,0:0:0:0:
448,192,39040,1,0,0:0:0:0:
320,192,39040,1,0,0:0:0:0:
192,192,39040,1,0,0:0:0:0:
64,192,39190,1,0,0:0:0:0:
192,192,39190,1,0,0:0:0:0:
448,192,39190,1,0,0:0:0:0:
448,192,39340,1,0,0:0:0:0:
320,192,39340,1,0,0:0:0:0:
192,192,39340,1,0,0:0:0:0:
64,192,39490,1,0,0:0:0:0:
448,192,39490,1,0,0:0:0:0:
320,192,39490,1,0,0:0:0:0:
64,192,39640,1,0,0:0:0:0:
192,192,39640,1,0,0:0:0:0:
320,192,39640,1,0,0:0:0:0:
448,192,39790,1,0,0:0:0:0:
192,192,39790,1,0,0:0:0:0:
64,192,39790,1,0,0:0:0:0:
64,192,39940,1,0,0:0:0:0:
192,192,39940,1,0,0:0:0:0:
320,192,39940,1,0,0:0:0:0:
448,192,40090,1,0,0:0:0:0:
320,192,40090,1,0,0:0:0:0:
64,192,40090,1,0,0:0:0:0:
64,192,40240,1,0,0:0:0:0:
192,192,40240,1,0,0:0:0:0:
320,192,40840,1,0,0:0:0:0:
64,192,40840,1,0,0:0:0:0:
448,192,40915,1,0,0:0:0:0:
320,192,40990,1,0,0:0:0:0:
64,192,40990,1,0,0:0:0:0:
448,192,41065,1,0,0:0:0:0:
320,192,41140,1,0,0:0:0:0:
64,192,41140,1,0,0:0:0:0:
448,192,41215,1,0,0:0:0:0:
320,192,41290,1,0,0:0:0:0:
64,192,41290,1,0,0:0:0:0:
448,192,41365,1,0,0:0:0:0:
64,192,41440,1,0,0:0:0:0:
192,192,41440,1,0,0:0:0:0:
320,192,41440,1,0,0:0:0:0:
448,192,41515,128,0,41590:0:0:0:0:
64,192,41590,1,0,0:0:0:0:
320,192,41590,128,0,41665:0:0:0:0:
448,192,41665,1,0,0:0:0:0:
192,192,41665,128,0,41740:0:0:0:0:
320,192,41740,1,0,0:0:0:0:
64,192,41740,128,0,41815:0:0:0:0:
192,192,41815,1,0,0:0:0:0:
448,192,41815,128,0,41890:0:0:0:0:
64,192,41890,1,0,0:0:0:0:
320,192,41890,128,0,41965:0:0:0:0:
192,192,41965,128,0,42040:0:0:0:0:
64,192,42040,1,0,0:0:0:0:
320,192,42040,1,0,0:0:0:0:
448,192,42040,1,0,0:0:0:0:
64,192,42190,1,0,0:0:0:0:
192,192,42190,1,0,0:0:0:0:
320,192,42190,1,0,0:0:0:0:
448,192,42340,1,0,0:0:0:0:
192,192,42340,1,0,0:0:0:0:
64,192,42340,1,0,0:0:0:0:
192,192,42490,1,0,0:0:0:0:
320,192,42490,1,0,0:0:0:0:
448,192,42490,1,0,0:0:0:0:
448,192,42640,1,0,0:0:0:0:
192,192,42640,1,0,0:0:0:0:
64,192,42640,1,0,0:0:0:0:
64,192,42790,1,0,0:0:0:0:
320,192,42790,1,0,0:0:0:0:
448,192,42790,1,0,0:0:0:0:
192,192,42940,1,0,0:0:0:0:
320,192,42940,1,0,0:0:0:0:
64,192,42940,1,0,0:0:0:0:
64,192,43090,1,0,0:0:0:0:
320,192,43090,1,0,0:0:0:0:
448,192,43090,1,0,0:0:0:0:
448,192,43240,1,0,0:0:0:0:
192,192,43240,1,0,0:0:0:0:
64,192,43240,1,0,0:0:0:0:
192,192,43390,1,0,0:0:0:0:
320,192,43390,1,0,0:0:0:0:
448,192,43390,1,0,0:0:0:0:
64,192,43540,1,0,0:0:0:0:
192,192,43540,1,0,0:0:0:0:
448,192,43540,1,0,0:0:0:0:
448,192,43690,1,0,0:0:0:0:
320,192,43690,1,0,0:0:0:0:
64,192,43690,1,0,0:0:0:0:
64,192,43840,1,0,0:0:0:0:
192,192,43840,1,0,0:0:0:0:
320,192,43840,1,0,0:0:0:0:
448,192,43990,1,0,0:0:0:0:
320,192,43990,1,0,0:0:0:0:
64,192,43990,1,0,0:0:0:0:
64,192,44140,1,0,0:0:0:0:
192,192,44140,1,0,0:0:0:0:
320,192,44140,1,0,0:0:0:0:
448,192,44290,1,0,0:0:0:0:
192,192,44290,1,0,0:0:0:0:
320,192,44290,1,0,0:0:0:0:
64,192,44440,1,0,0:0:0:0:
192,192,44440,1,0,0:0:0:0:
448,192,44440,1,0,0:0:0:0:
448,192,44590,1,0,0:0:0:0:
320,192,44590,1,0,0:0:0:0:
64,192,44590,1,0,0:0:0:0:
64,192,44740,1,0,0:0:0:0:
448,192,44740,1,0,0:0:0:0:
192,192,44740,1,0,0:0:0:0:
320,192,44890,1,0,0:0:0:0:
192,192,44890,1,0,0:0:0:0:
64,192,44890,1,0,0:0:0:0:
192,192,45040,1,0,0:0:0:0:
320,192,45040,1,0,0:0:0:0:
448,192,45040,1,0,0:0:0:0:
64,192,45190,1,0,0:0:0:0:
192,192,45190,1,0,0:0:0:0:
320,192,45190,1,0,0:0:0:0:
448,192,45340,1,0,0:0:0:0:
192,192,45340,1,0,0:0:0:0:
64,192,45340,1,0,0:0:0:0:
64,192,45490,1,0,0:0:0:0:
320,192,45490,1,0,0:0:0:0:
448,192,45490,1,0,0:0:0:0:
64,192,45640,1,0,0:0:0:0:
192,192,45640,1,0,0:0:0:0:
320,192,45640,1,0,0:0:0:0:
448,192,45790,1,0,0:0:0:0:
192,192,45790,1,0,0:0:0:0:
64,192,45790,1,0,0:0:0:0:
64,192,45940,1,0,0:0:0:0:
320,192,45940,1,0,0:0:0:0:
448,192,45940,1,0,0:0:0:0:
64,192,46090,1,0,0:0:0:0:
192,192,46090,1,0,0:0:0:0:
320,192,46090,1,0,0:0:0:0:
448,192,46240,1,0,0:0:0:0:
320,192,46240,1,0,0:0:0:0:
192,192,46240,1,0,0:0:0:0:
64,192,46390,1,0,0:0:0:0:
192,192,46390,1,0,0:0:0:0:
448,192,46390,1,0,0:0:0:0:
448,192,46540,1,0,0:0:0:0:
320,192,46540,1,0,0:0:0:0:
64,192,46540,1,0,0:0:0:0:
64,192,46690,1,0,0:0:0:0:
192,192,46690,1,0,0:0:0:0:
320,192,46690,1,0,0:0:0:0:
448,192,46840,1,0,0:0:0:0:
320,192,46840,1,0,0:0:0:0:
192,192,46840,1,0,0:0:0:0:
64,192,46990,1,0,0:0:0:0:
320,192,46990,1,0,0:0:0:0:
448,192,46990,1,0,0:0:0:0:
448,192,47140,1,0,0:0:0:0:
64,192,47140,1,0,0:0:0:0:
320,192,47215,1,0,0:0:0:0:
192,192,47215,1,0,0:0:0:0:
64,192,47290,1,0,0:0:0:0:
448,192,47290,1,0,0:0:0:0:
448,192,47440,1,0,0:0:0:0:
320,192,47440,1,0,0:0:0:0:
192,192,47515,1,0,0:0:0:0:
64,192,47515,1,0,0:0:0:0:
320,192,47590,1,0,0:0:0:0:
448,192,47665,1,0,0:0:0:0:
192,192,47665,1,0,0:0:0:0:
64,192,47740,1,0,0:0:0:0:
320,192,47740,1,0,0:0:0:0:
448,192,47890,1,0,0:0:0:0:
320,192,47890,1,0,0:0:0:0:
64,192,47890,1,0,0:0:0:0:
64,192,48040,1,0,0:0:0:0:
192,192,48040,1,0,0:0:0:0:
320,192,48040,1,0,0:0:0:0:
448,192,48190,1,0,0:0:0:0:
64,192,48190,1,0,0:0:0:0:
192,192,48265,1,0,0:0:0:0:
320,192,48265,1,0,0:0:0:0:
64,192,48340,1,0,0:0:0:0:
448,192,48340,1,0,0:0:0:0:
320,192,48415,1,0,0:0:0:0:
64,192,48490,1,0,0:0:0:0:
448,192,48490,1,0,0:0:0:0:
192,192,48565,1,0,0:0:0:0:
64,192,48640,1,0,0:0:0:0:
448,192,48640,1,0,0:0:0:0:
320,192,48640,1,0,0:0:0:0:
320,192,48790,1,0,0:0:0:0:
192,192,48790,1,0,0:0:0:0:
64,192,48790,1,0,0:0:0:0:
320,192,48940,1,0,0:0:0:0:
448,192,48940,1,0,0:0:0:0:
192,192,49015,1,0,0:0:0:0:
64,192,49015,1,0,0:0:0:0:
320,192,49090,1,0,0:0:0:0:
448,192,49090,1,0,0:0:0:0:
64,192,49240,1,0,0:0:0:0:
192,192,49240,1,0,0:0:0:0:
448,192,49240,1,0,0:0:0:0:
320,192,49390,1,0,0:0:0:0:
64,192,49390,1,0,0:0:0:0:
192,192,49465,1,0,0:0:0:0:
448,192,49465,1,0,0:0:0:0:
320,192,49540,1,0,0:0:0:0:
64,192,49540,1,0,0:0:0:0:
192,192,49615,1,0,0:0:0:0:
448,192,49615,1,0,0:0:0:0:
320,192,49690,1,0,0:0:0:0:
64,192,49690,1,0,0:0:0:0:
64,192,49840,1,0,0:0:0:0:
192,192,49840,1,0,0:0:0:0:
320,192,49915,1,0,0:0:0:0:
448,192,49915,1,0,0:0:0:0:
192,192,49990,1,0,0:0:0:0:
64,192,50065,1,0,0:0:0:0:
320,192,50065,1,0,0:0:0:0:
192,192,50140,1,0,0:0:0:0:
448,192,50140,1,0,0:0:0:0:
64,192,50290,1,0,0:0:0:0:
448,192,50290,1,0,0:0:0:0:
320,192,50290,1,0,0:0:0:0:
192,192,50365,1,0,0:0:0:0:
64,192,50440,1,0,0:0:0:0:
448,192,50440,1,0,0:0:0:0:
320,192,50515,1,0,0:0:0:0:
448,192,50590,1,0,0:0:0:0:
64,192,50590,1,0,0:0:0:0:
192,192,50665,1,0,0:0:0:0:
320,192,50740,1,0,0:0:0:0:
448,192,50740,1,0,0:0:0:0:
64,192,50740,1,0,0:0:0:0:
192,192,50890,1,0,0:0:0:0:
448,192,50890,1,0,0:0:0:0:
320,192,50890,1,0,0:0:0:0:
64,192,51040,1,0,0:0:0:0:
448,192,51040,1,0,0:0:0:0:
192,192,51040,1,0,0:0:0:0:
448,192,51190,1,0,0:0:0:0:
64,192,51190,1,0,0:0:0:0:
192,192,51265,1,0,0:0:0:0:
320,192,51265,1,0,0:0:0:0:
448,192,51340,1,0,0:0:0:0:
64,192,51340,1,0,0:0:0:0:
192,192,51415,1,0,0:0:0:0:
320,192,51415,1,0,0:0:0:0:
448,192,51490,1,0,0:0:0:0:
64,192,51490,1,0,0:0:0:0:
192,192,51565,1,0,0:0:0:0:
320,192,51565,1,0,0:0:0:0:
448,192,51640,1,0,0:0:0:0:
64,192,51640,1,0,0:0:0:0:
320,192,51715,1,0,0:0:0:0:
192,192,51790,1,0,0:0:0:0:
64,192,51865,1,0,0:0:0:0:
448,192,51940,1,0,0:0:0:0:
192,192,51940,1,0,0:0:0:0:
320,192,52015,1,0,0:0:0:0:
192,192,52090,1,0,0:0:0:0:
64,192,52165,1,0,0:0:0:0:
448,192,52240,1,0,0:0:0:0:
320,192,52315,1,0,0:0:0:0:
192,192,52390,1,0,0:0:0:0:
64,192,52465,1,0,0:0:0:0:
448,192,52540,1,0,0:0:0:0:
320,192,52615,1,0,0:0:0:0:
192,192,52690,1,0,0:0:0:0:
64,192,52765,1,0,0:0:0:0:
448,192,52840,1,0,0:0:0:0:
320,192,52915,1,0,0:0:0:0:
64,192,52990,1,0,0:0:0:0:
192,192,53065,1,0,0:0:0:0:
448,192,53140,1,0,0:0:0:0:
320,192,53215,1,0,0:0:0:0:
64,192,53290,1,0,0:0:0:0:
192,192,53365,1,0,0:0:0:0:
448,192,53440,1,0,0:0:0:0:
320,192,53515,1,0,0:0:0:0:
64,192,53590,1,0,0:0:0:0:
192,192,53665,1,0,0:0:0:0:
320,192,53740,1,0,0:0:0:0:
448,192,53815,1,0,0:0:0:0:
192,192,53890,1,0,0:0:0:0:
64,192,53965,1,0,0:0:0:0:
320,192,54040,1,0,0:0:0:0:
192,192,54040,1,0,0:0:0:0:
448,192,54115,1,0,0:0:0:0:
192,192,54190,1,0,0:0:0:0:
64,192,54265,1,0,0:0:0:0:
320,192,54340,1,0,0:0:0:0:
192,192,54340,1,0,0:0:0:0:
448,192,54415,1,0,0:0:0:0:
192,192,54490,1,0,0:0:0:0:
64,192,54565,1,0,0:0:0:0:
320,192,54640,1,0,0:0:0:0:
448,192,54715,1,0,0:0:0:0:
64,192,54790,1,0,0:0:0:0:
320,192,54790,1,0,0:0:0:0:
192,192,54865,1,0,0:0:0:0:
320,192,54940,1,0,0:0:0:0:
448,192,55015,1,0,0:0:0:0:
64,192,55090,1,0,0:0:0:0:
192,192,55165,1,0,0:0:0:0:
320,192,55240,1,0,0:0:0:0:
64,192,55240,1,0,0:0:0:0:
448,192,55315,1,0,0:0:0:0:
64,192,55390,1,0,0:0:0:0:
192,192,55465,1,0,0:0:0:0:
320,192,55540,1,0,0:0:0:0:
448,192,55615,1,0,0:0:0:0:
64,192,55690,1,0,0:0:0:0:
320,192,55690,1,0,0:0:0:0:
192,192,55765,1,0,0:0:0:0:
320,192,55840,1,0,0:0:0:0:
448,192,55915,1,0,0:0:0:0:
192,192,55990,1,0,0:0:0:0:
64,192,56065,1,0,0:0:0:0:
320,192,56140,1,0,0:0:0:0:
192,192,56140,1,0,0:0:0:0:
448,192,56215,1,0,0:0:0:0:
192,192,56290,1,0,0:0:0:0:
64,192,56365,1,0,0:0:0:0:
448,192,56440,1,0,0:0:0:0:
192,192,56440,1,0,0:0:0:0:
320,192,56515,1,0,0:0:0:0:
192,192,56590,1,0,0:0:0:0:
64,192,56665,1,0,0:0:0:0:
448,192,56740,1,0,0:0:0:0:
192,192,56740,1,0,0:0:0:0:
320,192,56815,1,0,0:0:0:0:
192,192,56890,1,0,0:0:0:0:
64,192,56965,1,0,0:0:0:0:
448,192,57040,1,0,0:0:0:0:
320,192,57115,1,0,0:0:0:0:
192,192,57190,1,0,0:0:0:0:
64,192,57265,1,0,0:0:0:0:
448,192,57340,1,0,0:0:0:0:
320,192,57415,1,0,0:0:0:0:
192,192,57490,1,0,0:0:0:0:
64,192,57565,1,0,0:0:0:0:
448,192,57640,1,0,0:0:0:0:
320,192,57715,1,0,0:0:0:0:
192,192,57790,1,0,0:0:0:0:
64,192,57865,1,0,0:0:0:0:
448,192,57940,1,0,0:0:0:0:
320,192,58015,1,0,0:0:0:0:
192,192,58090,1,0,0:0:0:0:
64,192,58165,1,0,0:0:0:0:
448,192,58240,1,0,0:0:0:0:
320,192,58315,1,0,0:0:0:0:
192,192,58390,1,0,0:0:0:0:
64,192,58465,1,0,0:0:0:0:
448,192,58540,1,0,0:0:0:0:
320,192,58615,1,0,0:0:0:0:
192,192,58690,1,0,0:0:0:0:
64,192,58765,1,0,0:0:0:0:
448,192,58840,1,0,0:0:0:0:
192,192,58840,1,0,0:0:0:0:
320,192,58915,1,0,0:0:0:0:
192,192,58990,1,0,0:0:0:0:
64,192,59065,1,0,0:0:0:0:
448,192,59140,1,0,0:0:0:0:
192,192,59140,1,0,0:0:0:0:
320,192,59215,1,0,0:0:0:0:
192,192,59290,1,0,0:0:0:0:
64,192,59365,1,0,0:0:0:0:
448,192,59440,1,0,0:0:0:0:
320,192,59515,1,0,0:0:0:0:
192,192,59590,1,0,0:0:0:0:
64,192,59665,1,0,0:0:0:0:
448,192,59740,1,0,0:0:0:0:
320,192,59815,1,0,0:0:0:0:
192,192,59890,1,0,0:0:0:0:
64,192,59965,1,0,0:0:0:0:
448,192,60040,1,0,0:0:0:0:
320,192,60115,1,0,0:0:0:0:
192,192,60190,1,0,0:0:0:0:
448,192,60190,1,0,0:0:0:0:
64,192,60265,1,0,0:0:0:0:
448,192,60340,1,0,0:0:0:0:
192,192,60340,1,0,0:0:0:0:
320,192,60415,1,0,0:0:0:0:
192,192,60490,1,0,0:0:0:0:
448,192,60490,1,0,0:0:0:0:
64,192,60565,1,0,0:0:0:0:
320,192,60640,1,0,0:0:0:0:
448,192,60640,1,0,0:0:0:0:
192,192,60715,1,0,0:0:0:0:
64,192,60715,1,0,0:0:0:0:
320,192,60790,1,0,0:0:0:0:
448,192,60790,1,0,0:0:0:0:
192,192,60865,1,0,0:0:0:0:
64,192,60865,1,0,0:0:0:0:
320,192,60940,1,0,0:0:0:0:
448,192,60940,1,0,0:0:0:0:
192,192,61015,1,0,0:0:0:0:
64,192,61015,1,0,0:0:0:0:
320,192,61090,1,0,0:0:0:0:
448,192,61090,1,0,0:0:0:0:
192,192,61165,1,0,0:0:0:0:
64,192,61240,1,0,0:0:0:0:
320,192,61240,1,0,0:0:0:0:
448,192,61240,1,0,0:0:0:0:
192,192,61390,1,0,0:0:0:0:
192,192,61540,1,0,0:0:0:0:
448,192,61540,1,0,0:0:0:0:
320,192,61690,1,0,0:0:0:0:
64,192,61840,1,0,0:0:0:0:
192,192,61840,1,0,0:0:0:0:
448,192,61840,1,0,0:0:0:0:
320,192,61990,1,0,0:0:0:0:
64,192,62140,1,0,0:0:0:0:
192,192,62140,1,0,0:0:0:0:
320,192,62290,1,0,0:0:0:0:
448,192,62290,1,0,0:0:0:0:
64,192,62440,1,0,0:0:0:0:
448,192,62440,1,0,0:0:0:0:
192,192,62440,1,0,0:0:0:0:
192,192,62590,1,0,0:0:0:0:
64,192,62740,1,0,0:0:0:0:
320,192,62740,1,0,0:0:0:0:
448,192,62890,1,0,0:0:0:0:
320,192,63040,1,0,0:0:0:0:
192,192,63040,1,0,0:0:0:0:
64,192,63040,1,0,0:0:0:0:
192,192,63190,1,0,0:0:0:0:
320,192,63340,1,0,0:0:0:0:
448,192,63340,1,0,0:0:0:0:
320,192,63490,1,0,0:0:0:0:
192,192,63490,1,0,0:0:0:0:
192,192,63640,1,0,0:0:0:0:
64,192,63640,1,0,0:0:0:0:
448,192,63640,1,0,0:0:0:0:
64,192,63790,1,0,0:0:0:0:
320,192,63940,1,0,0:0:0:0:
448,192,63940,1,0,0:0:0:0:
192,192,64090,1,0,0:0:0:0:
64,192,64240,1,0,0:0:0:0:
448,192,64240,1,0,0:0:0:0:
320,192,64390,1,0,0:0:0:0:
192,192,64540,1,0,0:0:0:0:
64,192,64540,1,0,0:0:0:0:
320,192,64690,1,0,0:0:0:0:
64,192,64690,1,0,0:0:0:0:
448,192,64840,1,0,0:0:0:0:
64,192,64840,1,0,0:0:0:0:
192,192,64990,1,0,0:0:0:0:
320,192,65140,1,0,0:0:0:0:
448,192,65140,1,0,0:0:0:0:
192,192,65290,1,0,0:0:0:0:
64,192,65440,1,0,0:0:0:0:
192,192,65440,1,0,0:0:0:0:
448,192,65440,1,0,0:0:0:0:
448,192,65590,1,0,0:0:0:0:
320,192,65590,1,0,0:0:0:0:
192,192,65740,1,0,0:0:0:0:
64,192,65740,1,0,0:0:0:0:
320,192,65890,1,0,0:0:0:0:
64,192,66040,1,0,0:0:0:0:
448,192,66040,1,0,0:0:0:0:
320,192,66040,1,0,0:0:0:0:
192,192,66190,1,0,0:0:0:0:
320,192,66340,1,0,0:0:0:0:
448,192,66340,1,0,0:0:0:0:
64,192,66490,1,0,0:0:0:0:
192,192,66640,1,0,0:0:0:0:
448,192,66640,1,0,0:0:0:0:
64,192,66640,1,0,0:0:0:0:
320,192,66790,1,0,0:0:0:0:
64,192,66940,1,0,0:0:0:0:
448,192,66940,1,0,0:0:0:0:
64,192,67090,1,0,0:0:0:0:
320,192,67090,1,0,0:0:0:0:
320,192,67240,1,0,0:0:0:0:
448,192,67240,1,0,0:0:0:0:
192,192,67240,1,0,0:0:0:0:
448,192,67390,1,0,0:0:0:0:
320,192,67540,1,0,0:0:0:0:
64,192,67540,1,0,0:0:0:0:
192,192,67690,1,0,0:0:0:0:
448,192,67840,1,0,0:0:0:0:
320,192,67840,1,0,0:0:0:0:
64,192,67840,1,0,0:0:0:0:
320,192,67990,1,0,0:0:0:0:
192,192,68140,1,0,0:0:0:0:
64,192,68140,1,0,0:0:0:0:
448,192,68290,1,0,0:0:0:0:
320,192,68290,1,0,0:0:0:0:
64,192,68440,1,0,0:0:0:0:
192,192,68440,1,0,0:0:0:0:
448,192,68440,1,0,0:0:0:0:
448,192,68590,1,0,0:0:0:0:
192,192,68590,1,0,0:0:0:0:
192,192,68740,1,0,0:0:0:0:
64,192,68740,1,0,0:0:0:0:
320,192,68890,1,0,0:0:0:0:
448,192,69040,1,0,0:0:0:0:
192,192,69040,1,0,0:0:0:0:
448,192,69190,1,0,0:0:0:0:
320,192,69340,1,0,0:0:0:0:
64,192,69340,1,0,0:0:0:0:
192,192,69490,1,0,0:0:0:0:
320,192,69490,1,0,0:0:0:0:
448,192,69640,1,0,0:0:0:0:
64,192,69640,1,0,0:0:0:0:
320,192,69790,1,0,0:0:0:0:
192,192,69940,1,0,0:0:0:0:
448,192,69940,1,0,0:0:0:0:
320,192,70090,1,0,0:0:0:0:
192,192,70090,1,0,0:0:0:0:
64,192,70240,1,0,0:0:0:0:
320,192,70240,1,0,0:0:0:0:
448,192,70240,1,0,0:0:0:0:
192,192,70390,1,0,0:0:0:0:
448,192,70390,1,0,0:0:0:0:
448,192,70540,1,0,0:0:0:0:
320,192,70540,1,0,0:0:0:0:
192,192,70690,1,0,0:0:0:0:
448,192,70840,1,0,0:0:0:0:
192,192,70840,1,0,0:0:0:0:
64,192,70840,128,0,72640:0:0:0:0:
448,192,71440,1,0,0:0:0:0:
320,192,71440,1,0,0:0:0:0:
192,192,71740,1,0,0:0:0:0:
192,192,72040,1,0,0:0:0:0:
448,192,72040,1,0,0:0:0:0:
448,192,72190,1,0,0:0:0:0:
320,192,72340,1,0,0:0:0:0:
192,192,72640,1,0,0:0:0:0:
448,192,72640,128,0,73240:0:0:0:0:
320,192,73240,128,0,75040:0:0:0:0:
64,192,73240,1,0,0:0:0:0:
192,192,73240,1,0,0:0:0:0:
448,192,73390,1,0,0:0:0:0:
64,192,73390,1,0,0:0:0:0:
192,192,73540,1,0,0:0:0:0:
448,192,73540,1,0,0:0:0:0:
64,192,73840,1,0,0:0:0:0:
448,192,73840,1,0,0:0:0:0:
192,192,74140,1,0,0:0:0:0:
448,192,74140,1,0,0:0:0:0:
64,192,74440,1,0,0:0:0:0:
448,192,74440,1,0,0:0:0:0:
192,192,74590,1,0,0:0:0:0:
64,192,74590,1,0,0:0:0:0:
448,192,74665,1,0,0:0:0:0:
192,192,74740,1,0,0:0:0:0:
64,192,74740,1,0,0:0:0:0:
448,192,74890,1,0,0:0:0:0:
64,192,74890,1,0,0:0:0:0:
448,192,75040,1,0,0:0:0:0:
64,192,75040,1,0,0:0:0:0:
192,192,75040,128,0,75640:0:0:0:0:
320,192,75640,128,0,76240:0:0:0:0:
64,192,75640,1,0,0:0:0:0:
448,192,75640,1,0,0:0:0:0:
192,192,76090,1,0,0:0:0:0:
192,192,76240,128,0,76840:0:0:0:0:
64,192,76240,1,0,0:0:0:0:
448,192,76240,1,0,0:0:0:0:
320,192,76540,1,0,0:0:0:0:
64,192,76840,128,0,77440:0:0:0:0:
320,192,76840,1,0,0:0:0:0:
448,192,76840,1,0,0:0:0:0:
192,192,76915,1,0,0:0:0:0:
320,192,76990,1,0,0:0:0:0:
448,192,76990,1,0,0:0:0:0:
192,192,77065,1,0,0:0:0:0:
320,192,77140,1,0,0:0:0:0:
448,192,77140,1,0,0:0:0:0:
192,192,77290,1,0,0:0:0:0:
448,192,77440,128,0,78040:0:0:0:0:
320,192,77440,1,0,0:0:0:0:
192,192,77440,1,0,0:0:0:0:
64,192,77740,1,0,0:0:0:0:
320,192,77740,1,0,0:0:0:0:
320,192,78040,128,0,80440:0:0:0:0:
64,192,78040,1,0,0:0:0:0:
192,192,78040,1,0,0:0:0:0:
448,192,78190,1,0,0:0:0:0:
64,192,78190,1,0,0:0:0:0:
192,192,78640,1,0,0:0:0:0:
448,192,78640,1,0,0:0:0:0:
64,192,78790,1,0,0:0:0:0:
448,192,78790,1,0,0:0:0:0:
64,192,79240,1,0,0:0:0:0:
192,192,79240,1,0,0:0:0:0:
448,192,79390,1,0,0:0:0:0:
64,192,79390,1,0,0:0:0:0:
192,192,79540,1,0,0:0:0:0:
64,192,79690,1,0,0:0:0:0:
448,192,79690,1,0,0:0:0:0:
448,192,79840,1,0,0:0:0:0:
192,192,79840,1,0,0:0:0:0:
64,192,79990,1,0,0:0:0:0:
192,192,79990,1,0,0:0:0:0:
64,192,80140,1,0,0:0:0:0:
448,192,80215,1,0,0:0:0:0:
64,192,80290,1,0,0:0:0:0:
448,192,80365,1,0,0:0:0:0:
192,192,80440,128,0,83515:0:0:0:0:
64,192,80440,1,0,0:0:0:0:
64,192,81340,1,0,0:0:0:0:
64,192,81640,1,0,0:0:0:0:
64,192,82540,1,0,0:0:0:0:
64,192,82840,1,0,0:0:0:0:
448,192,82990,128,0,83290:0:0:0:0:
64,192,83140,128,0,83440:0:0:0:0:
320,192,83290,128,0,83590:0:0:0:0:
448,192,83440,128,0,83740:0:0:0:0:
64,192,83590,128,0,83890:0:0:0:0:
192,192,83740,128,0,84040:0:0:0:0:
448,192,83890,128,0,84190:0:0:0:0:
320,192,84040,128,0,84340:0:0:0:0:
64,192,84190,128,0,84340:0:0:0:0:
192,192,84340,1,0,0:0:0:0:
448,192,84340,1,0,0:0:0:0:
448,192,84640,1,0,0:0:0:0:
448,192,84940,1,0,0:0:0:0:
64,192,84940,1,0,0:0:0:0:
448,192,85240,1,0,0:0:0:0:
448,192,85540,1,0,0:0:0:0:
64,192,85540,1,0,0:0:0:0:
448,192,85840,1,0,0:0:0:0:
448,192,86140,1,0,0:0:0:0:
64,192,86140,1,0,0:0:0:0:
448,192,86440,1,0,0:0:0:0:
64,192,86740,1,0,0:0:0:0:
448,192,86740,1,0,0:0:0:0:
320,192,86740,1,0,0:0:0:0:
192,192,86740,1,0,0:0:0:0:
448,192,87040,1,0,0:0:0:0:
320,192,87040,1,0,0:0:0:0:
448,192,87340,1,0,0:0:0:0:
64,192,87340,1,0,0:0:0:0:
320,192,87340,1,0,0:0:0:0:
320,192,87640,1,0,0:0:0:0:
448,192,87640,1,0,0:0:0:0:
64,192,87940,1,0,0:0:0:0:
320,192,87940,1,0,0:0:0:0:
448,192,87940,1,0,0:0:0:0:
192,192,87940,128,0,89140:0:0:0:0:
448,192,88240,1,0,0:0:0:0:
64,192,88240,1,0,0:0:0:0:
320,192,88240,1,0,0:0:0:0:
64,192,88540,1,0,0:0:0:0:
320,192,88540,1,0,0:0:0:0:
448,192,88540,1,0,0:0:0:0:
64,192,88840,1,0,0:0:0:0:
320,192,88840,1,0,0:0:0:0:
448,192,88840,1,0,0:0:0:0:
64,192,89140,1,0,0:0:0:0:
448,192,89140,1,0,0:0:0:0:
192,192,89215,1,0,0:0:0:0:
320,192,89215,1,0,0:0:0:0:
448,192,89290,1,0,0:0:0:0:
64,192,89290,1,0,0:0:0:0:
192,192,89365,1,0,0:0:0:0:
320,192,89440,1,0,0:0:0:0:
448,192,89440,1,0,0:0:0:0:
192,192,89515,1,0,0:0:0:0:
64,192,89515,1,0,0:0:0:0:
320,192,89590,1,0,0:0:0:0:
448,192,89590,1,0,0:0:0:0:
64,192,89665,1,0,0:0:0:0:
192,192,89740,1,0,0:0:0:0:
448,192,89740,1,0,0:0:0:0:
320,192,89815,1,0,0:0:0:0:
64,192,89815,1,0,0:0:0:0:
192,192,89890,1,0,0:0:0:0:
448,192,89890,1,0,0:0:0:0:
320,192,89965,1,0,0:0:0:0:
64,192,90040,1,0,0:0:0:0:
192,192,90040,1,0,0:0:0:0:
320,192,90115,1,0,0:0:0:0:
448,192,90115,1,0,0:0:0:0:
192,192,90190,1,0,0:0:0:0:
64,192,90190,1,0,0:0:0:0:
448,192,90265,1,0,0:0:0:0:
320,192,90340,1,0,0:0:0:0:
64,192,90340,1,0,0:0:0:0:
192,192,90415,1,0,0:0:0:0:
448,192,90415,1,0,0:0:0:0:
320,192,90490,1,0,0:0:0:0:
64,192,90490,1,0,0:0:0:0:
448,192,90565,1,0,0:0:0:0:
192,192,90640,1,0,0:0:0:0:
64,192,90640,1,0,0:0:0:0:
320,192,90715,1,0,0:0:0:0:
448,192,90715,1,0,0:0:0:0:
192,192,90790,1,0,0:0:0:0:
64,192,90790,1,0,0:0:0:0:
320,192,90865,1,0,0:0:0:0:
448,192,90940,1,0,0:0:0:0:
64,192,90940,1,0,0:0:0:0:
192,192,91090,1,0,0:0:0:0:
448,192,91090,1,0,0:0:0:0:
320,192,91240,1,0,0:0:0:0:
64,192,91240,1,0,0:0:0:0:
448,192,91390,1,0,0:0:0:0:
64,192,91390,1,0,0:0:0:0:
192,192,91540,1,0,0:0:0:0:
64,192,91540,1,0,0:0:0:0:
320,192,91615,1,0,0:0:0:0:
448,192,91615,1,0,0:0:0:0:
192,192,91690,1,0,0:0:0:0:
64,192,91690,1,0,0:0:0:0:
448,192,91765,1,0,0:0:0:0:
320,192,91840,1,0,0:0:0:0:
64,192,91840,1,0,0:0:0:0:
192,192,91915,1,0,0:0:0:0:
448,192,91915,1,0,0:0:0:0:
320,192,91990,1,0,0:0:0:0:
64,192,91990,1,0,0:0:0:0:
192,192,92065,1,0,0:0:0:0:
448,192,92140,1,0,0:0:0:0:
320,192,92140,1,0,0:0:0:0:
64,192,92215,1,0,0:0:0:0:
192,192,92215,1,0,0:0:0:0:
448,192,92290,1,0,0:0:0:0:
320,192,92290,1,0,0:0:0:0:
64,192,92365,1,0,0:0:0:0:
192,192,92440,1,0,0:0:0:0:
448,192,92440,1,0,0:0:0:0:
320,192,92515,1,0,0:0:0:0:
64,192,92515,1,0,0:0:0:0:
192,192,92590,1,0,0:0:0:0:
448,192,92590,1,0,0:0:0:0:
320,192,92665,1,0,0:0:0:0:
448,192,92740,1,0,0:0:0:0:
64,192,92740,1,0,0:0:0:0:
192,192,92740,1,0,0:0:0:0:
320,192,93340,1,0,0:0:0:0:
448,192,93340,1,0,0:0:0:0:
64,192,93340,1,0,0:0:0:0:
64,192,93490,1,0,0:0:0:0:
192,192,93490,1,0,0:0:0:0:
320,192,93490,1,0,0:0:0:0:
448,192,93640,1,0,0:0:0:0:
64,192,93640,1,0,0:0:0:0:
192,192,93640,1,0,0:0:0:0:
64,192,93790,1,0,0:0:0:0:
320,192,93790,1,0,0:0:0:0:
448,192,93790,1,0,0:0:0:0:
64,192,93940,1,0,0:0:0:0:
448,192,93940,1,0,0:0:0:0:
320,192,94015,1,0,0:0:0:0:
192,192,94015,1,0,0:0:0:0:
64,192,94090,1,0,0:0:0:0:
448,192,94090,1,0,0:0:0:0:
320,192,94165,1,0,0:0:0:0:
192,192,94240,1,0,0:0:0:0:
448,192,94240,1,0,0:0:0:0:
320,192,94315,1,0,0:0:0:0:
64,192,94315,1,0,0:0:0:0:
192,192,94390,1,0,0:0:0:0:
448,192,94390,1,0,0:0:0:0:
320,192,94465,1,0,0:0:0:0:
192,192,94540,1,0,0:0:0:0:
64,192,94540,1,0,0:0:0:0:
320,192,94615,1,0,0:0:0:0:
448,192,94615,1,0,0:0:0:0:
192,192,94690,1,0,0:0:0:0:
64,192,94690,1,0,0:0:0:0:
448,192,94765,1,0,0:0:0:0:
320,192,94840,1,0,0:0:0:0:
64,192,94840,1,0,0:0:0:0:
192,192,94915,1,0,0:0:0:0:
448,192,94915,1,0,0:0:0:0:
320,192,94990,1,0,0:0:0:0:
64,192,94990,1,0,0:0:0:0:
192,192,95065,1,0,0:0:0:0:
320,192,95140,1,0,0:0:0:0:
448,192,95140,1,0,0:0:0:0:
192,192,95215,1,0,0:0:0:0:
64,192,95215,1,0,0:0:0:0:
320,192,95290,1,0,0:0:0:0:
448,192,95290,1,0,0:0:0:0:
192,192,95365,1,0,0:0:0:0:
448,192,95440,1,0,0:0:0:0:
64,192,95440,1,0,0:0:0:0:
320,192,95515,1,0,0:0:0:0:
192,192,95515,1,0,0:0:0:0:
448,192,95590,1,0,0:0:0:0:
64,192,95590,1,0,0:0:0:0:
192,192,95665,1,0,0:0:0:0:
320,192,95740,1,0,0:0:0:0:
64,192,95740,1,0,0:0:0:0:
448,192,95890,1,0,0:0:0:0:
192,192,96040,1,0,0:0:0:0:
320,192,96190,1,0,0:0:0:0:
448,192,96340,1,0,0:0:0:0:
64,192,96340,1,0,0:0:0:0:
192,192,96415,1,0,0:0:0:0:
320,192,96415,1,0,0:0:0:0:
448,192,96490,1,0,0:0:0:0:
64,192,96490,1,0,0:0:0:0:
192,192,96565,1,0,0:0:0:0:
320,192,96640,1,0,0:0:0:0:
448,192,96640,1,0,0:0:0:0:
192,192,96715,1,0,0:0:0:0:
64,192,96715,1,0,0:0:0:0:
320,192,96790,1,0,0:0:0:0:
448,192,96790,1,0,0:0:0:0:
192,192,96865,1,0,0:0:0:0:
64,192,96940,1,0,0:0:0:0:
320,192,96940,1,0,0:0:0:0:
192,192,97015,1,0,0:0:0:0:
448,192,97015,1,0,0:0:0:0:
320,192,97090,1,0,0:0:0:0:
64,192,97090,1,0,0:0:0:0:
448,192,97165,1,0,0:0:0:0:
192,192,97240,1,0,0:0:0:0:
64,192,97240,1,0,0:0:0:0:
320,192,97315,1,0,0:0:0:0:
448,192,97315,1,0,0:0:0:0:
192,192,97390,1,0,0:0:0:0:
64,192,97390,1,0,0:0:0:0:
320,192,97465,1,0,0:0:0:0:
448,192,97540,1,0,0:0:0:0:
64,192,97540,1,0,0:0:0:0:
192,192,97615,1,0,0:0:0:0:
320,192,97690,1,0,0:0:0:0:
448,192,97765,1,0,0:0:0:0:
64,192,97840,1,0,0:0:0:0:
192,192,97915,1,0,0:0:0:0:
320,192,97990,1,0,0:0:0:0:
448,192,98065,1,0,0:0:0:0:
64,192,98140,1,0,0:0:0:0:
448,192,98215,1,0,0:0:0:0:
320,192,98290,1,0,0:0:0:0:
192,192,98365,1,0,0:0:0:0:
448,192,98440,1,0,0:0:0:0:
320,192,98515,1,0,0:0:0:0:
192,192,98590,1,0,0:0:0:0:
64,192,98665,1,0,0:0:0:0:
320,192,98740,1,0,0:0:0:0:
448,192,98740,1,0,0:0:0:0:
192,192,98815,1,0,0:0:0:0:
64,192,98815,1,0,0:0:0:0:
320,192,98890,1,0,0:0:0:0:
448,192,98890,1,0,0:0:0:0:
192,192,98965,1,0,0:0:0:0:
64,192,99040,1,0,0:0:0:0:
448,192,99040,1,0,0:0:0:0:
320,192,99115,1,0,0:0:0:0:
192,192,99115,1,0,0:0:0:0:
64,192,99190,1,0,0:0:0:0:
448,192,99190,1,0,0:0:0:0:
192,192,99265,1,0,0:0:0:0:
64,192,99340,1,0,0:0:0:0:
320,192,99340,1,0,0:0:0:0:
448,192,99415,1,0,0:0:0:0:
192,192,99415,1,0,0:0:0:0:
320,192,99490,1,0,0:0:0:0:
64,192,99490,1,0,0:0:0:0:
448,192,99565,1,0,0:0:0:0:
192,192,99640,1,0,0:0:0:0:
64,192,99640,1,0,0:0:0:0:
320,192,99715,1,0,0:0:0:0:
448,192,99715,1,0,0:0:0:0:
192,192,99790,1,0,0:0:0:0:
64,192,99790,1,0,0:0:0:0:
320,192,99865,1,0,0:0:0:0:
448,192,99940,1,0,0:0:0:0:
64,192,99940,1,0,0:0:0:0:
192,192,100015,1,0,0:0:0:0:
320,192,100015,1,0,0:0:0:0:
448,192,100090,1,0,0:0:0:0:
64,192,100090,1,0,0:0:0:0:
192,192,100165,1,0,0:0:0:0:
320,192,100240,1,0,0:0:0:0:
448,192,100240,1,0,0:0:0:0:
192,192,100315,1,0,0:0:0:0:
64,192,100315,1,0,0:0:0:0:
320,192,100390,1,0,0:0:0:0:
448,192,100390,1,0,0:0:0:0:
192,192,100465,1,0,0:0:0:0:
64,192,100540,1,0,0:0:0:0:
448,192,100540,1,0,0:0:0:0:
320,192,100615,1,0,0:0:0:0:
192,192,100615,1,0,0:0:0:0:
64,192,100690,1,0,0:0:0:0:
448,192,100690,1,0,0:0:0:0:
320,192,100765,1,0,0:0:0:0:
448,192,100840,1,0,0:0:0:0:
192,192,100840,1,0,0:0:0:0:
320,192,100915,1,0,0:0:0:0:
64,192,100915,1,0,0:0:0:0:
192,192,100990,1,0,0:0:0:0:
448,192,100990,1,0,0:0:0:0:
320,192,101065,1,0,0:0:0:0:
192,192,101140,1,0,0:0:0:0:
64,192,101140,1,0,0:0:0:0:
320,192,101215,1,0,0:0:0:0:
448,192,101215,1,0,0:0:0:0:
192,192,101290,1,0,0:0:0:0:
64,192,101290,1,0,0:0:0:0:
448,192,101365,1,0,0:0:0:0:
320,192,101440,1,0,0:0:0:0:
64,192,101440,1,0,0:0:0:0:
192,192,101515,1,0,0:0:0:0:
448,192,101515,1,0,0:0:0:0:
320,192,101590,1,0,0:0:0:0:
64,192,101590,1,0,0:0:0:0:
192,192,101665,1,0,0:0:0:0:
320,192,101740,1,0,0:0:0:0:
448,192,101740,1,0,0:0:0:0:
192,192,101815,1,0,0:0:0:0:
64,192,101815,1,0,0:0:0:0:
320,192,101890,1,0,0:0:0:0:
448,192,101890,1,0,0:0:0:0:
192,192,101965,1,0,0:0:0:0:
64,192,102040,1,0,0:0:0:0:
448,192,102040,1,0,0:0:0:0:
320,192,102115,1,0,0:0:0:0:
192,192,102115,1,0,0:0:0:0:
64,192,102190,1,0,0:0:0:0:
448,192,102190,1,0,0:0:0:0:
192,192,102265,1,0,0:0:0:0:
64,192,102340,1,0,0:0:0:0:
320,192,102340,1,0,0:0:0:0:
448,192,102340,1,0,0:0:0:0:
64,192,102940,1,0,0:0:0:0:
192,192,102940,1,0,0:0:0:0:
448,192,102940,1,0,0:0:0:0:
320,192,103090,1,0,0:0:0:0:
192,192,103090,1,0,0:0:0:0:
64,192,103090,1,0,0:0:0:0:
192,192,103240,1,0,0:0:0:0:
320,192,103240,1,0,0:0:0:0:
448,192,103240,1,0,0:0:0:0:
448,192,103390,1,0,0:0:0:0:
320,192,103390,1,0,0:0:0:0:
64,192,103390,1,0,0:0:0:0:
64,192,103540,1,0,0:0:0:0:
192,192,103540,1,0,0:0:0:0:
320,192,103615,1,0,0:0:0:0:
448,192,103615,1,0,0:0:0:0:
192,192,103690,1,0,0:0:0:0:
64,192,103690,1,0,0:0:0:0:
320,192,103765,1,0,0:0:0:0:
448,192,103840,1,0,0:0:0:0:
64,192,103840,1,0,0:0:0:0:
192,192,103915,1,0,0:0:0:0:
320,192,103915,1,0,0:0:0:0:
448,192,103990,1,0,0:0:0:0:
64,192,103990,1,0,0:0:0:0:
192,192,104065,1,0,0:0:0:0:
320,192,104140,1,0,0:0:0:0:
448,192,104140,1,0,0:0:0:0:
192,192,104215,1,0,0:0:0:0:
64,192,104215,1,0,0:0:0:0:
320,192,104290,1,0,0:0:0:0:
448,192,104290,1,0,0:0:0:0:
192,192,104365,1,0,0:0:0:0:
64,192,104440,1,0,0:0:0:0:
320,192,104440,1,0,0:0:0:0:
192,192,104515,1,0,0:0:0:0:
448,192,104515,1,0,0:0:0:0:
320,192,104590,1,0,0:0:0:0:
64,192,104590,1,0,0:0:0:0:
448,192,104665,1,0,0:0:0:0:
320,192,104740,1,0,0:0:0:0:
64,192,104740,1,0,0:0:0:0:
192,192,104815,1,0,0:0:0:0:
448,192,104815,1,0,0:0:0:0:
320,192,104890,1,0,0:0:0:0:
64,192,104890,1,0,0:0:0:0:
192,192,104965,1,0,0:0:0:0:
448,192,104965,1,0,0:0:0:0:
320,192,105040,1,0,0:0:0:0:
64,192,105040,1,0,0:0:0:0:
192,192,105115,1,0,0:0:0:0:
448,192,105115,1,0,0:0:0:0:
320,192,105190,1,0,0:0:0:0:
64,192,105190,1,0,0:0:0:0:
192,192,105265,1,0,0:0:0:0:
448,192,105340,1,0,0:0:0:0:
320,192,105340,1,0,0:0:0:0:
192,192,105415,1,0,0:0:0:0:
64,192,105415,1,0,0:0:0:0:
320,192,105490,1,0,0:0:0:0:
448,192,105490,1,0,0:0:0:0:
192,192,105565,1,0,0:0:0:0:
64,192,105565,1,0,0:0:0:0:
448,192,105640,1,0,0:0:0:0:
320,192,105640,1,0,0:0:0:0:
192,192,105715,1,0,0:0:0:0:
64,192,105715,1,0,0:0:0:0:
320,192,105790,1,0,0:0:0:0:
448,192,105790,1,0,0:0:0:0:
192,192,105865,1,0,0:0:0:0:
64,192,105865,1,0,0:0:0:0:
448,192,105940,1,0,0:0:0:0:
64,192,105940,1,0,0:0:0:0:
320,192,105940,1,0,0:0:0:0:
192,192,106040,1,0,0:0:0:0:
448,192,106040,1,0,0:0:0:0:
192,192,106140,1,0,0:0:0:0:
320,192,106140,1,0,0:0:0:0:
448,192,106240,1,0,0:0:0:0:
64,192,106240,1,0,0:0:0:0:
64,192,106340,1,0,0:0:0:0:
320,192,106340,1,0,0:0:0:0:
192,192,106440,1,0,0:0:0:0:
448,192,106440,1,0,0:0:0:0:
448,192,106540,1,0,0:0:0:0:
64,192,106540,1,0,0:0:0:0:
192,192,106640,1,0,0:0:0:0:
64,192,106640,1,0,0:0:0:0:
192,192,106740,1,0,0:0:0:0:
320,192,106740,1,0,0:0:0:0:
320,192,106840,1,0,0:0:0:0:
448,192,106840,1,0,0:0:0:0:
448,192,106940,1,0,0:0:0:0:
64,192,106940,1,0,0:0:0:0:
320,192,107040,1,0,0:0:0:0:
64,192,107040,1,0,0:0:0:0:
192,192,107140,1,0,0:0:0:0:
448,192,107140,1,0,0:0:0:0:
448,192,107240,1,0,0:0:0:0:
320,192,107240,1,0,0:0:0:0:
192,192,107340,1,0,0:0:0:0:
64,192,107340,1,0,0:0:0:0:
64,192,107440,1,0,0:0:0:0:
448,192,107440,1,0,0:0:0:0:
192,192,107540,1,0,0:0:0:0:
448,192,107540,1,0,0:0:0:0:
320,192,107640,1,0,0:0:0:0:
64,192,107640,1,0,0:0:0:0:
64,192,107740,1,0,0:0:0:0:
192,192,107740,1,0,0:0:0:0:
192,192,107840,1,0,0:0:0:0:
320,192,107840,1,0,0:0:0:0:
320,192,107940,1,0,0:0:0:0:
448,192,107940,1,0,0:0:0:0:
192,192,108040,1,0,0:0:0:0:
64,192,108040,1,0,0:0:0:0:
64,192,108340,1,0,0:0:0:0:
320,192,108340,1,0,0:0:0:0:
448,192,108340,1,0,0:0:0:0:
64,192,108440,1,0,0:0:0:0:
448,192,108440,1,0,0:0:0:0:
448,192,108540,1,0,0:0:0:0:
192,192,108540,1,0,0:0:0:0:
192,192,108640,1,0,0:0:0:0:
320,192,108640,1,0,0:0:0:0:
320,192,108740,1,0,0:0:0:0:
64,192,108740,1,0,0:0:0:0:
64,192,108840,1,0,0:0:0:0:
192,192,108840,1,0,0:0:0:0:
192,192,108940,1,0,0:0:0:0:
320,192,108940,1,0,0:0:0:0:
448,192,108940,1,0,0:0:0:0:
320,192,109040,1,0,0:0:0:0:
64,192,109040,1,0,0:0:0:0:
448,192,109140,1,0,0:0:0:0:
64,192,109140,1,0,0:0:0:0:
320,192,109240,1,0,0:0:0:0:
192,192,109240,1,0,0:0:0:0:
320,192,109340,1,0,0:0:0:0:
64,192,109340,1,0,0:0:0:0:
192,192,109440,1,0,0:0:0:0:
64,192,109440,1,0,0:0:0:0:
448,192,109540,1,0,0:0:0:0:
64,192,109540,1,0,0:0:0:0:
320,192,109540,1,0,0:0:0:0:
448,192,109640,1,0,0:0:0:0:
192,192,109640,1,0,0:0:0:0:
320,192,109740,1,0,0:0:0:0:
192,192,109740,1,0,0:0:0:0:
320,192,109840,1,0,0:0:0:0:
64,192,109840,1,0,0:0:0:0:
192,192,109940,1,0,0:0:0:0:
448,192,109940,1,0,0:0:0:0:
448,192,110040,1,0,0:0:0:0:
64,192,110040,1,0,0:0:0:0:
64,192,110140,1,0,0:0:0:0:
192,192,110140,1,0,0:0:0:0:
320,192,110140,1,0,0:0:0:0:
448,192,110240,1,0,0:0:0:0:
192,192,110240,1,0,0:0:0:0:
448,192,110340,1,0,0:0:0:0:
64,192,110340,1,0,0:0:0:0:
320,192,110440,1,0,0:0:0:0:
64,192,110440,1,0,0:0:0:0:
192,192,110540,1,0,0:0:0:0:
320,192,110540,1,0,0:0:0:0:
64,192,110640,1,0,0:0:0:0:
448,192,110640,1,0,0:0:0:0:
192,192,110740,1,0,0:0:0:0:
64,192,110740,1,0,0:0:0:0:
448,192,110740,1,0,0:0:0:0:
448,192,111940,1,0,0:0:0:0:
192,192,111940,1,0,0:0:0:0:
64,192,111940,1,0,0:0:0:0:
320,192,112090,1,0,0:0:0:0:
448,192,112090,1,0,0:0:0:0:
64,192,112240,1,0,0:0:0:0:
448,192,112240,1,0,0:0:0:0:
320,192,112240,1,0,0:0:0:0:
64,192,112390,1,0,0:0:0:0:
192,192,112390,1,0,0:0:0:0:
448,192,112540,1,0,0:0:0:0:
192,192,112540,1,0,0:0:0:0:
320,192,112540,1,0,0:0:0:0:
448,192,112690,1,0,0:0:0:0:
192,192,112690,1,0,0:0:0:0:
320,192,112690,1,0,0:0:0:0:
64,192,112840,1,0,0:0:0:0:
448,192,112840,1,0,0:0:0:0:
448,192,112990,1,0,0:0:0:0:
192,192,112990,1,0,0:0:0:0:
64,192,112990,1,0,0:0:0:0:
64,192,113140,1,0,0:0:0:0:
192,192,113140,1,0,0:0:0:0:
320,192,113140,1,0,0:0:0:0:
448,192,113290,1,0,0:0:0:0:
320,192,113290,1,0,0:0:0:0:
64,192,113290,1,0,0:0:0:0:
448,192,113440,1,0,0:0:0:0:
64,192,113440,1,0,0:0:0:0:
448,192,113590,1,0,0:0:0:0:
64,192,113590,1,0,0:0:0:0:
192,192,113590,1,0,0:0:0:0:
320,192,113740,1,0,0:0:0:0:
448,192,113740,1,0,0:0:0:0:
192,192,113890,1,0,0:0:0:0:
320,192,113890,1,0,0:0:0:0:
64,192,113890,1,0,0:0:0:0:
448,192,114040,1,0,0:0:0:0:
64,192,114040,1,0,0:0:0:0:
64,192,114190,1,0,0:0:0:0:
448,192,114190,1,0,0:0:0:0:
320,192,114190,1,0,0:0:0:0:
192,192,114265,1,0,0:0:0:0:
448,192,114340,1,0,0:0:0:0:
64,192,114340,1,0,0:0:0:0:
320,192,114340,1,0,0:0:0:0:
192,192,114490,1,0,0:0:0:0:
320,192,114490,1,0,0:0:0:0:
448,192,114490,1,0,0:0:0:0:
64,192,114640,1,0,0:0:0:0:
448,192,114640,1,0,0:0:0:0:
192,192,114715,1,0,0:0:0:0:
320,192,114715,1,0,0:0:0:0:
448,192,114790,1,0,0:0:0:0:
64,192,114790,1,0,0:0:0:0:
192,192,114865,1,0,0:0:0:0:
448,192,114940,1,0,0:0:0:0:
64,192,114940,1,0,0:0:0:0:
320,192,114940,1,0,0:0:0:0:
320,192,115090,1,0,0:0:0:0:
448,192,115090,1,0,0:0:0:0:
192,192,115090,1,0,0:0:0:0:
64,192,115240,1,0,0:0:0:0:
448,192,115240,1,0,0:0:0:0:
320,192,115315,1,0,0:0:0:0:
192,192,115315,1,0,0:0:0:0:
64,192,115390,1,0,0:0:0:0:
448,192,115390,1,0,0:0:0:0:
320,192,115465,1,0,0:0:0:0:
192,192,115465,1,0,0:0:0:0:
448,192,115540,1,0,0:0:0:0:
64,192,115540,1,0,0:0:0:0:
192,192,115540,1,0,0:0:0:0:
448,192,115690,1,0,0:0:0:0:
64,192,115690,1,0,0:0:0:0:
320,192,115690,1,0,0:0:0:0:
448,192,115840,1,0,0:0:0:0:
64,192,115840,1,0,0:0:0:0:
192,192,115915,1,0,0:0:0:0:
320,192,115915,1,0,0:0:0:0:
448,192,115990,1,0,0:0:0:0:
64,192,115990,1,0,0:0:0:0:
192,192,116065,1,0,0:0:0:0:
320,192,116065,1,0,0:0:0:0:
448,192,116140,1,0,0:0:0:0:
320,192,116140,1,0,0:0:0:0:
64,192,116140,1,0,0:0:0:0:
64,192,116290,1,0,0:0:0:0:
192,192,116290,1,0,0:0:0:0:
448,192,116290,1,0,0:0:0:0:
448,192,116440,1,0,0:0:0:0:
192,192,116440,1,0,0:0:0:0:
64,192,116515,1,0,0:0:0:0:
320,192,116515,1,0,0:0:0:0:
448,192,116590,1,0,0:0:0:0:
192,192,116590,1,0,0:0:0:0:
320,192,116665,1,0,0:0:0:0:
64,192,116740,1,0,0:0:0:0:
192,192,116740,1,0,0:0:0:0:
192,192,116890,1,0,0:0:0:0:
320,192,116890,1,0,0:0:0:0:
320,192,117040,1,0,0:0:0:0:
448,192,117040,1,0,0:0:0:0:
192,192,117040,1,0,0:0:0:0:
64,192,117190,1,0,0:0:0:0:
320,192,117340,1,0,0:0:0:0:
448,192,117340,1,0,0:0:0:0:
64,192,117340,1,0,0:0:0:0:
192,192,117490,1,0,0:0:0:0:
320,192,117490,1,0,0:0:0:0:
64,192,117640,1,0,0:0:0:0:
192,192,117640,1,0,0:0:0:0:
320,192,117790,1,0,0:0:0:0:
448,192,117940,1,0,0:0:0:0:
320,192,117940,1,0,0:0:0:0:
64,192,117940,1,0,0:0:0:0:
320,192,118090,1,0,0:0:0:0:
192,192,118090,1,0,0:0:0:0:
64,192,118240,1,0,0:0:0:0:
192,192,118240,1,0,0:0:0:0:
448,192,118240,1,0,0:0:0:0:
448,192,118390,1,0,0:0:0:0:
320,192,118390,1,0,0:0:0:0:
64,192,118540,1,0,0:0:0:0:
192,192,118540,1,0,0:0:0:0:
320,192,118540,1,0,0:0:0:0:
448,192,118540,1,0,0:0:0:0:
