osu file format v14

[General]
AudioFilename: Evanescent.mp3
AudioLeadIn: 0
PreviewTime: 88416
Countdown: 0
SampleSet: None
StackLeniency: 0.5
Mode: 0
LetterboxInBreaks: 1
SkinPreference:Default
WidescreenStoryboard: 0

[Editor]
Bookmarks: 7574,27785,37890,39785,42311,42943,44837,45469,48943,50206,50522,52416,55574,60627,63153,66627,70732,74522,75785,84627,88416,108627,111153,118732,125048
DistanceSpacing: 0.7
BeatDivisor: 4
GridSize: 8
TimelineZoom: 2.7

[Metadata]
Title:Evanescent
TitleUnicode:Evanescent
Artist:LeaF
ArtistUnicode:LeaF
Creator:bomber34
Version:Insane
Source:
Tags:MBC6
BeatmapID:1474051
BeatmapSetID:695762

[Difficulty]
HPDrainRate:4
CircleSize:4
OverallDifficulty:7
ApproachRate:9
SliderMultiplier:1.8
SliderTickRate:2

[Events]
//Background and Video events
0,0,"EvanescentBG.png",0,0
Video,0,"Evanescent.flv"
//Break Periods
2,60827,62553
//Storyboard Layer 0 (Background)
//Storyboard Layer 1 (Fail)
//Storyboard Layer 2 (Pass)
//Storyboard Layer 3 (Foreground)
//Storyboard Sound Samples

[TimingPoints]
2522,315.789473684211,4,2,0,100,1,0
8522,-133.333333333333,4,2,0,100,0,0
8837,-100,4,2,0,100,0,0
12311,-133.333333333333,4,2,0,100,0,0
12627,-100,4,2,0,100,0,0
14916,-133.333333333333,4,2,0,100,0,0
15153,-100,4,2,0,100,0,0
18627,-133.333333333333,4,2,0,100,0,0
18943,-100,4,2,0,100,0,0
23679,-133.333333333333,4,2,0,100,0,0
23995,-100,4,2,0,100,0,0
24943,-133.333333333333,4,2,0,100,0,0
25258,-100,4,2,0,100,0,0
27785,-200,4,2,0,100,0,0
32916,-200,4,2,0,50,0,0
34416,-200,4,2,0,60,0,0
34732,-200,4,2,0,70,0,0
35048,-200,4,2,0,80,0,0
35364,-200,4,2,0,90,0,0
36153,-133.333333333333,4,2,0,100,0,0
37890,-100,4,2,0,100,0,0
39785,-80,4,2,0,100,0,0
40416,-100,4,2,0,100,0,0
42311,-80,4,2,0,100,0,0
42943,-100,4,2,0,100,0,0
43890,-133.333333333333,4,2,0,100,0,0
44206,-100,4,2,0,100,0,0
44837,-80,4,2,0,100,0,0
45469,-100,4,2,0,100,0,0
48943,-133.333333333333,4,2,0,100,0,0
50206,-100,4,2,0,100,0,0
50522,-100,4,3,0,85,0,1
52732,-66.6666666666667,4,3,0,85,0,1
52969,-100,4,3,0,85,0,1
55574,-200,4,3,0,85,0,1
55890,-100,4,3,0,85,0,1
57785,-200,4,3,0,85,0,0
58100,-100,4,3,0,85,0,1
59995,-66.6666666666667,4,2,0,100,0,0
60153,-100,4,2,0,100,0,1
60311,-100,4,2,0,100,0,0
70258,-133.333333333333,4,2,0,100,0,0
70732,-100,4,2,0,60,0,0
71995,-100,4,2,0,70,0,0
72627,-100,4,2,0,75,0,0
73258,-100,4,2,0,80,0,0
75785,-50,4,2,0,80,0,1
75864,-50,4,2,0,80,0,0
76258,-50,4,2,0,80,0,1
76337,-50,4,2,0,80,0,0
76416,-100,4,2,0,80,0,0
76732,-100,4,2,0,80,0,1
76811,-100,4,2,0,80,0,0
77206,-100,4,2,0,80,0,1
77285,-100,4,2,0,80,0,0
77679,-100,4,2,0,80,0,1
77758,-100,4,2,0,80,0,0
77995,-100,4,2,0,80,0,1
78074,-100,4,2,0,80,0,0
78627,-100,4,2,0,80,0,1
78706,-100,4,2,0,80,0,0
78943,-100,4,2,0,80,0,1
79022,-100,4,2,0,80,0,0
79179,-100,4,2,0,80,0,1
79258,-100,4,2,0,80,0,0
79574,-100,4,2,0,80,0,1
79653,-100,4,2,0,80,0,0
80206,-100,4,2,0,80,0,1
80285,-100,4,2,0,80,0,0
80522,-100,4,2,0,80,0,1
80600,-100,4,2,0,80,0,0
80995,-100,4,2,0,80,0,1
81074,-100,4,2,0,80,0,0
81627,-100,4,2,0,80,0,1
81706,-100,4,2,0,80,0,0
82258,-100,4,2,0,80,0,1
82337,-100,4,2,0,80,0,0
82574,-100,4,2,0,80,0,1
82653,-100,4,2,0,80,0,0
82890,-100,4,2,0,80,0,1
82969,-100,4,2,0,80,0,0
83995,-66.6666666666667,4,2,0,80,0,1
84074,-66.6666666666667,4,2,0,80,0,0
84232,-100,4,2,0,80,0,0
84469,-100,4,2,0,80,0,1
84548,-100,4,2,0,80,0,0
84943,-100,4,2,0,80,0,0
85574,-100,4,2,0,80,0,1
85653,-100,4,2,0,80,0,0
87311,-100,4,2,0,85,0,0
87469,-100,4,2,0,90,0,0
87627,-100,4,2,0,95,0,0
87785,-100,4,2,0,100,0,0
88416,-100,4,2,0,100,0,0
89364,-200,4,2,0,100,0,0
89679,-100,4,2,0,100,0,0
93153,-133.333333333333,4,2,0,100,0,0
93469,-100,4,2,0,100,0,0
99469,-133.333333333333,4,2,0,85,0,0
99785,-100,4,2,0,100,0,0
103258,-200,4,2,0,100,0,0
103574,-100,4,2,0,100,0,0
104522,-133.333333333333,4,2,0,100,0,0
104837,-100,4,2,0,100,0,0
105785,-133.333333333333,4,2,0,100,0,0
106100,-100,4,2,0,100,0,0
113206,-400,4,2,0,100,0,0
113679,-100,4,2,0,100,0,0
118732,-200,4,2,0,80,0,0
122522,-200,4,2,0,80,0,0
122600,-200,4,2,0,10,0,0
124890,-200,4,2,0,50,0,0

[Colours]
Combo1 : 85,85,85
Combo2 : 236,253,28
Combo3 : 72,154,255
Combo4 : 251,151,85
Combo5 : 224,57,242
Combo6 : 65,243,73
Combo7 : 217,217,217

[HitObjects]
368,192,7574,86,0,L|428:268,1,90
208,108,7890,1,0,3:0:0:0:
144,192,8048,2,0,L|84:268,1,90
304,108,8364,1,0,3:0:0:0:
304,108,8522,6,0,B|288:144|288:144|280:160|280:160|288:176|288:176|280:192|280:192|256:232,1,135.000005149842,2|0,0:0|0:0,0:0:0:0:
209,108,9153,1,0,3:0:0:0:
259,228,9311,1,0,0:0:0:0:
303,108,9469,1,0,0:0:0:0:
256,336,9785,1,0,3:0:0:0:
209,108,10100,86,0,B|208:64|160:64|160:64|40:64,1,180,2|0,0:0|3:0,0:0:0:0:
104,184,10574,2,0,B|105:228|153:228|153:228|273:228,1,180,0|0,0:0|3:0,0:0:0:0:
257,228,11206,1,2,0:0:0:0:
352,112,11364,6,0,B|368:104|368:104|392:112|392:112|440:112,1,90,2|0,0:0|0:0,0:0:0:0:
352,216,11679,1,2,3:2:0:0:
448,312,11837,2,2,B|432:320|432:320|408:312|408:312|384:304|384:304|360:312|360:312|336:328|312:312|296:312|296:312|264:312,1,180,2|0,0:0|3:0,0:0:0:0:
275,312,12311,86,0,P|232:320|160:264,1,135.000005149842,2|0,0:0|3:0,0:0:0:0:
464,40,12943,1,0,3:0:0:0:
408,192,13100,2,0,L|352:120,1,90
400,288,13416,2,0,B|344:264|344:264|328:240,2,90,0|0|0,3:0|0:0|0:0,0:0:0:0:
408,192,13890,6,0,P|368:168|240:192,1,180,0|0,0:0|3:0,0:0:0:0:
328,240,14364,1,0,0:0:0:0:
328,84,14522,2,0,P|288:60|160:68,1,180,0|0,0:0|3:0,0:0:0:0:
159,68,14916,86,2,B|136:88|136:88|128:124|128:124|103:156,1,101.250003862381,0|0,0:0|0:0,0:0:0:0:
112,268,15311,1,0,0:0:0:0:
64,140,15469,2,0,L|160:168,1,90,0|0,3:0|0:0,0:0:0:0:
232,288,15705,1,0,0:0:0:0:
150,165,15943,2,0,L|236:139,1,90,0|0,3:0|0:0,0:0:0:0:
236,139,16258,1,0,3:0:0:0:
268,164,16337,1,0,3:0:0:0:
292,188,16416,6,0,L|253:269,1,90,2|0,0:0|0:0,0:0:0:0:
368,232,16732,1,2,0:0:0:0:
440,311,16890,2,0,P|501:249|497:161,1,180,2|0,0:0|0:0,0:0:0:0:
253,269,17364,1,2,0:0:0:0:
14,162,17679,85,2,0:0:0:0:
203,114,17837,2,0,B|181:87|181:87|186:69|186:69|158:45,1,90,0|0,0:0|3:0,0:0:0:0:
253,269,18153,2,0,B|231:242|231:242|236:224|236:224|208:200,1,90
351,335,18469,1,0,3:0:0:0:
351,335,18627,6,0,P|369:299|356:203,1,135.000005149842,2|0,0:0|0:0,0:0:0:0:
315,194,19100,2,0,P|376:204|410:184,1,90,0|0,0:0|3:0,0:0:0:0:
444,108,19416,1,0,0:0:0:0:
252,269,19574,1,0,0:0:0:0:
452,338,19890,1,0,3:0:0:0:
352,116,20206,86,0,P|321:83|279:68,1,90,2|0,0:0|0:0,0:0:0:0:
100,72,20522,1,0,3:0:0:0:
192,204,20679,2,0,P|264:156|280:68,1,180,0|0,0:0|3:0,0:0:0:0:
280,68,21153,2,0,L|324:148,1,90,0|2,0:0|0:0,0:0:0:0:
152,296,21469,6,0,L|112:276,2,45,2|0|2,0:0|0:0|0:0,0:0:0:0:
192,204,21785,1,2,3:2:0:0:
232,296,21943,1,2,0:0:0:0:
268,292,22021,1,2,0:0:0:0:
300,272,22100,1,2,0:0:0:0:
320,240,22179,1,2,0:0:0:0:
328,204,22258,1,0,3:0:0:0:
260,104,22416,1,0,0:0:0:0:
192,204,22574,1,0,0:0:0:0:
376,316,22732,86,0,P|424:300|460:256,1,90
360,132,23048,1,0,3:0:0:0:
376,316,23206,2,0,P|432:296|432:176,1,180,0|0,0:0|3:0,0:0:0:0:
260,104,23679,6,2,B|232:116|232:116|208:108|208:108|184:116|184:116|172:140|172:140|140:148,1,135.000005149842,2|0,0:0|0:0,0:0:0:0:
188,244,24153,1,0,0:0:0:0:
288,208,24311,1,0,3:0:0:0:
176,324,24469,1,0,0:0:0:0:
352,256,24627,1,0,0:0:0:0:
216,164,24943,86,0,B|184:104|184:104|120:72,1,135.000005149842,0|0,3:0|0:0,0:0:0:0:
116,172,25416,2,0,L|80:208,2,45,0|0|0,0:0|0:0|3:0,0:0:0:0:
232,52,25732,2,0,P|320:36|400:96,1,180,0|0,0:0|3:0,0:0:0:0:
404,240,26206,1,0,0:0:0:0:
232,216,26364,1,0,3:0:0:0:
232,216,26443,1,0,3:0:0:0:
232,216,26522,5,4,3:1:0:0:
356,136,26679,1,0,0:0:0:0:
264,136,26837,1,0,3:0:0:0:
392,216,26995,1,4,0:1:0:0:
356,292,27153,2,0,P|312:304|268:292,1,90,0|0,0:0|3:0,0:0:0:0:
312,216,27469,1,4,0:1:0:0:
312,216,27785,85,4,0:0:0:0:
256,84,29048,21,2,0:0:0:0:
360,172,29679,5,2,0:0:0:0:
148,264,30311,5,0,0:0:0:0:
468,296,31574,5,2,0:0:0:0:
256,192,32206,5,0,0:0:0:0:
44,296,32837,37,0,0:0:0:0:
256,192,32916,12,0,34100,0:0:0:0:
260,192,34416,6,0,L|292:208,3,22.5,0|0|0|0,0:0|0:0|0:0|0:0,0:0:0:0:
252,264,34732,2,0,L|260:288,3,22.5,0|0|0|0,0:0|0:0|0:0|0:0,0:0:0:0:
184,288,35048,2,0,L|176:312,3,22.5,0|0|0|0,0:0|0:0|0:0|0:0,0:0:0:0:
120,272,35364,54,0,P|88:260|64:168,1,135,0|0,0:0|0:0,0:0:0:0:
256,76,36153,6,0,L|312:132,2,67.5000025749208,4|2|2,0:0|0:0|0:0,0:0:0:0:
256,192,36627,2,0,L|200:248,2,67.5000025749208,4|2|2,0:0|0:0|0:0,0:0:0:0:
256,308,37100,1,0,0:0:0:0:
256,308,37258,6,0,P|304:296|376:104,1,270.000010299683,2|0,0:0|3:0,0:0:0:0:
428,336,38206,1,0,3:0:0:0:
288,192,38364,2,0,P|228:120|232:32,1,180,0|0,0:0|3:0,0:0:0:0:
84,336,39153,86,0,P|124:312|136:268,1,90
52,164,39469,1,0,3:0:0:0:
200,320,39627,1,0,0:0:0:0:
288,164,39785,86,0,L|400:164,1,112.5,0|2,0:0|0:0,0:0:0:0:
216,220,40100,38,0,L|216:108,1,112.5,2|0,0:0|0:0,0:0:0:0:
428,40,40416,70,0,L|460:124,1,90,2|0,0:0|0:0,0:0:0:0:
460,260,40732,2,0,P|444:304|396:332,1,90,0|0,3:0|0:0,0:0:0:0:
288,164,41048,2,0,P|304:120|352:92,1,90,0|0,0:0|3:0,0:0:0:0:
280,259,41364,2,0,P|265:301|230:328,1,90,0|2,0:0|0:0,0:0:0:0:
410,329,41679,85,2,0:0:0:0:
230,328,41837,2,0,P|194:301|180:259,1,90,0|0,0:0|3:0,0:0:0:0:
192,180,42153,1,0,0:0:0:0:
268,140,42311,54,0,L|268:28,1,112.5,2|0,0:0|0:0,0:0:0:0:
340,180,42627,38,0,L|424:96,1,112.5,0|2,0:0|0:0,0:0:0:0:
384,244,42943,6,0,P|340:256|296:244,1,90,2|0,0:0|0:0,0:0:0:0:
144,328,43258,2,0,P|188:316|232:328,1,90,0|0,3:0|0:0,0:0:0:0:
340,180,43574,1,0,0:0:0:0:
268,28,43732,1,0,3:0:0:0:
192,180,43890,6,0,B|156:196|156:196|124:232|124:232|80:252,1,135.000005149842,2|0,0:0|0:0,0:0:0:0:
3,174,44364,1,0,0:0:0:0:
15,138,44443,1,0,0:0:0:0:
24,104,44522,1,0,3:0:0:0:
80,252,44679,1,0,0:0:0:0:
260,260,44837,70,0,L|340:180,1,112.5,2|0,0:0|0:0,0:0:0:0:
104,52,45153,86,0,L|104:168,1,112.5,2|0,0:0|0:0,0:0:0:0:
224,332,45469,22,0,L|156:264,1,90,0|0,3:0|0:0,0:0:0:0:
255,104,45785,2,0,P|328:74|338:151,1,180,0|0,3:0|0:0,0:0:0:0:
224,196,46258,2,0,P|180:176|164:136,2,90,0|0|0,0:0|3:0|0:0,0:0:0:0:
338,151,46732,5,0,0:0:0:0:
328,74,46889,1,0,3:0:0:0:
255,104,47047,1,0,3:0:0:0:
424,280,47206,1,0,0:0:0:0:
256,340,47364,2,0,L|256:248,1,90,4|0,0:1|0:0,0:0:0:0:
88,280,47679,1,0,0:0:0:0:
256,340,47837,1,0,0:0:0:0:
328,248,47995,5,4,0:1:0:0:
188,208,48153,1,0,3:0:0:0:
338,151,48311,1,4,0:1:0:0:
176,112,48469,1,0,3:0:0:0:
256,64,48943,6,0,B|216:28|160:28|128:40|128:40|100:64|72:108|104:156|116:184|116:184|96:200|64:212|32:200|32:200|24:240|36:272|68:296|104:304|144:296,1,540.000020599366
368,192,50522,6,0,P|340:157|297:152,1,90
264,168,50758,1,0,0:0:0:0:
252,204,50837,1,2,0:0:0:0:
328,288,50995,1,0,0:0:0:0:
448,216,51153,5,2,0:0:0:0:
384,100,51311,2,0,L|408:56,2,45,0|0|2,0:0|0:0|0:0,0:0:0:0:
252,128,51627,1,2,0:0:0:0:
196,288,51785,38,0,L|176:320,4,22.5,0|0|0|0|0,0:0|0:0|0:0|0:0|0:0,0:0:0:0:
232,288,52022,1,0,0:0:0:0:
264,276,52100,1,2,0:0:0:0:
292,252,52179,1,2,0:0:0:0:
308,220,52258,1,2,0:0:0:0:
316,184,52337,1,0,0:0:0:0:
316,148,52416,6,0,B|316:104|316:104|284:72,1,90,2|0,0:0|0:0,0:0:0:0:
132,204,52732,2,0,L|148:236,4,33.7500012874604,0|0|0|0|0,0:0|0:0|0:0|0:0|0:0,0:0:0:0:
88,188,52969,1,0,0:0:0:0:
44,188,53048,5,4,0:0:0:0:
172,324,53206,2,0,L|160:348,4,22.5,0|0|0|0|0,0:0|0:0|0:0|0:0|0:0,0:0:0:0:
196,288,53443,1,0,0:0:0:0:
240,288,53521,1,2,0:0:0:0:
271,256,53600,1,0,0:0:0:0:
316,256,53679,5,0,0:0:0:0:
347,224,53758,1,0,0:0:0:0:
392,224,53837,2,0,B|416:184|416:184|396:144,1,90,0|2,0:0|0:0,0:0:0:0:
432,320,54153,1,0,0:0:0:0:
288,192,54311,6,0,L|264:152,2,45,2|0|2,0:0|0:0|0:0,0:0:0:0:
208,216,54548,2,0,B|156:224|156:224|96:284,1,135,2|2,0:0|0:0,0:0:0:0:
52,282,54864,1,2,0:0:0:0:
20,250,54943,38,0,B|20:188|20:188|36:156,1,90,2|0,0:0|0:0,0:0:0:0:
64,128,55179,1,2,0:0:0:0:
91,92,55257,1,2,0:0:0:0:
136,92,55336,1,2,0:0:0:0:
163,127,55415,1,0,0:0:0:0:
195,159,55494,1,0,0:0:0:0:
227,126,55574,70,0,L|323:126,1,90,2|0,2:0|0:0,0:0:0:0:
349,158,55969,37,0,0:0:0:0:
349,203,56048,1,0,0:0:0:0:
380,234,56127,1,0,0:0:0:0:
380,280,56206,2,0,L|380:325,3,45,2|0|2|2,0:0|0:0|0:0|0:0,0:0:0:0:
316,304,56522,2,0,L|276:324,2,45,2|0|2,0:0|0:0|0:0,0:0:0:0:
196,244,56837,6,0,B|232:216|232:216|236:172,1,90
92,92,57153,2,0,B|56:120|56:120|52:164,1,90,0|2,0:0|0:0,0:0:0:0:
192,332,57469,2,0,L|180:364,4,22.5,0|0|0|0|0,0:0|0:0|0:0|0:0|0:0,0:0:0:0:
196,244,57785,54,0,L|196:152,1,90,2|0,2:0|0:0,0:0:0:0:
316,244,58258,53,0,0:0:0:0:
316,276,58337,1,0,0:0:0:0:
293,298,58416,1,0,0:0:0:0:
428,244,58574,1,0,0:0:0:0:
428,212,58653,1,0,0:0:0:0:
428,180,58732,1,2,0:0:0:0:
405,157,58811,1,0,0:0:0:0:
382,134,58890,1,2,0:0:0:0:
382,102,58969,1,0,0:0:0:0:
384,72,59048,6,0,L|384:40,8,22.5,0|0|0|0|0|0|0|0|2,0:0|0:0|0:0|0:0|0:0|0:0|0:0|0:0|0:0,0:0:0:0:
256,112,59522,38,0,L|212:136,2,45,0|0|2,0:0|0:0|0:0,0:0:0:0:
284,148,59758,1,2,0:0:0:0:
303,187,59836,1,2,0:0:0:0:
292,230,59915,1,0,0:0:0:0:
256,255,59995,6,0,L|224:276,4,33.7500012874604,0|0|0|0|0,0:0|0:0|0:0|0:0|0:0,0:0:0:0:
464,348,60311,1,8,0:0:0:0:
464,348,60627,53,0,0:0:0:0:
448,128,63153,6,0,P|368:168|292:128,1,180,2|0,0:0|3:0,0:0:0:0:
372,80,63627,2,0,P|356:160|176:184,1,270,0|2,3:0|0:0,0:0:0:0:
272,136,64416,2,0,P|276:216|204:296,2,180,0|0|0,3:0|3:0|0:0,0:0:0:0:
172,188,65206,1,2,0:0:0:0:
368,252,65364,1,8,0:0:0:0:
368,252,65679,86,0,P|408:224|408:176,1,90,2|0,0:0|0:0,0:0:0:0:
460,312,65995,1,0,3:0:0:0:
368,340,66153,2,0,P|308:316|292:208,1,180,2|0,0:0|3:0,0:0:0:0:
52,312,66943,5,2,0:0:0:0:
164,220,67100,1,2,0:0:0:0:
28,172,67258,2,0,L|100:256,1,90,0|2,3:0|0:0,0:0:0:0:
84,120,67574,2,0,L|12:36,1,90
140,300,67890,1,0,3:0:0:0:
372,84,68206,85,0,0:0:0:0:
476,52,68364,1,0,0:0:0:0:
452,156,68522,1,0,3:0:0:0:
292,108,68679,2,0,P|320:16|396:8,1,180,0|0,0:0|3:0,0:0:0:0:
60,156,69311,1,2,0:0:0:0:
60,156,69469,6,0,B|44:112|44:112|60:72,1,90,2|0,0:0|0:0,0:0:0:0:
184,192,69785,1,0,3:0:0:0:
60,312,69943,2,0,B|44:272|44:272|60:228,1,90,2|0,0:0|0:0,0:0:0:0:
204,115,70258,86,0,P|260:190|205:267,1,202.500007724762,0|0,3:0|3:0,0:0:0:0:
132,268,71048,37,0,3:0:0:0:
76,212,71364,1,0,3:0:0:0:
76,132,71679,1,0,3:0:0:0:
184,192,71995,53,8,3:0:0:0:
240,136,72311,1,0,3:0:0:0:
440,192,72626,1,8,3:0:0:0:
384,136,72943,1,0,3:0:0:0:
240,360,73258,37,8,3:0:0:0:
152,296,73416,1,0,3:0:0:0:
186,193,73574,1,8,3:0:0:0:
294,193,73732,1,0,3:0:0:0:
327,296,73890,1,8,3:0:0:0:
152,296,74048,53,0,3:0:0:0:
294,193,74206,1,8,3:0:0:0:
240,360,74364,1,0,3:0:0:0:
186,193,74522,1,2,3:0:0:0:
256,192,74679,12,0,75469,0:0:0:0:
428,324,75785,54,0,L|284:208,1,180,4|0,0:0|0:0,0:0:0:0:
288,211,76258,2,0,L|144:95,1,180,4|0,0:0|0:0,0:0:0:0:
416,64,76732,5,4,0:0:0:0:
416,64,76890,1,0,0:0:0:0:
128,144,77206,5,4,0:0:0:0:
128,144,77364,1,0,0:0:0:0:
352,224,77679,37,4,0:0:0:0:
352,224,77837,1,0,0:0:0:0:
192,304,77995,5,4,0:0:0:0:
192,304,78153,1,0,0:0:0:0:
288,64,78469,5,0,0:0:0:0:
224,384,78627,37,4,0:0:0:0:
368,96,78943,53,4,0:0:0:0:
144,352,79179,37,4,0:0:0:0:
416,160,79416,53,0,0:0:0:0:
96,288,79574,37,4,0:0:0:0:
432,240,80206,53,4,0:0:0:0:
80,208,80522,37,4,0:0:0:0:
416,320,80837,53,4,0:0:0:0:
96,128,80995,37,0,0:0:0:0:
352,368,81469,53,4,0:0:0:0:
144,64,81627,37,0,0:0:0:0:
272,384,82100,53,4,0:0:0:0:
224,32,82258,37,0,0:0:0:0:
336,240,82574,1,4,0:0:0:0:
144,192,82890,1,4,0:0:0:0:
392,72,83206,2,0,L|372:83,4,22.5,0|0|0|0|4,0:0|0:0|0:0|0:0|0:0,0:0:0:0:
120,320,83995,54,0,B|200:320|200:320|272:216,1,202.500007724762,6|6,0:0|0:0,0:0:0:0:
112,96,84469,1,6,0:0:0:0:
352,192,84627,1,6,0:0:0:0:
296,320,84943,6,0,L|256:352,3,45,0|0|0|0,0:0|0:0|0:0|0:0,0:0:0:0:
248,288,85258,6,0,L|200:288,3,45,0|0|0|0,0:0|0:0|0:0|0:0,0:0:0:0:
208,201,85574,38,0,L|256:201,3,45,8|0|0|0,0:2|0:0|0:0|0:0,0:0:0:0:
232,153,85890,6,0,L|192:121,3,45,0|0|0|0,0:0|0:0|0:0|0:0,0:0:0:0:
240,105,86206,6,0,L|240:57,3,45,0|0|0|0,0:0|0:0|0:0|0:0,0:0:0:0:
288,81,86522,6,0,L|328:49,3,45,0|0|0|0,0:0|0:0|0:0|0:0,0:0:0:0:
328,105,86837,6,0,L|376:104,3,45,0|0|0|0,0:0|0:0|0:0|0:0,0:0:0:0:
408,128,87153,5,0,3:0:0:0:
448,160,87232,1,0,3:0:0:0:
488,192,87311,1,0,3:0:0:0:
448,216,87390,1,0,3:0:0:0:
408,240,87469,1,0,3:0:0:0:
448,272,87548,1,0,3:0:0:0:
488,296,87627,1,0,3:0:0:0:
448,328,87706,1,0,3:0:0:0:
402,328,87785,38,0,L|304:328,1,90,2|2,0:0|0:0,0:0:0:0:
120,200,88100,2,0,L|216:200,1,90,0|2,0:0|0:0,0:0:0:0:
335,55,88416,6,0,P|249:31|163:53,1,180,2|0,3:2|3:0,0:0:0:0:
210,200,88890,2,0,P|296:221|382:197,1,180,0|0,0:0|3:0,0:0:0:0:
256,312,89364,54,0,L|168:328,1,90,2|0,0:0|0:0,0:0:0:0:
344,56,89995,1,0,3:0:0:0:
460,123,90153,1,0,0:0:0:0:
343,190,90311,2,0,B|300:160|220:224|164:196,1,180,0|2,3:0|3:2,0:0:0:0:
460,261,90943,85,2,0:0:0:0:
256,80,91258,1,0,3:0:0:0:
172,188,91416,2,0,P|255:215|339:188,1,180,0|0,0:0|3:0,0:0:0:0:
340,187,92048,1,2,0:0:0:0:
460,261,92206,53,2,0:0:0:0:
436,288,92285,1,2,0:0:0:0:
412,316,92364,2,0,P|368:336|324:336,1,90,2|2,0:0|3:2,0:0:0:0:
186,336,92679,2,0,P|141:335|100:316,1,90,2|2,0:0|0:0,0:0:0:0:
76,288,92915,1,0,0:0:0:0:
52,261,92994,1,0,3:0:0:0:
108,152,93153,54,0,L|252:176,1,135.000005149842,0|0,0:0|3:0,0:0:0:0:
316,252,93627,1,0,0:0:0:0:
340,148,93785,1,0,3:0:0:0:
196,76,93943,2,0,L|156:252,1,180,0|0,0:3|3:0,0:0:0:0:
404,312,94416,86,0,B|420:284|420:284|404:264|404:264|420:244|420:244|440:144,1,180,2|0,0:0|3:0,0:0:0:0:
48,316,95048,1,0,3:0:0:0:
164,244,95206,1,0,0:0:0:0:
52,168,95364,1,0,0:0:0:0:
464,316,95679,1,0,3:0:0:0:
256,48,95995,54,0,P|256:112|352:172,1,180,2|0,0:0|3:0,0:0:0:0:
128,140,96469,2,0,P|128:204|224:264,1,180,0|2,0:0|3:2,0:0:0:0:
8,244,96943,1,0,0:0:0:0:
19,329,97100,1,0,3:0:0:0:
53,358,97179,1,0,3:0:0:0:
96,368,97258,54,0,L|168:312,1,90,4|2,0:1|0:0,0:0:0:0:
415,368,97574,2,0,L|344:312,1,90,4|2,0:1|0:0,0:0:0:0:
308,284,97811,1,0,0:0:0:0:
276,252,97890,1,2,0:0:0:0:
276,208,97969,1,2,0:0:0:0:
308,176,98048,1,4,0:1:0:0:
184,284,98206,1,0,3:0:0:0:
208,256,98522,86,0,B|208:208|208:208|176:180,1,90,0|0,3:0|0:0,0:0:0:0:
112,332,98837,1,0,3:0:0:0:
248,332,98995,2,0,P|330:354|383:287,1,180,0|0,0:0|3:0,0:0:0:0:
316,88,99469,54,0,B|256:116|256:116|200:116|200:116|188:124,1,135.000005149842,2|0,0:0|0:0,0:0:0:0:
160,144,99864,1,0,0:0:0:0:
132,164,99943,1,0,0:0:0:0:
132,200,100022,1,0,0:0:0:0:
108,228,100100,1,0,3:0:0:0:
40,332,100258,1,0,0:0:0:0:
180,332,100416,2,0,P|224:308|232:272,1,90,0|0,0:0|0:0,0:0:0:0:
108,100,100732,1,0,3:0:0:0:
404,284,101048,54,0,P|368:288|316:176,1,180,2|0,0:0|3:0,0:0:0:0:
376,212,101522,2,0,P|315:271|239:235,2,180,0|0|2,0:0|3:0|0:0,0:0:0:0:
340,64,102311,85,2,0:0:0:0:
304,76,102390,1,2,0:0:0:0:
268,88,102469,1,2,0:0:0:0:
232,100,102548,1,0,0:0:0:0:
196,108,102627,2,0,B|156:124|156:124|120:156,1,90,2|0,0:0|0:0,0:0:0:0:
96,184,102864,1,0,0:0:0:0:
72,212,102943,1,2,0:0:0:0:
84,248,103022,1,2,0:0:0:0:
108,276,103100,1,2,3:2:0:0:
208,276,103258,54,0,L|152:356,1,90,0|0,0:0|3:0,0:0:0:0:
65,349,103732,1,0,0:0:0:0:
12,276,103890,1,0,3:0:0:0:
112,104,104048,2,0,P|172:160|268:160,1,180,0|0,0:0|3:0,0:0:0:0:
392,112,104522,54,0,B|412:88|412:88|396:136|396:136|376:188,1,135.000005149842,2|0,0:0|3:0,0:0:0:0:
376,185,105153,1,0,3:0:0:0:
256,292,105311,1,0,0:0:0:0:
408,344,105469,1,0,3:0:0:0:
208,96,105785,86,0,B|188:145|188:145|172:193|172:193|192:169,1,135.000005149842,0|2,3:0|0:0,0:0:0:0:
92,108,106416,1,0,3:0:0:0:
296,200,106574,1,0,0:0:0:0:
204,252,106890,1,0,3:0:0:0:
408,344,107048,1,0,0:0:0:0:
460,252,107206,54,0,L|444:204,2,45,2|2|4,0:0|0:0|3:1,0:0:0:0:
332,308,107522,1,0,0:0:0:0:
204,252,107679,1,4,3:1:0:0:
328,204,107837,2,0,B|264:204|264:204|216:172|216:172|157:172,1,180,0|0,3:0|3:0,0:0:0:0:
332,76,108311,1,0,0:0:0:0:
256,192,108627,12,2,109574,0:0:0:0:
100,92,109890,37,0,3:0:0:0:
140,112,109969,1,0,3:0:0:0:
180,128,110048,1,0,3:0:0:0:
180,218,110206,1,0,3:0:0:0:
220,238,110285,1,0,3:0:0:0:
260,254,110364,1,0,3:0:0:0:
302,238,110443,1,0,3:0:0:0:
342,218,110522,1,0,3:0:0:0:
342,128,110679,1,2,3:2:0:0:
342,128,110837,6,0,P|394:144|420:260,1,180,2|0,0:0|3:0,0:0:0:0:
180,128,111469,1,0,3:0:0:0:
88,256,111627,2,0,L|152:324,1,90,2|0,0:0|0:0,0:0:0:0:
256,176,111943,2,0,L|320:244,1,90,2|0,3:2|0:0,0:0:0:0:
408,88,112258,1,2,3:2:0:0:
476,204,112416,37,0,0:0:0:0:
471,248,112494,1,0,3:0:0:0:
452,288,112573,1,0,3:0:0:0:
420,319,112652,1,0,3:0:0:0:
376,304,112731,1,2,3:0:0:0:
334,340,112810,1,0,0:0:0:0:
291,326,112890,2,0,L|244:312,3,45,0|2|2|2,0:0|0:0|0:0|0:0,0:0:0:0:
208,312,113206,38,0,L|144:340,1,67.5,2|0,3:0|0:0,0:0:0:0:
372,152,113995,1,0,3:0:0:0:
256,200,114153,2,0,L|168:236,1,90
412,248,114469,1,0,3:0:0:0:
296,296,114627,6,0,B|280:316|280:316|256:316|256:316|240:312|240:312|232:324|232:324|220:324|192:324|168:320|144:304|136:288,1,180,2|0,0:0|3:0,0:0:0:0:
440,124,115258,1,0,3:0:0:0:
412,248,115416,1,0,0:0:0:0:
364,40,115574,1,2,0:0:0:0:
364,40,115890,1,2,3:2:0:0:
296,296,116206,37,0,3:0:0:0:
216,156,116522,1,0,3:0:0:0:
140,296,116679,1,0,0:0:0:0:
64,88,116837,2,0,P|36:128|44:176,1,90,2|0,0:0|3:0,0:0:0:0:
216,156,117153,2,0,P|224:204|264:232,1,90,2|0,0:0|0:0,0:0:0:0:
368,92,117469,38,0,P|407:120|456:111,1,90,4|0,3:1|0:0,0:0:0:0:
428,36,117785,1,0,0:0:0:0:
376,192,117943,2,0,B|359:242|310:257|310:257|265:268|248:319,1,180,2|4,0:0|3:1,0:0:0:0:
452,344,118416,1,2,0:0:0:0:
256,184,118732,37,2,0:0:0:0:
164,216,119995,53,2,0:0:0:0:
352,216,121258,5,2,0:0:0:0:
256,308,122522,22,0,P|16:224|256:172,1,675,2|2,0:0|0:0,0:0:0:0:
