osu file format v14

[General]
AudioFilename: Evanescent.mp3
AudioLeadIn: 0
PreviewTime: 7562
Countdown: 1
SampleSet: Normal
StackLeniency: 0.2
Mode: 0
LetterboxInBreaks: 1
WidescreenStoryboard: 1

[Editor]
Bookmarks: 7562,17667,27773,37877,50509,65667,75772,88404,98509,108614,118719
DistanceSpacing: 1
BeatDivisor: 4
GridSize: 16
TimelineZoom: 2.8

[Metadata]
Title:Evanescent
TitleUnicode:Evanescent
Artist:LeaF
ArtistUnicode:LeaF
Creator:TheWaterBottle
Version:Think Again!
Source:
Tags:troll love fun
BeatmapID:635437
BeatmapSetID:280815

[Difficulty]
HPDrainRate:4
CircleSize:4.5
OverallDifficulty:9
ApproachRate:9.5
SliderMultiplier:2.5
SliderTickRate:2

[Events]
//Background and Video events
0,0,"EvanescentBG.png",0,0
Video,-180,"Evanescent.flv"
//Break Periods
//Storyboard Layer 0 (Background)
//Storyboard Layer 1 (Fail)
//Storyboard Layer 2 (Pass)
//Storyboard Layer 3 (Foreground)
//Storyboard Sound Samples

[TimingPoints]
2510,315.789473684211,4,1,0,75,1,0
8036,-200,4,1,0,75,0,0
8510,-1000,4,1,0,75,0,0
8786,-200,4,1,0,5,0,0
8825,-100,4,1,0,75,0,0
9457,-200,4,1,0,75,0,0
10088,-100,4,1,0,75,0,0
10562,-200,4,1,0,75,0,0
12299,-50,4,1,0,75,0,0
12575,-50,4,1,0,5,0,0
12615,-100,4,1,0,75,0,0
14510,-200,4,1,0,75,0,0
15615,-100,4,1,0,75,0,0
17352,-500,4,1,0,75,0,0
17628,-500,4,1,0,5,0,0
17667,-100,4,1,0,75,0,0
18615,-1000,4,1,0,75,0,0
18891,-1000,4,1,0,5,0,0
18931,-100,4,1,0,75,0,0
21299,-200,4,1,0,75,0,0
22720,-100,4,1,0,75,0,0
26194,-200,4,1,0,75,0,0
27773,631.578947368421,4,1,0,50,1,0
29351,-100,4,1,0,5,0,0
29667,-100,4,1,0,50,0,0
29983,-100,4,1,0,5,0,0
30299,-100,4,1,0,50,0,0
30615,-100,4,1,0,5,0,0
31562,-66.6666666666667,4,1,0,50,0,0
31878,-66.6666666666667,4,1,0,5,0,0
32194,-66.6666666666667,4,1,0,50,0,0
32509,-66.6666666666667,4,1,0,5,0,0
32825,-66.6666666666667,4,1,0,50,0,0
33141,-66.6666666666667,4,1,0,5,0,0
34088,-66.6666666666667,4,1,0,50,0,0
35036,-50,4,1,0,50,0,0
35194,-66.6666666666667,4,1,0,5,0,0
35351,-100,4,1,0,50,0,0
36141,315.789473684211,4,1,0,75,1,0
36141,-161.290322580645,4,1,0,75,0,0
36456,-133.333333333333,4,1,0,75,0,0
36772,-114.942528735632,4,1,0,75,0,0
37088,-100,4,1,0,75,0,0
37404,-200,4,1,0,75,0,0
37798,-200,4,1,0,5,0,0
37877,-100,4,1,0,75,0,0
39772,-200,4,1,0,75,0,0
40404,-100,4,1,0,75,0,0
42298,-200,4,1,0,75,0,0
42930,-100,4,1,0,75,0,0
44825,-200,4,1,0,75,0,0
45456,-100,4,1,0,75,0,0
48772,-50,4,1,0,25,0,0
50035,-200,4,1,0,50,0,0
50509,-100,4,1,0,75,0,0
52719,-100,4,1,0,45,0,0
52877,-100,4,1,0,25,0,0
53035,-200,4,1,0,25,0,0
53114,-100,4,1,0,75,0,0
55562,-133.333333333333,4,1,0,75,0,0
55838,-50,4,1,0,5,0,0
55877,-100,4,1,0,85,0,0
57772,-66.6666666666667,4,1,0,85,0,0
59035,-50,4,1,0,65,0,0
59193,-100,4,1,0,45,0,0
59351,-200,4,1,0,30,0,0
59509,-66.6666666666667,4,1,0,85,0,0
60298,-200,4,1,0,85,0,0
60575,-200,4,1,0,5,0,0
60614,-133.333333333333,4,1,0,50,0,0
62509,-50,4,1,0,50,0,0
63141,-100,4,1,0,50,0,0
64246,-100,4,1,0,35,0,0
64298,-100,4,1,0,40,0,0
64351,-100,4,1,0,45,0,0
64404,-100,4,1,0,50,0,0
65509,-100,4,1,0,10,0,0
65667,-100,4,1,0,50,0,0
69298,-200,4,1,0,50,0,0
70404,-100,4,1,0,50,0,0
70562,-100,4,1,0,5,0,0
70719,-100,4,1,0,50,0,0
74509,-100,4,1,0,55,0,0
74667,-100,4,1,0,5,0,0
74825,-66.6666666666667,4,1,0,60,0,0
74983,-66.6666666666667,4,1,0,5,0,0
75141,-50,4,1,0,70,0,0
75298,-50,4,1,0,5,0,0
75456,-200,4,1,0,50,0,0
75614,-200,4,1,0,5,0,0
75772,-66.6666666666667,4,1,0,75,0,0
76088,-66.6666666666667,4,1,0,5,0,0
76246,-66.6666666666667,4,1,0,75,0,0
76562,-66.6666666666667,4,1,0,5,0,0
76719,-66.6666666666667,4,1,0,75,0,0
77035,-66.6666666666667,4,1,0,5,0,0
77193,-66.6666666666667,4,1,0,75,0,0
77509,-66.6666666666667,4,1,0,5,0,0
77667,-66.6666666666667,4,1,0,75,0,0
77825,-66.6666666666667,4,1,0,5,0,0
77983,-66.6666666666667,4,1,0,75,0,0
78298,-66.6666666666667,4,1,0,5,0,0
78456,-66.6666666666667,4,1,0,75,0,0
78772,-66.6666666666667,4,1,0,5,0,0
78931,-66.6666666666667,4,1,0,75,0,0
79562,-200,4,1,0,75,0,0
79877,-200,4,1,0,5,0,0
80193,-133.333333333333,4,1,0,75,0,0
81298,-133.333333333333,4,1,0,5,0,0
81456,-133.333333333333,4,1,0,75,0,0
81614,-100,4,1,0,75,0,0
81930,-100,4,1,0,5,0,0
82088,-100,4,1,0,75,0,0
82246,-66.6666666666667,4,1,0,75,0,0
82877,-200,4,1,0,75,0,0
83983,-66.6666666666667,4,1,0,75,0,0
84614,-133.333333333333,4,1,0,75,0,0
84930,-100,4,1,0,50,0,0
85877,-100,4,1,0,55,0,0
86509,-100,4,1,0,65,0,0
87141,-100,4,1,0,75,0,0
89351,-1000,4,1,0,75,0,0
89627,-1000,4,1,0,5,0,0
89667,-100,4,1,0,75,0,0
91877,-200,4,1,0,75,0,0
92193,-100,4,1,0,75,0,0
92667,-200,4,1,0,75,0,0
93298,-200,4,1,0,10,0,0
93456,-100,4,1,0,75,0,0
94404,-172.413793103448,4,1,0,75,0,0
94680,-172.413793103448,4,1,0,5,0,0
94719,-100,4,1,0,75,0,0
96930,-200,4,1,0,75,0,0
97404,-100,4,1,0,75,0,0
97719,-200,4,1,0,75,0,0
98509,-100,4,1,0,75,0,0
99456,-1000,4,1,0,75,0,0
99733,-1000,4,1,0,5,0,0
99772,-100,4,1,0,75,0,0
101509,-200,4,1,0,75,0,0
101983,-100,4,1,0,75,0,0
104035,-200,4,1,0,75,0,0
104509,-100,4,1,0,75,0,0
104825,-200,4,1,0,75,0,0
105456,-100,4,1,0,75,0,0
107193,-2000,4,1,0,75,0,0
107825,-114.942528735632,4,1,0,75,0,0
108614,-100,4,1,0,75,0,0
110509,-400,4,1,0,75,0,0
111614,-100,4,1,0,75,0,0
113193,-149.253731343284,4,1,0,75,0,0
116193,-100,4,1,0,75,0,0
117930,-133.333333333333,4,1,0,75,0,0
118719,631.578947368421,4,1,0,50,1,0
118719,-66.6666666666667,4,1,0,50,0,0
119350,-66.6666666666667,4,1,0,5,0,0
119982,-52.6315789473684,4,1,0,40,0,0
120613,-52.6315789473684,4,1,0,5,0,0
121245,-52.6315789473684,4,1,0,30,0,0
121876,-52.6315789473684,4,1,0,5,0,0
122508,-125,4,1,0,20,0,0
124876,-200,4,1,0,20,0,0

[Colours]
Combo1 : 255,128,255
Combo2 : 255,0,0
Combo3 : 255,128,0
Combo4 : 255,255,0
Combo5 : 0,255,0
Combo6 : 0,255,255

[HitObjects]
120,320,7562,6,0,L|376:320,1,250
120,320,8036,2,0,L|248:320,1,125
120,320,8510,2,0,B|120:321|120:321|120:319|120:319|120:321|120:321|120:319|120:319|120:321|120:321|120:319|120:319|120:321|120:321|120:319|120:319|120:321|120:321|120:319|120:319|120:321|120:321,1,21.875,2|0,0:2|0:0,0:0:0:0:
152,288,8825,6,0,P|80:192|152:96,1,250
448,192,9299,1,0,0:0:0:0:
448,192,9457,2,0,L|320:192,1,125
256,352,10088,6,0,B|192:336|192:336|320:320|320:320|256:304,1,250,2|0,0:2|0:0,0:0:0:0:
256,304,10562,2,0,B|192:288|192:288|256:272|256:272,1,125
256,272,11194,2,2,L|320:256,1,62.5
324,256,11431,5,2,0:2:0:0:
320,260,11510,1,2,0:2:0:0:
316,256,11588,1,2,0:2:0:0:
320,252,11667,1,2,0:2:0:0:
188,128,11825,1,2,0:2:0:0:
192,124,11904,1,2,0:2:0:0:
196,128,11983,1,2,0:2:0:0:
192,132,12062,1,2,0:2:0:0:
192,128,12141,1,2,0:2:0:0:
192,128,12299,6,0,B|448:128|448:128|400:312,1,437.5
384,336,12615,6,0,L|128:336,1,250
32,192,13088,2,0,L|288:192,1,250
381,48,13562,2,0,L|253:48,1,125,2|2,0:0|0:2,0:0:0:0:
287,48,13799,1,2,0:2:0:0:
256,48,13878,6,0,B|352:120|256:192|256:192|184:192,1,250
256,48,14352,1,0,0:0:0:0:
194,285,14510,2,0,P|223:234|184:192,1,125
320,352,15141,6,0,P|290:301|330:258,1,125
256,352,15615,2,0,P|256:240|400:240,1,250
384,224,16088,1,0,0:0:0:0:
256,80,16246,2,0,L|200:112,1,62.5,4|4,0:3|0:3,0:0:0:0:
176,128,16404,5,4,0:0:0:0:
148,144,16483,1,2,0:2:0:0:
120,160,16562,1,2,0:2:0:0:
92,176,16641,1,2,0:2:0:0:
64,192,16720,1,2,0:2:0:0:
64,192,16878,1,4,0:0:0:0:
92,176,16957,1,2,0:2:0:0:
120,160,17036,1,2,0:2:0:0:
148,144,17115,1,2,0:2:0:0:
176,128,17194,1,2,0:2:0:0:
256,192,17352,2,0,P|256:176|264:192,1,43.75
256,192,17667,6,0,P|208:272|328:288,1,250,0|8,0:0|0:2,0:0:0:0:
323,295,18141,2,0,P|216:291|256:192,1,250,0|8,0:0|0:2,0:0:0:0:
272,256,18615,2,0,B|272:257|272:257|272:255|272:255|272:257|272:257|272:255|272:255|272:257|272:257|272:255|272:255|272:257|272:257|272:255|272:255|272:257|272:257|272:255|272:255|272:257|272:257,1,21.875,2|0,0:2|0:0,0:0:0:0:
272,257,18931,6,0,P|311:157|204:154,1,250,0|8,0:0|0:2,0:0:0:0:
256,192,19404,1,0,0:0:0:0:
256,192,19562,2,0,P|149:188|188:89,1,250
320,192,20194,6,0,B|368:224|384:296|384:296|416:240|488:240,1,250,2|8,0:2|0:2,0:0:0:0:
312,256,20667,2,0,B|360:288|376:360|376:360|408:304|480:304,1,250,0|8,0:0|0:2,0:0:0:0:
288,344,21299,2,2,B|272:312|240:288,1,62.5
224,276,21536,5,2,0:2:0:0:
196,260,21615,1,2,0:2:0:0:
164,256,21694,1,2,0:2:0:0:
132,264,21773,1,2,0:2:0:0:
132,120,21931,1,2,0:2:0:0:
164,128,22010,1,2,0:2:0:0:
196,124,22088,1,2,0:2:0:0:
224,108,22167,1,2,0:2:0:0:
240,84,22246,2,0,B|248:52|284:44,1,62.5,2|2,0:2|0:2,0:0:0:0:
256,192,22562,1,2,0:2:0:0:
416,320,22720,6,0,P|344:256|392:128,1,250,2|8,0:2|0:2,0:0:0:0:
256,352,23194,2,0,L|256:96,1,250,0|8,0:0|0:2,0:0:0:0:
95,319,23667,2,0,P|151:279|159:223,1,125,2|2,0:0|0:2,0:0:0:0:
159,257,23904,1,2,0:2:0:0:
160,227,23983,6,0,B|288:227|288:227|272:304|344:320,1,250,0|8,0:0|0:2,0:0:0:0:
176,160,24457,1,0,0:0:0:0:
350,249,24615,2,0,B|376:192|320:160|320:160|176:160,1,250
256,352,25088,2,0,B|252:344|252:344|260:344|260:344|252:336|252:336|260:336|260:336|252:328|252:328|260:328|260:328|252:320|252:320|260:320|260:320|252:312|252:312|256:312|256:312|256:276,1,125
352,192,25562,5,8,0:2:0:0:
160,192,25720,2,0,B|224:160|256:112|256:112|272:144|352:192,1,250,0|8,0:0|0:2,0:0:0:0:
256,112,26194,2,0,B|272:136|304:160,1,62.5,0|8,0:0|0:2,0:0:0:0:
324,176,26431,1,8,0:2:0:0:
352,192,26510,1,12,0:2:0:0:
160,192,26667,5,4,0:2:0:0:
352,192,26825,1,12,0:2:0:0:
160,192,26983,2,0,B|224:160|256:112|255:112,1,125,4|8,0:2|0:2,0:0:0:0:
160,192,27457,1,4,0:2:0:0:
256,352,27773,1,4,0:2:0:0:
256,184,29036,70,0,L|256:56,1,125
360,64,29667,22,0,L|360:192,1,125,0|0,0:0|0:0,0:0:0:0:
152,192,30299,22,0,L|152:67,1,125
464,96,31562,70,0,L|464:288,1,187.500007152558
256,288,32194,54,0,L|256:100,1,187.500007152558
48,96,32825,54,0,L|48:284,1,187.500007152558
256,184,34088,37,0,0:0:0:0:
264,192,34167,1,0,0:0:0:0:
256,200,34246,1,0,0:0:0:0:
248,192,34325,1,0,0:0:0:0:
256,184,34404,1,0,0:0:0:0:
264,192,34483,1,0,0:0:0:0:
256,200,34562,1,0,0:0:0:0:
248,192,34641,1,0,0:0:0:0:
256,184,34720,1,0,0:0:0:0:
264,192,34799,1,0,0:0:0:0:
256,200,34878,1,0,0:0:0:0:
248,192,34957,1,0,0:0:0:0:
256,192,35036,2,0,L|256:320,1,125
256,317,35351,6,2,B|256:285|256:285|256:293|256:293|256:269|256:269|256:277|256:277|256:253|256:253|256:261|256:261|256:237|256:237|256:245|256:245|256:221|256:221|256:229|256:229|256:205|256:205|256:213|256:213|256:189|256:189|256:197|256:197|256:173,1,250
192,96,36141,2,0,P|176:128|136:136,1,77.4999969253541,4|0,0:0|0:0,0:0:0:0:
320,96,36456,2,0,P|336:136|384:144,1,93.7500035762788,0|4,0:0|0:0,0:0:0:0:
192,288,36772,2,0,P|160:240|112:232,1,108.750000912666
320,288,37088,2,0,P|352:232|408:232,1,125,0|8,0:0|0:2,0:0:0:0:
256,352,37404,2,2,L|256:192,1,156.25,2|0,0:0|0:0,0:0:0:0:
256,160,37877,6,0,L|384:160,1,125,4|0,0:0|0:0,0:0:0:0:
440,160,38193,1,8,0:2:0:0:
160,256,38351,2,0,L|288:256,1,125,4|0,0:3|0:0,0:0:0:0:
256,160,38667,1,8,0:2:0:0:
160,64,38825,2,0,L|288:64,2,125,0|0|4,0:0|0:0|0:3,0:0:0:0:
222,256,39298,1,2,0:2:0:0:
192,256,39377,1,2,0:2:0:0:
160,256,39456,2,0,L|288:256,1,125,8|4,0:2|0:3,0:0:0:0:
160,256,39772,2,0,B|288:256|288:256|288:128,1,250,4|4,0:3|0:3,0:0:0:0:
288,64,40562,5,0,0:0:0:0:
288,256,40719,2,0,L|288:128,1,125,8|4,0:2|0:3,0:0:0:0:
416,320,41035,2,0,L|416:192,1,125,0|8,0:0|0:2,0:0:0:0:
144,320,41351,1,0,0:0:0:0:
144,195,41509,1,2,0:0:0:0:
144,320,41667,2,0,L|144:192,2,125,2|0|8,0:0|0:0|0:2,0:0:0:0:
144,195,42141,1,4,0:3:0:0:
144,320,42298,2,0,B|144:192|144:192|256:112,1,250,4|4,0:3|0:3,0:0:0:0:
288,88,43088,5,0,0:0:0:0:
256,224,43246,2,0,L|384:128,1,125,8|4,0:2|0:3,0:0:0:0:
288,320,43562,2,0,L|416:224,1,125,0|8,0:0|0:2,0:0:0:0:
160,160,43877,2,2,L|288:64,1,125,2|2,0:0|0:2,0:0:0:0:
236,103,44114,1,0,0:2:0:0:
260,85,44193,2,0,L|160:160,2,125,4|0|8,0:3|0:0|0:2,0:0:0:0:
160,320,44667,1,4,0:3:0:0:
288,224,44825,2,0,B|384:152|384:152|384:288,1,250,4|4,0:3|0:3,0:0:0:0:
480,192,45614,6,0,L|480:320,2,125,0|8|0,0:0|0:2|0:0,0:0:0:0:
256,32,46088,2,0,L|256:160,1,125
128,128,46404,2,0,L|128:256,1,125,8|0,0:2|0:0,0:0:0:0:
384,96,46719,1,0,0:0:0:0:
256,256,46877,1,4,0:3:0:0:
384,96,47035,2,0,L|384:224,1,125,8|0,0:2|0:0,0:0:0:0:
128,128,47351,2,0,L|128:256,1,125,4|0,0:3|0:0,0:0:0:0:
192,64,47667,1,8,0:2:0:0:
192,320,47825,1,0,0:0:0:0:
336,120,47983,5,2,0:2:0:0:
96,192,48141,1,8,0:2:0:0:
336,264,48298,1,8,0:2:0:0:
192,64,48456,1,2,0:2:0:0:
224,224,48772,6,0,B|232:224|232:224|248:224|248:224|240:224|240:224|256:224|256:224|248:224|248:224|264:224|264:224|256:224|256:224|272:224|272:224|264:224|264:224|280:224|280:224|272:224|272:224|288:224|288:224|280:224|280:224|296:224|296:224|280:224|280:224|304:224|304:224|288:224|288:224|312:224|312:224|320:224|320:224|316:230|316:230|308:244|308:244|312:237|312:237|304:251|304:251|308:244|308:244|300:258|300:258|304:251|304:251|296:265|296:265|300:258|300:258|292:272|292:272|296:265|296:265|288:279|288:279|292:272|292:272|284:286|284:286|292:272|292:272|280:293|280:293|288:279|288:279|276:300|276:300|272:307|272:307|264:307|264:307|248:307|248:307|256:307|256:307|240:307|240:307|248:307|248:307|232:307|232:307|240:307|240:307|224:307|224:307|232:307|232:307|216:307|216:307|224:307|224:307|208:307|208:307|216:307|216:307|200:307|200:307|216:307|216:307|192:307|192:307|208:307|208:307|184:307|184:307|176:307|176:307|163:286|163:286|168:293|168:293|156:272|156:272|159:279|159:279|148:258|148:258|152:265|152:265|140:244|140:244|144:251|144:251|132:230|132:230|136:237|136:237|124:216|124:216|127:223|127:223|116:203|116:203|120:210|120:210|108:189|108:189|111:196|111:196|108:189|108:189|120:168|120:168|116:175|116:175|128:154|128:154|124:161|124:161|136:140|136:140|132:147|132:147|144:126|144:126|140:133|140:133|152:112|152:112|148:119|148:119|160:98|160:98|156:106|156:106|168:85|168:85|164:92|164:92|176:71|176:71|172:78|172:78|176:71|176:71|200:71|200:71|192:71|192:71|216:71|216:71|208:71|208:71|232:71|232:71|224:71|224:71|248:71|248:71|239:71|239:71|264:71|264:71|256:71|256:71|280:71|280:71|272:71|272:71|296:71|296:71|288:71|288:71|312:71|312:71|304:71|304:71|312:71|312:71|438:289|438:289|438:289,1,1750
368,296,50035,2,2,L|336:352,1,62.5
256,192,50509,5,4,0:0:0:0:
144,296,50667,2,0,L|160:320|192:336,1,62.5,2|0,0:2|0:0,0:0:0:0:
96,352,50825,2,0,P|72:288|112:232,1,125,6|0,0:2|0:0,0:0:0:0:
124,224,51062,1,2,0:2:0:0:
152,212,51141,2,0,P|177:157|164:124,1,93.75,2|0,0:2|0:0,0:0:0:0:
150,102,51298,2,0,P|136:86|99:88,4,31.25,2|2|2|0|0,0:2|0:2|0:2|0:0|0:0,0:0:0:0:
256,256,51614,1,6,0:2:0:0:
385,112,51772,6,0,P|392:101|416:96,3,31.25
373,141,51930,1,0,0:0:0:0:
375,171,52009,1,0,0:0:0:0:
388,200,52088,1,0,0:0:0:0:
408,223,52167,1,0,0:0:0:0:
429,245,52246,1,0,0:0:0:0:
447,270,52325,1,0,0:0:0:0:
448,301,52404,1,0,0:0:0:0:
431,326,52483,1,0,0:0:0:0:
402,337,52562,1,0,0:0:0:0:
371,329,52641,1,0,0:0:0:0:
346,310,52719,6,0,L|334:295,6,15.625
256,256,52877,2,8,L|252:294,3,31.25
174,308,53035,2,0,B|159:301|159:301|157:320,1,31.25
32,160,53193,6,0,P|48:172|68:176,3,31.25,0|0|0|0,0:0|0:0|0:0|0:0,0:0:0:0:
40,124,53351,1,0,0:0:0:0:
60,100,53430,1,0,0:0:0:0:
84,75,53509,2,0,P|112:59|144:59,1,62.5,2|2,0:2|0:2,0:0:0:0:
160,136,53667,2,0,P|196:136|224:152,1,62.5
197,222,53825,1,2,0:2:0:0:
228,224,53904,1,0,0:0:0:0:
260,216,53983,2,2,P|292:160|272:104,1,125
416,40,54298,5,0,3:3:0:0:
384,72,54377,1,0,3:3:0:0:
352,104,54456,1,0,3:3:0:0:
384,136,54535,1,0,3:3:0:0:
416,152,54614,5,0,3:3:0:0:
448,184,54693,1,0,3:3:0:0:
480,216,54772,1,0,3:3:0:0:
448,248,54851,1,0,3:3:0:0:
416,264,54930,6,0,P|343:298|287:301,1,125
279,302,55127,2,0,P|259:302|239:298,2,31.25,2|2|2,0:2|0:2|0:2,0:0:0:0:
227,294,55246,2,0,P|195:294|167:306,1,62.5,2|2,0:2|0:2,0:0:0:0:
111,242,55404,2,0,P|95:274|95:302,1,62.5,2|2,0:2|0:2,0:0:0:0:
49,98,55562,6,0,B|97:98|97:98|129:146|129:146|209:146,1,140.625005364418
308,148,55877,6,0,P|292:116|260:92,1,62.5,2|0,0:2|0:0,0:0:0:0:
336,232,56035,2,0,P|353:259|388:284,1,62.5,2|0,0:2|0:0,0:0:0:0:
264,204,56193,2,0,P|232:220|208:252,1,62.5,2|0,0:2|0:0,0:0:0:0:
376,172,56351,2,0,P|408:156|432:124,1,62.5,2|0,0:2|0:0,0:0:0:0:
280,268,56509,2,0,P|277:303|293:340,1,62.5,2|0,0:2|0:0,0:0:0:0:
360,108,56667,2,0,P|362:72|346:35,1,62.5,2|0,0:2|0:0,0:0:0:0:
352,292,56825,6,2,P|408:292|464:252,1,125,2|0,0:0|0:0,0:0:0:0:
480,228,57062,1,0,0:0:0:0:
480,196,57141,1,0,0:0:0:0:
368,352,57298,2,2,P|304:352|240:328,1,125,2|0,0:0|0:0,0:0:0:0:
220,316,57496,2,0,P|208:304|200:288,2,31.25,2|2|2,0:2|0:2|0:2,0:0:0:0:
156,352,57614,2,0,P|132:320|124:296,1,62.5
48,305,57772,2,0,B|48:225|256:137|0:57|-64:265|176:225,1,375.000014305115,0|2,0:0|0:2,0:0:0:0:
179,75,58246,5,0,0:0:0:0:
195,43,58325,1,2,0:2:0:0:
211,75,58404,2,0,P|259:75|291:43,1,93.7500035762788
400,48,58562,1,0,0:0:0:0:
384,80,58641,1,0,0:0:0:0:
400,112,58719,1,0,0:0:0:0:
384,144,58798,1,0,0:0:0:0:
400,176,58877,1,0,0:0:0:0:
384,208,58956,1,0,0:0:0:0:
400,240,59035,6,0,L|388:278,6,31.25
288,264,59193,2,0,L|304:283,6,15.625
240,352,59351,2,4,L|208:352,1,31.25
152,192,59509,6,0,L|75:191,2,70.3125026822091
224,176,59667,2,0,P|208:136|160:112,1,93.7500035762788,2|2,0:2|0:2,0:0:0:0:
288,264,59825,2,0,P|304:304|352:328,1,93.7500035762788,2|2,0:2|0:2,0:0:0:0:
168,264,59983,2,0,P|127:280|103:328,1,93.7500035762788,2|2,0:2|0:2,0:0:0:0:
320,144,60141,1,4,0:3:0:0:
240,352,60298,2,0,P|320:352|352:328,1,109.375,6|0,0:2|0:0,0:0:0:0:
368,312,60614,6,0,P|408:296|456:312,2,93.7500035762788,0|0|0,0:0|0:0|0:0,0:0:0:0:
320,232,61088,2,0,P|354:206|405:209,2,93.7500035762788,0|0|0,0:0|0:0|0:0,0:0:0:0:
240,288,61562,2,0,P|197:293|154:265,2,93.7500035762788,0|0|0,0:0|0:0|0:0,0:0:0:0:
216,192,62035,2,0,P|176:175|153:129,2,93.7500035762788,0|0|0,0:0|0:0|0:0,0:0:0:0:
312,192,62509,6,0,P|456:168|296:168,2,500,0|0|0,0:0|0:0|0:0,0:0:0:0:
80,80,63456,5,0,0:0:0:0:
80,288,63614,2,0,P|144:192|256:344,1,375
384,352,64246,2,0,L|424:336,3,41.6666666666667,0|0|0|0,0:0|0:0|0:0|0:0,0:0:0:0:
448,88,64719,6,0,B|448:168|376:168|376:168|378:168|378:168|374:168|374:168|378:168|378:168|374:168|374:168|378:168|378:168|374:168|374:168|378:168|378:168|374:168|374:168|378:168|378:168|374:168|374:168|378:168|378:168|374:168|374:168|378:168|378:168|374:168|374:168|378:168|378:168|374:168|374:168|378:168|378:168|374:168|374:168|378:168|378:168|374:168|374:168|378:168|378:168|374:168|374:168|378:168|378:168|374:168|374:168|378:168|378:168|374:168|374:168|378:168|378:168|374:168|374:168|378:168|378:168|374:168|374:168|378:168|378:168|374:168|374:168|378:168|378:168|374:168|374:168|378:168|378:168|374:168|374:168|378:168|378:168|374:168|374:168|378:168|378:168|374:168|374:168|378:168|378:168|374:168|374:168|378:168|378:168|374:168|374:168|378:168|378:168|374:168|374:168|378:168|378:168|374:168|374:168|378:168|378:168|374:168|374:168|378:168|378:168|374:168|374:168|378:168|378:168|374:168|374:168|378:168|378:168|374:168|374:168|378:168|378:168|374:168|374:168|378:168|378:168|374:168|374:168|378:168|378:168|374:168|374:168|378:168|378:168|374:168|374:168|374:291|374:291|320:291|288:304|256:344,1,625
120,320,65667,5,2,0:2:0:0:
88,224,65825,1,2,0:2:0:0:
136,136,65983,1,10,0:2:0:0:
224,96,66141,2,0,P|360:152|360:240,1,250,2|8,0:2|0:2,0:0:0:0:
256,352,66930,6,0,L|208:304,1,62.5,2|0,0:2|0:0,0:0:0:0:
256,352,67088,2,0,L|304:304,1,62.5,2|0,0:2|0:0,0:0:0:0:
256,256,67246,1,10,0:2:0:0:
256,131,67404,1,2,0:2:0:0:
256,256,67562,2,0,L|256:128,2,125,0|0|8,0:0|0:0|0:2,0:0:0:0:
336,320,68193,5,2,0:2:0:0:
432,304,68351,1,2,0:2:0:0:
496,224,68509,1,10,0:2:0:0:
480,128,68667,2,0,P|448:64|288:64,1,250,2|8,0:2|0:2,0:0:0:0:
128,256,69298,2,2,P|152:280|184:288,1,62.5
192,288,69535,5,2,0:2:0:0:
184,296,69614,1,2,0:2:0:0:
176,288,69693,1,2,0:2:0:0:
184,280,69772,1,2,0:2:0:0:
288,288,69930,2,0,B|320:336|352:336|296:240|328:240|360:288,1,125,0|8,0:0|0:2,0:0:0:0:
349,274,70404,2,2,B|328:240|296:240|352:336|320:336|288:288,1,125
224,352,70719,5,0,0:0:0:0:
224,160,71035,1,0,0:0:0:0:
328,320,71351,1,0,0:0:0:0:
152,256,71667,1,0,0:0:0:0:
328,192,71983,1,0,0:0:0:0:
136,128,72298,1,0,0:0:0:0:
240,288,72614,1,0,0:0:0:0:
256,88,72930,1,0,0:0:0:0:
136,248,73246,5,0,0:0:0:0:
283,182,73404,1,0,0:0:0:0:
202,322,73562,1,0,0:0:0:0:
186,161,73719,1,0,0:0:0:0:
294,281,73877,1,0,0:0:0:0:
324,79,74035,1,0,0:0:0:0:
183,225,74193,1,0,0:0:0:0:
383,189,74351,1,0,0:0:0:0:
201,100,74509,2,2,P|170:100|200:152,1,125
201,100,74825,2,2,P|142:100|200:152,1,187.500007152558
201,100,75141,2,2,P|118:100|200:152,1,250
201,100,75456,2,0,P|176:80|144:80,1,62.5
128,320,75772,6,0,P|256:206|384:320,1,375.000014305115,4|0,0:2|0:0,0:0:0:0:
128,320,76246,2,0,P|256:206|384:320,1,375.000014305115,4|0,0:2|0:0,0:0:0:0:
384,320,76719,2,0,P|256:206|128:320,1,375.000014305115,4|0,0:2|0:0,0:0:0:0:
384,320,77193,2,0,P|256:206|128:320,1,375.000014305115,4|0,0:2|0:0,0:0:0:0:
128,320,77667,6,0,P|194:222|258:206,1,187.500007152558,4|0,0:2|0:0,0:0:0:0:
384,320,77983,2,0,P|256:206|128:320,1,375.000014305115,4|0,0:2|0:0,0:0:0:0:
256,208,78456,1,4,0:2:0:0:
384,320,78614,2,0,P|310:218|251:207,1,187.500007152558,4|0,0:2|0:0,0:0:0:0:
128,320,78930,2,0,B|144:192|312:168|368:272,2,281.250010728836,4|4|4,0:2|0:2|0:2,0:0:0:0:
342,238,79562,6,0,P|273:208|222:212,1,125,4|0,0:2|0:0,0:0:0:0:
384,320,80193,2,0,P|317:221|249:208,1,187.500007152558,4|4,0:2|0:2,0:0:0:0:
384,320,80825,5,4,0:2:0:0:
128,320,80983,2,0,P|194:222|263:207,1,187.500007152558,4|0,0:2|0:0,0:0:0:0:
128,320,81456,1,4,0:2:0:0:
384,320,81614,2,0,P|316:221|186:227,1,250,4|0,0:2|0:0,0:0:0:0:
384,320,82088,1,4,0:2:0:0:
127,320,82246,2,0,P|255:206|384:320,1,375.000014305115,4|4,0:2|0:2,0:0:0:0:
128,320,82877,6,0,P|160:248|192:224,1,104.166666666667,4|0,0:2|0:0,0:0:0:0:
208,216,83193,2,0,P|216:212|236:212,2,20.8333333333333,0|0|0,0:0|0:0|0:0,0:0:0:0:
260,208,83351,2,0,P|336:232|384:328,1,187.500007152558,4|0,0:2|0:0,0:0:0:0:
128,320,83983,2,0,B|141:189|307:184|345:244,2,281.250010728836,4|4|4,0:2|0:2|0:2,0:0:0:0:
383,323,84614,6,0,P|345:240|260:208,1,187.500007152558,4|0,0:2|0:0,0:0:0:0:
228,204,85009,1,0,0:0:0:0:
200,196,85088,1,0,0:0:0:0:
172,184,85167,1,0,0:0:0:0:
148,164,85246,2,0,P|124:140|112:112,1,62.5
204,88,85404,2,0,P|204:56|216:28,1,62.5
312,112,85562,2,0,P|336:92|368:92,1,62.5
332,212,85719,2,0,P|364:224|384:244,1,62.5
236,296,85877,2,0,P|220:320|188:336,1,62.5
100,208,86035,2,0,P|64:208|40:192,1,62.5
204,88,86193,2,0,P|228:112|236:140,1,62.5
236,296,86351,2,0,P|248:268|272:248,1,62.5
336,36,86509,2,0,P|344:68|364:92,1,62.5
388,308,86667,2,0,P|380:276|360:252,1,62.5
144,240,86825,2,0,P|172:216|204:208,1,62.5
396,148,86983,2,0,P|364:148|332:156,1,62.5
164,340,87141,2,0,P|180:312|189:280,1,62.5
224,32,87298,2,0,P|239:59|262:83,1,62.5
316,340,87456,2,0,P|300:312|290:280,1,62.5
80,148,87614,2,0,P|112:148|144:140,1,62.5
396,148,87772,1,4,0:2:0:0:
192,272,88404,6,0,P|64:272|40:168,1,250,4|8,0:2|0:2,0:0:0:0:
288,296,88877,2,0,P|250:186|134:195,1,250,0|8,0:0|0:2,0:0:0:0:
384,320,89351,2,0,B|384:321|384:321|384:319|384:319|384:321|384:321|384:319|384:319|384:321|384:321|384:319|384:319|384:321|384:321|384:319|384:319|384:321|384:321|384:319|384:319|384:321|384:321,1,21.875,2|0,0:2|0:0,0:0:0:0:
384,288,89667,6,0,B|352:232|352:232|416:232|416:232|352:168|416:120,1,250,0|8,0:0|0:2,0:0:0:0:
384,288,90141,1,0,0:0:0:0:
408,128,90298,2,0,B|352:176|424:240,1,125
417,234,90614,1,8,0:2:0:0:
256,320,90930,6,0,P|192:280|288:280,1,250,2|8,0:2|0:2,0:0:0:0:
256,320,91404,2,0,P|192:280|288:280,1,250,0|8,0:0|0:2,0:0:0:0:
256,320,91877,2,2,P|224:320|192:288,1,62.5
256,64,92193,6,0,P|192:104|288:104,1,250,0|8,0:0|0:2,0:0:0:0:
287,103,92667,2,0,P|202:140|256:64,1,250
256,256,93456,6,0,P|328:224|360:176,1,125,2|0,0:0|0:0,0:0:0:0:
416,80,93772,1,8,0:2:0:0:
384,288,93930,2,0,P|343:334|285:355,1,125,2|0,0:0|0:0,0:0:0:0:
64,192,94246,1,8,0:2:0:0:
128,296,94404,2,0,P|186:275|232:224,1,126.875003871918,2|0,0:0|0:0,0:0:0:0:
256,192,94719,6,0,P|304:158|352:192,1,125,2|0,0:0|0:0,0:0:0:0:
304,304,95035,1,8,0:2:0:0:
256,192,95193,2,0,P|304:158|352:192,2,125,2|0|0,0:0|0:0|0:0,0:0:0:0:
304,304,95667,1,8,0:2:0:0:
144,48,95983,6,2,B|48:128|48:128|168:112|168:272|48:256|48:256|144:336,1,500,2|0,0:0|0:0,0:0:0:0:
256,192,96930,2,0,L|320:192,1,62.5,8|10,0:2|0:2,0:0:0:0:
352,192,97167,1,10,0:2:0:0:
384,192,97246,1,14,0:2:0:0:
256,192,97404,6,0,L|384:192,1,125,6|14,0:2|0:2,0:0:0:0:
384,192,97719,2,0,L|256:192,1,125,6|10,0:2|0:2,0:0:0:0:
384,192,98193,1,6,0:2:0:0:
256,336,98509,6,0,P|136:336|64:232,1,250,4|8,0:2|0:2,0:0:0:0:
256,336,98983,2,0,P|376:336|448:232,1,250,0|8,0:0|0:2,0:0:0:0:
256,256,99456,2,0,L|256:235,1,21.875,2|0,0:2|0:0,0:0:0:0:
256,192,99772,6,0,B|381:192|381:192|256:192,1,250,0|8,0:0|0:2,0:0:0:0:
256,192,100246,1,0,0:0:0:0:
256,192,100404,2,0,B|131:192|131:192|256:192,1,250,0|8,0:0|0:2,0:0:0:0:
352,64,101035,6,0,P|352:160|512:160,1,250,2|8,0:2|0:2,0:0:0:0:
288,288,101509,2,0,P|352:288|352:336,1,125,0|8,0:0|0:2,0:0:0:0:
159,335,101983,2,2,P|168:279|224:288,1,125
352,336,102298,6,2,B|456:304|480:64|232:64|168:320|320:384|512:296|416:144|320:184,2,500,2|2|2,0:0|0:0|0:0,0:0:0:0:
64,192,103877,5,8,0:2:0:0:
136,120,104035,2,0,P|124:175|64:192,1,125,2|8,0:0|0:2,0:0:0:0:
136,120,104509,2,0,P|124:175|64:192,1,125,2|0,0:0|0:0,0:0:0:0:
376,120,104825,6,0,P|388:175|448:192,1,125,2|8,0:0|0:2,0:0:0:0:
376,120,105298,1,2,0:0:0:0:
448,191,105456,2,0,P|390:177|376:120,2,125,0|0|10,0:0|0:0|0:2,0:0:0:0:
376,120,105930,1,2,0:2:0:0:
256,336,106088,6,2,B|128:288|128:160|128:160|120:232|192:304,2,375
128,160,107193,2,0,L|128:168,2,6.25,10|10|10,0:2|0:2|0:2,0:0:0:0:
176,288,107509,5,2,0:2:0:0:
256,336,107667,1,10,0:2:0:0:
176,288,107825,2,0,B|208:320|256:336|256:336|128:288|128:160,1,326.250002737999,2|4,0:2|0:2,0:0:0:0:
480,192,108614,6,0,B|480:193|480:193|480:191|480:191|480:193|480:193|480:191|480:191|480:193|480:193|480:191|480:191|480:193|480:193|480:191|480:191|480:193|480:193|480:191|480:191|480:193|480:193|480:191|480:191|480:193|480:193|480:191|480:191|480:193|480:193|480:191|480:191|480:193|480:193|480:191|480:191|480:193|480:193|480:191|480:191|480:193|480:193|480:191|480:191|480:193|480:193|480:191|480:191|480:193|480:193|480:191|480:191|480:193|480:193|480:191|480:191|480:193|480:193|480:191|480:191|480:193|480:193|480:191|480:191|480:193|480:193|480:191|480:191|480:193|480:193|480:191|480:191|480:193|480:193|480:191|480:191|480:193|480:193|480:191|480:191|480:193|480:193|480:191|480:191|480:193|480:193|480:191|480:191|480:193|480:193|480:191|480:191|480:193|480:193|480:191|480:191|480:193|480:193|480:191|480:191|480:193|480:193|480:191|480:191|480:193|480:193|480:191|480:191|480:193|480:193|480:191|480:191|480:193|480:193|480:191|480:191|480:193|480:193|480:191|480:191|480:193|480:193|480:191|480:191|480:193|480:193|480:191|480:191|480:193|480:193|480:191|480:191|480:193|480:193|480:191|480:191|480:193|480:193|480:191|480:191|480:193|480:193|480:191|480:191|480:193|480:193|480:191|480:191|480:193|480:193|480:191|480:191|480:193|480:193|480:191|480:191|480:193|480:193|480:191|480:191|480:193|480:193|480:191|480:191|480:193|480:193|480:191|480:191|480:193|480:193|480:191|480:191|480:193|480:193|480:191|480:191|480:193|480:193|480:191|480:191|480:193|480:193|480:191|480:191|480:193|480:193|480:191|480:191|480:193|480:193|480:191|480:191|480:193|480:193|480:191|480:191|480:193|480:193|480:191|480:191|480:193|480:193|480:191|480:191|480:193|480:193|480:191|480:191|480:193|480:193|480:191|480:191|480:193|480:193|480:191|480:191|480:193|480:193|480:191|480:191|480:193|480:193|480:191|480:191|480:193|480:193|480:191|480:191|480:193|480:193|480:191|480:191|480:193|480:193|480:191|480:191|480:193|480:193|480:191|480:191|480:193|480:193|480:191|480:191|480:193|480:193|480:191|480:191|480:193|480:193|480:191|480:191|480:193|480:193|480:191|480:191|480:193|480:193|480:191|480:191|480:193|480:193|480:191|480:191|480:193|480:193|480:191|480:191|480:193|480:193|480:191|480:191|480:193|480:193|480:191|480:191|480:193|480:193|480:191|480:191|480:193|480:193|480:191|480:191|480:193|480:193|480:191|480:191|480:193|480:193|480:191|480:191|480:193|480:193|480:191|480:191|480:193|480:193|480:191|480:191|480:193|480:193|480:191|480:191|480:193|480:193|480:191|480:191|480:193|480:193|480:191|480:191|480:193|480:193|480:191|480:191|480:193|480:193|480:191|480:191|480:193|480:193|480:191|480:191|480:193|480:193|480:191|480:191|480:193|480:193|480:191|480:191|480:193|480:193|480:191|480:191|480:193|480:193|480:191|480:191|480:193|480:193|480:191|480:191|480:193|480:193|480:191|480:191|480:193|480:193|480:191|480:191|480:193|480:193|480:191|480:191|480:193|480:193|480:191|480:191|480:193|480:193|480:191|480:191|480:193|480:193|480:191|480:191|480:193|480:193|480:191|480:191|480:193|480:193|480:191|480:191|480:193|480:193|480:191|480:191|480:193|480:193|480:191|480:191|480:193|480:193|480:191|480:191|480:193|480:193|480:191|480:191|480:193|480:193|480:191|480:191|480:193|480:193|480:191|480:191|480:193|480:193|480:191|480:191|480:193|480:193|480:191|480:191|480:193|480:193|480:191|480:191|480:193|480:193|480:191|480:191|480:193|480:193|480:191|480:191|480:193|480:193|480:191|480:191|480:193|480:193|480:191|480:191|480:193|480:193|480:191|480:191|480:193|480:193|480:191|480:191|480:193|480:193|480:191|480:191|480:193|480:193|480:191|480:191|480:193|480:193|480:191|480:191|480:193|480:193|480:191|480:191|480:193|480:193|480:191|480:191|480:193|480:193|480:191|480:191|480:193|480:193|480:191|480:191|480:193|480:193|480:191|480:191|480:193|480:193|480:191|480:191|480:193|480:193|480:191|480:191|480:193|480:193|480:191|480:191|480:193|480:193|480:191|480:191|480:193|480:193|480:191|480:191|480:193|480:193|480:191|480:191|480:193|480:193|480:191|480:191|480:193|480:193|480:191|480:191|480:193|480:193|480:191|480:191|232:192|232:192,1,750,4|2,0:2|0:2,0:0:0:0:
104,96,109877,6,0,L|168:112,1,62.5,4|4,0:3|0:3,0:0:0:0:
376,128,110035,2,0,L|312:144,1,62.5,4|4,0:3|0:3,0:0:0:0:
72,192,110193,2,0,L|136:208,1,62.5,4|4,0:3|0:3,0:0:0:0:
408,224,110351,2,0,L|344:240,1,62.5,4|4,0:3|0:3,0:0:0:0:
40,288,110509,2,0,L|104:304,2,62.5,0|10|0,0:0|0:2|0:0,0:0:0:0:
256,64,111456,5,8,0:2:0:0:
288,320,111614,2,0,P|352:192|448:192,1,250,0|8,0:0|0:2,0:0:0:0:
224,320,112246,1,4,0:3:0:0:
224,320,112404,5,4,0:3:0:0:
225,288,112483,1,4,0:3:0:0:
219,257,112562,1,4,0:3:0:0:
205,228,112641,1,4,0:3:0:0:
183,205,112719,1,4,0:3:0:0:
156,189,112798,1,4,0:3:0:0:
125,182,112877,1,2,0:2:0:0:
93,182,112956,1,2,0:2:0:0:
67,190,113035,1,2,0:2:0:0:
224,320,113193,2,0,P|160:192|64:192,1,251.249988115311,8|0,0:2|0:0,0:0:0:0:
288,320,113983,5,8,0:2:0:0:
320,112,114141,2,0,B|296:192|296:192|360:192|360:248,1,167.499992076874,0|8,0:0|0:2,0:0:0:0:
224,192,114614,2,0,L|248:112,1,83.7499960384371,2|2,0:0|0:2,0:0:0:0:
239,141,114851,1,2,0:2:0:0:
248,111,114930,6,0,B|224:191|224:191|170:156|140:203,1,167.499992076874,0|8,0:0|0:2,0:0:0:0:
358,234,115404,1,0,0:0:0:0:
148,192,115562,2,0,P|168:272|96:280,1,167.499992076874,0|8,0:0|0:2,0:0:0:0:
368,352,116193,6,2,B|304:336|288:224|368:192|416:200|448:224|448:224|400:192|352:224|352:224|384:200|432:192|512:224|496:336|432:352,1,625,2|8,0:0|0:2,0:0:0:0:
256,336,117141,2,0,P|200:320|168:256,1,125,0|10,0:0|0:2,0:0:0:0:
164,232,117377,1,10,0:2:0:0:
164,200,117456,1,14,0:2:0:0:
64,336,117614,5,6,0:2:0:0:
256,336,117772,1,14,0:2:0:0:
64,336,117930,2,0,P|136:296|160:192,1,187.500007152558,6|8,0:2|0:2,0:0:0:0:
64,336,118404,1,6,0:2:0:0:
56,32,118719,6,0,B|24:264|24:264|168:264,1,375.000014305115,2|0,0:2|0:0,0:0:0:0:
144,192,119982,6,0,B|256:160|256:160|184:32|80:128|112:280|224:296|272:208,1,474.999987316132,2|0,0:2|0:0,0:0:0:0:
224,112,121245,6,0,B|352:112|352:240|320:288|224:288|192:256|192:176|256:144|304:160|312:208|312:208|336:240|368:256,1,474.999987316132,2|0,0:2|0:0,0:0:0:0:
480,48,122508,6,0,B|352:48|352:48|320:152|320:152|440:152|440:152|320:152|320:152|288:272,1,600,2|0,0:2|0:0,0:0:0:0:
464,288,124876,6,0,L|464:272,2,15.625
