osu file format v14

[General]
AudioFilename: audio.mp3
AudioLeadIn: 0
PreviewTime: 271260
Countdown: 0
SampleSet: Soft
StackLeniency: 0.7
Mode: 3
LetterboxInBreaks: 0
SpecialStyle: 0
WidescreenStoryboard: 0

[Editor]
Bookmarks: 42313,47365,110523,118892,135786,150944,166102,186313,196418,216628,221681,248839
DistanceSpacing: 0.6
BeatDivisor: 4
GridSize: 8
TimelineZoom: 2.300001

[Metadata]
Title:Evanescent
TitleUnicode:Evanescent
Artist:LeaF
ArtistUnicode:LeaF
Creator:JamesHappy
Version:Inspire
Source:BMS
Tags:doppelganger solo album c94 post drum'n'bass sen-goku 戦國 bof of fighters
BeatmapID:1779424
BeatmapSetID:851198

[Difficulty]
HPDrainRate:8.3
CircleSize:4
OverallDifficulty:7.7
ApproachRate:5
SliderMultiplier:1.4
SliderTickRate:1

[Events]
//Background and Video events
0,0,"Fractal.jpg",0,0
//Break Periods
2,226934,244481
//Storyboard Layer 0 (Background)
//Storyboard Layer 1 (Fail)
//Storyboard Layer 2 (Pass)
//Storyboard Layer 3 (Foreground)
//Storyboard Sound Samples

[TimingPoints]
1892,315.789473684211,4,1,0,18,1,0
5681,-19.3798,4,2,0,5,0,0
5744.15,-20.1939,4,2,0,5,0,0
5807.3,-21.0793,4,2,0,5,0,0
5870.45,-22.0459,4,2,0,5,0,0
5933.6,-23.1054,4,2,0,5,0,0
5996.75,-24.2718,4,2,0,5,0,0
6059.9,-25.5624,4,2,0,5,0,0
6123.05,-26.9978,4,2,0,5,0,0
6186.2,-28.6041,4,2,0,5,0,0
6249.35,-30.4136,4,2,0,5,0,0
6312.5,-32.4675,4,2,0,5,0,0
6375.65,-34.8189,4,2,0,5,0,0
6438.8,-37.5375,4,2,0,5,0,0
6501.95,-40.7166,4,2,0,5,0,0
6565.1,-44.484,4,2,0,5,0,0
6628.25,-49.0196,4,2,0,5,0,0
6691.4,-54.5852,4,2,0,5,0,0
6754.55,-61.5764,4,2,0,5,0,0
6817.7,-70.6215,4,2,0,5,0,0
6880.85,-82.7815,4,2,0,5,0,0
6944,-100,4,2,0,5,0,0
11681,-500,4,2,0,5,0,0
11839,-100,4,2,0,5,0,0
16734,-500,4,2,0,5,0,0
16892,-100,4,2,0,5,0,0
17839,-500,4,2,0,5,0,0
18076,-100,4,2,0,5,0,0
19260,-500,4,2,0,5,0,0
19418,-100,4,2,0,5,0,0
20365,-500,4,2,0,5,0,0
20523,-100,4,2,0,5,0,0
21628,-500,4,2,0,5,0,0
21865,-100,4,2,0,5,0,0
22892,-500,4,2,0,5,0,0
23128,-100,4,2,0,5,0,0
24313,-500,4,2,0,5,0,0
24470,-100,4,2,0,5,0,0
26839,-500,4,2,0,5,0,0
26997,-100,4,2,0,5,0,0
27155,-133.333333333333,4,2,0,5,0,0
42313,-100,4,2,0,5,0,0
46260,-500,4,2,0,5,0,0
46418,-100,4,2,0,5,0,0
47049,-500,4,2,0,5,0,0
47207,-100,4,2,0,5,0,0
48944,-100,4,2,0,5,0,0
48975.6,-88.1172,4,2,0,5,0,0
49007.2,-88.4632,4,2,0,5,0,0
49038.8,-71.2207,4,2,0,5,0,0
49070.4,-79.254,4,2,0,5,0,0
49102,-59.8117,4,2,0,5,0,0
49133.6,-71.6854,4,2,0,5,0,0
49165.2,-51.6149,4,2,0,5,0,0
49196.8,-65.3181,4,2,0,5,0,0
49228.4,-45.4602,4,2,0,5,0,0
49260,-59.8592,4,2,0,5,0,0
49291.6,-40.6837,4,2,0,5,0,0
49323.2,-55.1071,4,2,0,5,0,0
49354.8,-36.8811,4,2,0,5,0,0
49386.4,-50.9188,4,2,0,5,0,0
49418,-33.7919,4,2,0,5,0,0
49449.6,-47.1907,4,2,0,5,0,0
49481.2,-31.2406,4,2,0,5,0,0
49512.8,-43.8462,4,2,0,5,0,0
49544.4,-29.1046,4,2,0,5,0,0
49576,-500,4,1,0,18,0,0
49734,-100,4,1,0,18,0,0
50681,-500,4,1,0,18,0,0
50918,-100,4,1,0,18,0,0
53207,-500,4,1,0,18,0,0
53365,-100,4,1,0,18,0,0
54628,-50,4,2,0,5,0,0
54659.6,-55.2486,4,2,0,5,0,0
54691.2,-61.7284,4,2,0,5,0,0
54722.8,-69.9301,4,2,0,5,0,0
54754.4,-80.6452,4,2,0,5,0,0
54786,-95.2381,4,2,0,5,0,0
54817.6,-116.279,4,2,0,5,0,0
54849.2,-149.254,4,2,0,5,0,0
54880.8,-208.333,4,2,0,5,0,0
54912.4,-344.828,4,2,0,5,0,0
54944,-100,4,2,0,5,0,0
58260,-500,4,2,0,5,0,0
58418,-100,4,2,0,5,0,0
60786,-500,4,2,0,5,0,0
61023,-100,4,2,0,5,0,0
62207,-500,4,2,0,5,0,0
62365,-100,4,2,0,5,0,0
63313,-500,4,2,0,5,0,0
63470,-100,4,2,0,5,0,0
64734,-50,4,2,0,5,0,0
64765.5,-55.2486,4,2,0,5,0,0
64797,-61.7284,4,2,0,5,0,0
64828.5,-69.9301,4,2,0,5,0,0
64860,-80.6452,4,2,0,5,0,0
64891.5,-95.2381,4,2,0,5,0,0
64923,-116.279,4,2,0,5,0,0
64954.5,-149.254,4,2,0,5,0,0
64986,-208.333,4,2,0,5,0,0
65017.5,-344.828,4,2,0,5,0,0
65049,-100,4,2,0,5,0,0
68365,-500,4,2,0,5,0,0
68523,-100,4,2,0,5,0,0
69786,-500,4,2,0,5,0,0
69944,-100,4,2,0,5,0,0
70892,-500,4,2,0,5,0,0
71128,-100,4,2,0,5,0,0
73418,-500,4,2,0,5,0,0
73576,-100,4,2,0,5,0,0
74839,-50,4,2,0,5,0,0
74870.6,-55.2486,4,2,0,5,0,0
74902.2,-61.7284,4,2,0,5,0,0
74933.8,-69.9301,4,2,0,5,0,0
74965.4,-80.6452,4,2,0,5,0,0
74997,-95.2381,4,2,0,5,0,0
75028.6,-116.279,4,2,0,5,0,0
75060.2,-149.254,4,2,0,5,0,0
75091.8,-208.333,4,2,0,5,0,0
75123.4,-344.828,4,2,0,5,0,0
75155,-100,4,2,0,5,0,0
78470,-500,4,2,0,5,0,0
78628,-100,4,2,0,5,0,0
87786,-1000,4,2,0,5,0,0
87865,-606.061,4,2,0,5,0,0
87944,-434.783,4,2,0,5,0,0
88023,-338.983,4,2,0,5,0,0
88102,-277.778,4,2,0,5,0,0
88181,-235.294,4,2,0,5,0,0
88260,-204.082,4,2,0,5,0,0
88339,-180.18,4,2,0,5,0,0
88418,-161.29,4,2,0,5,0,0
88497,-145.985,4,2,0,5,0,0
88576,-133.333,4,2,0,5,0,0
90313,-100,4,2,0,5,0,0
91260,-133.333333333333,4,1,0,18,0,0
91576,-100,4,1,0,18,0,0
92523,-500,4,1,0,18,0,0
92681,-100,4,1,0,18,0,0
93628,-500,4,1,0,18,0,0
93786,-100,4,1,0,18,0,0
95049,-50,4,2,0,5,0,0
95080.6,-55.2486,4,2,0,5,0,0
95112.2,-61.7284,4,2,0,5,0,0
95143.8,-69.9301,4,2,0,5,0,0
95175.4,-80.6452,4,2,0,5,0,0
95207,-95.2381,4,2,0,5,0,0
95238.6,-116.279,4,2,0,5,0,0
95270.2,-149.254,4,2,0,5,0,0
95301.8,-208.333,4,2,0,5,0,0
95333.4,-344.828,4,2,0,5,0,0
95365,-100,4,2,0,5,0,0
97576,-500,4,1,0,18,0,0
97734,-100,4,1,0,18,0,0
100102,-500,4,1,0,18,0,0
100260,-100,4,1,0,18,0,0
101365,-133.333333333333,4,1,0,18,0,0
101681,-100,4,1,0,18,0,0
102628,-500,4,1,0,18,0,0
102786,-100,4,1,0,18,0,0
103734,-500,4,1,0,18,0,0
103892,-100,4,1,0,18,0,0
105155,-50,4,2,0,5,0,0
105187,-55.2486,4,2,0,5,0,0
105218,-61.7284,4,2,0,5,0,0
105250,-69.9301,4,2,0,5,0,0
105281,-80.6452,4,2,0,5,0,0
105313,-95.2381,4,2,0,5,0,0
105344,-116.279,4,2,0,5,0,0
105376,-149.254,4,2,0,5,0,0
105407,-208.333,4,2,0,5,0,0
105439,-344.828,4,2,0,5,0,0
105470,-100,4,2,0,5,0,0
107681,-500,4,1,0,18,0,0
107839,-100,4,1,0,18,0,0
110207,-500,4,1,0,18,0,0
110365,-100,4,1,0,18,0,0
110523,-133.333333333333,4,1,0,18,0,0
111313,-526.316,4,2,0,5,0,0
111353,-55.2486,4,2,0,5,0,0
111392,-526.316,4,2,0,5,0,0
111431,-55.2486,4,2,0,5,0,0
111470,-526.316,4,2,0,5,0,0
111510,-55.2486,4,2,0,5,0,0
111549,-526.316,4,2,0,5,0,0
111589,-55.2486,4,2,0,5,0,0
111628,-526.316,4,2,0,5,0,0
111668,-55.2486,4,2,0,5,0,0
111707,-526.316,4,2,0,5,0,0
111747,-55.2486,4,2,0,5,0,0
111786,-526.316,4,2,0,5,0,0
111826,-55.2486,4,2,0,5,0,0
111865,-526.316,4,2,0,5,0,0
111905,-55.2486,4,2,0,5,0,0
111944,-526.316,4,2,0,5,0,0
111984,-55.2486,4,2,0,5,0,0
112023,-526.316,4,2,0,5,0,0
112063,-55.2486,4,2,0,5,0,0
112102,-526.316,4,2,0,5,0,0
112142,-55.2486,4,2,0,5,0,0
112181,-526.316,4,2,0,5,0,0
112221,-55.2486,4,2,0,5,0,0
112260,-526.316,4,2,0,5,0,0
112300,-55.2486,4,2,0,5,0,0
112339,-526.316,4,2,0,5,0,0
112379,-55.2486,4,2,0,5,0,0
112418,-526.316,4,2,0,5,0,0
112458,-55.2486,4,2,0,5,0,0
112497,-526.316,4,2,0,5,0,0
112537,-55.2486,4,2,0,5,0,0
112576,-526.316,4,2,0,5,0,0
112616,-55.2486,4,2,0,5,0,0
112655,-526.316,4,2,0,5,0,0
112695,-55.2486,4,2,0,5,0,0
112734,-100,4,2,0,5,0,0
113049,-133.333333333333,4,2,0,5,0,0
113839,-526.316,4,2,0,5,0,0
113879,-55.2486,4,2,0,5,0,0
113918,-526.316,4,2,0,5,0,0
113958,-55.2486,4,2,0,5,0,0
113997,-526.316,4,2,0,5,0,0
114037,-55.2486,4,2,0,5,0,0
114076,-526.316,4,2,0,5,0,0
114116,-55.2486,4,2,0,5,0,0
114155,-526.316,4,2,0,5,0,0
114195,-55.2486,4,2,0,5,0,0
114234,-526.316,4,2,0,5,0,0
114274,-55.2486,4,2,0,5,0,0
114313,-526.316,4,2,0,5,0,0
114353,-55.2486,4,2,0,5,0,0
114392,-526.316,4,2,0,5,0,0
114431,-55.2486,4,2,0,5,0,0
114470,-526.316,4,2,0,5,0,0
114510,-55.2486,4,2,0,5,0,0
114549,-100,4,2,0,5,0,0
115576,-133.333333333333,4,2,0,5,0,0
116365,-526.316,4,2,0,5,0,0
116405,-55.2486,4,2,0,5,0,0
116444,-526.316,4,2,0,5,0,0
116484,-55.2486,4,2,0,5,0,0
116523,-526.316,4,2,0,5,0,0
116563,-55.2486,4,2,0,5,0,0
116602,-526.316,4,2,0,5,0,0
116642,-55.2486,4,2,0,5,0,0
116681,-526.316,4,2,0,5,0,0
116721,-55.2486,4,2,0,5,0,0
116760,-526.316,4,2,0,5,0,0
116800,-55.2486,4,2,0,5,0,0
116839,-526.316,4,2,0,5,0,0
116879,-55.2486,4,2,0,5,0,0
116918,-526.316,4,2,0,5,0,0
116958,-55.2486,4,2,0,5,0,0
116997,-526.316,4,2,0,5,0,0
117037,-55.2486,4,2,0,5,0,0
117076,-526.316,4,2,0,5,0,0
117116,-55.2486,4,2,0,5,0,0
117155,-526.316,4,2,0,5,0,0
117195,-55.2486,4,2,0,5,0,0
117234,-526.316,4,2,0,5,0,0
117274,-55.2486,4,2,0,5,0,0
117313,-526.316,4,2,0,5,0,0
117353,-55.2486,4,2,0,5,0,0
117392,-526.316,4,2,0,5,0,0
117431,-55.2486,4,2,0,5,0,0
117470,-526.316,4,2,0,5,0,0
117510,-55.2486,4,2,0,5,0,0
117549,-526.316,4,2,0,5,0,0
117589,-55.2486,4,2,0,5,0,0
117628,-526.316,4,2,0,5,0,0
117668,-55.2486,4,2,0,5,0,0
117707,-526.316,4,2,0,5,0,0
117747,-55.2486,4,2,0,5,0,0
117786,-100,4,2,0,5,0,0
125365,-50,4,2,0,5,0,0
125397,-55.2486,4,2,0,5,0,0
125428,-61.7284,4,2,0,5,0,0
125460,-69.9301,4,2,0,5,0,0
125491,-80.6452,4,2,0,5,0,0
125523,-95.2381,4,2,0,5,0,0
125555,-116.279,4,2,0,5,0,0
125586,-149.254,4,2,0,5,0,0
125618,-208.333,4,2,0,5,0,0
125649,-344.828,4,2,0,5,0,0
125681,-100,4,2,0,5,0,0
129234,-250,4,2,0,5,0,0
129352,-62.5,4,2,0,5,0,0
129470,-250,4,2,0,5,0,0
129549,-62.5,4,2,0,5,0,0
129628,-250,4,2,0,5,0,0
129747,-62.5,4,2,0,5,0,0
129865,-250,4,2,0,5,0,0
129984,-62.5,4,2,0,5,0,0
130102,-250,4,2,0,5,0,0
130260,-62.5,4,2,0,5,0,0
130418,-250,4,2,0,5,0,0
130576,-62.5,4,2,0,5,0,0
130734,-100,4,2,0,5,0,0
133260,-200,4,2,0,5,0,0
133339,-66.6667,4,2,0,5,0,0
133418,-200,4,2,0,5,0,0
133497,-66.6667,4,2,0,5,0,0
133576,-200,4,2,0,5,0,0
133655,-66.6667,4,2,0,5,0,0
133734,-100,4,2,0,5,0,0
134049,-133.333333333333,4,2,0,5,0,0
135786,-100,4,2,0,5,0,0
185997,-500,4,2,0,5,0,0
186155,-100,4,2,0,5,0,0
186313,-133.333333333333,4,2,0,5,0,0
188681,-500,4,2,0,5,0,0
188760,-100,4,2,0,5,0,0
188839,-133.333333333333,4,2,0,5,0,0
189944,-500,4,2,0,5,0,0
190023,-100,4,2,0,5,0,0
190102,-133.333333333333,4,2,0,5,0,0
193734,-500,4,2,0,5,0,0
193813,-100,4,2,0,5,0,0
193892,-133.333333333333,4,2,0,5,0,0
194997,-500,4,2,0,5,0,0
195076,-100,4,2,0,5,0,0
195155,-133.333333333333,4,2,0,5,0,0
195786,-20,4,2,0,5,0,0
195797,-21.398,4,2,0,5,0,0
195807,-23.0061,4,2,0,5,0,0
195818,-24.8756,4,2,0,5,0,0
195828,-27.0758,4,2,0,5,0,0
195839,-29.703,4,2,0,5,0,0
195849,-32.8947,4,2,0,5,0,0
195860,-36.855,4,2,0,5,0,0
195870,-41.8994,4,2,0,5,0,0
195881,-48.5437,4,2,0,5,0,0
195891,-57.6923,4,2,0,5,0,0
195902,-71.09,4,2,0,5,0,0
195912,-92.5926,4,2,0,5,0,0
195923,-132.743,4,2,0,5,0,0
195933,-234.375,4,2,0,5,0,0
195944,-500,4,2,0,5,0,0
196023,-100,4,2,0,5,0,0
196102,-500,4,2,0,5,0,0
196123,-394.737,4,2,0,5,0,0
196144,-326.087,4,2,0,5,0,0
196165,-277.778,4,2,0,5,0,0
196186,-241.935,4,2,0,5,0,0
196207,-214.286,4,2,0,5,0,0
196228,-192.308,4,2,0,5,0,0
196249,-174.419,4,2,0,5,0,0
196271,-159.574,4,2,0,5,0,0
196292,-147.059,4,2,0,5,0,0
196313,-136.364,4,2,0,5,0,0
196334,-127.119,4,2,0,5,0,0
196355,-119.048,4,2,0,5,0,0
196376,-111.94,4,2,0,5,0,0
196397,-105.634,4,2,0,5,0,0
196418,-100,4,2,0,5,0,0
197207,-500,4,2,0,5,0,0
197444,-100,4,2,0,5,0,0
198628,-500,4,2,0,5,0,0
198786,-100,4,2,0,5,0,0
199734,-500,4,2,0,5,0,0
199892,-100,4,2,0,5,0,0
201155,-50,4,2,0,5,0,0
201187,-55.2486,4,2,0,5,0,0
201218,-61.7284,4,2,0,5,0,0
201250,-69.9301,4,2,0,5,0,0
201281,-80.6452,4,2,0,5,0,0
201313,-95.2381,4,2,0,5,0,0
201344,-116.279,4,2,0,5,0,0
201376,-149.254,4,2,0,5,0,0
201407,-208.333,4,2,0,5,0,0
201439,-344.828,4,2,0,5,0,0
201470,-100,4,2,0,5,0,0
203681,-500,4,2,0,5,0,0
203839,-100,4,2,0,5,0,0
204786,-500,4,2,0,5,0,0
204944,-100,4,2,0,5,0,0
206207,-50,4,2,0,5,0,0
206223,-54.9451,4,2,0,5,0,0
206239,-60.9756,4,2,0,5,0,0
206254,-68.4932,4,2,0,5,0,0
206270,-78.125,4,2,0,5,0,0
206286,-90.9091,4,2,0,5,0,0
206302,-108.696,4,2,0,5,0,0
206318,-135.135,4,2,0,5,0,0
206333,-178.571,4,2,0,5,0,0
206349,-263.158,4,2,0,5,0,0
206365,-100,4,2,0,5,0,0
207313,-500,4,2,0,5,0,0
207549,-100,4,2,0,5,0,0
208734,-500,4,2,0,5,0,0
208892,-100,4,2,0,5,0,0
209839,-500,4,2,0,5,0,0
209997,-100,4,2,0,5,0,0
211260,-50,4,2,0,5,0,0
211292,-55.2486,4,2,0,5,0,0
211323,-61.7284,4,2,0,5,0,0
211355,-69.9301,4,2,0,5,0,0
211386,-80.6452,4,2,0,5,0,0
211418,-95.2381,4,2,0,5,0,0
211450,-116.279,4,2,0,5,0,0
211481,-149.254,4,2,0,5,0,0
211513,-208.333,4,2,0,5,0,0
211544,-344.828,4,2,0,5,0,0
211576,-100,4,2,0,5,0,0
213786,-500,4,2,0,5,0,0
213944,-100,4,2,0,5,0,0
214892,-500,4,2,0,5,0,0
215049,-100,4,2,0,5,0,0
215207,-153.846,4,2,0,5,0,0
215444,-74.0741,4,2,0,5,0,0
215681,-153.846,4,2,0,5,0,0
215839,-74.0741,4,2,0,5,0,0
215997,-153.846,4,2,0,5,0,0
216155,-74.0741,4,2,0,5,0,0
216313,-500,4,2,0,5,0,0
216470,-100,4,2,0,5,0,0
217418,-500,4,2,0,5,0,0
217655,-100,4,2,0,5,0,0
218839,-500,4,2,0,5,0,0
218997,-100,4,2,0,5,0,0
219944,-500,4,2,0,5,0,0
220102,-100,4,2,0,5,0,0
221365,-50,4,2,0,5,0,0
221397,-55.2486,4,2,0,5,0,0
221428,-61.7284,4,2,0,5,0,0
221460,-69.9301,4,2,0,5,0,0
221491,-80.6452,4,2,0,5,0,0
221523,-95.2381,4,2,0,5,0,0
221555,-116.279,4,2,0,5,0,0
221586,-149.254,4,2,0,5,0,0
221618,-208.333,4,2,0,5,0,0
221649,-344.828,4,2,0,5,0,0
221681,-100,4,2,0,5,0,0

[HitObjects]
64,192,6944,5,0,0:0:0:0:
192,192,6944,1,0,0:0:0:0:
192,192,7102,1,0,0:0:0:0:
320,192,7260,1,0,0:0:0:0:
320,192,7418,1,0,0:0:0:0:
448,192,7418,1,0,0:0:0:0:
192,192,7576,1,0,0:0:0:0:
64,192,7734,1,0,0:0:0:0:
320,192,7892,1,0,0:0:0:0:
64,192,8049,1,0,0:0:0:0:
192,192,8128,1,0,0:0:0:0:
448,192,8207,1,0,0:0:0:0:
320,192,8207,1,0,0:0:0:0:
320,192,8365,1,0,0:0:0:0:
192,192,8523,1,0,0:0:0:0:
64,192,8681,1,0,0:0:0:0:
192,192,8681,1,0,0:0:0:0:
320,192,8839,1,0,0:0:0:0:
64,192,8839,1,0,0:0:0:0:
448,192,8997,1,0,0:0:0:0:
192,192,9155,1,0,0:0:0:0:
448,192,9313,1,0,0:0:0:0:
320,192,9392,1,0,0:0:0:0:
64,192,9470,5,0,0:0:0:0:
192,192,9470,1,0,0:0:0:0:
192,192,9628,1,0,0:0:0:0:
320,192,9786,1,0,0:0:0:0:
448,192,9944,1,0,0:0:0:0:
320,192,9944,1,0,0:0:0:0:
192,192,10102,1,0,0:0:0:0:
64,192,10260,1,0,0:0:0:0:
192,192,10418,1,0,0:0:0:0:
320,192,10576,1,0,0:0:0:0:
448,192,10576,1,0,0:0:0:0:
320,192,10734,1,0,0:0:0:0:
448,192,10734,1,0,0:0:0:0:
320,192,10892,1,0,0:0:0:0:
192,192,11049,1,0,0:0:0:0:
192,192,11207,1,0,0:0:0:0:
64,192,11207,1,0,0:0:0:0:
320,192,11365,1,0,0:0:0:0:
448,192,11523,1,0,0:0:0:0:
64,192,11681,1,0,0:0:0:0:
192,192,11681,1,0,0:0:0:0:
320,192,11681,1,0,0:0:0:0:
448,192,11681,1,0,0:0:0:0:
64,192,11997,1,0,0:0:0:0:
320,192,11997,1,0,0:0:0:0:
320,192,12155,1,0,0:0:0:0:
192,192,12313,1,0,0:0:0:0:
320,192,12470,1,0,0:0:0:0:
448,192,12470,1,0,0:0:0:0:
64,192,12628,1,0,0:0:0:0:
320,192,12786,1,0,0:0:0:0:
448,192,12944,1,0,0:0:0:0:
64,192,13102,1,0,0:0:0:0:
192,192,13181,1,0,0:0:0:0:
448,192,13260,1,0,0:0:0:0:
320,192,13260,1,0,0:0:0:0:
192,192,13418,1,0,0:0:0:0:
320,192,13576,1,0,0:0:0:0:
192,192,13734,1,0,0:0:0:0:
64,192,13734,1,0,0:0:0:0:
448,192,13892,1,0,0:0:0:0:
64,192,13892,1,0,0:0:0:0:
192,192,14049,1,0,0:0:0:0:
64,192,14207,1,0,0:0:0:0:
448,192,14365,1,0,0:0:0:0:
64,192,14444,1,0,0:0:0:0:
320,192,14523,1,0,0:0:0:0:
192,192,14523,1,0,0:0:0:0:
320,192,14681,1,0,0:0:0:0:
192,192,14839,1,0,0:0:0:0:
448,192,14997,1,0,0:0:0:0:
320,192,14997,1,0,0:0:0:0:
64,192,15155,1,0,0:0:0:0:
320,192,15313,1,0,0:0:0:0:
192,192,15313,128,0,15470:0:0:0:0:
448,192,15470,1,0,0:0:0:0:
64,192,15470,128,0,15786:0:0:0:0:
192,192,15786,1,0,0:0:0:0:
320,192,15786,1,0,0:0:0:0:
448,192,15786,1,0,0:0:0:0:
64,192,15944,1,0,0:0:0:0:
192,192,15944,1,0,0:0:0:0:
320,192,15944,1,0,0:0:0:0:
64,192,16260,1,0,0:0:0:0:
320,192,16260,1,0,0:0:0:0:
448,192,16260,1,0,0:0:0:0:
192,192,16418,1,0,0:0:0:0:
320,192,16576,1,0,0:0:0:0:
64,192,16734,1,0,0:0:0:0:
192,192,16734,1,0,0:0:0:0:
320,192,16734,1,0,0:0:0:0:
448,192,16734,1,0,0:0:0:0:
64,192,17049,1,0,0:0:0:0:
320,192,17049,1,0,0:0:0:0:
448,192,17049,1,0,0:0:0:0:
192,192,17128,1,0,0:0:0:0:
320,192,17207,1,0,0:0:0:0:
192,192,17286,1,0,0:0:0:0:
64,192,17365,1,0,0:0:0:0:
320,192,17365,1,0,0:0:0:0:
448,192,17365,1,0,0:0:0:0:
64,192,17523,1,0,0:0:0:0:
192,192,17523,1,0,0:0:0:0:
320,192,17602,1,0,0:0:0:0:
192,192,17681,1,0,0:0:0:0:
320,192,17760,1,0,0:0:0:0:
448,192,17839,1,0,0:0:0:0:
192,192,17839,1,0,0:0:0:0:
64,192,17839,1,0,0:0:0:0:
192,192,18313,1,0,0:0:0:0:
64,192,18313,1,0,0:0:0:0:
320,192,18392,1,0,0:0:0:0:
64,192,18470,1,0,0:0:0:0:
320,192,18549,1,0,0:0:0:0:
192,192,18628,1,0,0:0:0:0:
448,192,18628,1,0,0:0:0:0:
64,192,18628,1,0,0:0:0:0:
320,192,18786,1,0,0:0:0:0:
448,192,18786,1,0,0:0:0:0:
64,192,18865,1,0,0:0:0:0:
448,192,18944,1,0,0:0:0:0:
320,192,18944,1,0,0:0:0:0:
192,192,19102,1,0,0:0:0:0:
320,192,19260,1,0,0:0:0:0:
64,192,19260,1,0,0:0:0:0:
448,192,19260,1,0,0:0:0:0:
192,192,19576,1,0,0:0:0:0:
64,192,19576,1,0,0:0:0:0:
320,192,19655,1,0,0:0:0:0:
192,192,19734,1,0,0:0:0:0:
320,192,19813,1,0,0:0:0:0:
448,192,19892,1,0,0:0:0:0:
192,192,19892,1,0,0:0:0:0:
64,192,19892,1,0,0:0:0:0:
448,192,20049,1,0,0:0:0:0:
320,192,20049,1,0,0:0:0:0:
192,192,20128,1,0,0:0:0:0:
320,192,20207,1,0,0:0:0:0:
192,192,20286,1,0,0:0:0:0:
64,192,20365,1,0,0:0:0:0:
320,192,20365,1,0,0:0:0:0:
448,192,20365,1,0,0:0:0:0:
320,192,20681,1,0,0:0:0:0:
64,192,20839,1,0,0:0:0:0:
320,192,20839,1,0,0:0:0:0:
448,192,20839,1,0,0:0:0:0:
192,192,20918,1,0,0:0:0:0:
448,192,20997,1,0,0:0:0:0:
320,192,21076,1,0,0:0:0:0:
192,192,21155,1,0,0:0:0:0:
64,192,21155,1,0,0:0:0:0:
448,192,21234,1,0,0:0:0:0:
64,192,21313,1,0,0:0:0:0:
192,192,21313,1,0,0:0:0:0:
448,192,21392,1,0,0:0:0:0:
64,192,21470,1,0,0:0:0:0:
320,192,21549,1,0,0:0:0:0:
192,192,21628,1,0,0:0:0:0:
448,192,21628,1,0,0:0:0:0:
64,192,21628,1,0,0:0:0:0:
192,192,22102,1,0,0:0:0:0:
448,192,22102,1,0,0:0:0:0:
320,192,22181,1,0,0:0:0:0:
64,192,22260,1,0,0:0:0:0:
320,192,22339,1,0,0:0:0:0:
64,192,22418,1,0,0:0:0:0:
192,192,22418,1,0,0:0:0:0:
448,192,22418,1,0,0:0:0:0:
320,192,22576,1,0,0:0:0:0:
448,192,22576,1,0,0:0:0:0:
192,192,22655,1,0,0:0:0:0:
448,192,22734,1,0,0:0:0:0:
192,192,22813,1,0,0:0:0:0:
448,192,22892,1,0,0:0:0:0:
320,192,22892,1,0,0:0:0:0:
64,192,22892,1,0,0:0:0:0:
448,192,23365,1,0,0:0:0:0:
320,192,23365,1,0,0:0:0:0:
192,192,23444,1,0,0:0:0:0:
448,192,23523,1,0,0:0:0:0:
192,192,23602,1,0,0:0:0:0:
448,192,23681,1,0,0:0:0:0:
64,192,23681,1,0,0:0:0:0:
320,192,23681,1,0,0:0:0:0:
64,192,23839,1,0,0:0:0:0:
192,192,23839,1,0,0:0:0:0:
448,192,23918,1,0,0:0:0:0:
192,192,23997,1,0,0:0:0:0:
64,192,23997,1,0,0:0:0:0:
320,192,24155,1,0,0:0:0:0:
64,192,24313,1,0,0:0:0:0:
448,192,24313,1,0,0:0:0:0:
192,192,24313,1,0,0:0:0:0:
448,192,24628,1,0,0:0:0:0:
192,192,24628,1,0,0:0:0:0:
320,192,24707,1,0,0:0:0:0:
64,192,24786,1,0,0:0:0:0:
320,192,24865,1,0,0:0:0:0:
448,192,24944,1,0,0:0:0:0:
192,192,24944,1,0,0:0:0:0:
64,192,24944,1,0,0:0:0:0:
448,192,25102,1,0,0:0:0:0:
320,192,25102,1,0,0:0:0:0:
192,192,25181,1,0,0:0:0:0:
320,192,25260,1,0,0:0:0:0:
192,192,25339,1,0,0:0:0:0:
64,192,25418,1,0,0:0:0:0:
320,192,25418,1,0,0:0:0:0:
448,192,25418,1,0,0:0:0:0:
192,192,25576,1,0,0:0:0:0:
320,192,25734,1,0,0:0:0:0:
448,192,25734,1,0,0:0:0:0:
192,192,25813,1,0,0:0:0:0:
64,192,25813,1,0,0:0:0:0:
64,192,25892,1,0,0:0:0:0:
320,192,25892,1,0,0:0:0:0:
448,192,25892,1,0,0:0:0:0:
192,192,26049,1,0,0:0:0:0:
448,192,26049,1,0,0:0:0:0:
64,192,26049,1,0,0:0:0:0:
192,192,26207,1,0,0:0:0:0:
64,192,26207,1,0,0:0:0:0:
320,192,26207,1,0,0:0:0:0:
192,192,26365,1,0,0:0:0:0:
448,192,26365,1,0,0:0:0:0:
320,192,26523,1,0,0:0:0:0:
192,192,26681,1,0,0:0:0:0:
448,192,26681,1,0,0:0:0:0:
64,192,26681,1,0,0:0:0:0:
320,192,26839,1,0,0:0:0:0:
448,192,26839,1,0,0:0:0:0:
64,192,26839,1,0,0:0:0:0:
192,192,27155,1,0,0:0:0:0:
320,192,27470,1,0,0:0:0:0:
64,192,27786,1,0,0:0:0:0:
448,192,28102,128,0,28418:0:0:0:0:
192,192,28418,1,0,0:0:0:0:
320,192,28734,1,0,0:0:0:0:
64,192,29049,1,0,0:0:0:0:
192,192,29365,1,0,0:0:0:0:
320,192,29681,128,0,29997:0:0:0:0:
64,192,29997,1,0,0:0:0:0:
192,192,30313,1,0,0:0:0:0:
320,192,30628,128,0,30944:0:0:0:0:
64,192,30944,1,0,0:0:0:0:
192,192,31260,1,0,0:0:0:0:
320,192,31576,128,0,31892:0:0:0:0:
192,192,31892,1,0,0:0:0:0:
448,192,32207,128,0,32523:0:0:0:0:
64,192,32523,1,0,0:0:0:0:
192,192,32839,1,0,0:0:0:0:
448,192,33155,1,0,0:0:0:0:
320,192,33470,1,0,0:0:0:0:
192,192,33786,1,0,0:0:0:0:
64,192,34102,128,0,34418:0:0:0:0:
320,192,34418,1,0,0:0:0:0:
192,192,34734,128,0,35049:0:0:0:0:
320,192,35049,1,0,0:0:0:0:
448,192,35365,1,0,0:0:0:0:
320,192,35681,1,0,0:0:0:0:
192,192,35997,1,0,0:0:0:0:
64,192,36470,1,0,0:0:0:0:
448,192,36944,1,0,0:0:0:0:
64,192,37260,1,0,0:0:0:0:
192,192,37576,1,0,0:0:0:0:
320,192,37892,1,0,0:0:0:0:
64,192,38207,128,0,38523:0:0:0:0:
320,192,38523,1,0,0:0:0:0:
192,192,38839,1,0,0:0:0:0:
64,192,39155,1,0,0:0:0:0:
192,192,39470,1,0,0:0:0:0:
320,192,39786,128,0,40102:0:0:0:0:
192,192,40102,1,0,0:0:0:0:
320,192,40418,1,0,0:0:0:0:
64,192,40734,1,0,0:0:0:0:
320,192,41049,1,0,0:0:0:0:
192,192,41365,5,0,0:0:0:0:
448,192,41681,1,0,0:0:0:0:
64,192,41997,1,0,0:0:0:0:
448,192,42313,5,0,0:0:0:0:
320,192,42313,1,0,0:0:0:0:
192,192,42392,1,0,0:0:0:0:
64,192,42392,1,0,0:0:0:0:
320,192,42470,1,0,0:0:0:0:
448,192,42470,1,0,0:0:0:0:
192,192,42549,1,0,0:0:0:0:
64,192,42549,1,0,0:0:0:0:
320,192,42628,1,0,0:0:0:0:
448,192,42628,1,0,0:0:0:0:
192,192,42707,1,0,0:0:0:0:
64,192,42707,1,0,0:0:0:0:
320,192,42786,1,0,0:0:0:0:
448,192,42786,1,0,0:0:0:0:
192,192,42865,1,0,0:0:0:0:
64,192,42865,1,0,0:0:0:0:
448,192,42944,1,0,0:0:0:0:
320,192,42944,1,0,0:0:0:0:
192,192,43023,1,0,0:0:0:0:
64,192,43023,1,0,0:0:0:0:
320,192,43102,1,0,0:0:0:0:
448,192,43102,1,0,0:0:0:0:
192,192,43181,1,0,0:0:0:0:
64,192,43181,1,0,0:0:0:0:
320,192,43260,1,0,0:0:0:0:
448,192,43260,1,0,0:0:0:0:
192,192,43339,1,0,0:0:0:0:
64,192,43339,1,0,0:0:0:0:
320,192,43418,1,0,0:0:0:0:
448,192,43418,1,0,0:0:0:0:
192,192,43497,1,0,0:0:0:0:
64,192,43497,1,0,0:0:0:0:
320,192,43576,1,0,0:0:0:0:
448,192,43576,1,0,0:0:0:0:
192,192,43655,1,0,0:0:0:0:
64,192,43655,1,0,0:0:0:0:
320,192,43734,1,0,0:0:0:0:
448,192,43734,1,0,0:0:0:0:
192,192,43813,1,0,0:0:0:0:
64,192,43813,1,0,0:0:0:0:
320,192,43892,1,0,0:0:0:0:
448,192,43892,1,0,0:0:0:0:
192,192,43970,1,0,0:0:0:0:
64,192,43970,1,0,0:0:0:0:
320,192,44049,1,0,0:0:0:0:
448,192,44049,1,0,0:0:0:0:
192,192,44128,1,0,0:0:0:0:
64,192,44128,1,0,0:0:0:0:
320,192,44207,1,0,0:0:0:0:
448,192,44207,1,0,0:0:0:0:
192,192,44286,1,0,0:0:0:0:
64,192,44286,1,0,0:0:0:0:
320,192,44365,1,0,0:0:0:0:
448,192,44365,1,0,0:0:0:0:
192,192,44444,1,0,0:0:0:0:
64,192,44444,1,0,0:0:0:0:
320,192,44523,1,0,0:0:0:0:
448,192,44523,1,0,0:0:0:0:
192,192,44602,1,0,0:0:0:0:
64,192,44602,1,0,0:0:0:0:
320,192,44681,1,0,0:0:0:0:
448,192,44681,1,0,0:0:0:0:
192,192,44760,1,0,0:0:0:0:
64,192,44760,1,0,0:0:0:0:
320,192,44839,1,0,0:0:0:0:
448,192,44839,1,0,0:0:0:0:
192,192,44918,1,0,0:0:0:0:
64,192,44918,1,0,0:0:0:0:
320,192,44997,1,0,0:0:0:0:
448,192,44997,1,0,0:0:0:0:
192,192,45076,1,0,0:0:0:0:
64,192,45076,1,0,0:0:0:0:
320,192,45155,1,0,0:0:0:0:
448,192,45155,1,0,0:0:0:0:
192,192,45234,1,0,0:0:0:0:
64,192,45234,1,0,0:0:0:0:
320,192,45313,1,0,0:0:0:0:
448,192,45313,1,0,0:0:0:0:
192,192,45392,1,0,0:0:0:0:
64,192,45392,1,0,0:0:0:0:
320,192,45470,1,0,0:0:0:0:
448,192,45470,1,0,0:0:0:0:
192,192,45549,1,0,0:0:0:0:
64,192,45549,1,0,0:0:0:0:
320,192,45628,1,0,0:0:0:0:
448,192,45628,1,0,0:0:0:0:
192,192,45628,1,0,0:0:0:0:
64,192,45786,1,0,0:0:0:0:
192,192,45786,1,0,0:0:0:0:
320,192,45786,1,0,0:0:0:0:
192,192,45944,1,0,0:0:0:0:
64,192,45944,1,0,0:0:0:0:
320,192,46023,1,0,0:0:0:0:
448,192,46023,1,0,0:0:0:0:
192,192,46102,1,0,0:0:0:0:
64,192,46102,1,0,0:0:0:0:
448,192,46102,1,0,0:0:0:0:
192,192,46260,1,0,0:0:0:0:
320,192,46260,1,0,0:0:0:0:
64,192,46260,1,0,0:0:0:0:
192,192,46576,1,0,0:0:0:0:
320,192,46576,1,0,0:0:0:0:
448,192,46576,1,0,0:0:0:0:
64,192,46734,1,0,0:0:0:0:
320,192,46892,1,0,0:0:0:0:
64,192,47049,1,0,0:0:0:0:
192,192,47049,1,0,0:0:0:0:
448,192,47049,1,0,0:0:0:0:
64,192,47365,1,0,0:0:0:0:
192,192,47365,1,0,0:0:0:0:
320,192,47365,1,0,0:0:0:0:
448,192,47365,1,0,0:0:0:0:
320,192,47523,1,0,0:0:0:0:
192,192,47602,1,0,0:0:0:0:
64,192,47681,1,0,0:0:0:0:
320,192,47760,1,0,0:0:0:0:
192,192,47839,1,0,0:0:0:0:
320,192,47918,1,0,0:0:0:0:
192,192,47997,1,0,0:0:0:0:
64,192,47997,1,0,0:0:0:0:
320,192,48076,1,0,0:0:0:0:
448,192,48155,1,0,0:0:0:0:
64,192,48313,1,0,0:0:0:0:
192,192,48313,1,0,0:0:0:0:
320,192,48392,1,0,0:0:0:0:
448,192,48470,1,0,0:0:0:0:
192,192,48549,1,0,0:0:0:0:
320,192,48628,1,0,0:0:0:0:
192,192,48707,1,0,0:0:0:0:
64,192,48786,1,0,0:0:0:0:
320,192,48865,1,0,0:0:0:0:
192,192,48944,128,0,49576:0:0:0:0:
64,192,49892,1,0,0:0:0:0:
320,192,49892,1,0,0:0:0:0:
448,192,49892,1,0,0:0:0:0:
192,192,49970,1,0,0:0:0:0:
448,192,50049,1,0,0:0:0:0:
320,192,50128,1,0,0:0:0:0:
64,192,50207,1,0,0:0:0:0:
192,192,50207,1,0,0:0:0:0:
448,192,50207,1,0,0:0:0:0:
64,192,50365,1,0,0:0:0:0:
320,192,50365,1,0,0:0:0:0:
448,192,50444,1,0,0:0:0:0:
192,192,50523,1,0,0:0:0:0:
320,192,50602,1,0,0:0:0:0:
448,192,50681,1,0,0:0:0:0:
192,192,50681,1,0,0:0:0:0:
64,192,50681,1,0,0:0:0:0:
192,192,51155,1,0,0:0:0:0:
64,192,51155,1,0,0:0:0:0:
320,192,51234,1,0,0:0:0:0:
64,192,51313,1,0,0:0:0:0:
320,192,51392,1,0,0:0:0:0:
192,192,51470,1,0,0:0:0:0:
448,192,51470,1,0,0:0:0:0:
64,192,51470,1,0,0:0:0:0:
192,192,51628,1,0,0:0:0:0:
448,192,51628,1,0,0:0:0:0:
64,192,51707,1,0,0:0:0:0:
320,192,51786,1,0,0:0:0:0:
448,192,51786,1,0,0:0:0:0:
192,192,51944,1,0,0:0:0:0:
320,192,52102,1,0,0:0:0:0:
64,192,52102,1,0,0:0:0:0:
448,192,52102,1,0,0:0:0:0:
320,192,52260,1,0,0:0:0:0:
320,192,52339,1,0,0:0:0:0:
192,192,52418,1,0,0:0:0:0:
64,192,52418,1,0,0:0:0:0:
320,192,52497,1,0,0:0:0:0:
448,192,52576,1,0,0:0:0:0:
192,192,52655,1,0,0:0:0:0:
320,192,52734,1,0,0:0:0:0:
448,192,52734,1,0,0:0:0:0:
64,192,52734,1,0,0:0:0:0:
448,192,52892,1,0,0:0:0:0:
320,192,52892,1,0,0:0:0:0:
192,192,52970,1,0,0:0:0:0:
448,192,53049,1,0,0:0:0:0:
192,192,53128,1,0,0:0:0:0:
64,192,53207,1,0,0:0:0:0:
320,192,53207,1,0,0:0:0:0:
448,192,53207,1,0,0:0:0:0:
320,192,53523,1,0,0:0:0:0:
64,192,53681,1,0,0:0:0:0:
320,192,53681,1,0,0:0:0:0:
448,192,53681,1,0,0:0:0:0:
192,192,53760,1,0,0:0:0:0:
448,192,53839,1,0,0:0:0:0:
320,192,53918,1,0,0:0:0:0:
192,192,53997,1,0,0:0:0:0:
64,192,53997,1,0,0:0:0:0:
448,192,54076,1,0,0:0:0:0:
64,192,54155,1,0,0:0:0:0:
192,192,54155,1,0,0:0:0:0:
448,192,54234,1,0,0:0:0:0:
320,192,54313,1,0,0:0:0:0:
192,192,54392,1,0,0:0:0:0:
320,192,54470,1,0,0:0:0:0:
448,192,54470,1,0,0:0:0:0:
64,192,54470,1,0,0:0:0:0:
192,192,54628,128,0,54944:0:0:0:0:
320,192,54944,1,0,0:0:0:0:
448,192,54944,1,0,0:0:0:0:
192,192,55023,1,0,0:0:0:0:
320,192,55102,1,0,0:0:0:0:
64,192,55181,1,0,0:0:0:0:
320,192,55260,1,0,0:0:0:0:
192,192,55260,1,0,0:0:0:0:
448,192,55260,1,0,0:0:0:0:
320,192,55418,1,0,0:0:0:0:
448,192,55418,1,0,0:0:0:0:
192,192,55497,1,0,0:0:0:0:
320,192,55576,1,0,0:0:0:0:
192,192,55655,1,0,0:0:0:0:
448,192,55734,1,0,0:0:0:0:
320,192,55734,1,0,0:0:0:0:
64,192,55734,1,0,0:0:0:0:
192,192,55892,1,0,0:0:0:0:
320,192,55970,1,0,0:0:0:0:
192,192,56049,1,0,0:0:0:0:
192,192,56128,1,0,0:0:0:0:
448,192,56207,1,0,0:0:0:0:
64,192,56207,1,0,0:0:0:0:
320,192,56286,1,0,0:0:0:0:
192,192,56365,1,0,0:0:0:0:
64,192,56444,1,0,0:0:0:0:
448,192,56523,1,0,0:0:0:0:
192,192,56523,1,0,0:0:0:0:
320,192,56523,1,0,0:0:0:0:
64,192,56681,1,0,0:0:0:0:
192,192,56681,1,0,0:0:0:0:
320,192,56760,1,0,0:0:0:0:
448,192,56839,1,0,0:0:0:0:
64,192,56839,1,0,0:0:0:0:
320,192,56997,1,0,0:0:0:0:
64,192,57155,1,0,0:0:0:0:
448,192,57155,1,0,0:0:0:0:
192,192,57155,1,0,0:0:0:0:
192,192,57234,1,0,0:0:0:0:
320,192,57313,1,0,0:0:0:0:
320,192,57392,1,0,0:0:0:0:
448,192,57470,1,0,0:0:0:0:
64,192,57470,1,0,0:0:0:0:
192,192,57549,1,0,0:0:0:0:
320,192,57628,1,0,0:0:0:0:
448,192,57707,1,0,0:0:0:0:
320,192,57786,1,0,0:0:0:0:
192,192,57786,1,0,0:0:0:0:
64,192,57786,1,0,0:0:0:0:
448,192,57944,1,0,0:0:0:0:
320,192,57944,1,0,0:0:0:0:
192,192,58023,1,0,0:0:0:0:
320,192,58102,1,0,0:0:0:0:
64,192,58181,1,0,0:0:0:0:
320,192,58260,1,0,0:0:0:0:
192,192,58260,1,0,0:0:0:0:
448,192,58260,1,0,0:0:0:0:
320,192,58576,1,0,0:0:0:0:
448,192,58576,1,0,0:0:0:0:
192,192,58655,1,0,0:0:0:0:
320,192,58655,1,0,0:0:0:0:
64,192,58734,1,0,0:0:0:0:
192,192,58734,1,0,0:0:0:0:
448,192,58734,1,0,0:0:0:0:
192,192,58892,1,0,0:0:0:0:
448,192,58892,1,0,0:0:0:0:
64,192,58892,1,0,0:0:0:0:
192,192,59049,1,0,0:0:0:0:
64,192,59049,1,0,0:0:0:0:
320,192,59049,1,0,0:0:0:0:
192,192,59207,1,0,0:0:0:0:
448,192,59207,1,0,0:0:0:0:
320,192,59365,1,0,0:0:0:0:
192,192,59523,1,0,0:0:0:0:
448,192,59523,1,0,0:0:0:0:
64,192,59523,1,0,0:0:0:0:
448,192,59681,1,0,0:0:0:0:
64,192,59681,1,0,0:0:0:0:
320,192,59681,128,0,59839:0:0:0:0:
448,192,59997,1,0,0:0:0:0:
192,192,59997,1,0,0:0:0:0:
64,192,59997,1,0,0:0:0:0:
320,192,60076,1,0,0:0:0:0:
64,192,60155,1,0,0:0:0:0:
192,192,60234,1,0,0:0:0:0:
448,192,60313,1,0,0:0:0:0:
320,192,60313,1,0,0:0:0:0:
64,192,60313,1,0,0:0:0:0:
448,192,60470,1,0,0:0:0:0:
192,192,60470,1,0,0:0:0:0:
64,192,60549,1,0,0:0:0:0:
320,192,60628,1,0,0:0:0:0:
192,192,60707,1,0,0:0:0:0:
64,192,60786,1,0,0:0:0:0:
320,192,60786,1,0,0:0:0:0:
448,192,60786,1,0,0:0:0:0:
64,192,61260,1,0,0:0:0:0:
448,192,61260,1,0,0:0:0:0:
320,192,61339,1,0,0:0:0:0:
192,192,61418,1,0,0:0:0:0:
64,192,61497,1,0,0:0:0:0:
320,192,61576,1,0,0:0:0:0:
192,192,61576,1,0,0:0:0:0:
448,192,61576,1,0,0:0:0:0:
192,192,61734,1,0,0:0:0:0:
64,192,61734,1,0,0:0:0:0:
448,192,61813,1,0,0:0:0:0:
192,192,61892,1,0,0:0:0:0:
320,192,61892,1,0,0:0:0:0:
320,192,62049,1,0,0:0:0:0:
192,192,62207,1,0,0:0:0:0:
448,192,62207,1,0,0:0:0:0:
64,192,62207,1,0,0:0:0:0:
192,192,62523,1,0,0:0:0:0:
448,192,62523,1,0,0:0:0:0:
64,192,62602,1,0,0:0:0:0:
448,192,62681,1,0,0:0:0:0:
320,192,62760,1,0,0:0:0:0:
192,192,62839,1,0,0:0:0:0:
64,192,62839,1,0,0:0:0:0:
448,192,62839,1,0,0:0:0:0:
64,192,62997,1,0,0:0:0:0:
320,192,62997,1,0,0:0:0:0:
448,192,63076,1,0,0:0:0:0:
192,192,63155,1,0,0:0:0:0:
320,192,63234,1,0,0:0:0:0:
448,192,63313,1,0,0:0:0:0:
192,192,63313,1,0,0:0:0:0:
64,192,63313,1,0,0:0:0:0:
192,192,63628,1,0,0:0:0:0:
448,192,63786,1,0,0:0:0:0:
192,192,63786,1,0,0:0:0:0:
64,192,63786,1,0,0:0:0:0:
320,192,63865,1,0,0:0:0:0:
64,192,63944,1,0,0:0:0:0:
192,192,64023,1,0,0:0:0:0:
320,192,64102,1,0,0:0:0:0:
448,192,64102,1,0,0:0:0:0:
64,192,64181,1,0,0:0:0:0:
448,192,64260,1,0,0:0:0:0:
320,192,64260,1,0,0:0:0:0:
64,192,64339,1,0,0:0:0:0:
192,192,64418,1,0,0:0:0:0:
320,192,64497,1,0,0:0:0:0:
192,192,64576,1,0,0:0:0:0:
64,192,64576,1,0,0:0:0:0:
448,192,64576,1,0,0:0:0:0:
320,192,64734,128,0,65049:0:0:0:0:
448,192,65049,1,0,0:0:0:0:
64,192,65049,1,0,0:0:0:0:
192,192,65128,1,0,0:0:0:0:
448,192,65207,1,0,0:0:0:0:
320,192,65286,1,0,0:0:0:0:
448,192,65365,1,0,0:0:0:0:
192,192,65365,1,0,0:0:0:0:
64,192,65365,1,0,0:0:0:0:
448,192,65523,1,0,0:0:0:0:
192,192,65523,1,0,0:0:0:0:
320,192,65602,1,0,0:0:0:0:
64,192,65681,1,0,0:0:0:0:
192,192,65760,1,0,0:0:0:0:
64,192,65839,1,0,0:0:0:0:
320,192,65839,1,0,0:0:0:0:
448,192,65839,1,0,0:0:0:0:
192,192,65997,1,0,0:0:0:0:
64,192,66076,1,0,0:0:0:0:
320,192,66155,1,0,0:0:0:0:
320,192,66234,1,0,0:0:0:0:
64,192,66313,1,0,0:0:0:0:
448,192,66313,1,0,0:0:0:0:
192,192,66392,1,0,0:0:0:0:
448,192,66470,1,0,0:0:0:0:
320,192,66549,1,0,0:0:0:0:
64,192,66628,1,0,0:0:0:0:
448,192,66628,1,0,0:0:0:0:
192,192,66628,1,0,0:0:0:0:
320,192,66786,1,0,0:0:0:0:
192,192,66786,1,0,0:0:0:0:
64,192,66865,1,0,0:0:0:0:
320,192,66944,1,0,0:0:0:0:
448,192,66944,1,0,0:0:0:0:
64,192,67102,1,0,0:0:0:0:
448,192,67260,1,0,0:0:0:0:
192,192,67260,1,0,0:0:0:0:
320,192,67260,1,0,0:0:0:0:
192,192,67418,1,0,0:0:0:0:
64,192,67576,1,0,0:0:0:0:
320,192,67576,1,0,0:0:0:0:
448,192,67576,1,0,0:0:0:0:
192,192,67655,1,0,0:0:0:0:
448,192,67734,1,0,0:0:0:0:
64,192,67813,1,0,0:0:0:0:
192,192,67892,1,0,0:0:0:0:
320,192,67892,1,0,0:0:0:0:
448,192,67892,1,0,0:0:0:0:
64,192,68049,1,0,0:0:0:0:
192,192,68049,1,0,0:0:0:0:
320,192,68128,1,0,0:0:0:0:
64,192,68207,1,0,0:0:0:0:
192,192,68286,1,0,0:0:0:0:
448,192,68365,1,0,0:0:0:0:
320,192,68365,1,0,0:0:0:0:
64,192,68365,1,0,0:0:0:0:
192,192,68681,1,0,0:0:0:0:
64,192,68681,1,0,0:0:0:0:
320,192,68760,1,0,0:0:0:0:
448,192,68760,1,0,0:0:0:0:
448,192,68839,1,0,0:0:0:0:
192,192,68839,1,0,0:0:0:0:
64,192,68839,1,0,0:0:0:0:
320,192,68997,1,0,0:0:0:0:
64,192,68997,1,0,0:0:0:0:
448,192,68997,1,0,0:0:0:0:
320,192,69155,1,0,0:0:0:0:
448,192,69155,1,0,0:0:0:0:
192,192,69155,1,0,0:0:0:0:
320,192,69313,1,0,0:0:0:0:
64,192,69313,1,0,0:0:0:0:
192,192,69470,1,0,0:0:0:0:
320,192,69628,1,0,0:0:0:0:
64,192,69628,1,0,0:0:0:0:
448,192,69628,1,0,0:0:0:0:
192,192,69786,1,0,0:0:0:0:
64,192,69786,1,0,0:0:0:0:
448,192,69786,1,0,0:0:0:0:
448,192,70102,1,0,0:0:0:0:
192,192,70102,1,0,0:0:0:0:
64,192,70102,1,0,0:0:0:0:
320,192,70181,1,0,0:0:0:0:
64,192,70260,1,0,0:0:0:0:
192,192,70339,1,0,0:0:0:0:
448,192,70418,1,0,0:0:0:0:
320,192,70418,1,0,0:0:0:0:
64,192,70418,1,0,0:0:0:0:
448,192,70576,1,0,0:0:0:0:
192,192,70576,1,0,0:0:0:0:
64,192,70655,1,0,0:0:0:0:
320,192,70734,1,0,0:0:0:0:
192,192,70813,1,0,0:0:0:0:
64,192,70892,1,0,0:0:0:0:
320,192,70892,1,0,0:0:0:0:
448,192,70892,1,0,0:0:0:0:
320,192,71365,1,0,0:0:0:0:
448,192,71365,1,0,0:0:0:0:
192,192,71444,1,0,0:0:0:0:
448,192,71523,1,0,0:0:0:0:
192,192,71602,1,0,0:0:0:0:
320,192,71681,1,0,0:0:0:0:
64,192,71681,1,0,0:0:0:0:
448,192,71681,1,0,0:0:0:0:
320,192,71839,1,0,0:0:0:0:
192,192,71839,1,0,0:0:0:0:
448,192,71918,1,0,0:0:0:0:
192,192,71997,1,0,0:0:0:0:
64,192,71997,1,0,0:0:0:0:
448,192,72155,1,0,0:0:0:0:
192,192,72313,1,0,0:0:0:0:
320,192,72313,1,0,0:0:0:0:
64,192,72313,1,0,0:0:0:0:
192,192,72470,1,0,0:0:0:0:
192,192,72549,1,0,0:0:0:0:
320,192,72628,1,0,0:0:0:0:
448,192,72628,1,0,0:0:0:0:
192,192,72707,1,0,0:0:0:0:
64,192,72786,1,0,0:0:0:0:
320,192,72865,1,0,0:0:0:0:
192,192,72944,1,0,0:0:0:0:
64,192,72944,1,0,0:0:0:0:
448,192,72944,1,0,0:0:0:0:
64,192,73102,1,0,0:0:0:0:
192,192,73102,1,0,0:0:0:0:
320,192,73181,1,0,0:0:0:0:
64,192,73260,1,0,0:0:0:0:
320,192,73339,1,0,0:0:0:0:
448,192,73418,1,0,0:0:0:0:
192,192,73418,1,0,0:0:0:0:
64,192,73418,1,0,0:0:0:0:
192,192,73734,1,0,0:0:0:0:
448,192,73892,1,0,0:0:0:0:
192,192,73892,1,0,0:0:0:0:
64,192,73892,1,0,0:0:0:0:
320,192,73970,1,0,0:0:0:0:
64,192,74049,1,0,0:0:0:0:
192,192,74128,1,0,0:0:0:0:
320,192,74207,1,0,0:0:0:0:
448,192,74207,1,0,0:0:0:0:
64,192,74286,1,0,0:0:0:0:
448,192,74365,1,0,0:0:0:0:
320,192,74365,1,0,0:0:0:0:
64,192,74444,1,0,0:0:0:0:
192,192,74523,1,0,0:0:0:0:
320,192,74602,1,0,0:0:0:0:
192,192,74681,1,0,0:0:0:0:
64,192,74681,1,0,0:0:0:0:
448,192,74681,1,0,0:0:0:0:
320,192,74839,128,0,75155:0:0:0:0:
192,192,75155,1,0,0:0:0:0:
64,192,75155,1,0,0:0:0:0:
320,192,75234,1,0,0:0:0:0:
192,192,75313,1,0,0:0:0:0:
448,192,75392,1,0,0:0:0:0:
192,192,75470,1,0,0:0:0:0:
320,192,75470,1,0,0:0:0:0:
64,192,75470,1,0,0:0:0:0:
192,192,75628,1,0,0:0:0:0:
64,192,75628,1,0,0:0:0:0:
320,192,75707,1,0,0:0:0:0:
192,192,75786,1,0,0:0:0:0:
320,192,75865,1,0,0:0:0:0:
64,192,75944,1,0,0:0:0:0:
192,192,75944,1,0,0:0:0:0:
448,192,75944,1,0,0:0:0:0:
320,192,76102,1,0,0:0:0:0:
192,192,76181,1,0,0:0:0:0:
320,192,76260,1,0,0:0:0:0:
320,192,76339,1,0,0:0:0:0:
64,192,76418,1,0,0:0:0:0:
448,192,76418,1,0,0:0:0:0:
192,192,76497,1,0,0:0:0:0:
320,192,76576,1,0,0:0:0:0:
448,192,76655,1,0,0:0:0:0:
64,192,76734,1,0,0:0:0:0:
320,192,76734,1,0,0:0:0:0:
192,192,76734,1,0,0:0:0:0:
448,192,76892,1,0,0:0:0:0:
320,192,76892,1,0,0:0:0:0:
192,192,76970,1,0,0:0:0:0:
64,192,77049,1,0,0:0:0:0:
448,192,77049,1,0,0:0:0:0:
192,192,77207,1,0,0:0:0:0:
448,192,77365,1,0,0:0:0:0:
64,192,77365,1,0,0:0:0:0:
320,192,77365,1,0,0:0:0:0:
320,192,77444,1,0,0:0:0:0:
192,192,77523,1,0,0:0:0:0:
192,192,77602,1,0,0:0:0:0:
64,192,77681,1,0,0:0:0:0:
448,192,77681,1,0,0:0:0:0:
320,192,77760,1,0,0:0:0:0:
192,192,77839,1,0,0:0:0:0:
64,192,77918,1,0,0:0:0:0:
192,192,77997,1,0,0:0:0:0:
320,192,77997,1,0,0:0:0:0:
448,192,77997,1,0,0:0:0:0:
64,192,78155,1,0,0:0:0:0:
192,192,78155,1,0,0:0:0:0:
320,192,78234,1,0,0:0:0:0:
192,192,78313,1,0,0:0:0:0:
448,192,78392,1,0,0:0:0:0:
192,192,78470,1,0,0:0:0:0:
320,192,78470,1,0,0:0:0:0:
64,192,78470,1,0,0:0:0:0:
320,192,78786,1,0,0:0:0:0:
64,192,78786,1,0,0:0:0:0:
448,192,78865,1,0,0:0:0:0:
192,192,78865,1,0,0:0:0:0:
448,192,78944,1,0,0:0:0:0:
320,192,78944,1,0,0:0:0:0:
64,192,78944,1,0,0:0:0:0:
320,192,79102,1,0,0:0:0:0:
64,192,79102,1,0,0:0:0:0:
448,192,79102,1,0,0:0:0:0:
320,192,79260,1,0,0:0:0:0:
448,192,79260,1,0,0:0:0:0:
192,192,79260,1,0,0:0:0:0:
320,192,79418,1,0,0:0:0:0:
64,192,79418,1,0,0:0:0:0:
192,192,79576,1,0,0:0:0:0:
320,192,79734,1,0,0:0:0:0:
64,192,79734,1,0,0:0:0:0:
448,192,79734,1,0,0:0:0:0:
64,192,79892,1,0,0:0:0:0:
448,192,79892,1,0,0:0:0:0:
192,192,79892,128,0,80049:0:0:0:0:
448,192,80207,128,0,82734:0:0:0:0:
64,192,80207,1,0,0:0:0:0:
320,192,80365,1,0,0:0:0:0:
192,192,80523,1,0,0:0:0:0:
64,192,80681,1,0,0:0:0:0:
320,192,80839,1,0,0:0:0:0:
192,192,80997,1,0,0:0:0:0:
64,192,81155,1,0,0:0:0:0:
192,192,81313,1,0,0:0:0:0:
320,192,81470,1,0,0:0:0:0:
64,192,81628,1,0,0:0:0:0:
320,192,81786,1,0,0:0:0:0:
192,192,81944,1,0,0:0:0:0:
64,192,82102,1,0,0:0:0:0:
192,192,82418,1,0,0:0:0:0:
320,192,82576,1,0,0:0:0:0:
64,192,82734,128,0,85260:0:0:0:0:
192,192,82892,1,0,0:0:0:0:
320,192,83049,1,0,0:0:0:0:
448,192,83207,1,0,0:0:0:0:
192,192,83365,1,0,0:0:0:0:
320,192,83523,1,0,0:0:0:0:
448,192,83681,1,0,0:0:0:0:
192,192,83839,1,0,0:0:0:0:
448,192,83997,1,0,0:0:0:0:
192,192,84155,5,0,0:0:0:0:
320,192,84313,1,0,0:0:0:0:
448,192,84470,1,0,0:0:0:0:
320,192,84628,1,0,0:0:0:0:
192,192,84786,1,0,0:0:0:0:
448,192,84944,1,0,0:0:0:0:
192,192,85102,1,0,0:0:0:0:
448,192,85260,5,0,0:0:0:0:
320,192,85260,1,0,0:0:0:0:
192,192,85339,1,0,0:0:0:0:
64,192,85339,1,0,0:0:0:0:
320,192,85418,1,0,0:0:0:0:
448,192,85418,1,0,0:0:0:0:
64,192,85497,1,0,0:0:0:0:
192,192,85497,1,0,0:0:0:0:
320,192,85576,1,0,0:0:0:0:
448,192,85576,1,0,0:0:0:0:
192,192,85655,1,0,0:0:0:0:
64,192,85655,1,0,0:0:0:0:
320,192,85734,1,0,0:0:0:0:
448,192,85734,1,0,0:0:0:0:
192,192,85813,1,0,0:0:0:0:
64,192,85813,1,0,0:0:0:0:
448,192,85892,1,0,0:0:0:0:
320,192,85892,1,0,0:0:0:0:
192,192,85970,1,0,0:0:0:0:
64,192,85970,1,0,0:0:0:0:
320,192,86049,1,0,0:0:0:0:
448,192,86049,1,0,0:0:0:0:
192,192,86128,1,0,0:0:0:0:
64,192,86128,1,0,0:0:0:0:
320,192,86207,1,0,0:0:0:0:
448,192,86207,1,0,0:0:0:0:
192,192,86286,1,0,0:0:0:0:
64,192,86286,1,0,0:0:0:0:
320,192,86365,1,0,0:0:0:0:
448,192,86365,1,0,0:0:0:0:
192,192,86444,1,0,0:0:0:0:
64,192,86444,1,0,0:0:0:0:
320,192,86523,1,0,0:0:0:0:
448,192,86523,1,0,0:0:0:0:
192,192,86602,1,0,0:0:0:0:
64,192,86602,1,0,0:0:0:0:
320,192,86681,1,0,0:0:0:0:
448,192,86681,1,0,0:0:0:0:
192,192,86760,1,0,0:0:0:0:
64,192,86760,1,0,0:0:0:0:
320,192,86839,1,0,0:0:0:0:
448,192,86839,1,0,0:0:0:0:
192,192,86918,1,0,0:0:0:0:
64,192,86918,1,0,0:0:0:0:
320,192,86997,1,0,0:0:0:0:
448,192,86997,1,0,0:0:0:0:
192,192,87076,1,0,0:0:0:0:
64,192,87076,1,0,0:0:0:0:
320,192,87155,1,0,0:0:0:0:
448,192,87155,1,0,0:0:0:0:
192,192,87234,1,0,0:0:0:0:
64,192,87234,1,0,0:0:0:0:
320,192,87313,1,0,0:0:0:0:
448,192,87313,1,0,0:0:0:0:
192,192,87392,1,0,0:0:0:0:
64,192,87392,1,0,0:0:0:0:
320,192,87470,1,0,0:0:0:0:
448,192,87470,1,0,0:0:0:0:
192,192,87549,1,0,0:0:0:0:
64,192,87549,1,0,0:0:0:0:
320,192,87628,1,0,0:0:0:0:
448,192,87628,1,0,0:0:0:0:
192,192,87707,1,0,0:0:0:0:
64,192,87707,1,0,0:0:0:0:
320,192,87786,1,0,0:0:0:0:
448,192,87786,1,0,0:0:0:0:
64,192,88576,1,0,0:0:0:0:
192,192,88734,1,0,0:0:0:0:
320,192,89049,1,0,0:0:0:0:
448,192,89523,1,0,0:0:0:0:
192,192,89997,1,0,0:0:0:0:
448,192,90313,1,0,0:0:0:0:
192,192,90313,1,0,0:0:0:0:
64,192,90313,1,0,0:0:0:0:
320,192,90392,1,0,0:0:0:0:
64,192,90470,1,0,0:0:0:0:
192,192,90549,1,0,0:0:0:0:
448,192,90628,1,0,0:0:0:0:
320,192,90628,1,0,0:0:0:0:
64,192,90628,1,0,0:0:0:0:
448,192,90786,1,0,0:0:0:0:
320,192,90786,1,0,0:0:0:0:
64,192,90865,1,0,0:0:0:0:
320,192,90944,1,0,0:0:0:0:
192,192,91023,1,0,0:0:0:0:
64,192,91102,1,0,0:0:0:0:
320,192,91102,1,0,0:0:0:0:
448,192,91102,1,0,0:0:0:0:
192,192,91260,128,0,91339:0:0:0:0:
320,192,91260,128,0,91339:0:0:0:0:
64,192,91576,1,0,0:0:0:0:
320,192,91576,1,0,0:0:0:0:
192,192,91655,1,0,0:0:0:0:
448,192,91734,1,0,0:0:0:0:
192,192,91813,1,0,0:0:0:0:
320,192,91892,1,0,0:0:0:0:
64,192,91892,1,0,0:0:0:0:
448,192,91892,1,0,0:0:0:0:
192,192,92049,1,0,0:0:0:0:
64,192,92049,1,0,0:0:0:0:
448,192,92128,1,0,0:0:0:0:
64,192,92207,1,0,0:0:0:0:
320,192,92207,1,0,0:0:0:0:
320,192,92365,1,0,0:0:0:0:
192,192,92523,1,0,0:0:0:0:
448,192,92523,1,0,0:0:0:0:
64,192,92523,1,0,0:0:0:0:
320,192,92839,1,0,0:0:0:0:
448,192,92839,1,0,0:0:0:0:
64,192,92839,128,0,92918:0:0:0:0:
192,192,92918,1,0,0:0:0:0:
448,192,92997,1,0,0:0:0:0:
320,192,93076,1,0,0:0:0:0:
192,192,93155,1,0,0:0:0:0:
64,192,93155,1,0,0:0:0:0:
448,192,93155,1,0,0:0:0:0:
64,192,93313,1,0,0:0:0:0:
192,192,93313,1,0,0:0:0:0:
320,192,93392,1,0,0:0:0:0:
64,192,93470,1,0,0:0:0:0:
320,192,93549,1,0,0:0:0:0:
448,192,93628,1,0,0:0:0:0:
192,192,93628,1,0,0:0:0:0:
64,192,93628,1,0,0:0:0:0:
192,192,93944,1,0,0:0:0:0:
64,192,94102,1,0,0:0:0:0:
192,192,94102,1,0,0:0:0:0:
320,192,94181,1,0,0:0:0:0:
64,192,94260,1,0,0:0:0:0:
192,192,94339,1,0,0:0:0:0:
320,192,94418,1,0,0:0:0:0:
448,192,94418,1,0,0:0:0:0:
64,192,94497,1,0,0:0:0:0:
448,192,94576,1,0,0:0:0:0:
320,192,94576,1,0,0:0:0:0:
64,192,94655,1,0,0:0:0:0:
192,192,94734,1,0,0:0:0:0:
320,192,94813,1,0,0:0:0:0:
192,192,94892,1,0,0:0:0:0:
64,192,94892,1,0,0:0:0:0:
448,192,94892,1,0,0:0:0:0:
192,192,95049,128,0,95365:0:0:0:0:
448,192,95365,1,0,0:0:0:0:
320,192,95365,1,0,0:0:0:0:
64,192,95365,1,0,0:0:0:0:
192,192,95444,1,0,0:0:0:0:
448,192,95523,1,0,0:0:0:0:
320,192,95602,1,0,0:0:0:0:
448,192,95681,1,0,0:0:0:0:
192,192,95681,1,0,0:0:0:0:
64,192,95681,1,0,0:0:0:0:
192,192,95839,1,0,0:0:0:0:
64,192,95839,1,0,0:0:0:0:
320,192,95918,1,0,0:0:0:0:
64,192,95997,1,0,0:0:0:0:
192,192,96076,1,0,0:0:0:0:
64,192,96155,1,0,0:0:0:0:
320,192,96155,1,0,0:0:0:0:
448,192,96155,1,0,0:0:0:0:
320,192,96313,1,0,0:0:0:0:
192,192,96392,1,0,0:0:0:0:
320,192,96470,1,0,0:0:0:0:
320,192,96549,1,0,0:0:0:0:
64,192,96628,1,0,0:0:0:0:
192,192,96628,1,0,0:0:0:0:
448,192,96628,1,0,0:0:0:0:
320,192,96707,1,0,0:0:0:0:
192,192,96786,1,0,0:0:0:0:
448,192,96865,1,0,0:0:0:0:
64,192,96944,1,0,0:0:0:0:
320,192,96944,1,0,0:0:0:0:
192,192,96944,1,0,0:0:0:0:
448,192,97102,1,0,0:0:0:0:
320,192,97102,1,0,0:0:0:0:
64,192,97181,1,0,0:0:0:0:
320,192,97260,1,0,0:0:0:0:
448,192,97260,1,0,0:0:0:0:
192,192,97418,1,0,0:0:0:0:
448,192,97576,1,0,0:0:0:0:
192,192,97576,1,0,0:0:0:0:
64,192,97576,1,0,0:0:0:0:
64,192,97892,1,0,0:0:0:0:
320,192,97892,1,0,0:0:0:0:
448,192,97892,1,0,0:0:0:0:
192,192,97970,1,0,0:0:0:0:
448,192,98049,1,0,0:0:0:0:
64,192,98128,1,0,0:0:0:0:
192,192,98207,1,0,0:0:0:0:
320,192,98207,1,0,0:0:0:0:
448,192,98207,1,0,0:0:0:0:
64,192,98365,1,0,0:0:0:0:
192,192,98365,1,0,0:0:0:0:
320,192,98444,1,0,0:0:0:0:
64,192,98523,1,0,0:0:0:0:
192,192,98602,1,0,0:0:0:0:
448,192,98681,1,0,0:0:0:0:
320,192,98681,1,0,0:0:0:0:
64,192,98681,1,0,0:0:0:0:
320,192,98839,1,0,0:0:0:0:
192,192,98997,1,0,0:0:0:0:
64,192,98997,1,0,0:0:0:0:
320,192,99076,1,0,0:0:0:0:
448,192,99076,1,0,0:0:0:0:
448,192,99155,1,0,0:0:0:0:
192,192,99155,1,0,0:0:0:0:
64,192,99155,1,0,0:0:0:0:
320,192,99313,1,0,0:0:0:0:
64,192,99313,1,0,0:0:0:0:
448,192,99313,1,0,0:0:0:0:
320,192,99470,1,0,0:0:0:0:
448,192,99470,1,0,0:0:0:0:
192,192,99470,1,0,0:0:0:0:
320,192,99628,1,0,0:0:0:0:
64,192,99628,1,0,0:0:0:0:
192,192,99786,1,0,0:0:0:0:
320,192,99944,1,0,0:0:0:0:
64,192,99944,1,0,0:0:0:0:
448,192,99944,1,0,0:0:0:0:
192,192,100102,1,0,0:0:0:0:
64,192,100102,1,0,0:0:0:0:
448,192,100102,1,0,0:0:0:0:
64,192,100418,1,0,0:0:0:0:
320,192,100418,1,0,0:0:0:0:
448,192,100418,1,0,0:0:0:0:
192,192,100497,1,0,0:0:0:0:
448,192,100576,1,0,0:0:0:0:
320,192,100655,1,0,0:0:0:0:
64,192,100734,1,0,0:0:0:0:
192,192,100734,1,0,0:0:0:0:
448,192,100734,1,0,0:0:0:0:
64,192,100892,1,0,0:0:0:0:
192,192,100892,1,0,0:0:0:0:
448,192,100970,1,0,0:0:0:0:
192,192,101049,1,0,0:0:0:0:
320,192,101128,1,0,0:0:0:0:
448,192,101207,1,0,0:0:0:0:
192,192,101207,1,0,0:0:0:0:
64,192,101207,1,0,0:0:0:0:
320,192,101365,128,0,101444:0:0:0:0:
192,192,101365,128,0,101444:0:0:0:0:
192,192,101681,1,0,0:0:0:0:
64,192,101681,1,0,0:0:0:0:
320,192,101760,1,0,0:0:0:0:
64,192,101839,1,0,0:0:0:0:
320,192,101918,1,0,0:0:0:0:
192,192,101997,1,0,0:0:0:0:
448,192,101997,1,0,0:0:0:0:
64,192,101997,1,0,0:0:0:0:
320,192,102155,1,0,0:0:0:0:
448,192,102155,1,0,0:0:0:0:
64,192,102234,1,0,0:0:0:0:
320,192,102313,1,0,0:0:0:0:
192,192,102313,1,0,0:0:0:0:
192,192,102470,1,0,0:0:0:0:
320,192,102628,1,0,0:0:0:0:
64,192,102628,1,0,0:0:0:0:
448,192,102628,1,0,0:0:0:0:
192,192,102944,1,0,0:0:0:0:
64,192,102944,1,0,0:0:0:0:
448,192,102944,128,0,103023:0:0:0:0:
320,192,103023,1,0,0:0:0:0:
64,192,103102,1,0,0:0:0:0:
192,192,103181,1,0,0:0:0:0:
320,192,103260,1,0,0:0:0:0:
448,192,103260,1,0,0:0:0:0:
64,192,103260,1,0,0:0:0:0:
448,192,103418,1,0,0:0:0:0:
320,192,103418,1,0,0:0:0:0:
192,192,103576,1,0,0:0:0:0:
64,192,103734,1,0,0:0:0:0:
320,192,103734,1,0,0:0:0:0:
448,192,103734,1,0,0:0:0:0:
320,192,104049,1,0,0:0:0:0:
64,192,104207,1,0,0:0:0:0:
320,192,104207,1,0,0:0:0:0:
448,192,104207,1,0,0:0:0:0:
192,192,104286,1,0,0:0:0:0:
448,192,104365,1,0,0:0:0:0:
320,192,104444,1,0,0:0:0:0:
192,192,104523,1,0,0:0:0:0:
64,192,104523,1,0,0:0:0:0:
448,192,104602,1,0,0:0:0:0:
64,192,104681,1,0,0:0:0:0:
192,192,104681,1,0,0:0:0:0:
320,192,104839,1,0,0:0:0:0:
192,192,104997,1,0,0:0:0:0:
448,192,104997,1,0,0:0:0:0:
64,192,104997,1,0,0:0:0:0:
320,192,105155,128,0,105470:0:0:0:0:
64,192,105470,1,0,0:0:0:0:
192,192,105470,1,0,0:0:0:0:
448,192,105470,1,0,0:0:0:0:
320,192,105549,1,0,0:0:0:0:
64,192,105628,1,0,0:0:0:0:
192,192,105707,1,0,0:0:0:0:
64,192,105786,1,0,0:0:0:0:
320,192,105786,1,0,0:0:0:0:
448,192,105786,1,0,0:0:0:0:
320,192,105944,1,0,0:0:0:0:
448,192,105944,1,0,0:0:0:0:
192,192,106023,1,0,0:0:0:0:
448,192,106102,1,0,0:0:0:0:
320,192,106181,1,0,0:0:0:0:
448,192,106260,1,0,0:0:0:0:
192,192,106260,1,0,0:0:0:0:
64,192,106260,1,0,0:0:0:0:
192,192,106418,1,0,0:0:0:0:
320,192,106497,1,0,0:0:0:0:
192,192,106576,1,0,0:0:0:0:
192,192,106655,1,0,0:0:0:0:
448,192,106734,1,0,0:0:0:0:
64,192,106734,1,0,0:0:0:0:
192,192,106813,1,0,0:0:0:0:
320,192,106892,1,0,0:0:0:0:
64,192,106970,1,0,0:0:0:0:
448,192,107049,1,0,0:0:0:0:
192,192,107049,1,0,0:0:0:0:
320,192,107049,1,0,0:0:0:0:
64,192,107207,1,0,0:0:0:0:
192,192,107207,1,0,0:0:0:0:
320,192,107286,1,0,0:0:0:0:
192,192,107365,1,0,0:0:0:0:
64,192,107365,1,0,0:0:0:0:
448,192,107523,1,0,0:0:0:0:
64,192,107681,1,0,0:0:0:0:
320,192,107681,1,0,0:0:0:0:
192,192,107681,1,0,0:0:0:0:
448,192,107997,1,0,0:0:0:0:
192,192,107997,1,0,0:0:0:0:
64,192,107997,1,0,0:0:0:0:
320,192,108076,1,0,0:0:0:0:
64,192,108155,1,0,0:0:0:0:
448,192,108234,1,0,0:0:0:0:
320,192,108313,1,0,0:0:0:0:
192,192,108313,1,0,0:0:0:0:
64,192,108313,1,0,0:0:0:0:
448,192,108470,1,0,0:0:0:0:
320,192,108470,1,0,0:0:0:0:
64,192,108549,1,0,0:0:0:0:
192,192,108628,1,0,0:0:0:0:
64,192,108786,1,0,0:0:0:0:
320,192,108786,1,0,0:0:0:0:
448,192,108786,1,0,0:0:0:0:
192,192,108944,1,0,0:0:0:0:
320,192,109102,1,0,0:0:0:0:
448,192,109102,1,0,0:0:0:0:
192,192,109181,1,0,0:0:0:0:
64,192,109181,1,0,0:0:0:0:
64,192,109260,1,0,0:0:0:0:
320,192,109260,1,0,0:0:0:0:
448,192,109260,1,0,0:0:0:0:
192,192,109418,1,0,0:0:0:0:
448,192,109418,1,0,0:0:0:0:
64,192,109418,1,0,0:0:0:0:
192,192,109576,1,0,0:0:0:0:
64,192,109576,1,0,0:0:0:0:
320,192,109576,1,0,0:0:0:0:
192,192,109734,1,0,0:0:0:0:
448,192,109734,1,0,0:0:0:0:
320,192,109892,1,0,0:0:0:0:
192,192,110049,1,0,0:0:0:0:
448,192,110049,1,0,0:0:0:0:
64,192,110049,1,0,0:0:0:0:
320,192,110207,1,0,0:0:0:0:
448,192,110207,1,0,0:0:0:0:
64,192,110207,1,0,0:0:0:0:
64,192,110523,128,0,111313:0:0:0:0:
192,192,110523,1,0,0:0:0:0:
320,192,110523,1,0,0:0:0:0:
448,192,110523,1,0,0:0:0:0:
320,192,111313,1,0,0:0:0:0:
448,192,111392,1,0,0:0:0:0:
192,192,111470,1,0,0:0:0:0:
320,192,111549,1,0,0:0:0:0:
64,192,111628,1,0,0:0:0:0:
192,192,111707,1,0,0:0:0:0:
448,192,111786,1,0,0:0:0:0:
448,192,111865,1,0,0:0:0:0:
320,192,111944,1,0,0:0:0:0:
320,192,112023,1,0,0:0:0:0:
192,192,112102,1,0,0:0:0:0:
192,192,112181,1,0,0:0:0:0:
64,192,112260,1,0,0:0:0:0:
64,192,112339,1,0,0:0:0:0:
448,192,112418,1,0,0:0:0:0:
448,192,112497,1,0,0:0:0:0:
320,192,112576,1,0,0:0:0:0:
320,192,112655,1,0,0:0:0:0:
192,192,112734,1,0,0:0:0:0:
64,192,112734,128,0,112892:0:0:0:0:
192,192,113049,128,0,113839:0:0:0:0:
448,192,113839,1,0,0:0:0:0:
320,192,113918,1,0,0:0:0:0:
192,192,113997,1,0,0:0:0:0:
64,192,114076,1,0,0:0:0:0:
448,192,114155,1,0,0:0:0:0:
320,192,114234,1,0,0:0:0:0:
192,192,114313,1,0,0:0:0:0:
192,192,114392,1,0,0:0:0:0:
64,192,114470,1,0,0:0:0:0:
64,192,114549,1,0,0:0:0:0:
320,192,114628,128,0,114944:0:0:0:0:
192,192,114944,128,0,115260:0:0:0:0:
64,192,115260,128,0,115418:0:0:0:0:
448,192,115576,128,0,116365:0:0:0:0:
64,192,116365,1,0,0:0:0:0:
192,192,116444,1,0,0:0:0:0:
448,192,116523,1,0,0:0:0:0:
320,192,116602,1,0,0:0:0:0:
192,192,116681,1,0,0:0:0:0:
64,192,116760,1,0,0:0:0:0:
448,192,116839,1,0,0:0:0:0:
448,192,116918,1,0,0:0:0:0:
320,192,116997,1,0,0:0:0:0:
320,192,117076,1,0,0:0:0:0:
192,192,117155,1,0,0:0:0:0:
192,192,117234,1,0,0:0:0:0:
64,192,117313,1,0,0:0:0:0:
64,192,117392,1,0,0:0:0:0:
448,192,117470,1,0,0:0:0:0:
320,192,117549,1,0,0:0:0:0:
192,192,117628,1,0,0:0:0:0:
64,192,117707,1,0,0:0:0:0:
320,192,117786,1,0,0:0:0:0:
192,192,117944,1,0,0:0:0:0:
448,192,118102,128,0,118734:0:0:0:0:
64,192,118734,1,0,0:0:0:0:
192,192,118892,128,0,119128:0:0:0:0:
320,192,118892,128,0,118970:0:0:0:0:
448,192,118892,128,0,119286:0:0:0:0:
64,192,118892,128,0,119286:0:0:0:0:
320,192,119049,128,0,119286:0:0:0:0:
192,192,119207,128,0,119286:0:0:0:0:
320,192,119365,128,0,119918:0:0:0:0:
64,192,119365,128,0,119444:0:0:0:0:
192,192,119365,128,0,119760:0:0:0:0:
448,192,119365,128,0,119602:0:0:0:0:
64,192,119523,128,0,119918:0:0:0:0:
448,192,119681,128,0,119997:0:0:0:0:
192,192,119839,128,0,119918:0:0:0:0:
320,192,119997,128,0,120155:0:0:0:0:
192,192,119997,1,0,0:0:0:0:
64,192,119997,128,0,120155:0:0:0:0:
192,192,120155,128,0,120628:0:0:0:0:
448,192,120155,128,0,120549:0:0:0:0:
64,192,120628,1,0,0:0:0:0:
320,192,120628,1,0,0:0:0:0:
448,192,120628,1,0,0:0:0:0:
192,192,120707,1,0,0:0:0:0:
448,192,120786,1,0,0:0:0:0:
320,192,120865,1,0,0:0:0:0:
64,192,120944,1,0,0:0:0:0:
192,192,120944,1,0,0:0:0:0:
448,192,120944,1,0,0:0:0:0:
64,192,121102,1,0,0:0:0:0:
320,192,121102,1,0,0:0:0:0:
448,192,121181,1,0,0:0:0:0:
192,192,121260,1,0,0:0:0:0:
320,192,121339,1,0,0:0:0:0:
448,192,121418,1,0,0:0:0:0:
192,192,121418,1,0,0:0:0:0:
64,192,121418,1,0,0:0:0:0:
64,192,121734,128,0,121892:0:0:0:0:
448,192,121892,1,0,0:0:0:0:
192,192,121892,1,0,0:0:0:0:
320,192,121970,1,0,0:0:0:0:
64,192,122049,1,0,0:0:0:0:
192,192,122128,1,0,0:0:0:0:
320,192,122207,1,0,0:0:0:0:
448,192,122207,1,0,0:0:0:0:
64,192,122207,1,0,0:0:0:0:
320,192,122365,1,0,0:0:0:0:
448,192,122365,1,0,0:0:0:0:
64,192,122444,1,0,0:0:0:0:
320,192,122523,1,0,0:0:0:0:
192,192,122523,1,0,0:0:0:0:
192,192,122681,1,0,0:0:0:0:
320,192,122839,1,0,0:0:0:0:
64,192,122839,1,0,0:0:0:0:
448,192,122839,1,0,0:0:0:0:
192,192,123155,1,0,0:0:0:0:
64,192,123155,1,0,0:0:0:0:
320,192,123234,1,0,0:0:0:0:
64,192,123313,1,0,0:0:0:0:
192,192,123392,1,0,0:0:0:0:
320,192,123470,1,0,0:0:0:0:
448,192,123470,1,0,0:0:0:0:
64,192,123470,1,0,0:0:0:0:
448,192,123628,1,0,0:0:0:0:
192,192,123628,1,0,0:0:0:0:
320,192,123707,1,0,0:0:0:0:
64,192,123786,1,0,0:0:0:0:
320,192,123865,1,0,0:0:0:0:
64,192,123944,1,0,0:0:0:0:
192,192,123944,1,0,0:0:0:0:
448,192,123944,1,0,0:0:0:0:
320,192,124023,1,0,0:0:0:0:
64,192,124102,1,0,0:0:0:0:
192,192,124181,1,0,0:0:0:0:
448,192,124260,1,0,0:0:0:0:
320,192,124260,1,0,0:0:0:0:
64,192,124339,1,0,0:0:0:0:
192,192,124418,1,0,0:0:0:0:
448,192,124418,1,0,0:0:0:0:
64,192,124497,1,0,0:0:0:0:
448,192,124576,1,0,0:0:0:0:
192,192,124655,1,0,0:0:0:0:
320,192,124734,1,0,0:0:0:0:
64,192,124734,1,0,0:0:0:0:
448,192,124734,1,0,0:0:0:0:
192,192,124813,1,0,0:0:0:0:
448,192,124892,1,0,0:0:0:0:
320,192,124892,1,0,0:0:0:0:
64,192,124970,1,0,0:0:0:0:
192,192,125049,1,0,0:0:0:0:
448,192,125049,1,0,0:0:0:0:
320,192,125207,1,0,0:0:0:0:
320,192,125365,128,0,125681:0:0:0:0:
64,192,125681,1,0,0:0:0:0:
192,192,125681,1,0,0:0:0:0:
448,192,125760,1,0,0:0:0:0:
320,192,125839,1,0,0:0:0:0:
192,192,125918,1,0,0:0:0:0:
64,192,125997,1,0,0:0:0:0:
320,192,125997,1,0,0:0:0:0:
448,192,125997,1,0,0:0:0:0:
320,192,126155,1,0,0:0:0:0:
448,192,126155,1,0,0:0:0:0:
64,192,126234,1,0,0:0:0:0:
192,192,126313,1,0,0:0:0:0:
320,192,126392,1,0,0:0:0:0:
448,192,126470,1,0,0:0:0:0:
192,192,126470,1,0,0:0:0:0:
64,192,126470,1,0,0:0:0:0:
320,192,126549,1,0,0:0:0:0:
64,192,126628,128,0,126707:0:0:0:0:
320,192,126707,1,0,0:0:0:0:
64,192,126786,128,0,126865:0:0:0:0:
448,192,126944,1,0,0:0:0:0:
320,192,126944,1,0,0:0:0:0:
64,192,126944,1,0,0:0:0:0:
192,192,127023,1,0,0:0:0:0:
448,192,127102,1,0,0:0:0:0:
64,192,127181,1,0,0:0:0:0:
320,192,127181,1,0,0:0:0:0:
448,192,127260,1,0,0:0:0:0:
320,192,127260,1,0,0:0:0:0:
192,192,127260,1,0,0:0:0:0:
64,192,127418,1,0,0:0:0:0:
192,192,127418,1,0,0:0:0:0:
448,192,127497,1,0,0:0:0:0:
192,192,127576,1,0,0:0:0:0:
64,192,127576,1,0,0:0:0:0:
320,192,127734,1,0,0:0:0:0:
192,192,127734,1,0,0:0:0:0:
64,192,127892,1,0,0:0:0:0:
448,192,127892,1,0,0:0:0:0:
320,192,127892,128,0,128049:0:0:0:0:
192,192,128207,1,0,0:0:0:0:
64,192,128207,1,0,0:0:0:0:
320,192,128286,1,0,0:0:0:0:
64,192,128365,1,0,0:0:0:0:
448,192,128444,1,0,0:0:0:0:
320,192,128523,1,0,0:0:0:0:
192,192,128523,1,0,0:0:0:0:
64,192,128523,1,0,0:0:0:0:
448,192,128681,1,0,0:0:0:0:
192,192,128681,1,0,0:0:0:0:
64,192,128760,1,0,0:0:0:0:
448,192,128839,1,0,0:0:0:0:
320,192,128918,1,0,0:0:0:0:
64,192,128997,1,0,0:0:0:0:
192,192,128997,1,0,0:0:0:0:
448,192,128997,1,0,0:0:0:0:
192,192,129234,1,0,0:0:0:0:
320,192,129234,1,0,0:0:0:0:
448,192,129234,1,0,0:0:0:0:
64,192,129470,1,0,0:0:0:0:
320,192,129470,1,0,0:0:0:0:
448,192,129470,1,0,0:0:0:0:
192,192,129628,1,0,0:0:0:0:
448,192,129628,1,0,0:0:0:0:
64,192,129628,1,0,0:0:0:0:
448,192,129865,1,0,0:0:0:0:
64,192,129865,1,0,0:0:0:0:
320,192,129865,1,0,0:0:0:0:
448,192,130102,1,0,0:0:0:0:
320,192,130102,1,0,0:0:0:0:
64,192,130102,1,0,0:0:0:0:
320,192,130418,1,0,0:0:0:0:
448,192,130418,1,0,0:0:0:0:
64,192,130418,1,0,0:0:0:0:
64,192,130734,1,0,0:0:0:0:
192,192,130734,1,0,0:0:0:0:
320,192,130813,1,0,0:0:0:0:
448,192,130892,1,0,0:0:0:0:
64,192,130892,1,0,0:0:0:0:
192,192,130970,1,0,0:0:0:0:
320,192,131049,1,0,0:0:0:0:
448,192,131049,1,0,0:0:0:0:
64,192,131128,1,0,0:0:0:0:
192,192,131207,1,0,0:0:0:0:
448,192,131207,1,0,0:0:0:0:
320,192,131286,1,0,0:0:0:0:
192,192,131365,1,0,0:0:0:0:
64,192,131444,1,0,0:0:0:0:
320,192,131523,1,0,0:0:0:0:
192,192,131602,1,0,0:0:0:0:
320,192,131681,1,0,0:0:0:0:
448,192,131681,1,0,0:0:0:0:
192,192,131760,1,0,0:0:0:0:
448,192,131839,1,0,0:0:0:0:
320,192,131918,1,0,0:0:0:0:
64,192,131997,1,0,0:0:0:0:
192,192,132076,1,0,0:0:0:0:
320,192,132155,1,0,0:0:0:0:
448,192,132155,1,0,0:0:0:0:
64,192,132234,1,0,0:0:0:0:
192,192,132313,1,0,0:0:0:0:
320,192,132313,1,0,0:0:0:0:
448,192,132392,1,0,0:0:0:0:
192,192,132470,1,0,0:0:0:0:
64,192,132549,1,0,0:0:0:0:
320,192,132628,1,0,0:0:0:0:
448,192,132628,1,0,0:0:0:0:
192,192,132707,1,0,0:0:0:0:
320,192,132786,1,0,0:0:0:0:
192,192,132865,1,0,0:0:0:0:
448,192,132944,1,0,0:0:0:0:
64,192,132944,1,0,0:0:0:0:
320,192,133023,1,0,0:0:0:0:
192,192,133102,1,0,0:0:0:0:
64,192,133181,1,0,0:0:0:0:
320,192,133260,1,0,0:0:0:0:
448,192,133260,1,0,0:0:0:0:
192,192,133260,1,0,0:0:0:0:
64,192,133418,1,0,0:0:0:0:
320,192,133418,1,0,0:0:0:0:
448,192,133418,1,0,0:0:0:0:
64,192,133576,1,0,0:0:0:0:
320,192,133576,1,0,0:0:0:0:
448,192,133576,1,0,0:0:0:0:
64,192,133734,1,0,0:0:0:0:
192,192,133734,1,0,0:0:0:0:
448,192,133734,1,0,0:0:0:0:
64,192,134049,1,0,0:0:0:0:
192,192,134207,1,0,0:0:0:0:
320,192,134365,1,0,0:0:0:0:
448,192,134523,1,0,0:0:0:0:
192,192,134681,1,0,0:0:0:0:
320,192,134839,1,0,0:0:0:0:
64,192,134997,1,0,0:0:0:0:
448,192,135155,1,0,0:0:0:0:
64,192,135155,1,0,0:0:0:0:
192,192,135155,128,0,135786:0:0:0:0:
320,192,135155,1,0,0:0:0:0:
64,192,135786,1,0,0:0:0:0:
320,192,135786,1,0,0:0:0:0:
448,192,135786,1,0,0:0:0:0:
320,192,136418,1,0,0:0:0:0:
448,192,136418,1,0,0:0:0:0:
64,192,137049,1,0,0:0:0:0:
320,192,137049,1,0,0:0:0:0:
192,192,137681,1,0,0:0:0:0:
448,192,137681,1,0,0:0:0:0:
64,192,137681,1,0,0:0:0:0:
320,192,138313,1,0,0:0:0:0:
448,192,138313,1,0,0:0:0:0:
64,192,138313,1,0,0:0:0:0:
64,192,138944,1,0,0:0:0:0:
192,192,138944,1,0,0:0:0:0:
448,192,138944,1,0,0:0:0:0:
320,192,139418,1,0,0:0:0:0:
448,192,139418,1,0,0:0:0:0:
448,192,139576,1,0,0:0:0:0:
320,192,139576,1,0,0:0:0:0:
64,192,139813,1,0,0:0:0:0:
192,192,139813,1,0,0:0:0:0:
320,192,140049,1,0,0:0:0:0:
448,192,140049,1,0,0:0:0:0:
320,192,140207,1,0,0:0:0:0:
448,192,140207,1,0,0:0:0:0:
64,192,140207,1,0,0:0:0:0:
64,192,140839,1,0,0:0:0:0:
192,192,140839,1,0,0:0:0:0:
320,192,141470,1,0,0:0:0:0:
448,192,141470,1,0,0:0:0:0:
64,192,141470,1,0,0:0:0:0:
192,192,142102,1,0,0:0:0:0:
64,192,142102,1,0,0:0:0:0:
320,192,142734,1,0,0:0:0:0:
448,192,142734,1,0,0:0:0:0:
448,192,142839,1,0,0:0:0:0:
320,192,142839,1,0,0:0:0:0:
64,192,142944,1,0,0:0:0:0:
192,192,142944,1,0,0:0:0:0:
64,192,143049,1,0,0:0:0:0:
192,192,143049,1,0,0:0:0:0:
320,192,143207,1,0,0:0:0:0:
448,192,143207,1,0,0:0:0:0:
192,192,143286,1,0,0:0:0:0:
64,192,143286,1,0,0:0:0:0:
320,192,143365,1,0,0:0:0:0:
448,192,143365,1,0,0:0:0:0:
64,192,143997,1,0,0:0:0:0:
192,192,143997,1,0,0:0:0:0:
448,192,143997,1,0,0:0:0:0:
320,192,144470,1,0,0:0:0:0:
192,192,144470,1,0,0:0:0:0:
64,192,144470,1,0,0:0:0:0:
192,192,144628,1,0,0:0:0:0:
320,192,144628,1,0,0:0:0:0:
448,192,144628,1,0,0:0:0:0:
192,192,144865,1,0,0:0:0:0:
448,192,144865,1,0,0:0:0:0:
320,192,144865,1,0,0:0:0:0:
192,192,145102,1,0,0:0:0:0:
320,192,145102,1,0,0:0:0:0:
448,192,145102,1,0,0:0:0:0:
192,192,145260,1,0,0:0:0:0:
320,192,145260,1,0,0:0:0:0:
448,192,145260,1,0,0:0:0:0:
64,192,145892,1,0,0:0:0:0:
192,192,145892,1,0,0:0:0:0:
448,192,145892,1,0,0:0:0:0:
320,192,146523,1,0,0:0:0:0:
448,192,146523,1,0,0:0:0:0:
192,192,146523,1,0,0:0:0:0:
64,192,147155,1,0,0:0:0:0:
192,192,147155,1,0,0:0:0:0:
320,192,147786,1,0,0:0:0:0:
448,192,147786,1,0,0:0:0:0:
64,192,148418,1,0,0:0:0:0:
192,192,148418,1,0,0:0:0:0:
448,192,148418,1,0,0:0:0:0:
64,192,149049,1,0,0:0:0:0:
192,192,149049,1,0,0:0:0:0:
320,192,149049,1,0,0:0:0:0:
192,192,149523,1,0,0:0:0:0:
320,192,149523,1,0,0:0:0:0:
448,192,149681,1,0,0:0:0:0:
64,192,149681,1,0,0:0:0:0:
192,192,149681,1,0,0:0:0:0:
64,192,149918,1,0,0:0:0:0:
320,192,149918,1,0,0:0:0:0:
192,192,150155,1,0,0:0:0:0:
448,192,150155,1,0,0:0:0:0:
64,192,150313,1,0,0:0:0:0:
320,192,150313,1,0,0:0:0:0:
192,192,150313,1,0,0:0:0:0:
320,192,150944,1,0,0:0:0:0:
64,192,150944,1,0,0:0:0:0:
448,192,150944,1,0,0:0:0:0:
64,192,151576,1,0,0:0:0:0:
192,192,151576,1,0,0:0:0:0:
448,192,151576,1,0,0:0:0:0:
320,192,152207,1,0,0:0:0:0:
448,192,152207,1,0,0:0:0:0:
64,192,152207,1,0,0:0:0:0:
192,192,152839,1,0,0:0:0:0:
64,192,152839,1,0,0:0:0:0:
64,192,152944,1,0,0:0:0:0:
192,192,152944,1,0,0:0:0:0:
320,192,153049,1,0,0:0:0:0:
448,192,153049,1,0,0:0:0:0:
448,192,153155,1,0,0:0:0:0:
320,192,153155,1,0,0:0:0:0:
64,192,153470,1,0,0:0:0:0:
192,192,153470,1,0,0:0:0:0:
448,192,153470,1,0,0:0:0:0:
64,192,154102,1,0,0:0:0:0:
192,192,154102,1,0,0:0:0:0:
320,192,154102,1,0,0:0:0:0:
64,192,154576,1,0,0:0:0:0:
320,192,154576,1,0,0:0:0:0:
448,192,154576,1,0,0:0:0:0:
64,192,154734,1,0,0:0:0:0:
320,192,154734,1,0,0:0:0:0:
448,192,154734,1,0,0:0:0:0:
64,192,154970,1,0,0:0:0:0:
192,192,154970,1,0,0:0:0:0:
448,192,154970,1,0,0:0:0:0:
320,192,155207,1,0,0:0:0:0:
192,192,155207,1,0,0:0:0:0:
64,192,155207,1,0,0:0:0:0:
192,192,155365,1,0,0:0:0:0:
320,192,155365,1,0,0:0:0:0:
448,192,155365,1,0,0:0:0:0:
64,192,155523,1,0,0:0:0:0:
192,192,155681,1,0,0:0:0:0:
320,192,155839,1,0,0:0:0:0:
64,192,155997,1,0,0:0:0:0:
448,192,155997,128,0,163418:0:0:0:0:
64,192,157892,1,0,0:0:0:0:
192,192,157970,1,0,0:0:0:0:
64,192,158049,1,0,0:0:0:0:
192,192,158128,1,0,0:0:0:0:
64,192,158207,1,0,0:0:0:0:
192,192,158286,1,0,0:0:0:0:
64,192,158365,1,0,0:0:0:0:
192,192,158444,1,0,0:0:0:0:
64,192,160418,1,0,0:0:0:0:
192,192,160497,1,0,0:0:0:0:
64,192,160576,1,0,0:0:0:0:
192,192,160655,1,0,0:0:0:0:
64,192,160734,1,0,0:0:0:0:
192,192,160813,1,0,0:0:0:0:
64,192,160892,1,0,0:0:0:0:
192,192,160970,1,0,0:0:0:0:
64,192,161049,1,0,0:0:0:0:
192,192,161128,1,0,0:0:0:0:
64,192,161207,1,0,0:0:0:0:
192,192,161286,1,0,0:0:0:0:
64,192,161365,1,0,0:0:0:0:
192,192,161444,1,0,0:0:0:0:
64,192,161523,1,0,0:0:0:0:
192,192,161602,1,0,0:0:0:0:
64,192,161681,1,0,0:0:0:0:
192,192,161760,1,0,0:0:0:0:
64,192,161839,1,0,0:0:0:0:
192,192,161918,1,0,0:0:0:0:
64,192,161997,1,0,0:0:0:0:
192,192,162076,1,0,0:0:0:0:
64,192,162155,1,0,0:0:0:0:
192,192,162234,1,0,0:0:0:0:
64,192,162313,1,0,0:0:0:0:
192,192,162392,5,0,0:0:0:0:
64,192,162470,1,0,0:0:0:0:
192,192,162549,1,0,0:0:0:0:
64,192,162628,1,0,0:0:0:0:
192,192,162707,1,0,0:0:0:0:
64,192,162786,1,0,0:0:0:0:
192,192,162865,1,0,0:0:0:0:
64,192,162944,1,0,0:0:0:0:
192,192,163023,1,0,0:0:0:0:
64,192,163102,1,0,0:0:0:0:
192,192,163181,1,0,0:0:0:0:
64,192,163260,1,0,0:0:0:0:
192,192,163339,1,0,0:0:0:0:
64,192,163418,1,0,0:0:0:0:
192,192,163497,1,0,0:0:0:0:
320,192,163576,5,0,0:0:0:0:
64,192,163576,1,0,0:0:0:0:
448,192,163576,1,0,0:0:0:0:
448,192,164365,128,0,164523:0:0:0:0:
192,192,164365,128,0,164523:0:0:0:0:
64,192,164523,128,0,164681:0:0:0:0:
320,192,164523,128,0,164681:0:0:0:0:
192,192,164681,128,0,164839:0:0:0:0:
448,192,164681,128,0,164839:0:0:0:0:
64,192,164839,128,0,165076:0:0:0:0:
320,192,164839,128,0,165076:0:0:0:0:
192,192,164997,128,0,165234:0:0:0:0:
448,192,164997,128,0,165234:0:0:0:0:
64,192,165155,128,0,165549:0:0:0:0:
320,192,165155,128,0,165392:0:0:0:0:
192,192,165313,128,0,165549:0:0:0:0:
448,192,165313,128,0,165392:0:0:0:0:
320,192,165470,128,0,165707:0:0:0:0:
448,192,165470,128,0,165707:0:0:0:0:
64,192,165628,128,0,165786:0:0:0:0:
192,192,165628,128,0,165786:0:0:0:0:
320,192,165786,128,0,166102:0:0:0:0:
448,192,165786,128,0,166102:0:0:0:0:
64,192,166102,5,0,0:0:0:0:
448,192,166260,1,0,0:0:0:0:
320,192,166286,1,0,0:0:0:0:
192,192,166313,1,0,0:0:0:0:
64,192,166339,1,0,0:0:0:0:
448,192,166378,1,0,0:0:0:0:
320,192,166418,1,0,0:0:0:0:
192,192,166576,1,0,0:0:0:0:
192,192,166734,1,0,0:0:0:0:
64,192,166734,1,0,0:0:0:0:
320,192,166892,1,0,0:0:0:0:
448,192,166918,1,0,0:0:0:0:
64,192,166944,1,0,0:0:0:0:
192,192,166970,1,0,0:0:0:0:
320,192,166997,1,0,0:0:0:0:
448,192,167023,1,0,0:0:0:0:
64,192,167049,1,0,0:0:0:0:
192,192,167049,1,0,0:0:0:0:
448,192,167365,1,0,0:0:0:0:
320,192,167392,1,0,0:0:0:0:
192,192,167418,1,0,0:0:0:0:
64,192,167444,1,0,0:0:0:0:
320,192,167470,1,0,0:0:0:0:
448,192,167497,1,0,0:0:0:0:
192,192,167523,1,0,0:0:0:0:
64,192,167523,1,0,0:0:0:0:
448,192,167602,1,0,0:0:0:0:
320,192,167602,1,0,0:0:0:0:
64,192,167681,1,0,0:0:0:0:
192,192,167681,1,0,0:0:0:0:
320,192,167760,1,0,0:0:0:0:
448,192,167760,1,0,0:0:0:0:
192,192,167839,1,0,0:0:0:0:
64,192,167839,1,0,0:0:0:0:
320,192,167918,1,0,0:0:0:0:
448,192,167997,1,0,0:0:0:0:
192,192,168076,1,0,0:0:0:0:
320,192,168155,1,0,0:0:0:0:
64,192,168234,1,0,0:0:0:0:
448,192,168313,1,0,0:0:0:0:
320,192,168339,1,0,0:0:0:0:
192,192,168365,1,0,0:0:0:0:
64,192,168392,1,0,0:0:0:0:
448,192,168418,1,0,0:0:0:0:
320,192,168444,1,0,0:0:0:0:
192,192,168470,1,0,0:0:0:0:
64,192,168510,1,0,0:0:0:0:
320,192,168549,1,0,0:0:0:0:
448,192,168589,1,0,0:0:0:0:
192,192,168628,1,0,0:0:0:0:
64,192,168628,1,0,0:0:0:0:
448,192,168786,1,0,0:0:0:0:
320,192,168813,1,0,0:0:0:0:
64,192,168839,1,0,0:0:0:0:
192,192,168865,1,0,0:0:0:0:
320,192,168892,1,0,0:0:0:0:
448,192,168918,1,0,0:0:0:0:
192,192,168944,1,0,0:0:0:0:
64,192,168944,1,0,0:0:0:0:
320,192,169023,1,0,0:0:0:0:
448,192,169102,1,0,0:0:0:0:
64,192,169102,1,0,0:0:0:0:
192,192,169181,1,0,0:0:0:0:
320,192,169181,1,0,0:0:0:0:
64,192,169260,1,0,0:0:0:0:
192,192,169339,1,0,0:0:0:0:
320,192,169418,1,0,0:0:0:0:
448,192,169418,1,0,0:0:0:0:
192,192,169497,1,0,0:0:0:0:
64,192,169497,1,0,0:0:0:0:
320,192,169576,1,0,0:0:0:0:
448,192,169734,1,0,0:0:0:0:
64,192,169892,1,0,0:0:0:0:
192,192,169892,1,0,0:0:0:0:
448,192,169970,1,0,0:0:0:0:
320,192,170049,1,0,0:0:0:0:
192,192,170128,1,0,0:0:0:0:
64,192,170128,1,0,0:0:0:0:
320,192,170207,1,0,0:0:0:0:
192,192,170286,1,0,0:0:0:0:
64,192,170365,1,0,0:0:0:0:
320,192,170444,1,0,0:0:0:0:
192,192,170523,1,0,0:0:0:0:
448,192,170523,1,0,0:0:0:0:
64,192,170602,1,0,0:0:0:0:
320,192,170681,1,0,0:0:0:0:
448,192,170681,1,0,0:0:0:0:
192,192,170760,1,0,0:0:0:0:
64,192,170760,1,0,0:0:0:0:
320,192,170839,1,0,0:0:0:0:
448,192,170839,1,0,0:0:0:0:
192,192,170918,1,0,0:0:0:0:
64,192,170997,1,0,0:0:0:0:
448,192,170997,1,0,0:0:0:0:
320,192,171076,1,0,0:0:0:0:
64,192,171155,1,0,0:0:0:0:
192,192,171155,128,0,171470:0:0:0:0:
448,192,171470,1,0,0:0:0:0:
320,192,171470,1,0,0:0:0:0:
192,192,171549,1,0,0:0:0:0:
64,192,171549,1,0,0:0:0:0:
320,192,171628,1,0,0:0:0:0:
448,192,171628,1,0,0:0:0:0:
192,192,171707,1,0,0:0:0:0:
64,192,171786,1,0,0:0:0:0:
320,192,171865,1,0,0:0:0:0:
192,192,171944,1,0,0:0:0:0:
448,192,172023,1,0,0:0:0:0:
320,192,172102,1,0,0:0:0:0:
64,192,172102,1,0,0:0:0:0:
192,192,172181,1,0,0:0:0:0:
448,192,172181,1,0,0:0:0:0:
64,192,172260,1,0,0:0:0:0:
320,192,172260,1,0,0:0:0:0:
192,192,172339,1,0,0:0:0:0:
448,192,172339,1,0,0:0:0:0:
64,192,172418,1,0,0:0:0:0:
320,192,172418,1,0,0:0:0:0:
64,192,172576,1,0,0:0:0:0:
320,192,172576,1,0,0:0:0:0:
192,192,172734,1,0,0:0:0:0:
64,192,172813,1,0,0:0:0:0:
320,192,172892,128,0,173049:0:0:0:0:
448,192,172892,128,0,173049:0:0:0:0:
64,192,173049,1,0,0:0:0:0:
192,192,173069,1,0,0:0:0:0:
448,192,173089,1,0,0:0:0:0:
320,192,173109,1,0,0:0:0:0:
64,192,173128,1,0,0:0:0:0:
192,192,173148,1,0,0:0:0:0:
448,192,173168,1,0,0:0:0:0:
320,192,173188,1,0,0:0:0:0:
64,192,173207,1,0,0:0:0:0:
192,192,173207,1,0,0:0:0:0:
320,192,173286,1,0,0:0:0:0:
448,192,173365,1,0,0:0:0:0:
192,192,173444,1,0,0:0:0:0:
320,192,173523,1,0,0:0:0:0:
64,192,173602,1,0,0:0:0:0:
192,192,173681,1,0,0:0:0:0:
448,192,173681,1,0,0:0:0:0:
320,192,173760,1,0,0:0:0:0:
448,192,173839,1,0,0:0:0:0:
64,192,173918,1,0,0:0:0:0:
320,192,173918,1,0,0:0:0:0:
192,192,173997,1,0,0:0:0:0:
448,192,173997,1,0,0:0:0:0:
320,192,174076,1,0,0:0:0:0:
192,192,174155,1,0,0:0:0:0:
64,192,174155,1,0,0:0:0:0:
320,192,174194,1,0,0:0:0:0:
448,192,174234,1,0,0:0:0:0:
192,192,174273,1,0,0:0:0:0:
320,192,174313,1,0,0:0:0:0:
64,192,174352,1,0,0:0:0:0:
192,192,174392,1,0,0:0:0:0:
320,192,174431,1,0,0:0:0:0:
448,192,174470,1,0,0:0:0:0:
64,192,174470,1,0,0:0:0:0:
320,192,174549,1,0,0:0:0:0:
64,192,174628,1,0,0:0:0:0:
192,192,174648,1,0,0:0:0:0:
320,192,174668,1,0,0:0:0:0:
448,192,174688,1,0,0:0:0:0:
64,192,174707,1,0,0:0:0:0:
192,192,174727,1,0,0:0:0:0:
320,192,174747,1,0,0:0:0:0:
448,192,174767,1,0,0:0:0:0:
192,192,174786,1,0,0:0:0:0:
64,192,174806,1,0,0:0:0:0:
448,192,174826,1,0,0:0:0:0:
320,192,174845,1,0,0:0:0:0:
192,192,174865,1,0,0:0:0:0:
64,192,174885,1,0,0:0:0:0:
448,192,174905,1,0,0:0:0:0:
320,192,174924,1,0,0:0:0:0:
192,192,174944,1,0,0:0:0:0:
64,192,174944,1,0,0:0:0:0:
320,192,175102,1,0,0:0:0:0:
192,192,175181,1,0,0:0:0:0:
64,192,175260,1,0,0:0:0:0:
320,192,175339,1,0,0:0:0:0:
192,192,175418,1,0,0:0:0:0:
448,192,175497,1,0,0:0:0:0:
320,192,175576,1,0,0:0:0:0:
64,192,175576,128,0,175734:0:0:0:0:
192,192,175734,1,0,0:0:0:0:
320,192,175892,1,0,0:0:0:0:
448,192,176049,1,0,0:0:0:0:
64,192,176207,1,0,0:0:0:0:
192,192,176207,1,0,0:0:0:0:
192,192,176365,1,0,0:0:0:0:
320,192,176523,1,0,0:0:0:0:
448,192,176523,1,0,0:0:0:0:
192,192,176602,1,0,0:0:0:0:
64,192,176602,1,0,0:0:0:0:
448,192,176681,1,0,0:0:0:0:
192,192,176760,1,0,0:0:0:0:
64,192,176760,1,0,0:0:0:0:
320,192,176839,1,0,0:0:0:0:
192,192,176918,1,0,0:0:0:0:
320,192,176997,1,0,0:0:0:0:
448,192,176997,1,0,0:0:0:0:
64,192,177076,1,0,0:0:0:0:
320,192,177155,1,0,0:0:0:0:
192,192,177234,1,0,0:0:0:0:
64,192,177234,1,0,0:0:0:0:
448,192,177313,1,0,0:0:0:0:
320,192,177339,1,0,0:0:0:0:
192,192,177365,1,0,0:0:0:0:
64,192,177392,1,0,0:0:0:0:
320,192,177470,1,0,0:0:0:0:
448,192,177470,1,0,0:0:0:0:
192,192,177549,1,0,0:0:0:0:
64,192,177628,1,0,0:0:0:0:
448,192,177628,1,0,0:0:0:0:
320,192,177707,1,0,0:0:0:0:
192,192,177786,1,0,0:0:0:0:
64,192,177786,1,0,0:0:0:0:
320,192,177865,1,0,0:0:0:0:
64,192,177944,1,0,0:0:0:0:
192,192,177970,1,0,0:0:0:0:
320,192,177997,1,0,0:0:0:0:
448,192,178023,1,0,0:0:0:0:
64,192,178102,1,0,0:0:0:0:
192,192,178102,1,0,0:0:0:0:
320,192,178181,1,0,0:0:0:0:
192,192,178260,1,0,0:0:0:0:
448,192,178339,1,0,0:0:0:0:
64,192,178418,1,0,0:0:0:0:
320,192,178497,1,0,0:0:0:0:
192,192,178576,128,0,178734:0:0:0:0:
320,192,178734,1,0,0:0:0:0:
64,192,178813,1,0,0:0:0:0:
320,192,178892,1,0,0:0:0:0:
448,192,178892,1,0,0:0:0:0:
64,192,178970,1,0,0:0:0:0:
448,192,179049,1,0,0:0:0:0:
192,192,179049,1,0,0:0:0:0:
320,192,179128,1,0,0:0:0:0:
64,192,179128,1,0,0:0:0:0:
192,192,179207,1,0,0:0:0:0:
320,192,179286,1,0,0:0:0:0:
64,192,179365,1,0,0:0:0:0:
192,192,179365,1,0,0:0:0:0:
320,192,179444,1,0,0:0:0:0:
448,192,179444,1,0,0:0:0:0:
64,192,179523,1,0,0:0:0:0:
192,192,179602,1,0,0:0:0:0:
320,192,179681,1,0,0:0:0:0:
448,192,179681,1,0,0:0:0:0:
192,192,179720,1,0,0:0:0:0:
64,192,179720,1,0,0:0:0:0:
320,192,179760,1,0,0:0:0:0:
448,192,179760,1,0,0:0:0:0:
192,192,179799,1,0,0:0:0:0:
64,192,179799,1,0,0:0:0:0:
320,192,179839,1,0,0:0:0:0:
448,192,179839,1,0,0:0:0:0:
192,192,179918,1,0,0:0:0:0:
64,192,179997,1,0,0:0:0:0:
320,192,180076,1,0,0:0:0:0:
192,192,180155,1,0,0:0:0:0:
448,192,180234,1,0,0:0:0:0:
320,192,180260,1,0,0:0:0:0:
192,192,180286,1,0,0:0:0:0:
64,192,180313,1,0,0:0:0:0:
448,192,180392,1,0,0:0:0:0:
320,192,180392,1,0,0:0:0:0:
192,192,180470,1,0,0:0:0:0:
64,192,180470,1,0,0:0:0:0:
448,192,180628,1,0,0:0:0:0:
64,192,180786,1,0,0:0:0:0:
192,192,180806,1,0,0:0:0:0:
448,192,180826,1,0,0:0:0:0:
320,192,180845,1,0,0:0:0:0:
64,192,180865,1,0,0:0:0:0:
192,192,180885,1,0,0:0:0:0:
448,192,180905,1,0,0:0:0:0:
320,192,180924,1,0,0:0:0:0:
192,192,180944,1,0,0:0:0:0:
64,192,180944,1,0,0:0:0:0:
320,192,181023,1,0,0:0:0:0:
192,192,181102,1,0,0:0:0:0:
448,192,181181,1,0,0:0:0:0:
64,192,181260,128,0,181418:0:0:0:0:
192,192,181260,1,0,0:0:0:0:
320,192,181418,1,0,0:0:0:0:
192,192,181497,1,0,0:0:0:0:
448,192,181576,1,0,0:0:0:0:
320,192,181602,1,0,0:0:0:0:
192,192,181628,1,0,0:0:0:0:
64,192,181655,1,0,0:0:0:0:
320,192,181734,1,0,0:0:0:0:
192,192,181813,1,0,0:0:0:0:
64,192,181813,1,0,0:0:0:0:
320,192,181852,1,0,0:0:0:0:
448,192,181852,1,0,0:0:0:0:
64,192,182049,1,0,0:0:0:0:
192,192,182049,1,0,0:0:0:0:
320,192,182128,1,0,0:0:0:0:
448,192,182207,1,0,0:0:0:0:
192,192,182286,1,0,0:0:0:0:
320,192,182365,1,0,0:0:0:0:
192,192,182444,1,0,0:0:0:0:
64,192,182523,1,0,0:0:0:0:
192,192,182549,1,0,0:0:0:0:
320,192,182576,1,0,0:0:0:0:
448,192,182602,1,0,0:0:0:0:
320,192,182681,1,0,0:0:0:0:
64,192,182681,1,0,0:0:0:0:
192,192,182760,1,0,0:0:0:0:
448,192,182760,1,0,0:0:0:0:
64,192,182997,1,0,0:0:0:0:
320,192,182997,1,0,0:0:0:0:
192,192,183076,1,0,0:0:0:0:
448,192,183076,1,0,0:0:0:0:
64,192,183155,1,0,0:0:0:0:
320,192,183155,1,0,0:0:0:0:
192,192,183313,1,0,0:0:0:0:
320,192,183470,128,0,183786:0:0:0:0:
64,192,183786,1,0,0:0:0:0:
192,192,183786,1,0,0:0:0:0:
320,192,183865,1,0,0:0:0:0:
448,192,183865,1,0,0:0:0:0:
64,192,183944,1,0,0:0:0:0:
192,192,183944,1,0,0:0:0:0:
320,192,184023,1,0,0:0:0:0:
192,192,184102,128,0,184181:0:0:0:0:
448,192,184102,128,0,184181:0:0:0:0:
320,192,184181,128,0,184260:0:0:0:0:
64,192,184181,128,0,184260:0:0:0:0:
192,192,184260,128,0,184339:0:0:0:0:
448,192,184260,128,0,184339:0:0:0:0:
64,192,184339,128,0,184418:0:0:0:0:
320,192,184339,128,0,184418:0:0:0:0:
448,192,184418,1,0,0:0:0:0:
320,192,184497,1,0,0:0:0:0:
192,192,184576,1,0,0:0:0:0:
64,192,184655,1,0,0:0:0:0:
448,192,184734,1,0,0:0:0:0:
320,192,184760,1,0,0:0:0:0:
192,192,184786,1,0,0:0:0:0:
64,192,184813,1,0,0:0:0:0:
448,192,184839,1,0,0:0:0:0:
320,192,184865,1,0,0:0:0:0:
192,192,184892,1,0,0:0:0:0:
64,192,184970,1,0,0:0:0:0:
320,192,185049,1,0,0:0:0:0:
448,192,185049,1,0,0:0:0:0:
192,192,185128,1,0,0:0:0:0:
64,192,185128,1,0,0:0:0:0:
320,192,185207,1,0,0:0:0:0:
448,192,185207,1,0,0:0:0:0:
192,192,185247,1,0,0:0:0:0:
64,192,185247,1,0,0:0:0:0:
320,192,185286,1,0,0:0:0:0:
448,192,185286,1,0,0:0:0:0:
192,192,185326,1,0,0:0:0:0:
64,192,185326,1,0,0:0:0:0:
448,192,185365,1,0,0:0:0:0:
320,192,185405,1,0,0:0:0:0:
192,192,185444,1,0,0:0:0:0:
64,192,185484,1,0,0:0:0:0:
320,192,185523,1,0,0:0:0:0:
192,192,185563,1,0,0:0:0:0:
448,192,185602,1,0,0:0:0:0:
320,192,185642,1,0,0:0:0:0:
192,192,185681,1,0,0:0:0:0:
64,192,185681,1,0,0:0:0:0:
448,192,185839,1,0,0:0:0:0:
320,192,185859,1,0,0:0:0:0:
192,192,185878,1,0,0:0:0:0:
64,192,185898,1,0,0:0:0:0:
448,192,185918,1,0,0:0:0:0:
320,192,185938,1,0,0:0:0:0:
192,192,185957,1,0,0:0:0:0:
64,192,185977,1,0,0:0:0:0:
448,192,185997,1,0,0:0:0:0:
448,192,186313,128,0,188681:0:0:0:0:
192,192,186313,1,0,0:0:0:0:
320,192,188681,1,0,0:0:0:0:
320,192,188839,1,0,0:0:0:0:
448,192,188839,128,0,193734:0:0:0:0:
64,192,189944,1,0,0:0:0:0:
64,192,190102,1,0,0:0:0:0:
320,192,193734,1,0,0:0:0:0:
320,192,193892,1,0,0:0:0:0:
448,192,193892,128,0,195786:0:0:0:0:
192,192,194997,1,0,0:0:0:0:
192,192,195155,1,0,0:0:0:0:
64,192,195786,128,0,195944:0:0:0:0:
192,192,195786,128,0,195944:0:0:0:0:
192,192,196418,1,0,0:0:0:0:
64,192,196418,1,0,0:0:0:0:
448,192,196497,1,0,0:0:0:0:
64,192,196576,1,0,0:0:0:0:
192,192,196655,1,0,0:0:0:0:
320,192,196734,1,0,0:0:0:0:
448,192,196734,1,0,0:0:0:0:
64,192,196734,1,0,0:0:0:0:
320,192,196892,1,0,0:0:0:0:
192,192,196892,1,0,0:0:0:0:
64,192,196970,1,0,0:0:0:0:
448,192,197049,1,0,0:0:0:0:
192,192,197128,1,0,0:0:0:0:
64,192,197207,1,0,0:0:0:0:
448,192,197207,1,0,0:0:0:0:
320,192,197207,1,0,0:0:0:0:
448,192,197681,1,0,0:0:0:0:
320,192,197681,1,0,0:0:0:0:
192,192,197760,1,0,0:0:0:0:
320,192,197839,1,0,0:0:0:0:
192,192,197918,1,0,0:0:0:0:
448,192,197997,1,0,0:0:0:0:
64,192,197997,1,0,0:0:0:0:
320,192,197997,1,0,0:0:0:0:
448,192,198155,1,0,0:0:0:0:
64,192,198155,1,0,0:0:0:0:
320,192,198234,1,0,0:0:0:0:
192,192,198313,1,0,0:0:0:0:
64,192,198313,1,0,0:0:0:0:
320,192,198470,1,0,0:0:0:0:
192,192,198628,1,0,0:0:0:0:
448,192,198628,1,0,0:0:0:0:
64,192,198628,1,0,0:0:0:0:
448,192,198944,1,0,0:0:0:0:
320,192,198944,1,0,0:0:0:0:
192,192,199023,1,0,0:0:0:0:
64,192,199102,1,0,0:0:0:0:
448,192,199181,1,0,0:0:0:0:
192,192,199260,1,0,0:0:0:0:
64,192,199260,1,0,0:0:0:0:
320,192,199260,1,0,0:0:0:0:
64,192,199418,1,0,0:0:0:0:
192,192,199418,1,0,0:0:0:0:
448,192,199497,1,0,0:0:0:0:
64,192,199576,1,0,0:0:0:0:
448,192,199655,1,0,0:0:0:0:
320,192,199734,1,0,0:0:0:0:
192,192,199734,1,0,0:0:0:0:
64,192,199734,1,0,0:0:0:0:
192,192,200049,1,0,0:0:0:0:
320,192,200207,1,0,0:0:0:0:
192,192,200207,1,0,0:0:0:0:
64,192,200207,1,0,0:0:0:0:
448,192,200286,1,0,0:0:0:0:
64,192,200365,1,0,0:0:0:0:
192,192,200444,1,0,0:0:0:0:
448,192,200523,1,0,0:0:0:0:
320,192,200523,1,0,0:0:0:0:
64,192,200602,1,0,0:0:0:0:
320,192,200681,1,0,0:0:0:0:
448,192,200681,1,0,0:0:0:0:
64,192,200760,1,0,0:0:0:0:
192,192,200839,1,0,0:0:0:0:
448,192,200918,1,0,0:0:0:0:
192,192,200997,1,0,0:0:0:0:
64,192,200997,1,0,0:0:0:0:
320,192,200997,1,0,0:0:0:0:
448,192,201155,128,0,201470:0:0:0:0:
192,192,201470,1,0,0:0:0:0:
64,192,201470,1,0,0:0:0:0:
448,192,201549,1,0,0:0:0:0:
192,192,201628,1,0,0:0:0:0:
320,192,201707,1,0,0:0:0:0:
192,192,201786,1,0,0:0:0:0:
448,192,201786,1,0,0:0:0:0:
64,192,201786,1,0,0:0:0:0:
192,192,201944,1,0,0:0:0:0:
64,192,201944,1,0,0:0:0:0:
448,192,202023,1,0,0:0:0:0:
192,192,202102,1,0,0:0:0:0:
448,192,202181,1,0,0:0:0:0:
64,192,202260,1,0,0:0:0:0:
192,192,202260,1,0,0:0:0:0:
320,192,202260,1,0,0:0:0:0:
448,192,202418,1,0,0:0:0:0:
192,192,202497,1,0,0:0:0:0:
448,192,202576,1,0,0:0:0:0:
448,192,202655,1,0,0:0:0:0:
64,192,202734,1,0,0:0:0:0:
320,192,202734,1,0,0:0:0:0:
192,192,202813,1,0,0:0:0:0:
448,192,202892,1,0,0:0:0:0:
320,192,202970,1,0,0:0:0:0:
64,192,203049,1,0,0:0:0:0:
448,192,203049,1,0,0:0:0:0:
192,192,203049,1,0,0:0:0:0:
320,192,203207,1,0,0:0:0:0:
448,192,203207,1,0,0:0:0:0:
192,192,203286,1,0,0:0:0:0:
64,192,203365,1,0,0:0:0:0:
320,192,203365,1,0,0:0:0:0:
192,192,203523,1,0,0:0:0:0:
320,192,203681,1,0,0:0:0:0:
64,192,203681,1,0,0:0:0:0:
448,192,203681,1,0,0:0:0:0:
64,192,203997,1,0,0:0:0:0:
320,192,203997,1,0,0:0:0:0:
448,192,204076,1,0,0:0:0:0:
192,192,204155,1,0,0:0:0:0:
64,192,204234,1,0,0:0:0:0:
192,192,204313,1,0,0:0:0:0:
448,192,204313,1,0,0:0:0:0:
320,192,204313,1,0,0:0:0:0:
64,192,204470,1,0,0:0:0:0:
192,192,204470,1,0,0:0:0:0:
448,192,204549,1,0,0:0:0:0:
192,192,204628,1,0,0:0:0:0:
320,192,204707,1,0,0:0:0:0:
192,192,204786,1,0,0:0:0:0:
448,192,204786,1,0,0:0:0:0:
64,192,204786,1,0,0:0:0:0:
192,192,205102,1,0,0:0:0:0:
64,192,205102,1,0,0:0:0:0:
320,192,205181,1,0,0:0:0:0:
192,192,205181,1,0,0:0:0:0:
320,192,205260,1,0,0:0:0:0:
448,192,205260,1,0,0:0:0:0:
64,192,205260,1,0,0:0:0:0:
448,192,205418,1,0,0:0:0:0:
64,192,205418,1,0,0:0:0:0:
320,192,205418,1,0,0:0:0:0:
448,192,205576,1,0,0:0:0:0:
320,192,205576,1,0,0:0:0:0:
192,192,205576,1,0,0:0:0:0:
448,192,205734,1,0,0:0:0:0:
64,192,205734,1,0,0:0:0:0:
192,192,205892,1,0,0:0:0:0:
448,192,206049,1,0,0:0:0:0:
64,192,206049,1,0,0:0:0:0:
320,192,206049,1,0,0:0:0:0:
64,192,206207,1,0,0:0:0:0:
320,192,206207,1,0,0:0:0:0:
192,192,206207,128,0,206365:0:0:0:0:
64,192,206523,1,0,0:0:0:0:
448,192,206523,1,0,0:0:0:0:
320,192,206523,1,0,0:0:0:0:
192,192,206602,1,0,0:0:0:0:
320,192,206681,1,0,0:0:0:0:
448,192,206760,1,0,0:0:0:0:
64,192,206839,1,0,0:0:0:0:
192,192,206839,1,0,0:0:0:0:
320,192,206839,1,0,0:0:0:0:
64,192,206997,1,0,0:0:0:0:
448,192,206997,1,0,0:0:0:0:
320,192,207076,1,0,0:0:0:0:
192,192,207155,1,0,0:0:0:0:
448,192,207234,1,0,0:0:0:0:
320,192,207313,1,0,0:0:0:0:
192,192,207313,1,0,0:0:0:0:
64,192,207313,1,0,0:0:0:0:
320,192,207786,1,0,0:0:0:0:
64,192,207786,1,0,0:0:0:0:
192,192,207865,1,0,0:0:0:0:
448,192,207944,1,0,0:0:0:0:
320,192,208023,1,0,0:0:0:0:
192,192,208102,1,0,0:0:0:0:
448,192,208102,1,0,0:0:0:0:
64,192,208102,1,0,0:0:0:0:
448,192,208260,1,0,0:0:0:0:
320,192,208260,1,0,0:0:0:0:
64,192,208339,1,0,0:0:0:0:
448,192,208418,1,0,0:0:0:0:
192,192,208418,1,0,0:0:0:0:
320,192,208576,1,0,0:0:0:0:
448,192,208734,1,0,0:0:0:0:
64,192,208734,1,0,0:0:0:0:
192,192,208734,1,0,0:0:0:0:
448,192,209049,1,0,0:0:0:0:
64,192,209049,1,0,0:0:0:0:
320,192,209128,1,0,0:0:0:0:
64,192,209207,1,0,0:0:0:0:
192,192,209286,1,0,0:0:0:0:
448,192,209365,1,0,0:0:0:0:
320,192,209365,1,0,0:0:0:0:
64,192,209365,1,0,0:0:0:0:
320,192,209523,1,0,0:0:0:0:
192,192,209523,1,0,0:0:0:0:
64,192,209602,1,0,0:0:0:0:
448,192,209681,1,0,0:0:0:0:
192,192,209760,1,0,0:0:0:0:
64,192,209839,1,0,0:0:0:0:
448,192,209839,1,0,0:0:0:0:
320,192,209839,1,0,0:0:0:0:
448,192,210155,1,0,0:0:0:0:
64,192,210313,1,0,0:0:0:0:
448,192,210313,1,0,0:0:0:0:
320,192,210313,1,0,0:0:0:0:
192,192,210392,1,0,0:0:0:0:
320,192,210470,1,0,0:0:0:0:
448,192,210549,1,0,0:0:0:0:
192,192,210628,1,0,0:0:0:0:
64,192,210628,1,0,0:0:0:0:
320,192,210707,1,0,0:0:0:0:
64,192,210786,1,0,0:0:0:0:
192,192,210786,1,0,0:0:0:0:
320,192,210865,1,0,0:0:0:0:
448,192,210944,1,0,0:0:0:0:
192,192,211023,1,0,0:0:0:0:
448,192,211102,1,0,0:0:0:0:
320,192,211102,1,0,0:0:0:0:
64,192,211102,1,0,0:0:0:0:
192,192,211260,128,0,211576:0:0:0:0:
64,192,211576,1,0,0:0:0:0:
320,192,211576,1,0,0:0:0:0:
448,192,211655,1,0,0:0:0:0:
64,192,211734,1,0,0:0:0:0:
192,192,211813,1,0,0:0:0:0:
64,192,211892,1,0,0:0:0:0:
448,192,211892,1,0,0:0:0:0:
320,192,211892,1,0,0:0:0:0:
64,192,212049,1,0,0:0:0:0:
448,192,212049,1,0,0:0:0:0:
192,192,212128,1,0,0:0:0:0:
320,192,212207,1,0,0:0:0:0:
448,192,212286,1,0,0:0:0:0:
320,192,212365,1,0,0:0:0:0:
192,192,212365,1,0,0:0:0:0:
64,192,212365,1,0,0:0:0:0:
448,192,212523,1,0,0:0:0:0:
320,192,212602,1,0,0:0:0:0:
192,192,212681,1,0,0:0:0:0:
192,192,212760,1,0,0:0:0:0:
320,192,212839,1,0,0:0:0:0:
64,192,212839,1,0,0:0:0:0:
448,192,212918,1,0,0:0:0:0:
64,192,212997,1,0,0:0:0:0:
192,192,213076,1,0,0:0:0:0:
320,192,213155,1,0,0:0:0:0:
64,192,213155,1,0,0:0:0:0:
448,192,213155,1,0,0:0:0:0:
192,192,213313,1,0,0:0:0:0:
448,192,213313,1,0,0:0:0:0:
320,192,213392,1,0,0:0:0:0:
192,192,213470,1,0,0:0:0:0:
64,192,213470,1,0,0:0:0:0:
320,192,213628,1,0,0:0:0:0:
64,192,213786,1,0,0:0:0:0:
448,192,213786,1,0,0:0:0:0:
192,192,213786,1,0,0:0:0:0:
320,192,214102,1,0,0:0:0:0:
192,192,214102,1,0,0:0:0:0:
64,192,214102,1,0,0:0:0:0:
448,192,214181,1,0,0:0:0:0:
64,192,214260,1,0,0:0:0:0:
320,192,214339,1,0,0:0:0:0:
448,192,214418,1,0,0:0:0:0:
192,192,214418,1,0,0:0:0:0:
64,192,214418,1,0,0:0:0:0:
320,192,214576,1,0,0:0:0:0:
448,192,214576,1,0,0:0:0:0:
192,192,214655,1,0,0:0:0:0:
320,192,214734,1,0,0:0:0:0:
448,192,214813,1,0,0:0:0:0:
64,192,214892,1,0,0:0:0:0:
192,192,214892,1,0,0:0:0:0:
320,192,214892,1,0,0:0:0:0:
448,192,215207,1,0,0:0:0:0:
64,192,215207,1,0,0:0:0:0:
320,192,215207,1,0,0:0:0:0:
192,192,215681,1,0,0:0:0:0:
64,192,215681,1,0,0:0:0:0:
448,192,215681,1,0,0:0:0:0:
64,192,215997,1,0,0:0:0:0:
320,192,215997,1,0,0:0:0:0:
448,192,215997,1,0,0:0:0:0:
448,192,216313,1,0,0:0:0:0:
64,192,216313,1,0,0:0:0:0:
64,192,216628,1,0,0:0:0:0:
448,192,216628,1,0,0:0:0:0:
320,192,216628,1,0,0:0:0:0:
192,192,216707,1,0,0:0:0:0:
320,192,216786,1,0,0:0:0:0:
448,192,216865,1,0,0:0:0:0:
64,192,216944,1,0,0:0:0:0:
192,192,216944,1,0,0:0:0:0:
320,192,216944,1,0,0:0:0:0:
64,192,217102,1,0,0:0:0:0:
448,192,217102,1,0,0:0:0:0:
320,192,217181,1,0,0:0:0:0:
192,192,217260,1,0,0:0:0:0:
448,192,217339,1,0,0:0:0:0:
320,192,217418,1,0,0:0:0:0:
192,192,217418,1,0,0:0:0:0:
64,192,217418,1,0,0:0:0:0:
192,192,217892,1,0,0:0:0:0:
64,192,217892,1,0,0:0:0:0:
448,192,217970,1,0,0:0:0:0:
64,192,218049,1,0,0:0:0:0:
448,192,218128,1,0,0:0:0:0:
192,192,218207,1,0,0:0:0:0:
320,192,218207,1,0,0:0:0:0:
64,192,218207,1,0,0:0:0:0:
192,192,218365,1,0,0:0:0:0:
320,192,218365,1,0,0:0:0:0:
64,192,218444,1,0,0:0:0:0:
448,192,218523,1,0,0:0:0:0:
320,192,218523,1,0,0:0:0:0:
64,192,218681,1,0,0:0:0:0:
448,192,218839,1,0,0:0:0:0:
192,192,218839,1,0,0:0:0:0:
320,192,218839,1,0,0:0:0:0:
192,192,219155,1,0,0:0:0:0:
64,192,219155,1,0,0:0:0:0:
448,192,219234,1,0,0:0:0:0:
320,192,219313,1,0,0:0:0:0:
192,192,219392,1,0,0:0:0:0:
448,192,219470,1,0,0:0:0:0:
320,192,219470,1,0,0:0:0:0:
64,192,219470,1,0,0:0:0:0:
320,192,219628,1,0,0:0:0:0:
448,192,219628,1,0,0:0:0:0:
192,192,219707,1,0,0:0:0:0:
320,192,219786,1,0,0:0:0:0:
192,192,219865,1,0,0:0:0:0:
64,192,219944,1,0,0:0:0:0:
448,192,219944,1,0,0:0:0:0:
320,192,219944,1,0,0:0:0:0:
448,192,220260,1,0,0:0:0:0:
64,192,220418,1,0,0:0:0:0:
448,192,220418,1,0,0:0:0:0:
320,192,220418,1,0,0:0:0:0:
192,192,220497,1,0,0:0:0:0:
320,192,220576,1,0,0:0:0:0:
448,192,220655,1,0,0:0:0:0:
192,192,220734,1,0,0:0:0:0:
64,192,220734,1,0,0:0:0:0:
320,192,220813,1,0,0:0:0:0:
64,192,220892,1,0,0:0:0:0:
192,192,220892,1,0,0:0:0:0:
320,192,220970,1,0,0:0:0:0:
448,192,221049,1,0,0:0:0:0:
192,192,221128,1,0,0:0:0:0:
448,192,221207,1,0,0:0:0:0:
320,192,221207,1,0,0:0:0:0:
64,192,221207,1,0,0:0:0:0:
192,192,221365,128,0,221681:0:0:0:0:
448,192,221681,1,0,0:0:0:0:
320,192,221681,1,0,0:0:0:0:
192,192,221839,1,0,0:0:0:0:
320,192,221997,1,0,0:0:0:0:
448,192,221997,1,0,0:0:0:0:
64,192,222155,1,0,0:0:0:0:
320,192,222313,1,0,0:0:0:0:
448,192,222313,1,0,0:0:0:0:
192,192,222470,1,0,0:0:0:0:
320,192,222628,1,0,0:0:0:0:
448,192,222628,1,0,0:0:0:0:
192,192,222786,1,0,0:0:0:0:
192,192,222944,1,0,0:0:0:0:
64,192,222944,1,0,0:0:0:0:
448,192,223102,1,0,0:0:0:0:
64,192,223260,1,0,0:0:0:0:
192,192,223260,1,0,0:0:0:0:
320,192,223418,1,0,0:0:0:0:
64,192,223576,1,0,0:0:0:0:
192,192,223576,1,0,0:0:0:0:
448,192,223734,1,0,0:0:0:0:
64,192,223892,1,0,0:0:0:0:
192,192,223892,1,0,0:0:0:0:
192,192,224049,1,0,0:0:0:0:
320,192,224207,1,0,0:0:0:0:
448,192,224207,1,0,0:0:0:0:
64,192,224207,1,0,0:0:0:0:
192,192,224286,1,0,0:0:0:0:
64,192,224365,1,0,0:0:0:0:
448,192,224365,1,0,0:0:0:0:
320,192,224444,1,0,0:0:0:0:
192,192,224523,1,0,0:0:0:0:
64,192,224523,1,0,0:0:0:0:
320,192,224602,1,0,0:0:0:0:
192,192,224681,1,0,0:0:0:0:
448,192,224681,1,0,0:0:0:0:
64,192,224760,1,0,0:0:0:0:
320,192,224839,1,0,0:0:0:0:
448,192,224839,1,0,0:0:0:0:
192,192,224918,1,0,0:0:0:0:
64,192,224997,1,0,0:0:0:0:
320,192,224997,1,0,0:0:0:0:
448,192,225076,1,0,0:0:0:0:
192,192,225155,1,0,0:0:0:0:
64,192,225155,1,0,0:0:0:0:
320,192,225155,1,0,0:0:0:0:
448,192,225234,1,0,0:0:0:0:
320,192,225313,1,0,0:0:0:0:
192,192,225313,1,0,0:0:0:0:
64,192,225392,1,0,0:0:0:0:
320,192,225470,1,0,0:0:0:0:
448,192,225470,128,0,226418:0:0:0:0:
192,192,225470,1,0,0:0:0:0:
192,192,226418,1,0,0:0:0:0:
64,192,226418,128,0,226734:0:0:0:0:
320,192,245681,5,0,0:0:0:0:
64,192,245681,1,0,0:0:0:0:
192,192,245681,1,0,0:0:0:0:
448,192,245681,1,0,0:0:0:0:
320,192,245997,1,0,0:0:0:0:
448,192,245997,1,0,0:0:0:0:
448,192,246076,1,0,0:0:0:0:
320,192,246076,1,0,0:0:0:0:
192,192,246155,1,0,0:0:0:0:
64,192,246155,1,0,0:0:0:0:
64,192,246234,1,0,0:0:0:0:
192,192,246234,1,0,0:0:0:0:
320,192,246313,1,0,0:0:0:0:
448,192,246313,1,0,0:0:0:0:
448,192,246392,1,0,0:0:0:0:
320,192,246392,1,0,0:0:0:0:
192,192,246470,1,0,0:0:0:0:
64,192,246470,1,0,0:0:0:0:
64,192,246549,1,0,0:0:0:0:
192,192,246549,1,0,0:0:0:0:
320,192,246628,1,0,0:0:0:0:
448,192,246628,1,0,0:0:0:0:
320,192,246707,1,0,0:0:0:0:
192,192,246786,1,0,0:0:0:0:
192,192,246865,1,0,0:0:0:0:
64,192,246944,1,0,0:0:0:0:
64,192,247023,1,0,0:0:0:0:
448,192,247102,1,0,0:0:0:0:
448,192,247181,1,0,0:0:0:0:
320,192,247260,1,0,0:0:0:0:
320,192,247339,1,0,0:0:0:0:
192,192,247418,1,0,0:0:0:0:
192,192,247497,1,0,0:0:0:0:
64,192,247576,1,0,0:0:0:0:
64,192,247655,1,0,0:0:0:0:
320,192,247734,1,0,0:0:0:0:
320,192,247813,1,0,0:0:0:0:
192,192,247892,1,0,0:0:0:0:
192,192,247970,1,0,0:0:0:0:
448,192,248049,1,0,0:0:0:0:
448,192,248128,1,0,0:0:0:0:
64,192,248207,1,0,0:0:0:0:
64,192,248286,1,0,0:0:0:0:
192,192,248365,1,0,0:0:0:0:
192,192,248444,1,0,0:0:0:0:
320,192,248523,1,0,0:0:0:0:
320,192,248602,1,0,0:0:0:0:
448,192,248681,1,0,0:0:0:0:
448,192,248760,1,0,0:0:0:0:
64,192,248839,1,0,0:0:0:0:
192,192,248839,1,0,0:0:0:0:
320,192,248839,1,0,0:0:0:0:
