osu file format v14

[General]
AudioFilename: audio.mp3
AudioLeadIn: 0
PreviewTime: 87933
Countdown: 0
SampleSet: Normal
StackLeniency: 0.4
Mode: 0
LetterboxInBreaks: 0
WidescreenStoryboard: 0

[Editor]
Bookmarks: 7564,12617,17669,22722,50985,60617
DistanceSpacing: 1
BeatDivisor: 4
GridSize: 32
TimelineZoom: 3.099998

[Metadata]
Title:Evanescent
TitleUnicode:Evanescent
Artist:LeaF
ArtistUnicode:LeaF
Creator:Anxient
Version:Insane
Source:BMS
Tags:optie post drum'n'bass dnb bof bms of fighters sen-goku 戦國 ktgster rohit6 snownino_ JBHyperion Ascendance
BeatmapID:1045832
BeatmapSetID:440997

[Difficulty]
HPDrainRate:5
CircleSize:4
OverallDifficulty:7
ApproachRate:9
SliderMultiplier:1.5
SliderTickRate:1

[Events]
//Background and Video events
0,0,"eavae.jpg",0,0
Video,-150,"Evanescent.avi"
//Break Periods
//Storyboard Layer 0 (Background)
//Storyboard Layer 1 (Fail)
//Storyboard Layer 2 (Pass)
//Storyboard Layer 3 (Foreground)
//Storyboard Sound Samples

[TimingPoints]
2512,315.789473684211,4,1,1,20,1,0
7564,-100,4,1,1,60,0,0
8512,-100,4,1,1,60,0,0
8827,-100,4,1,1,80,0,0
11196,-100,4,1,2,80,0,0
11354,-100,4,1,2,60,0,0
11669,-100,4,1,1,60,0,0
11827,-100,4,1,2,60,0,0
12143,-100,4,1,1,70,0,0
12301,-100,4,1,2,50,0,0
12617,-100,4,1,1,80,0,0
13722,-100,4,1,1,80,0,0
13880,-100,4,1,1,80,0,0
14985,-100,4,1,5,50,0,0
15143,-100,4,1,1,80,0,0
16406,-100,4,1,2,60,0,0
16722,-100,4,1,1,60,0,0
16880,-100,4,1,2,60,0,0
17196,-100,4,1,1,70,0,0
17354,-100,4,1,2,70,0,0
17669,-100,4,1,1,80,0,0
18617,-100,4,1,1,60,0,0
18933,-100,4,1,1,80,0,0
21301,-100,4,1,2,60,0,0
21775,-100,4,1,1,60,0,0
21933,-100,4,1,2,60,0,0
22248,-100,4,1,1,60,0,0
22406,-100,4,1,2,30,0,0
22722,-100,4,1,1,80,0,0
23669,-100,4,1,1,60,0,0
23985,-100,4,1,1,80,0,0
25091,-100,4,1,5,50,0,0
25248,-100,4,1,1,80,0,0
27775,-100,4,1,1,60,0,0
29038,-133.333333333333,4,1,1,45,0,0
29985,-133.333333333333,4,1,1,60,0,0
30301,-200,4,1,1,60,0,0
31564,-133.333333333333,4,1,1,45,0,0
32196,-133.333333333333,4,1,1,45,0,0
32512,-133.333333333333,4,1,1,60,0,0
32827,-153.846153846153,4,1,1,60,0,0
34090,-153.846153846153,4,1,2,45,0,0
34406,-133.333333333333,4,1,2,45,0,0
34722,-117.647058823529,4,1,2,45,0,0
35038,-117.647058823529,4,1,1,30,0,0
35354,-117.647058823529,4,1,1,60,0,0
35985,-117.647058823529,4,1,7,60,0,0
37406,-100,4,1,2,45,0,0
37880,-100,4,1,1,80,0,0
39933,-100,4,1,2,60,0,0
40406,-100,4,1,1,80,0,0
41512,-100,4,1,2,80,0,0
41827,-100,4,1,1,80,0,0
42617,-100,4,1,2,80,0,0
42933,-100,4,1,1,80,0,0
43722,-100,4,1,1,45,0,0
44196,-100,4,1,1,80,0,0
44827,-100,4,1,7,50,0,0
45143,-100,4,1,2,80,0,0
45459,-100,4,1,2,80,0,0
50512,-100,4,1,4,80,0,0
57775,-100,4,1,4,70,0,0
58090,-100,4,1,4,80,0,0
59985,-100,4,1,4,60,0,0
60143,-100,4,1,4,80,0,0
60301,-100,4,1,9,100,0,0
60617,-100,4,1,9,90,0,0
61090,-100,4,1,9,80,0,0
61564,-100,4,1,9,70,0,0
62038,-100,4,1,9,60,0,0
62512,-100,4,1,4,90,0,0
63143,-153.846153846153,4,1,1,30,0,0
65196,-100,4,1,4,60,0,0
65354,-100,4,1,9,100,0,0
65669,-100,4,1,1,80,0,0
66775,-100,4,1,7,80,0,0
66933,-100,4,1,1,80,0,0
70406,-100,4,1,2,40,0,0
70722,-100,4,1,6,50,0,0
71038,-100,4,1,6,55,0,0
71354,-100,4,1,6,60,0,0
71669,-100,4,1,6,65,0,0
71985,-100,4,1,6,70,0,0
72301,-100,4,1,6,75,0,0
72617,-100,4,1,6,80,0,0
72933,-100,4,1,6,85,0,0
73248,-100,4,1,1,90,0,0
75459,-100,4,1,2,50,0,0
75775,-100,4,1,6,80,0,0
79090,-100,4,1,6,20,0,0
79169,-100,4,1,6,80,0,0
79327,-100,4,1,6,20,0,0
79406,-100,4,1,6,80,0,0
79485,-100,4,1,6,20,0,0
79564,-100,4,1,6,80,0,0
83827,-100,4,1,4,60,0,0
83985,-100,4,1,6,80,0,0
84222,-100,4,1,6,80,0,0
84459,-100,4,1,6,80,0,0
84617,-100,4,1,6,80,0,0
84696,-100,4,1,6,40,0,0
84933,-100,4,1,6,45,0,0
85248,-100,4,1,6,50,0,0
85564,-100,4,1,1,55,0,0
85880,-100,4,1,6,60,0,0
86196,-100,4,1,6,65,0,0
86512,-100,4,1,6,80,0,0
86827,-100,4,1,6,75,0,0
87143,-100,4,1,6,80,0,0
87459,-100,4,1,6,85,0,0
87775,-100,4,1,1,90,0,0
88406,-90.9090909090909,4,1,1,90,0,1
89353,-90.9090909090909,4,1,1,60,0,1
89354,-90.9090909090909,4,1,1,60,0,0
89669,-90.9090909090909,4,1,1,90,0,1
90301,-90.9090909090909,4,1,1,90,0,1
90617,-90.9090909090909,4,1,1,90,0,0
90933,-90.9090909090909,4,1,1,90,0,1
92038,-90.9090909090909,4,1,2,70,0,0
92196,-90.9090909090909,4,1,2,70,0,1
92512,-90.9090909090909,4,1,1,70,0,1
92985,-90.9090909090909,4,1,1,70,0,1
93143,-90.9090909090909,4,1,2,50,0,0
93459,-90.9090909090909,4,1,1,90,0,1
94406,-90.9090909090909,4,1,1,60,0,1
94564,-90.9090909090909,4,1,1,60,0,1
94722,-90.9090909090909,4,1,1,60,0,1
95669,-90.9090909090909,4,1,1,90,0,0
95985,-90.9090909090909,4,1,1,90,0,1
97248,-90.9090909090909,4,1,2,70,0,1
97564,-90.9090909090909,4,1,1,70,0,1
97722,-90.9090909090909,4,1,2,70,0,1
98038,-90.9090909090909,4,1,1,70,0,1
98196,-90.9090909090909,4,1,1,70,0,0
98512,-90.9090909090909,4,1,2,90,0,1
98827,-90.9090909090909,4,1,1,90,0,1
98985,-90.9090909090909,4,1,2,90,0,1
99301,-90.9090909090909,4,1,1,90,0,1
99459,-90.9090909090909,4,1,1,80,0,1
99775,-90.9090909090909,4,1,1,90,0,1
100722,-90.9090909090909,4,1,1,90,0,0
101038,-90.9090909090909,4,1,1,90,0,1
102143,-90.9090909090909,4,1,2,70,0,0
102301,-90.9090909090909,4,1,2,70,0,1
102617,-90.9090909090909,4,1,1,70,0,1
102775,-90.9090909090909,4,1,2,70,0,1
103090,-90.9090909090909,4,1,1,70,0,1
103248,-90.9090909090909,4,1,1,30,0,0
103564,-90.9090909090909,4,1,1,90,0,1
104512,-90.9090909090909,4,1,1,60,0,1
104669,-90.9090909090909,4,1,1,60,0,1
104827,-90.9090909090909,4,1,1,90,0,1
105775,-90.9090909090909,4,1,1,60,0,1
105933,-90.9090909090909,4,1,5,60,0,1
106090,-90.9090909090909,4,1,1,90,0,1
108617,-90.9090909090909,4,1,4,60,0,1
108656,-90.9090909090909,4,1,4,10,0,1
109564,-90.9090909090909,4,1,2,90,0,1
109880,-90.9090909090909,4,1,1,70,0,1
110196,-90.9090909090909,4,1,1,90,0,1
110512,-90.9090909090909,4,1,1,100,0,1
110669,-90.9090909090909,4,1,1,60,0,1
110827,-90.9090909090909,4,1,1,90,0,0
111143,-90.9090909090909,4,1,1,80,0,1
111933,-90.9090909090909,4,1,1,80,0,0
112248,-90.9090909090909,4,1,2,60,0,0
112406,-90.9090909090909,4,1,2,60,0,1
112722,-90.9090909090909,4,1,1,60,0,1
112880,-90.9090909090909,4,1,2,60,0,1
113196,-90.9090909090909,4,1,1,60,0,1
113669,-90.9090909090909,4,1,1,80,0,1
114617,-90.9090909090909,4,1,1,60,0,1
114775,-90.9090909090909,4,1,1,60,0,1
114933,-90.9090909090909,4,1,1,80,0,1
115880,-90.9090909090909,4,1,1,60,0,1
116038,-90.9090909090909,4,1,5,60,0,1
116196,-90.9090909090909,4,1,1,80,0,1
118722,-200,4,1,7,60,0,0
119985,-200,4,1,7,40,0,0
121248,-200,4,1,7,30,0,0
124880,-200,4,1,7,20,0,0

[Colours]
Combo1 : 255,255,128
Combo2 : 0,142,210
Combo3 : 155,129,211

[HitObjects]
256,192,2512,12,0,7248,0:0:0:0:
180,2,7564,6,0,L|132:-1,2,37.5,4|0|0,0:3|0:0|0:0,0:0:0:0:
339,11,7880,1,8,0:0:0:0:
171,49,8038,6,0,L|123:52,2,37.5,4|0|0,0:3|0:0|0:0,0:0:0:0:
330,40,8354,1,8,0:0:0:0:
260,128,8512,1,2,0:0:0:0:
260,128,8827,6,0,P|265:173|265:187,1,37.5,4|0,0:3|0:0,0:0:0:0:
247,247,8985,2,0,P|218:282|208:292,1,37.5,0|0,0:0|0:0,0:0:0:0:
145,304,9143,2,0,L|70:299,1,75,8|0,0:0|0:0,0:0:0:0:
216,361,9459,2,0,L|380:350,1,150,4|8,0:3|0:0,0:0:0:0:
500,231,10090,6,0,L|503:279,2,37.5,4|0|0,0:3|0:0|0:0,0:0:0:0:
491,72,10406,1,8,0:0:0:0:
453,240,10564,6,0,L|450:288,2,37.5,4|0|0,0:3|0:0|0:0,0:0:0:0:
462,81,10880,1,8,0:0:0:0:
462,81,11196,1,6,0:3:0:0:
350,53,11354,6,0,L|344:127,1,75,2|2,0:2|0:2,0:0:0:0:
360,148,11590,1,2,0:2:0:0:
375,169,11669,1,8,0:0:0:0:
253,92,11827,6,0,L|250:54,3,37.5,2|2|2|2,0:2|0:2|0:2|0:2,0:0:0:0:
247,16,12143,1,8,0:0:0:0:
119,73,12301,2,0,L|113:147,1,75,2|0,0:0|0:0,0:0:0:0:
194,280,12617,6,0,L|242:283,2,37.5,4|0|0,0:3|0:0|0:0,0:0:0:0:
35,271,12933,1,8,0:0:0:0:
203,233,13091,6,0,L|251:230,2,37.5,4|0|0,0:3|0:0|0:0,0:0:0:0:
44,242,13407,1,8,0:0:0:0:
126,365,13564,2,0,L|220:371,1,75,8|8,0:0|0:0,0:0:0:0:
328,329,13880,6,0,L|333:254,1,75,4|0,0:3|0:0,0:0:0:0:
485,305,14196,2,0,L|490:379,1,75,8|4,0:0|0:3,0:0:0:0:
425,206,14512,1,4,0:3:0:0:
425,206,14669,1,0,0:0:0:0:
462,81,14827,2,0,L|467:6,1,75,8|0,0:0|0:0,0:0:0:0:
411,182,15143,6,0,L|336:176,1,75,4|0,0:3|0:0,0:0:0:0:
321,154,15380,1,0,0:0:0:0:
306,131,15459,1,8,0:0:0:0:
142,67,15617,6,0,L|216:61,1,75,4|0,0:3|0:0,0:0:0:0:
232,39,15854,1,0,0:0:0:0:
247,16,15933,2,0,L|321:22,1,75,8|0,0:0|0:0,0:0:0:0:
189,143,16248,5,4,0:3:0:0:
166,158,16327,1,4,0:3:0:0:
143,173,16406,2,0,L|149:247,1,75,2|2,0:2|0:2,0:0:0:0:
127,327,16722,1,8,0:0:0:0:
285,230,16880,6,0,L|279:304,1,75,2|2,0:2|0:2,0:0:0:0:
301,384,17196,1,8,0:0:0:0:
99,348,17354,1,4,0:2:0:0:
360,323,17669,6,0,L|435:317,1,75,4|0,0:0|0:0,0:0:0:0:
450,295,17906,1,0,0:0:0:0:
465,272,17985,1,8,0:0:0:0:
411,182,18143,6,0,L|336:176,1,75,0|0,0:0|0:0,0:0:0:0:
321,154,18380,1,0,0:0:0:0:
306,131,18459,1,8,0:0:0:0:
382,20,18617,1,2,0:0:0:0:
382,20,18933,6,0,L|430:17,2,37.5,0|0|0,0:0|0:0|0:0,0:0:0:0:
223,29,19248,2,0,L|217:103,1,75,8|0,0:0|0:0,0:0:0:0:
64,162,19564,2,0,L|58:88,1,75,4|0,0:3|0:0,0:0:0:0:
163,194,19880,1,8,0:0:0:0:
163,194,20196,6,0,L|169:268,1,75,4|0,0:3|0:0,0:0:0:0:
153,289,20432,1,0,0:0:0:0:
138,310,20511,1,8,0:0:0:0:
257,353,20669,6,0,P|275:355|294:357,1,37.5,0|0,0:0|0:0,0:0:0:0:
376,340,20827,2,0,P|390:328|405:316,1,37.5,0|0,0:0|0:0,0:0:0:0:
433,238,20985,2,0,L|428:163,1,75,8|0,0:0|0:0,0:0:0:0:
428,163,21301,1,2,0:3:0:0:
301,56,21459,6,0,L|306:131,1,75,2|2,0:2|0:2,0:0:0:0:
306,131,21775,1,8,0:0:0:0:
428,163,21933,2,0,L|433:88,1,75,2|2,0:2|0:2,0:0:0:0:
340,212,22248,2,0,P|298:217|255:205,2,75,8|2|0,0:0|0:0|0:0,0:0:0:0:
226,101,22722,6,0,L|151:107,1,75,4|0,0:3|0:0,0:0:0:0:
136,129,22959,1,0,0:0:0:0:
121,152,23038,1,8,0:0:0:0:
49,279,23196,6,0,L|1:282,2,37.5,4|0|0,0:3|0:0|0:0,0:0:0:0:
168,263,23512,2,0,L|243:269,2,75,8|8|8,0:0|0:0|0:0,0:0:0:0:
121,152,23985,6,0,L|127:77,1,75,4|0,0:3|0:0,0:0:0:0:
137,56,24222,1,0,0:0:0:0:
147,36,24301,2,0,L|222:30,1,75,8|4,0:0|0:3,0:0:0:0:
349,77,24617,5,4,0:3:0:0:
349,77,24775,1,0,0:0:0:0:
244,162,24933,2,0,L|319:168,1,75,8|0,0:0|0:0,0:0:0:0:
341,299,25248,6,0,L|416:305,1,75,4|0,0:3|0:0,0:0:0:0:
431,315,25485,1,0,0:0:0:0:
446,325,25564,1,8,0:0:0:0:
265,358,25722,6,0,L|190:364,1,75,4|0,0:3|0:0,0:0:0:0:
175,374,25959,1,0,0:0:0:0:
160,384,26038,1,8,0:0:0:0:
49,279,26196,2,0,L|55:204,1,75,8|4,0:3|0:3,0:0:0:0:
58,170,26433,1,4,0:3:0:0:
62,136,26512,6,0,L|56:61,1,75,4|4,0:3|0:3,0:0:0:0:
56,61,26827,1,8,0:0:0:0:
218,122,26985,2,0,L|212:197,1,75,4|4,0:3|0:3,0:0:0:0:
162,22,27301,1,8,0:0:0:0:
323,82,27459,2,0,L|398:76,1,75,4|0,0:3|0:0,0:0:0:0:
376,224,27775,5,2,0:0:0:0:
376,224,29038,6,0,P|384:268|369:348,1,112.500004291535,0|0,0:0|0:0,0:0:0:0:
374,334,29512,1,0,0:0:0:0:
256,236,29669,2,0,P|257:207|264:180,1,56.2500021457673,0|0,0:0|0:0,0:0:0:0:
264,180,29985,1,0,0:0:0:0:
267,338,30301,6,0,B|164:276|156:378|41:326,1,225.000008583069,2|0,0:0|2:0,2:0:0:0:
75,119,31564,6,0,L|191:124,1,112.500004291535,0|0,0:0|0:0,0:0:0:0:
187,124,32038,1,0,3:0:0:0:
264,180,32196,2,0,L|376:174,1,112.500004291535,0|0,0:0|0:0,0:0:0:0:
327,58,32827,6,0,B|264:62|264:62|286:10|286:10|410:7|410:7|471:152,1,389.999982147218,0|0,0:0|0:0,2:0:0:0:
469,166,34169,5,0,3:0:0:0:
467,190,34248,1,0,0:0:0:0:
465,214,34327,1,0,3:0:0:0:
463,238,34406,2,0,L|466:318,1,56.2500021457673
326,352,34722,2,0,L|329:284,1,63.7500012159348,0|0,0:0|0:0,0:0:0:0:
367,214,35038,2,0,L|360:98,1,95.6250018239022,0|0,0:0|2:0,0:0:0:0:
358,94,35354,6,0,L|103:80,1,255.000004863739,2|0,0:0|2:0,2:0:0:0:
104,81,36143,5,6,0:3:0:0:
60,166,36301,2,0,P|104:174|143:166,1,63.7500012159348,2|2,0:3|0:3,0:0:0:0:
235,295,36617,5,6,0:3:0:0:
128,200,36775,2,0,P|90:197|54:206,2,63.7500012159348,2|2|6,0:3|0:3|0:3,0:0:0:0:
233,151,37248,2,0,P|231:119|239:88,1,63.7500012159348,2|2,0:3|0:3,0:0:0:0:
257,333,37880,6,0,L|355:339,1,75,4|0,0:3|0:0,0:0:0:0:
348,322,38117,1,0,0:0:0:0:
364,306,38196,1,8,0:0:0:0:
508,264,38354,2,0,L|510:338,1,75,4|0,0:3|0:0,0:0:0:0:
418,202,38669,1,8,0:0:0:0:
418,202,39143,6,0,L|420:127,1,75,4|0,0:3|0:0,0:0:0:0:
407,108,39380,1,0,0:0:0:0:
393,90,39459,2,0,L|390:15,1,75,8|4,0:0|0:3,0:0:0:0:
314,156,39775,1,4,0:3:0:0:
512,171,39933,1,2,0:0:0:0:
314,156,40090,1,10,0:0:0:0:
314,156,40406,6,0,L|239:153,1,75,4|0,0:3|0:0,0:0:0:0:
220,167,40643,1,0,0:0:0:0:
202,181,40722,2,0,L|127:183,1,75,8|4,0:0|0:3,0:0:0:0:
51,186,41038,1,0,0:3:0:0:
96,300,41196,2,0,P|98:337|92:374,1,75,8|4,0:0|0:3,0:0:0:0:
92,374,41512,1,0,0:3:0:0:
222,288,41669,6,0,L|281:290,1,37.5,6|0,0:3|0:0,0:0:0:0:
334,327,41827,2,0,L|371:325,1,37.5,0|0,0:0|0:0,0:0:0:0:
455,323,41985,2,0,P|461:286|458:248,1,75,8|0,0:0|0:0,0:0:0:0:
446,229,42222,1,0,0:0:0:0:
434,209,42301,2,0,P|427:172|430:134,1,75,4|0,0:3|0:0,0:0:0:0:
430,134,42617,1,0,2:0:0:0:
281,45,42933,6,0,L|329:42,2,37.5,4|0|0,0:3|0:0|0:0,0:0:0:0:
122,54,43249,1,8,0:0:0:0:
290,92,43407,6,0,L|338:95,2,37.5,4|0|0,0:3|0:0|0:0,0:0:0:0:
131,83,43723,1,0,0:0:0:0:
140,112,43801,1,0,0:0:0:0:
149,141,43880,2,0,L|147:216,1,75,8|8,0:0|0:0,0:0:0:0:
312,276,44196,6,0,L|310:201,1,75,4|0,0:3|0:0,0:0:0:0:
146,250,44512,2,0,L|144:325,1,75,8|4,0:0|0:3,0:0:0:0:
159,341,44748,1,0,0:0:0:0:
174,357,44827,2,0,L|323:360,1,150,6|4,0:3|0:3,0:0:0:0:
21,347,45459,6,0,L|23:272,1,75,4|0,0:3|0:0,0:0:0:0:
14,250,45696,1,0,0:0:0:0:
5,229,45775,1,8,0:0:0:0:
140,112,45933,2,0,P|177:125|297:93,1,150,0|2,0:0|0:0,0:0:0:0:
65,62,46406,2,0,P|51:111|59:154,1,75,10|2,0:0|0:0,0:0:0:0:
53,134,46643,1,2,0:0:0:0:
53,134,46722,1,0,0:0:0:0:
231,273,46880,5,2,0:0:0:0:
232,246,46959,1,2,0:0:0:0:
233,219,47038,2,0,L|158:217,1,75,8|2,0:0|0:0,0:0:0:0:
323,360,47354,6,0,L|398:358,1,75,2|0,0:0|0:0,0:0:0:0:
416,338,47590,1,2,0:0:0:0:
434,319,47669,2,0,L|432:244,1,75,0|2,0:0|0:0,0:0:0:0:
428,45,47985,5,0,0:0:0:0:
282,103,48143,1,0,0:0:0:0:
308,116,48222,1,0,0:0:0:0:
335,128,48301,1,8,0:0:0:0:
308,283,48459,1,4,0:2:0:0:
256,192,48775,12,0,50196,3:0:0:0:
220,22,50512,6,0,L|222:97,1,75,4|0,0:2|0:0,0:0:0:0:
202,108,50748,1,0,0:0:0:0:
182,119,50827,2,0,L|184:194,1,75,8|0,0:0|0:0,0:0:0:0:
49,247,51143,2,0,P|39:204|51:139,2,100,8|0|0,0:0|0:0|0:0,0:0:0:0:
161,350,51775,5,4,0:3:0:0:
190,354,51854,1,0,0:0:0:0:
219,358,51934,1,8,0:0:0:0:
248,362,52012,1,0,0:0:0:0:
277,366,52090,2,0,L|275:291,1,75,8|8,0:0|0:0,0:0:0:0:
451,243,52406,2,0,L|449:318,1,75,0|0,0:0|0:0,0:0:0:0:
356,189,52722,2,0,L|354:114,1,75,8|4,0:0|0:3,0:0:0:0:
366,86,52959,1,4,0:3:0:0:
378,58,53038,1,4,0:2:0:0:
250,108,53196,5,8,0:0:0:0:
238,136,53275,1,0,0:0:0:0:
226,164,53355,2,0,L|228:239,1,75,4|8,0:3|0:0,0:0:0:0:
149,301,53669,2,0,P|99:311|51:296,1,75,8|8,0:0|0:0,0:0:0:0:
242,343,53985,2,0,L|317:345,1,75,2|4,0:0|0:3,0:0:0:0:
479,346,54301,6,0,L|481:271,1,75,8|8,0:0|0:0,0:0:0:0:
451,247,54538,2,0,L|449:172,1,75,0|0,0:0|0:0,0:0:0:0:
457,155,54775,1,0,0:0:0:0:
465,138,54854,1,4,0:3:0:0:
474,121,54933,2,0,P|481:64|466:25,1,75,8|0,0:0|0:0,0:0:0:0:
461,36,55169,1,8,0:0:0:0:
446,24,55248,2,0,L|366:24,1,75,4|4,0:3|0:3,0:0:0:0:
220,22,55564,1,8,0:0:0:0:
220,22,55880,6,0,P|225:78|221:102,1,75,4|8,0:3|0:0,0:0:0:0:
222,96,56196,1,8,0:0:0:0:
153,154,56354,1,8,0:0:0:0:
220,248,56512,6,0,L|308:254,1,75,12|8,0:3|0:0,0:0:0:0:
331,98,56827,2,0,L|243:104,1,75,8|8,0:0|0:0,0:0:0:0:
137,204,57143,2,0,P|132:260|136:284,2,75,0|4|4,0:0|0:3|0:3,0:0:0:0:
54,167,57617,1,8,0:0:0:0:
54,167,57775,1,0,0:0:0:0:
144,370,58090,6,0,L|218:375,1,75,8|0,0:0|0:0,0:0:0:0:
218,375,58406,1,0,0:0:0:0:
220,248,58564,6,0,L|294:242,1,75,8|8,0:0|0:0,0:0:0:0:
294,242,58880,1,0,0:0:0:0:
399,354,59038,6,0,L|324:348,1,75,8|0,0:0|0:0,0:0:0:0:
325,348,59354,1,8,0:0:0:0:
496,294,59512,6,0,L|501:219,1,75,0|4,0:0|0:3,0:0:0:0:
502,220,59828,1,0,0:0:0:0:
419,93,59985,5,10,0:0:0:0:
410,248,60143,1,4,0:3:0:0:
405,55,60301,1,8,0:1:0:0:
256,192,60617,12,4,62512,0:3:0:0:
222,43,63143,6,0,L|104:46,1,97.4999955368044,2|8,0:1|0:0,0:0:0:0:
296,95,63617,2,0,L|414:98,1,97.4999955368044,2|8,0:1|0:0,0:0:0:0:
226,157,64090,2,0,L|160:158,1,48.7499977684022,10|0,0:1|0:0,0:0:0:0:
156,182,64327,1,0,0:0:0:0:
135,206,64406,6,0,L|132:324,1,97.4999955368044,2|8,0:1|0:0,0:0:0:0:
132,303,64880,1,0,0:0:0:0:
41,126,65196,5,2,0:0:0:0:
41,126,65354,1,8,0:2:0:0:
218,252,65669,6,0,L|266:249,2,37.5,0|0|0,0:0|0:0|0:0,0:0:0:0:
36,257,65985,1,8,0:0:0:0:
227,299,66143,6,0,L|275:302,2,37.5,0|0|0,0:0|0:0|0:0,0:0:0:0:
45,286,66459,1,8,0:0:0:0:
139,136,66775,5,2,2:3:0:0:
139,136,66933,2,0,L|141:38,1,75,4|4,0:3|0:3,0:0:0:0:
313,109,67248,2,0,L|314:183,1,75,8|4,0:0|0:3,0:0:0:0:
262,16,67564,5,4,0:3:0:0:
400,54,67722,1,8,0:3:0:0:
317,214,67880,1,8,0:0:0:0:
317,214,68196,6,0,L|318:288,1,75,4|0,0:3|0:0,0:0:0:0:
330,298,68433,1,0,0:0:0:0:
341,307,68512,1,8,0:0:0:0:
480,279,68669,6,0,L|478:353,1,75,4|4,0:3|0:3,0:0:0:0:
467,363,68906,1,0,0:0:0:0:
456,372,68985,1,8,0:0:0:0:
406,140,69301,5,0,0:0:0:0:
406,140,69459,2,0,L|331:141,1,75,4|0,0:3|0:0,0:0:0:0:
314,126,69696,1,0,0:0:0:0:
297,110,69775,1,8,0:0:0:0:
238,259,69933,5,0,0:0:0:0:
170,129,70090,2,0,L|171:54,1,75,0|8,0:0|0:0,0:0:0:0:
171,54,70406,1,0,0:0:0:0:
138,322,70722,5,4,0:3:0:0:
75,221,71038,1,4,0:3:0:0:
175,159,71354,1,4,0:3:0:0:
238,259,71669,1,4,0:3:0:0:
378,182,71985,6,0,L|377:257,1,75,4|2,0:3|0:3,0:0:0:0:
504,287,72301,2,0,L|505:362,1,75,4|2,0:3|0:3,0:0:0:0:
468,167,72617,2,0,L|469:92,1,75,4|2,0:3|0:3,0:0:0:0:
286,139,72933,2,0,L|287:214,1,75,4|2,0:3|0:3,0:0:0:0:
287,214,73248,5,4,0:3:0:0:
371,63,73406,1,4,0:3:0:0:
184,95,73564,5,4,0:3:0:0:
349,47,73722,1,4,0:3:0:0:
104,53,73880,6,0,P|95:103|110:150,1,75,4|4,0:3|0:3,0:0:0:0:
111,145,74117,1,0,0:0:0:0:
123,163,74196,2,0,P|132:213|117:260,1,75,4|4,0:3|0:3,0:0:0:0:
1,206,74512,5,4,0:2:0:0:
256,192,74590,12,0,75459,0:0:0:0:
271,371,75775,6,0,L|265:317,4,37.5,12|0|0|0|0,0:3|0:0|0:0|0:0|0:0,0:0:0:0:
413,344,76248,2,0,L|419:290,4,37.5,12|0|0|0|0,0:3|0:0|0:0|0:0|0:0,0:0:0:0:
329,237,76722,2,0,L|323:183,4,37.5,12|0|0|0|0,0:3|0:0|0:0|0:0|0:0,0:0:0:0:
471,210,77196,2,0,L|477:156,4,37.5,12|0|0|0|0,0:3|0:0|0:0|0:0|0:0,0:0:0:0:
378,90,77669,6,0,P|326:79|283:87,1,75,12|0,0:3|0:0,0:0:0:0:
153,173,77985,2,0,P|205:162|248:170,1,75,12|0,0:3|0:0,0:0:0:0:
226,164,78301,1,0,0:0:0:0:
199,242,78459,1,12,0:3:0:0:
176,49,78617,1,12,0:3:0:0:
176,49,78933,6,0,L|101:50,1,75,12|0,0:3|0:0,0:0:0:0:
14,76,79169,2,0,L|89:77,1,75,12|0,0:3|0:0,0:0:0:0:
53,184,79406,2,0,L|52:251,1,37.5,12|0,0:3|0:0,0:0:0:0:
57,362,79564,5,12,0:3:0:0:
71,358,79643,1,0,0:0:0:0:
85,354,79722,1,0,0:0:0:0:
99,351,79801,1,0,0:0:0:0:
113,348,79880,2,0,L|150:348,2,37.5,0|0|0,0:0|0:0|0:0,0:0:0:0:
265,379,80196,6,0,P|267:327|253:295,1,75,12|0,0:3|0:0,0:0:0:0:
404,264,80512,2,0,P|394:299|398:336,1,75,12|0,0:3|0:0,0:0:0:0:
308,203,80827,1,12,0:3:0:0:
308,203,80985,6,0,L|309:128,1,75,12|0,0:3|0:0,0:0:0:0:
322,121,81222,1,0,0:0:0:0:
335,115,81301,1,0,0:0:0:0:
348,109,81380,1,0,0:0:0:0:
361,103,81459,2,0,L|362:28,1,75,12|12,0:3|0:3,0:0:0:0:
347,21,81696,1,0,0:0:0:0:
334,15,81775,1,0,0:0:0:0:
321,9,81854,1,0,0:0:0:0:
308,3,81933,1,0,0:0:0:0:
190,68,82090,5,12,0:3:0:0:
190,68,82248,2,0,P|197:112|194:161,1,75,12|0,0:3|0:0,0:0:0:0:
48,194,82564,2,0,P|47:156|54:119,1,75,12|0,0:3|0:0,0:0:0:0:
151,245,82880,2,0,P|157:281|157:319,1,75,12|0,0:3|0:0,0:0:0:0:
157,319,83196,1,4,0:3:0:0:
267,223,83354,6,0,P|311:241|419:212,1,150,12|0,0:3|0:0,0:0:0:0:
408,220,83827,1,10,0:3:0:0:
335,115,83985,2,0,L|333:-3,2,112.5,12|12|12,0:3|0:3|0:3,0:0:0:0:
480,64,84617,1,4,0:0:0:0:
256,192,84696,12,0,85564,0:0:0:0:
256,192,85643,12,0,87775,0:0:0:0:
108,43,88406,6,0,L|14:38,1,82.5000025177003,4|0,0:3|0:0,0:0:0:0:
25,38,88722,1,8,0:0:0:0:
82,178,88880,6,0,L|176:173,1,82.5000025177003,0|0,0:0|0:0,0:0:0:0:
164,173,89196,1,8,0:0:0:0:
252,141,89354,1,2,0:0:0:0:
252,141,89669,6,0,P|260:193|225:244,1,82.5000025177003,4|0,0:3|0:0,0:0:0:0:
238,242,89906,1,0,0:0:0:0:
227,264,89985,2,0,P|218:316|253:367,1,82.5000025177003,8|4,0:0|0:3,0:0:0:0:
355,202,90301,5,4,0:3:0:0:
301,299,90459,1,8,0:3:0:0:
453,346,90617,1,8,0:0:0:0:
453,346,90933,6,0,L|458:252,1,82.5000025177003,4|0,0:3|0:0,0:0:0:0:
465,249,91169,1,0,0:0:0:0:
472,234,91248,1,0,0:0:0:0:
350,119,91407,6,0,L|355:213,1,82.5000025177003,4|0,0:3|0:0,0:0:0:0:
354,201,91723,1,0,0:0:0:0:
351,30,92038,1,6,0:3:0:0:
351,30,92196,5,2,0:2:0:0:
326,31,92275,1,2,0:2:0:0:
301,32,92354,1,2,0:2:0:0:
276,33,92433,1,2,0:2:0:0:
251,34,92512,2,0,L|256:128,1,82.5000025177003,8|2,0:0|0:2,0:0:0:0:
246,144,92748,1,2,0:2:0:0:
237,171,92827,1,2,0:2:0:0:
229,198,92906,1,2,0:2:0:0:
221,225,92985,1,8,0:0:0:0:
138,221,93143,6,0,L|55:216,1,82.5000025177003,2|0,0:0|0:0,0:0:0:0:
192,358,93459,6,0,L|274:353,1,82.5000025177003,4|0,0:3|0:0,0:0:0:0:
286,336,93696,1,0,0:0:0:0:
298,319,93775,1,8,0:0:0:0:
460,211,93933,6,0,L|378:206,1,82.5000025177003,4|0,0:3|0:0,0:0:0:0:
411,342,94248,1,8,0:0:0:0:
411,342,94406,2,0,L|493:347,1,82.5000025177003,8|8,0:0|0:0,0:0:0:0:
468,131,94722,6,0,L|386:126,1,82.5000025177003,8|0,0:0|0:0,0:0:0:0:
371,105,94959,1,0,0:0:0:0:
357,84,95038,2,0,L|275:79,1,82.5000025177003,8|4,0:0|0:3,0:0:0:0:
157,136,95354,5,4,0:3:0:0:
157,136,95512,1,2,0:3:0:0:
198,0,95669,1,8,0:0:0:0:
203,203,95985,6,0,P|146:217|96:186,1,82.5000025177003,4|0,0:3|0:0,0:0:0:0:
99,197,96222,1,0,0:0:0:0:
80,175,96301,1,8,0:0:0:0:
110,61,96459,6,0,P|166:46|216:77,1,82.5000025177003,4|0,0:3|0:0,0:0:0:0:
213,66,96696,1,0,0:0:0:0:
232,88,96775,1,8,0:0:0:0:
306,187,96933,2,0,L|301:269,1,82.5000025177003,0|4,0:0|0:3,0:0:0:0:
284,282,97169,1,4,0:3:0:0:
267,294,97248,6,0,L|272:376,2,82.5000025177003,2|2|8,0:2|0:2|0:0,0:0:0:0:
416,260,97722,2,0,L|411:342,2,82.5000025177003,2|2|8,0:2|0:2|0:0,0:0:0:0:
340,108,98196,1,4,0:3:0:0:
340,108,98512,6,0,L|246:103,1,82.5000025177003,4|0,0:3|0:0,0:0:0:0:
257,103,98828,1,8,0:0:0:0:
181,192,98986,6,0,L|87:197,1,82.5000025177003,4|0,0:3|0:0,0:0:0:0:
99,197,99302,1,8,0:0:0:0:
141,20,99460,1,2,0:0:0:0:
219,191,99775,5,4,0:3:0:0:
217,211,99853,1,0,0:0:0:0:
216,232,99932,1,0,0:0:0:0:
215,252,100011,1,0,0:0:0:0:
214,273,100090,2,0,L|218:355,1,82.5000025177003,8|4,0:0|0:3,0:0:0:0:
54,287,100406,2,0,L|58:204,1,82.5000025177003,4|0,0:3|0:0,0:0:0:0:
123,367,100722,1,8,0:0:0:0:
312,235,101038,6,0,L|394:239,1,82.5000025177003,4|0,0:3|0:0,0:0:0:0:
404,257,101275,1,0,0:0:0:0:
413,275,101354,1,8,0:0:0:0:
466,113,101512,6,0,L|384:117,1,82.5000025177003,4|0,0:3|0:0,0:0:0:0:
374,135,101749,1,0,0:0:0:0:
365,153,101828,1,8,0:0:0:0:
365,153,102143,1,0,0:0:0:0:
229,95,102301,6,0,L|234:1,1,82.5000025177003,2|2,0:2|0:2,0:0:0:0:
234,12,102617,1,8,0:0:0:0:
101,169,102775,6,0,L|96:75,1,82.5000025177003,2|2,0:2|0:2,0:0:0:0:
96,86,103091,1,8,0:0:0:0:
244,125,103248,2,0,L|239:207,1,82.5000025177003,8|0,0:0|0:0,0:0:0:0:
139,309,103564,6,0,P|91:316|48:306,1,82.5000025177003,4|0,0:3|0:0,0:0:0:0:
47,291,103801,1,0,0:0:0:0:
36,273,103880,1,8,0:0:0:0:
101,169,104038,2,0,L|96:75,1,82.5000025177003,4|0,0:3|0:0,0:0:0:0:
96,86,104354,1,8,0:0:0:0:
244,125,104512,2,0,L|239:207,1,82.5000025177003,8|8,0:0|0:0,0:0:0:0:
297,351,104827,6,0,P|345:358|388:348,1,82.5000025177003,4|0,0:3|0:0,0:0:0:0:
387,333,105064,1,0,0:0:0:0:
396,314,105143,2,0,P|444:307|487:317,1,82.5000025177003,8|4,0:0|0:3,0:0:0:0:
440,192,105459,2,0,L|444:109,1,82.5000025177003,4|8,0:3|0:3,0:0:0:0:
268,142,105775,2,0,L|272:224,1,82.5000025177003,8|0,0:0|0:0,0:0:0:0:
322,14,106090,6,0,L|228:19,1,82.5000025177003,4|0,0:3|0:0,0:0:0:0:
240,19,106406,1,8,0:0:0:0:
96,86,106564,6,0,L|190:91,1,82.5000025177003,4|4,0:3|0:3,0:0:0:0:
178,91,106880,1,8,0:0:0:0:
268,142,107038,2,0,L|272:224,1,82.5000025177003,0|4,0:0|0:3,0:0:0:0:
255,237,107275,1,4,0:3:0:0:
238,249,107354,5,8,0:3:0:0:
287,371,107512,2,0,L|369:366,1,82.5000025177003,0|8,0:0|0:0,0:0:0:0:
504,224,107827,5,4,0:3:0:0:
455,346,107985,2,0,L|372:341,1,82.5000025177003,4|8,0:3|0:0,0:0:0:0:
183,330,108301,1,8,0:0:0:0:
183,330,108617,1,4,0:0:0:0:
256,192,108696,12,0,109564,0:0:0:0:
268,142,109880,5,4,0:3:0:0:
247,144,109959,1,4,0:3:0:0:
226,146,110038,1,4,0:3:0:0:
205,148,110117,1,4,0:3:0:0:
184,150,110196,1,4,0:3:0:0:
170,166,110275,1,4,0:3:0:0:
157,182,110354,1,4,0:3:0:0:
143,198,110433,1,4,0:3:0:0:
130,215,110512,5,4,0:3:0:0:
155,310,110669,1,0,0:0:0:0:
0,289,110827,1,8,0:2:0:0:
183,330,111143,6,0,L|277:325,1,82.5000025177003,4|0,0:3|0:0,0:0:0:0:
265,325,111459,1,8,0:0:0:0:
418,239,111617,6,0,L|324:234,1,82.5000025177003,4|0,0:3|0:0,0:0:0:0:
336,234,111933,1,8,0:0:0:0:
394,0,112248,5,4,0:3:0:0:
394,0,112406,2,0,P|345:37|339:39,1,41.2500012588501,2|2,0:2|0:2,0:0:0:0:
290,58,112564,2,0,P|229:49|223:46,1,41.2500012588501,2|2,0:2|0:2,0:0:0:0:
175,25,112722,1,8,0:0:0:0:
150,39,112801,1,0,0:0:0:0:
125,54,112880,6,0,L|130:148,1,82.5000025177003,2|2,0:2|0:2,0:0:0:0:
78,300,113196,1,8,0:0:0:0:
78,300,113669,6,0,L|83:206,1,82.5000025177003,4|0,0:3|0:0,0:0:0:0:
129,136,113985,1,8,0:0:0:0:
221,274,114143,2,0,P|222:328|210:370,1,82.5000025177003,4|0,0:3|0:0,0:0:0:0:
239,165,114459,1,8,0:0:0:0:
239,165,114617,2,0,P|252:180|269:192,1,41.2500012588501,8|0,0:0|0:0,0:0:0:0:
343,222,114775,2,0,P|363:223|383:220,1,41.2500012588501,8|8,0:0|0:0,0:0:0:0:
490,132,114933,6,0,P|497:91|495:50,1,82.5000025177003,8|0,0:3|0:0,0:0:0:0:
467,43,115169,1,0,0:0:0:0:
438,36,115248,1,8,0:0:0:0:
357,126,115406,1,4,0:3:0:0:
490,252,115564,2,0,P|497:292|495:333,1,82.5000025177003,4|8,0:3|0:3,0:0:0:0:
338,303,115880,2,0,P|335:261|342:221,1,82.5000025177003,8|8,0:0|0:0,0:0:0:0:
316,31,116196,6,0,L|222:26,1,82.5000025177003,4|0,0:3|0:0,0:0:0:0:
234,26,116512,1,8,0:0:0:0:
125,54,116669,1,4,0:3:0:0:
239,165,116827,6,0,L|234:247,1,82.5000025177003,0|8,0:0|0:0,0:0:0:0:
73,217,117143,2,0,L|77:299,1,82.5000025177003,0|4,0:0|0:3,0:0:0:0:
101,315,117380,1,4,0:3:0:0:
124,331,117459,5,4,0:3:0:0:
260,287,117617,2,0,L|255:369,1,82.5000025177003,4|8,0:3|0:0,0:0:0:0:
342,221,117933,2,0,L|333:56,1,165.000005035401,4|8,0:3|0:3,0:0:0:0:
333,56,118406,1,4,0:3:0:0:
149,155,118722,5,4,0:0:0:0:
149,155,119985,6,0,B|294:217|294:83|453:171,2,300,2|2|2,2:3|2:3|2:3,0:0:0:0:
149,155,124880,2,0,L|146:170,2,14.0625,2|2|2,2:2|2:2|2:2,0:0:0:0:
