osu file format v14

[General]
AudioFilename: doppelgangger.mp3
AudioLeadIn: 0
PreviewTime: 75576
Countdown: 0
SampleSet: None
StackLeniency: 0.7
Mode: 3
LetterboxInBreaks: 0
SpecialStyle: 0
WidescreenStoryboard: 0

[Editor]
DistanceSpacing: 1.9
BeatDivisor: 4
GridSize: 8
TimelineZoom: 1.8

[Metadata]
Title:Doppelgangger
TitleUnicode:Doppelgangger
Artist:LeaF
ArtistUnicode:LeaF
Creator:EFP
Version:Extra
Source:BMS
Tags:bms of fighters 2013 bof frenz come to an end einsamkeit
BeatmapID:1176271
BeatmapSetID:555795

[Difficulty]
HPDrainRate:8
CircleSize:4
OverallDifficulty:8
ApproachRate:5
SliderMultiplier:1.4
SliderTickRate:1

[Events]
//Background and Video events
0,0,"BG.jpg",0,0
//Break Periods
//Storyboard Layer 0 (Background)
//Storyboard Layer 1 (Fail)
//Storyboard Layer 2 (Pass)
//Storyboard Layer 3 (Foreground)
//Storyboard Sound Samples

[TimingPoints]
791,214.285714285714,4,3,0,25,1,0
124219,-100,4,3,0,25,0,1
141362,-100,4,3,0,25,0,0

[HitObjects]
320,192,791,5,0,0:0:0:0:
448,192,791,1,0,0:0:0:0:
64,192,791,1,0,0:0:0:0:
320,192,898,1,0,0:0:0:0:
448,192,898,1,0,0:0:0:0:
320,192,1112,1,0,0:0:0:0:
192,192,1112,1,0,0:0:0:0:
64,192,1112,1,0,0:0:0:0:
64,192,1326,1,0,0:0:0:0:
192,192,1326,1,0,0:0:0:0:
320,192,1326,1,0,0:0:0:0:
64,192,1540,1,0,0:0:0:0:
192,192,1540,1,0,0:0:0:0:
320,192,1540,1,0,0:0:0:0:
448,192,1755,1,0,0:0:0:0:
320,192,1755,1,0,0:0:0:0:
192,192,1755,1,0,0:0:0:0:
64,192,1862,1,0,0:0:0:0:
448,192,1862,1,0,0:0:0:0:
320,192,1969,1,0,0:0:0:0:
192,192,1969,1,0,0:0:0:0:
64,192,2076,1,0,0:0:0:0:
192,192,2076,1,0,0:0:0:0:
448,192,2076,1,0,0:0:0:0:
320,192,2183,1,0,0:0:0:0:
192,192,2237,1,0,0:0:0:0:
64,192,2290,1,0,0:0:0:0:
448,192,2290,1,0,0:0:0:0:
320,192,2398,1,0,0:0:0:0:
192,192,2505,1,0,0:0:0:0:
64,192,2505,1,0,0:0:0:0:
448,192,2505,1,0,0:0:0:0:
320,192,2612,1,0,0:0:0:0:
192,192,2719,1,0,0:0:0:0:
64,192,2719,1,0,0:0:0:0:
448,192,2719,1,0,0:0:0:0:
192,192,2826,1,0,0:0:0:0:
64,192,2826,1,0,0:0:0:0:
320,192,2933,1,0,0:0:0:0:
448,192,3040,1,0,0:0:0:0:
192,192,3040,1,0,0:0:0:0:
64,192,3148,1,0,0:0:0:0:
320,192,3255,1,0,0:0:0:0:
448,192,3255,1,0,0:0:0:0:
192,192,3255,1,0,0:0:0:0:
64,192,3362,1,0,0:0:0:0:
320,192,3469,1,0,0:0:0:0:
448,192,3469,1,0,0:0:0:0:
320,192,3576,1,0,0:0:0:0:
448,192,3576,1,0,0:0:0:0:
320,192,3683,1,0,0:0:0:0:
448,192,3683,1,0,0:0:0:0:
192,192,3790,128,0,4219:0:0:0:0:
64,192,3790,128,0,4219:0:0:0:0:
320,192,4219,1,0,0:0:0:0:
448,192,4219,1,0,0:0:0:0:
192,192,4326,1,0,0:0:0:0:
64,192,4433,1,0,0:0:0:0:
320,192,4433,1,0,0:0:0:0:
448,192,4433,1,0,0:0:0:0:
192,192,4540,1,0,0:0:0:0:
320,192,4648,1,0,0:0:0:0:
64,192,4648,1,0,0:0:0:0:
320,192,4755,1,0,0:0:0:0:
448,192,4862,1,0,0:0:0:0:
192,192,4862,1,0,0:0:0:0:
64,192,4969,1,0,0:0:0:0:
192,192,5076,1,0,0:0:0:0:
320,192,5076,1,0,0:0:0:0:
448,192,5183,1,0,0:0:0:0:
192,192,5290,1,0,0:0:0:0:
64,192,5290,1,0,0:0:0:0:
320,192,5290,1,0,0:0:0:0:
448,192,5398,1,0,0:0:0:0:
192,192,5505,1,0,0:0:0:0:
320,192,5505,1,0,0:0:0:0:
64,192,5505,1,0,0:0:0:0:
448,192,5612,1,0,0:0:0:0:
320,192,5719,1,0,0:0:0:0:
64,192,5719,1,0,0:0:0:0:
192,192,5719,1,0,0:0:0:0:
448,192,5826,1,0,0:0:0:0:
64,192,5933,128,0,7648:0:0:0:0:
320,192,5933,1,0,0:0:0:0:
192,192,6040,1,0,0:0:0:0:
448,192,6148,1,0,0:0:0:0:
192,192,6255,1,0,0:0:0:0:
320,192,6362,1,0,0:0:0:0:
448,192,6469,1,0,0:0:0:0:
192,192,6576,1,0,0:0:0:0:
448,192,6683,1,0,0:0:0:0:
320,192,6790,1,0,0:0:0:0:
192,192,6898,1,0,0:0:0:0:
448,192,7005,1,0,0:0:0:0:
192,192,7112,1,0,0:0:0:0:
320,192,7219,1,0,0:0:0:0:
448,192,7326,1,0,0:0:0:0:
192,192,7433,1,0,0:0:0:0:
448,192,7487,1,0,0:0:0:0:
320,192,7540,1,0,0:0:0:0:
192,192,7594,1,0,0:0:0:0:
448,192,7648,1,0,0:0:0:0:
320,192,7648,1,0,0:0:0:0:
64,192,7755,1,0,0:0:0:0:
192,192,7862,1,0,0:0:0:0:
320,192,7862,1,0,0:0:0:0:
448,192,7862,1,0,0:0:0:0:
64,192,7969,1,0,0:0:0:0:
192,192,8076,1,0,0:0:0:0:
448,192,8076,1,0,0:0:0:0:
448,192,8183,1,0,0:0:0:0:
320,192,8290,1,0,0:0:0:0:
64,192,8290,1,0,0:0:0:0:
192,192,8398,1,0,0:0:0:0:
320,192,8505,1,0,0:0:0:0:
448,192,8505,1,0,0:0:0:0:
64,192,8612,1,0,0:0:0:0:
192,192,8719,1,0,0:0:0:0:
320,192,8719,1,0,0:0:0:0:
448,192,8719,1,0,0:0:0:0:
64,192,8826,1,0,0:0:0:0:
192,192,8933,1,0,0:0:0:0:
320,192,8933,1,0,0:0:0:0:
448,192,8933,1,0,0:0:0:0:
64,192,9040,1,0,0:0:0:0:
192,192,9148,1,0,0:0:0:0:
320,192,9148,1,0,0:0:0:0:
448,192,9148,1,0,0:0:0:0:
64,192,9255,1,0,0:0:0:0:
448,192,9362,128,0,10219:0:0:0:0:
320,192,9362,1,0,0:0:0:0:
192,192,9469,1,0,0:0:0:0:
64,192,9576,1,0,0:0:0:0:
320,192,9683,1,0,0:0:0:0:
64,192,9790,1,0,0:0:0:0:
192,192,9898,1,0,0:0:0:0:
320,192,10005,1,0,0:0:0:0:
192,192,10112,1,0,0:0:0:0:
320,192,10219,1,0,0:0:0:0:
64,192,10219,1,0,0:0:0:0:
192,192,10273,1,0,0:0:0:0:
448,192,10326,1,0,0:0:0:0:
320,192,10380,1,0,0:0:0:0:
192,192,10433,1,0,0:0:0:0:
64,192,10433,1,0,0:0:0:0:
448,192,10487,1,0,0:0:0:0:
320,192,10540,1,0,0:0:0:0:
64,192,10594,1,0,0:0:0:0:
192,192,10648,1,0,0:0:0:0:
448,192,10648,1,0,0:0:0:0:
320,192,10701,1,0,0:0:0:0:
192,192,10755,1,0,0:0:0:0:
64,192,10808,1,0,0:0:0:0:
448,192,10862,1,0,0:0:0:0:
320,192,10915,1,0,0:0:0:0:
64,192,10969,1,0,0:0:0:0:
192,192,11023,1,0,0:0:0:0:
320,192,11076,1,0,0:0:0:0:
448,192,11076,1,0,0:0:0:0:
64,192,11076,1,0,0:0:0:0:
192,192,11183,1,0,0:0:0:0:
64,192,11290,1,0,0:0:0:0:
320,192,11290,1,0,0:0:0:0:
448,192,11398,1,0,0:0:0:0:
192,192,11505,1,0,0:0:0:0:
320,192,11505,1,0,0:0:0:0:
64,192,11612,1,0,0:0:0:0:
320,192,11719,1,0,0:0:0:0:
448,192,11719,1,0,0:0:0:0:
64,192,11826,1,0,0:0:0:0:
192,192,11933,1,0,0:0:0:0:
448,192,11933,1,0,0:0:0:0:
64,192,12040,1,0,0:0:0:0:
192,192,12148,1,0,0:0:0:0:
320,192,12148,1,0,0:0:0:0:
448,192,12255,1,0,0:0:0:0:
64,192,12362,1,0,0:0:0:0:
192,192,12362,1,0,0:0:0:0:
448,192,12469,1,0,0:0:0:0:
64,192,12576,1,0,0:0:0:0:
320,192,12576,1,0,0:0:0:0:
192,192,12683,1,0,0:0:0:0:
320,192,12790,1,0,0:0:0:0:
448,192,12790,1,0,0:0:0:0:
192,192,12898,1,0,0:0:0:0:
64,192,13005,1,0,0:0:0:0:
320,192,13005,1,0,0:0:0:0:
448,192,13112,1,0,0:0:0:0:
192,192,13219,1,0,0:0:0:0:
320,192,13219,1,0,0:0:0:0:
64,192,13326,1,0,0:0:0:0:
320,192,13433,1,0,0:0:0:0:
448,192,13433,1,0,0:0:0:0:
64,192,13540,1,0,0:0:0:0:
192,192,13648,1,0,0:0:0:0:
448,192,13648,1,0,0:0:0:0:
64,192,13755,1,0,0:0:0:0:
192,192,13862,1,0,0:0:0:0:
320,192,13862,1,0,0:0:0:0:
448,192,13969,1,0,0:0:0:0:
64,192,14076,1,0,0:0:0:0:
192,192,14076,1,0,0:0:0:0:
448,192,14183,1,0,0:0:0:0:
64,192,14290,1,0,0:0:0:0:
320,192,14290,1,0,0:0:0:0:
192,192,14398,1,0,0:0:0:0:
448,192,14398,1,0,0:0:0:0:
64,192,14505,1,0,0:0:0:0:
320,192,14505,1,0,0:0:0:0:
64,192,14719,1,0,0:0:0:0:
192,192,14773,1,0,0:0:0:0:
320,192,14826,1,0,0:0:0:0:
448,192,14880,1,0,0:0:0:0:
64,192,14933,1,0,0:0:0:0:
192,192,15040,1,0,0:0:0:0:
448,192,15148,1,0,0:0:0:0:
320,192,15255,1,0,0:0:0:0:
192,192,15362,1,0,0:0:0:0:
320,192,15469,1,0,0:0:0:0:
64,192,15576,1,0,0:0:0:0:
192,192,15630,1,0,0:0:0:0:
448,192,15683,1,0,0:0:0:0:
320,192,15737,1,0,0:0:0:0:
192,192,15790,1,0,0:0:0:0:
64,192,15844,1,0,0:0:0:0:
448,192,15898,1,0,0:0:0:0:
320,192,15951,1,0,0:0:0:0:
192,192,16005,1,0,0:0:0:0:
64,192,16005,1,0,0:0:0:0:
448,192,16005,1,0,0:0:0:0:
64,192,16219,1,0,0:0:0:0:
192,192,16219,1,0,0:0:0:0:
448,192,16219,1,0,0:0:0:0:
320,192,16540,1,0,0:0:0:0:
448,192,16540,1,0,0:0:0:0:
192,192,16540,1,0,0:0:0:0:
192,192,16862,1,0,0:0:0:0:
320,192,16862,1,0,0:0:0:0:
64,192,16862,1,0,0:0:0:0:
320,192,17183,1,0,0:0:0:0:
448,192,17183,1,0,0:0:0:0:
64,192,17183,1,0,0:0:0:0:
64,192,17505,128,0,17933:0:0:0:0:
192,192,17933,1,0,0:0:0:0:
320,192,17933,1,0,0:0:0:0:
448,192,18040,1,0,0:0:0:0:
320,192,18094,1,0,0:0:0:0:
192,192,18148,1,0,0:0:0:0:
64,192,18201,1,0,0:0:0:0:
448,192,18255,1,0,0:0:0:0:
320,192,18308,1,0,0:0:0:0:
64,192,18362,1,0,0:0:0:0:
192,192,18415,1,0,0:0:0:0:
320,192,18469,1,0,0:0:0:0:
448,192,18523,1,0,0:0:0:0:
64,192,18576,1,0,0:0:0:0:
192,192,18630,1,0,0:0:0:0:
448,192,18683,1,0,0:0:0:0:
320,192,18737,1,0,0:0:0:0:
192,192,18790,1,0,0:0:0:0:
448,192,18844,1,0,0:0:0:0:
320,192,18898,1,0,0:0:0:0:
64,192,18951,1,0,0:0:0:0:
192,192,19005,128,0,19112:0:0:0:0:
320,192,19112,128,0,19219:0:0:0:0:
448,192,19219,128,0,19433:0:0:0:0:
320,192,19433,128,0,19648:0:0:0:0:
64,192,19648,1,0,0:0:0:0:
192,192,19648,1,0,0:0:0:0:
448,192,19862,1,0,0:0:0:0:
448,192,20076,1,0,0:0:0:0:
320,192,20290,1,0,0:0:0:0:
192,192,20505,1,0,0:0:0:0:
64,192,20719,1,0,0:0:0:0:
192,192,20826,1,0,0:0:0:0:
64,192,20933,1,0,0:0:0:0:
192,192,21148,1,0,0:0:0:0:
320,192,21362,1,0,0:0:0:0:
64,192,21576,1,0,0:0:0:0:
192,192,21790,1,0,0:0:0:0:
448,192,22005,1,0,0:0:0:0:
320,192,22112,1,0,0:0:0:0:
192,192,22219,1,0,0:0:0:0:
64,192,22433,1,0,0:0:0:0:
192,192,22540,1,0,0:0:0:0:
320,192,22648,1,0,0:0:0:0:
192,192,22862,1,0,0:0:0:0:
320,192,22969,1,0,0:0:0:0:
448,192,23076,1,0,0:0:0:0:
64,192,23290,1,0,0:0:0:0:
192,192,23505,1,0,0:0:0:0:
448,192,23719,1,0,0:0:0:0:
320,192,23826,1,0,0:0:0:0:
192,192,23933,1,0,0:0:0:0:
320,192,24148,1,0,0:0:0:0:
192,192,24362,1,0,0:0:0:0:
64,192,24576,1,0,0:0:0:0:
192,192,24683,1,0,0:0:0:0:
320,192,24790,1,0,0:0:0:0:
64,192,25005,1,0,0:0:0:0:
320,192,25219,1,0,0:0:0:0:
192,192,25326,1,0,0:0:0:0:
448,192,25433,1,0,0:0:0:0:
320,192,25540,1,0,0:0:0:0:
192,192,25648,1,0,0:0:0:0:
320,192,25862,1,0,0:0:0:0:
192,192,26076,1,0,0:0:0:0:
448,192,26290,1,0,0:0:0:0:
320,192,26505,1,0,0:0:0:0:
64,192,26719,1,0,0:0:0:0:
192,192,26933,1,0,0:0:0:0:
448,192,27148,1,0,0:0:0:0:
320,192,27362,1,0,0:0:0:0:
192,192,27576,1,0,0:0:0:0:
64,192,27648,1,0,0:0:0:0:
192,192,27719,1,0,0:0:0:0:
320,192,27790,1,0,0:0:0:0:
448,192,28005,1,0,0:0:0:0:
448,192,28219,1,0,0:0:0:0:
64,192,28433,1,0,0:0:0:0:
192,192,28648,1,0,0:0:0:0:
448,192,28862,1,0,0:0:0:0:
320,192,29076,128,0,29505:0:0:0:0:
192,192,29505,128,0,29933:0:0:0:0:
320,192,29933,1,0,0:0:0:0:
448,192,29933,1,0,0:0:0:0:
64,192,29933,1,0,0:0:0:0:
64,192,30148,1,0,0:0:0:0:
192,192,30148,1,0,0:0:0:0:
320,192,30362,1,0,0:0:0:0:
448,192,30362,1,0,0:0:0:0:
192,192,30469,1,0,0:0:0:0:
64,192,30469,1,0,0:0:0:0:
320,192,30576,1,0,0:0:0:0:
448,192,30576,1,0,0:0:0:0:
192,192,30683,1,0,0:0:0:0:
64,192,30683,1,0,0:0:0:0:
320,192,30790,1,0,0:0:0:0:
448,192,30790,1,0,0:0:0:0:
320,192,30898,1,0,0:0:0:0:
448,192,30898,1,0,0:0:0:0:
192,192,31005,1,0,0:0:0:0:
64,192,31005,1,0,0:0:0:0:
320,192,31112,128,0,31326:0:0:0:0:
448,192,31112,128,0,31326:0:0:0:0:
192,192,31326,1,0,0:0:0:0:
64,192,31433,1,0,0:0:0:0:
320,192,31433,1,0,0:0:0:0:
320,192,31648,1,0,0:0:0:0:
448,192,31648,1,0,0:0:0:0:
64,192,31648,1,0,0:0:0:0:
192,192,31969,1,0,0:0:0:0:
64,192,31969,1,0,0:0:0:0:
320,192,31969,1,0,0:0:0:0:
192,192,32290,1,0,0:0:0:0:
320,192,32290,1,0,0:0:0:0:
448,192,32290,1,0,0:0:0:0:
64,192,32612,1,0,0:0:0:0:
192,192,32612,1,0,0:0:0:0:
448,192,32612,1,0,0:0:0:0:
320,192,32933,1,0,0:0:0:0:
448,192,32933,1,0,0:0:0:0:
64,192,32933,1,0,0:0:0:0:
320,192,33576,1,0,0:0:0:0:
448,192,33576,1,0,0:0:0:0:
192,192,33576,1,0,0:0:0:0:
320,192,33790,1,0,0:0:0:0:
192,192,33790,1,0,0:0:0:0:
64,192,33790,1,0,0:0:0:0:
64,192,34005,1,0,0:0:0:0:
192,192,34005,1,0,0:0:0:0:
448,192,34005,1,0,0:0:0:0:
192,192,34219,1,0,0:0:0:0:
320,192,34219,1,0,0:0:0:0:
448,192,34219,1,0,0:0:0:0:
320,192,34540,1,0,0:0:0:0:
448,192,34540,1,0,0:0:0:0:
64,192,34540,1,0,0:0:0:0:
192,192,34862,1,0,0:0:0:0:
64,192,34862,1,0,0:0:0:0:
448,192,34862,1,0,0:0:0:0:
320,192,35183,1,0,0:0:0:0:
448,192,35183,1,0,0:0:0:0:
192,192,35183,1,0,0:0:0:0:
192,192,35505,1,0,0:0:0:0:
320,192,35505,1,0,0:0:0:0:
64,192,35505,1,0,0:0:0:0:
448,192,35933,1,0,0:0:0:0:
320,192,35987,1,0,0:0:0:0:
192,192,36040,1,0,0:0:0:0:
64,192,36094,1,0,0:0:0:0:
448,192,36148,1,0,0:0:0:0:
320,192,36201,1,0,0:0:0:0:
64,192,36255,1,0,0:0:0:0:
192,192,36308,1,0,0:0:0:0:
448,192,36362,1,0,0:0:0:0:
320,192,36415,1,0,0:0:0:0:
192,192,36469,1,0,0:0:0:0:
64,192,36523,1,0,0:0:0:0:
448,192,36576,1,0,0:0:0:0:
320,192,36630,1,0,0:0:0:0:
64,192,36683,1,0,0:0:0:0:
192,192,36737,1,0,0:0:0:0:
320,192,36790,1,0,0:0:0:0:
448,192,36844,1,0,0:0:0:0:
64,192,36898,1,0,0:0:0:0:
192,192,36951,1,0,0:0:0:0:
448,192,37005,1,0,0:0:0:0:
320,192,37058,1,0,0:0:0:0:
64,192,37112,1,0,0:0:0:0:
192,192,37165,1,0,0:0:0:0:
320,192,37219,1,0,0:0:0:0:
448,192,37273,1,0,0:0:0:0:
64,192,37326,1,0,0:0:0:0:
192,192,37380,1,0,0:0:0:0:
448,192,37433,1,0,0:0:0:0:
320,192,37487,1,0,0:0:0:0:
192,192,37540,1,0,0:0:0:0:
64,192,37594,1,0,0:0:0:0:
320,192,37648,1,0,0:0:0:0:
448,192,37648,1,0,0:0:0:0:
192,192,37648,1,0,0:0:0:0:
64,192,37862,1,0,0:0:0:0:
192,192,37862,1,0,0:0:0:0:
320,192,38076,1,0,0:0:0:0:
448,192,38076,1,0,0:0:0:0:
64,192,38076,1,0,0:0:0:0:
320,192,38183,1,0,0:0:0:0:
448,192,38183,1,0,0:0:0:0:
64,192,38290,1,0,0:0:0:0:
192,192,38290,1,0,0:0:0:0:
448,192,38290,1,0,0:0:0:0:
64,192,38398,1,0,0:0:0:0:
192,192,38398,1,0,0:0:0:0:
320,192,38505,1,0,0:0:0:0:
448,192,38505,1,0,0:0:0:0:
64,192,38719,1,0,0:0:0:0:
320,192,38719,1,0,0:0:0:0:
192,192,38826,1,0,0:0:0:0:
448,192,38826,1,0,0:0:0:0:
64,192,39040,1,0,0:0:0:0:
448,192,39040,1,0,0:0:0:0:
192,192,39148,1,0,0:0:0:0:
320,192,39148,1,0,0:0:0:0:
64,192,39362,1,0,0:0:0:0:
448,192,39362,1,0,0:0:0:0:
320,192,39415,1,0,0:0:0:0:
192,192,39469,1,0,0:0:0:0:
64,192,39523,1,0,0:0:0:0:
320,192,39576,1,0,0:0:0:0:
448,192,39576,1,0,0:0:0:0:
192,192,39630,1,0,0:0:0:0:
64,192,39683,1,0,0:0:0:0:
320,192,39737,1,0,0:0:0:0:
192,192,39790,1,0,0:0:0:0:
448,192,39790,1,0,0:0:0:0:
64,192,39844,1,0,0:0:0:0:
320,192,39898,1,0,0:0:0:0:
448,192,39951,1,0,0:0:0:0:
64,192,40005,1,0,0:0:0:0:
192,192,40112,1,0,0:0:0:0:
320,192,40219,1,0,0:0:0:0:
448,192,40219,1,0,0:0:0:0:
64,192,40219,1,0,0:0:0:0:
192,192,40326,1,0,0:0:0:0:
320,192,40433,1,0,0:0:0:0:
64,192,40648,1,0,0:0:0:0:
192,192,40648,1,0,0:0:0:0:
448,192,40648,1,0,0:0:0:0:
320,192,40862,1,0,0:0:0:0:
448,192,40862,1,0,0:0:0:0:
64,192,41076,1,0,0:0:0:0:
192,192,41076,1,0,0:0:0:0:
192,192,41290,1,0,0:0:0:0:
320,192,41290,1,0,0:0:0:0:
448,192,41505,1,0,0:0:0:0:
192,192,41505,1,0,0:0:0:0:
320,192,41612,1,0,0:0:0:0:
192,192,41719,1,0,0:0:0:0:
64,192,41719,1,0,0:0:0:0:
320,192,41826,1,0,0:0:0:0:
192,192,41933,1,0,0:0:0:0:
448,192,41933,1,0,0:0:0:0:
320,192,42040,1,0,0:0:0:0:
192,192,42148,1,0,0:0:0:0:
64,192,42148,1,0,0:0:0:0:
320,192,42255,1,0,0:0:0:0:
448,192,42362,1,0,0:0:0:0:
192,192,42362,1,0,0:0:0:0:
64,192,42362,1,0,0:0:0:0:
320,192,42576,1,0,0:0:0:0:
448,192,42576,1,0,0:0:0:0:
64,192,42576,1,0,0:0:0:0:
64,192,42790,1,0,0:0:0:0:
448,192,42790,1,0,0:0:0:0:
192,192,42844,1,0,0:0:0:0:
320,192,42898,1,0,0:0:0:0:
448,192,42951,1,0,0:0:0:0:
64,192,43005,1,0,0:0:0:0:
192,192,43058,1,0,0:0:0:0:
320,192,43112,1,0,0:0:0:0:
448,192,43165,1,0,0:0:0:0:
192,192,43219,1,0,0:0:0:0:
64,192,43219,1,0,0:0:0:0:
320,192,43326,1,0,0:0:0:0:
448,192,43326,1,0,0:0:0:0:
320,192,43433,1,0,0:0:0:0:
448,192,43433,1,0,0:0:0:0:
64,192,43540,1,0,0:0:0:0:
192,192,43540,1,0,0:0:0:0:
320,192,43755,1,0,0:0:0:0:
448,192,43755,1,0,0:0:0:0:
192,192,43755,1,0,0:0:0:0:
64,192,43862,1,0,0:0:0:0:
192,192,43862,1,0,0:0:0:0:
64,192,44076,1,0,0:0:0:0:
192,192,44076,1,0,0:0:0:0:
448,192,44076,1,0,0:0:0:0:
448,192,44290,1,0,0:0:0:0:
320,192,44290,1,0,0:0:0:0:
64,192,44290,1,0,0:0:0:0:
64,192,44505,1,0,0:0:0:0:
320,192,44505,1,0,0:0:0:0:
192,192,44505,128,0,44719:0:0:0:0:
320,192,44719,1,0,0:0:0:0:
448,192,44719,1,0,0:0:0:0:
64,192,44933,1,0,0:0:0:0:
448,192,44933,1,0,0:0:0:0:
192,192,44987,1,0,0:0:0:0:
320,192,45040,1,0,0:0:0:0:
192,192,45094,1,0,0:0:0:0:
64,192,45148,1,0,0:0:0:0:
448,192,45148,1,0,0:0:0:0:
320,192,45255,128,0,45362:0:0:0:0:
192,192,45255,1,0,0:0:0:0:
64,192,45469,1,0,0:0:0:0:
448,192,45469,1,0,0:0:0:0:
192,192,45576,1,0,0:0:0:0:
320,192,45576,1,0,0:0:0:0:
448,192,45683,1,0,0:0:0:0:
320,192,45790,1,0,0:0:0:0:
64,192,45790,1,0,0:0:0:0:
192,192,45898,1,0,0:0:0:0:
448,192,45898,1,0,0:0:0:0:
64,192,46005,128,0,46112:0:0:0:0:
448,192,46219,1,0,0:0:0:0:
192,192,46219,1,0,0:0:0:0:
320,192,46273,1,0,0:0:0:0:
448,192,46326,1,0,0:0:0:0:
192,192,46326,1,0,0:0:0:0:
320,192,46433,1,0,0:0:0:0:
64,192,46433,1,0,0:0:0:0:
192,192,46487,1,0,0:0:0:0:
64,192,46540,1,0,0:0:0:0:
320,192,46540,1,0,0:0:0:0:
448,192,46648,1,0,0:0:0:0:
192,192,46648,1,0,0:0:0:0:
320,192,46701,1,0,0:0:0:0:
192,192,46755,1,0,0:0:0:0:
64,192,46862,1,0,0:0:0:0:
320,192,46862,1,0,0:0:0:0:
64,192,47076,1,0,0:0:0:0:
320,192,47076,1,0,0:0:0:0:
448,192,47076,1,0,0:0:0:0:
192,192,47130,1,0,0:0:0:0:
320,192,47183,1,0,0:0:0:0:
64,192,47237,1,0,0:0:0:0:
192,192,47290,1,0,0:0:0:0:
448,192,47344,1,0,0:0:0:0:
320,192,47398,1,0,0:0:0:0:
192,192,47451,1,0,0:0:0:0:
64,192,47505,1,0,0:0:0:0:
320,192,47505,1,0,0:0:0:0:
448,192,47505,1,0,0:0:0:0:
64,192,47719,1,0,0:0:0:0:
192,192,47719,1,0,0:0:0:0:
320,192,47719,1,0,0:0:0:0:
64,192,47933,1,0,0:0:0:0:
192,192,47933,1,0,0:0:0:0:
448,192,47933,1,0,0:0:0:0:
320,192,48148,1,0,0:0:0:0:
448,192,48148,1,0,0:0:0:0:
192,192,48148,128,0,48255:0:0:0:0:
320,192,48362,1,0,0:0:0:0:
448,192,48362,1,0,0:0:0:0:
64,192,48362,1,0,0:0:0:0:
192,192,48469,1,0,0:0:0:0:
320,192,48469,1,0,0:0:0:0:
64,192,48576,1,0,0:0:0:0:
192,192,48576,1,0,0:0:0:0:
320,192,48683,1,0,0:0:0:0:
448,192,48683,1,0,0:0:0:0:
192,192,48790,1,0,0:0:0:0:
64,192,48790,1,0,0:0:0:0:
448,192,48790,1,0,0:0:0:0:
320,192,49112,1,0,0:0:0:0:
448,192,49112,1,0,0:0:0:0:
320,192,49219,1,0,0:0:0:0:
448,192,49219,1,0,0:0:0:0:
320,192,49326,1,0,0:0:0:0:
448,192,49326,1,0,0:0:0:0:
192,192,49433,1,0,0:0:0:0:
64,192,49433,1,0,0:0:0:0:
320,192,49648,1,0,0:0:0:0:
64,192,49755,1,0,0:0:0:0:
448,192,49755,1,0,0:0:0:0:
192,192,49969,1,0,0:0:0:0:
448,192,50076,1,0,0:0:0:0:
320,192,50076,1,0,0:0:0:0:
320,192,50237,1,0,0:0:0:0:
192,192,50237,1,0,0:0:0:0:
192,192,50398,1,0,0:0:0:0:
64,192,50398,1,0,0:0:0:0:
320,192,50505,1,0,0:0:0:0:
448,192,50505,1,0,0:0:0:0:
64,192,50505,1,0,0:0:0:0:
192,192,50933,1,0,0:0:0:0:
64,192,50933,1,0,0:0:0:0:
448,192,50933,1,0,0:0:0:0:
192,192,51362,1,0,0:0:0:0:
448,192,51362,1,0,0:0:0:0:
320,192,51362,1,0,0:0:0:0:
