osu file format v14

[General]
AudioFilename: audio.mp3
AudioLeadIn: 0
PreviewTime: 19648
Countdown: 1
SampleSet: Soft
StackLeniency: 0.7
Mode: 0
LetterboxInBreaks: 0
WidescreenStoryboard: 0

[Editor]
Bookmarks: 116505,136219
DistanceSpacing: 2.3
BeatDivisor: 4
GridSize: 4
TimelineZoom: 3.599999

[Metadata]
Title:Doppelganger
TitleUnicode:Doppelganger
Artist:LeaF
ArtistUnicode:LeaF
Creator:phoneetic
Version:Singularity
Source:BMS
Tags:
BeatmapID:1892614
BeatmapSetID:906991

[Difficulty]
HPDrainRate:5
CircleSize:4
OverallDifficulty:10
ApproachRate:10
SliderMultiplier:1.4
SliderTickRate:1

[Events]
//Background and Video events
0,0,"sketch1.jpg",0,0
//Break Periods
2,55097,59483
2,75990,80912
2,116705,122055
//Storyboard Layer 0 (Background)
//Storyboard Layer 1 (Fail)
//Storyboard Layer 2 (Pass)
//Storyboard Layer 3 (Foreground)
//Storyboard Sound Samples

[TimingPoints]
791,214.285714285714,4,2,0,100,1,0
791,-222.222222222221,4,2,0,100,0,0
2398,-100,4,2,0,100,0,0
3576,-333.333333333333,4,2,0,100,0,0
3898,-100,4,2,0,100,0,0
4219,-66.6666666666667,4,2,0,100,0,1
10219,-66.6666666666667,4,2,0,100,0,0
10326,-50,4,2,0,100,0,0
10433,-40,4,2,0,100,0,0
10540,-25,4,2,0,100,0,0
10648,-66.6666666666667,4,2,0,100,0,1
14505,-25,4,2,0,100,0,0
14719,-66.6666666666667,4,2,0,100,0,0
15898,-40,4,2,0,100,0,0
16112,-66.6666666666667,4,2,0,100,0,0
29933,-222.222222222221,4,2,0,100,0,0
31648,-100,4,2,0,100,0,0
37648,-66.6666666666667,4,2,0,100,0,1
39790,-66.6666666666667,4,2,0,100,0,0
40648,-66.6666666666667,4,2,0,100,0,1
43755,-333.333333333333,4,2,0,100,0,0
44719,-66.6666666666667,4,2,0,100,0,1
47076,-133.333333333333,4,2,0,100,0,0
47290,-66.6666666666667,4,2,0,100,0,1
53130,-40,4,2,0,100,0,1
53237,-66.6666666666667,4,2,0,100,0,1
53719,-33.3333333333333,4,2,0,100,0,1
53933,-66.6666666666667,4,2,0,100,0,1
60790,-1000,4,2,0,100,0,1
61005,-250,4,2,0,100,0,1
61219,-111.111111111111,4,2,0,100,0,1
61433,-66.6666666666667,4,2,0,100,0,1
63362,-50,4,2,0,100,0,1
64862,-66.6666666666667,4,2,0,100,0,1
65076,-133.333333333333,4,2,0,100,0,1
65290,-100,4,2,0,100,0,1
65505,-79.9999999999999,4,2,0,100,0,1
65719,-66.6666666666667,4,2,0,100,0,1
65933,-57.1428571428571,4,2,0,100,0,1
66148,-50,4,2,0,100,0,1
66362,-43.4782608695652,4,2,0,100,0,1
66576,-38.4615384615385,4,2,0,100,0,1
66790,-66.6666666666667,4,2,0,100,0,1
71933,-66.6666666666667,4,2,0,100,0,0
72362,-66.6666666666667,4,2,0,100,0,1
75362,-66.6666666666667,4,2,0,100,0,0
81362,-66.6666666666667,4,2,0,100,0,1
87255,-133.333333333333,4,2,0,100,0,1
87469,-66.6666666666667,4,2,0,100,0,1
87683,-50,4,2,0,100,0,1
87898,-33.3333333333333,4,2,0,100,0,1
88112,-28.5714285714286,4,2,0,100,0,1
88219,-66.6666666666667,4,2,0,100,0,1
92933,-500,4,2,0,100,0,0
93790,-66.6666666666667,4,2,0,100,0,1
95933,-66.6666666666667,4,2,0,100,0,0
96148,-40,4,2,0,100,0,1
96790,-66.6666666666667,4,2,0,100,0,1
105362,-50,4,2,0,100,0,1
105790,-66.6666666666667,4,2,0,100,0,0
106433,-66.6666666666667,4,2,0,100,0,1
107398,-66.6666666666667,4,2,0,100,0,0
107719,-66.6666666666667,4,2,0,100,0,1
108790,-66.6666666666667,4,2,0,100,0,0
109005,-66.6666666666667,4,2,0,100,0,1
109648,-200,4,2,0,100,0,0
122505,-66.6666666666667,4,2,0,100,0,1
138576,-50,4,2,0,100,0,1
139648,-66.6666666666667,4,2,0,100,0,1
141255,-66.6666666666667,4,2,0,100,0,0 144790,NaN,4,2,0,100,1,0

[HitObjects]
88,57,791,6,0,L|111:90,1,31.4999990386963
259,192,1112,2,0,L|231:163,1,31.4999990386963
402,259,1326,2,0,L|376:234,1,31.4999990386963
190,263,1541,2,0,L|215:290,1,31.4999990386963
165,102,1755,6,0,L|197:129,1,31.4999990386963
374,155,1969,2,0,L|343:130,1,31.4999990386963
295,316,2183,2,0,L|269:296,1,31.4999990386963
133,260,2398,5,0,0:0:0:0:
133,260,2451,1,0,0:0:0:0:
133,260,2505,2,0,P|111:204|121:181,1,70
171,70,2719,2,0,P|190:121|171:156,1,70
227,267,2933,5,0,0:0:0:0:
353,330,3041,1,0,0:0:0:0:
472,256,3148,2,0,P|424:209|397:216,1,70
360,86,3362,2,0,P|352:140|365:180,1,70
234,116,3576,6,0,L|250:137,1,20.9999993591309
187,245,3791,2,0,L|170:222,1,20.9999993591309
353,330,3951,5,0,0:0:0:0:
377,305,4004,1,0,0:0:0:0:
394,274,4058,1,0,0:0:0:0:
402,240,4111,5,0,0:0:0:0:
400,205,4165,1,0,0:0:0:0:
343,116,4219,2,0,P|301:175|239:181,1,105.000004005432
242,82,4380,5,0,0:0:0:0:
168,154,4433,2,0,P|129:223|132:268,1,105.000004005432
339,250,4648,5,0,0:0:0:0:
308,42,4755,1,0,0:0:0:0:
216,230,4862,1,0,0:0:0:0:
424,210,4969,5,0,0:0:0:0:
424,210,5023,1,0,0:0:0:0:
424,210,5076,2,0,P|378:155|358:113,1,105.000004005432
155,85,5291,6,0,B|139:147|139:147|127:186|127:186|134:162|134:162|131:174|131:174|136:155|136:155|133:165|133:165|121:207,1,210.000008010865
315,283,5612,2,0,B|247:319|247:319|184:319,2,105.000004005432
330,113,5933,5,0,0:0:0:0:
127,175,6041,1,0,0:0:0:0:
335,195,6148,1,0,0:0:0:0:
182,50,6255,1,0,0:0:0:0:
391,58,6362,5,0,0:0:0:0:
223,184,6469,1,0,0:0:0:0:
427,231,6576,1,0,0:0:0:0:
241,328,6683,1,0,0:0:0:0:
68,205,6791,5,0,0:0:0:0:
272,250,6898,1,0,0:0:0:0:
208,50,7005,1,0,0:0:0:0:
387,158,7112,1,0,0:0:0:0:
178,132,7219,6,0,P|256:122|271:147,1,105.000004005432
384,306,7433,1,0,0:0:0:0:
384,306,7487,1,0,0:0:0:0:
384,306,7541,1,0,0:0:0:0:
384,306,7594,1,0,0:0:0:0:
384,306,7648,2,0,B|335:246|335:246|321:197,1,105.000004005432
123,267,7862,5,0,0:0:0:0:
78,62,7969,1,0,0:0:0:0:
273,137,8076,2,0,B|331:172|331:172|383:172,1,105.000004005432
226,329,8291,1,0,0:0:0:0:
173,125,8398,6,0,L|192:201,2,52.5000020027161
331,262,8612,1,0,0:0:0:0:
126,308,8719,2,0,L|127:175,1,105.000004005432
285,66,8933,2,0,P|283:178|274:196,1,105.000004005432
413,338,9148,6,0,P|366:270|316:247,1,105.000004005432
145,206,9362,1,0,0:0:0:0:
354,193,9469,1,0,0:0:0:0:
185,68,9576,1,0,0:0:0:0:
252,266,9683,5,0,0:0:0:0:
391,109,9790,1,0,0:0:0:0:
181,139,9898,1,0,0:0:0:0:
332,284,10005,1,0,0:0:0:0:
268,84,10112,5,0,0:0:0:0:
83,184,10219,2,0,L|146:183,1,52.5000020027161
83,184,10326,2,0,L|193:182,1,70
83,184,10433,2,0,L|211:183,1,87.5
83,184,10540,2,0,L|240:182,1,140
312,122,10648,2,0,P|430:231|264:217,1,420.000016021729
170,39,11183,5,0,0:0:0:0:
146,247,11290,1,0,0:0:0:0:
357,237,11398,2,0,P|282:281|241:273,1,105.000004005432
99,155,11612,2,0,P|169:127|203:136,1,105.000004005432
405,130,11826,6,0,P|328:157|294:146,1,105.000004005432
232,347,12040,2,0,P|217:278|231:241,1,105.000004005432
235,35,12255,2,0,P|253:117|241:151,1,105.000004005432
128,307,12469,1,0,0:0:0:0:
113,97,12576,5,0,0:0:0:0:
280,223,12683,1,0,0:0:0:0:
280,223,12737,1,0,0:0:0:0:
280,223,12790,2,0,B|289:159|289:159|309:99,1,105.000004005432
399,308,13005,5,0,0:0:0:0:
451,104,13112,1,0,0:0:0:0:
329,275,13219,1,0,0:0:0:0:
277,71,13326,1,0,0:0:0:0:
169,250,13433,5,0,0:0:0:0:
361,332,13540,1,0,0:0:0:0:
246,153,13648,2,0,B|249:227|249:227|237:279,1,105.000004005432
122,84,13862,2,0,B|125:161|125:161|149:234,1,105.000004005432
283,41,14076,6,0,B|324:82|324:82|336:84|336:84|346:95|346:95|360:88|360:88|366:100,1,105.000004005432
446,283,14290,1,0,0:0:0:0:
399,307,14343,1,0,0:0:0:0:
348,320,14397,1,0,0:0:0:0:
296,322,14450,1,0,0:0:0:0:
80,132,14505,2,0,P|198:216|498:-2,1,560
395,43,14773,5,0,0:0:0:0:
343,39,14826,1,0,0:0:0:0:
297,64,14880,1,0,0:0:0:0:
273,109,14933,1,0,0:0:0:0:
256,214,14987,5,0,0:0:0:0:
246,264,15040,1,0,0:0:0:0:
205,295,15094,1,0,0:0:0:0:
99,304,15148,6,0,L|98:227,1,52.5000020027161
173,177,15255,2,0,L|173:106,1,52.5000020027161
67,117,15362,1,0,0:0:0:0:
253,212,15469,5,0,0:0:0:0:
160,23,15576,1,0,0:0:0:0:
43,197,15683,6,0,P|104:223|136:207,1,105.000004005432
189,116,15844,2,0,P|216:103|248:117,1,52.5000020027161
347,245,15951,2,0,P|383:271|429:240,1,87.5
51,51,16219,2,0,P|114:141|213:179,1,210.000008010865
389,97,16540,6,0,B|358:151|358:151|337:150|337:150|347:185|347:185|281:262,1,210.000008010865
81,294,16862,1,0,0:0:0:0:
467,130,17183,1,0,0:0:0:0:
108,46,17505,2,0,B|147:84|147:84|160:90|160:90|175:94|175:94|214:238|214:238|239:243|239:243|269:245|268:245|367:355,1,420.000016021729
461,319,17987,5,0,0:0:0:0:
416,291,18040,1,0,0:0:0:0:
388,247,18094,1,0,0:0:0:0:
384,196,18147,1,0,0:0:0:0:
402,147,18201,5,0,0:0:0:0:
314,89,18255,1,0,0:0:0:0:
299,138,18308,1,0,0:0:0:0:
264,178,18362,1,0,0:0:0:0:
217,198,18415,5,0,0:0:0:0:
165,197,18469,1,0,0:0:0:0:
118,174,18522,1,0,0:0:0:0:
132,279,18576,1,0,0:0:0:0:
113,230,18629,5,0,0:0:0:0:
116,178,18683,1,0,0:0:0:0:
139,131,18736,1,0,0:0:0:0:
178,97,18790,1,0,0:0:0:0:
271,148,18844,5,0,0:0:0:0:
300,187,18897,1,0,0:0:0:0:
273,228,18951,1,0,0:0:0:0:
225,218,19004,1,0,0:0:0:0:
380,74,19112,6,0,P|353:136|376:171,1,105.000004005432
424,337,19433,2,0,P|379:270|346:110,1,210.000008010865
148,47,19862,6,0,P|152:138|95:256,1,210.000008010865
509,352,20290,2,0,P|382:313|280:273,1,210.000008010865
341,71,20719,2,0,P|269:108|256:128,2,105.000004005432
38,363,21148,1,0,0:0:0:0:
385,128,21362,6,0,B|312:205|312:205|205:257,1,210.000008010865
219,80,21790,2,0,P|349:241|347:255,1,210.000008010865
182,351,22112,1,0,0:0:0:0:
64,177,22219,2,0,P|149:196|278:165,1,210.000008010865
457,82,22540,5,0,0:0:0:0:
350,84,22648,2,0,L|300:287,1,210.000008010865
211,97,22969,1,0,0:0:0:0:
66,249,23076,2,0,B|81:252|80:252|96:253|96:253|98:246|98:246|111:257|111:257|127:266|129:266|149:267|149:267|156:248|156:248|168:251|168:252|181:265|185:267|198:299|198:299|226:293|226:292,1,210.000008010865
350,73,23505,6,0,B|348:118|348:118|334:106|334:106|314:104|314:104|312:130|312:130|318:135|318:135|312:137|312:137|318:142|318:142|323:145|325:145|320:152|320:152|306:152|305:152|320:160|324:162|332:167|337:171|350:188|357:162|350:150|338:142|345:158|356:162|364:140|373:140|360:136|378:118|377:113|380:140|385:146|390:150,1,210.000008010865
284,332,23826,1,0,0:0:0:0:
207,136,23933,2,0,B|171:247|171:247|157:349,1,210.000008010865
437,24,24362,2,0,B|396:96|396:96|391:149|391:149|370:174|370:174|370:234,1,210.000008010865
262,35,24683,5,0,0:0:0:0:
250,244,24790,2,0,P|146:178|114:88,1,210.000008010865
461,340,25219,2,0,P|410:286|389:294,1,105.000004005432
360,84,25433,5,0,0:0:0:0:
307,287,25540,1,0,0:0:0:0:
98,324,25648,2,0,B|86:243|86:243|96:237|96:237|91:225|91:225|106:217|106:217|109:198|109:198|108:185|108:185|111:176|111:176|117:172|117:172|110:165|110:165|116:157|116:157|121:153|121:153|128:152|128:152|136:149,1,210.000008010865
428,44,26076,2,0,B|419:126|419:126|436:125|436:125|406:97|406:97|446:88|446:88|414:142,1,210.000008010865
74,336,26505,6,0,B|69:244|69:244|91:275|91:275|117:270|117:270|88:216,1,210.000008010865
495,338,26933,2,0,B|408:298|408:298|331:234|331:234|318:215,1,210.000008010865
264,59,27362,2,0,P|203:133|236:133,1,210.000008010865
264,338,27630,2,0,L|259:274,2,52.5000020027161
331,259,27790,6,0,P|410:252|363:156,1,210.000008010865
186,28,28219,2,0,B|135:128|135:128|144:251,1,210.000008010865
326,352,28648,2,0,B|344:229|344:229|305:118,1,210.000008010865
53,182,29076,2,0,B|143:180|143:180|146:172|146:172|144:184|144:184|145:175|145:175|151:178|151:178|124:178|124:178|166:176|166:176|147:177,1,210.000008010865
341,47,29505,2,0,B|339:80|339:80|340:63|340:63|337:111|337:111|340:87|339:86|336:134|336:134|338:118|338:118|336:163,1,210.000008010865
269,264,29933,2,0,L|212:217,1,62.9999980773926
55,44,30362,6,0,L|83:71,1,31.4999990386963
470,279,30576,2,0,L|438:248,1,31.4999990386963
73,371,30790,2,0,L|42:340,1,31.4999990386963
349,18,31005,2,0,L|369:44,1,31.4999990386963
234,73,31433,1,0,0:0:0:0:
312,342,31648,6,0,B|301:262|301:262|305:182,1,140
164,196,31969,2,0,B|217:162|217:162|303:130,1,140
389,232,32290,2,0,B|383:131|383:131|359:78,1,140
226,83,32612,2,0,B|116:84|116:84|127:83|127:83|91:82,1,140
65,228,32933,6,0,B|83:337|83:337|131:199|174:353|227:140,1,350
360,89,33576,2,0,P|327:141|323:165,1,70
224,264,33790,2,0,P|172:294|157:294,1,70
157,139,34005,2,0,P|196:161|201:193,1,70
305,296,34219,2,0,P|327:199|366:184,1,140
406,68,34540,2,0,B|424:69|424:69|430:70|430:70|421:67|421:67|436:71|436:70|429:69|429:69|441:71|441:71|439:71|439:71|440:71|440:71|442:72|442:72|440:71|440:71|445:72|445:72|442:72|442:72|449:74|449:74|456:75|456:75|468:78|468:78|431:70,1,140
346,182,34862,6,0,B|269:182|269:182|194:158,1,140
124,274,35183,2,0,P|104:209|88:114,1,140
181,30,35505,2,0,B|187:92|187:92|213:87|211:87|189:72|189:72|224:77|224:77|232:109|230:109|196:113|225:157|226:157|248:150|248:150|270:154|274:183|274:183|261:186|261:186,1,280
282,108,35987,1,0,0:0:0:0:
292,74,36040,5,0,0:0:0:0:
314,47,36094,1,0,0:0:0:0:
343,28,36147,1,0,0:0:0:0:
377,21,36201,1,0,0:0:0:0:
412,25,36255,5,0,0:0:0:0:
443,41,36308,1,0,0:0:0:0:
467,66,36361,1,0,0:0:0:0:
481,98,36415,1,0,0:0:0:0:
484,132,36469,5,0,0:0:0:0:
474,166,36522,1,0,0:0:0:0:
454,194,36576,1,0,0:0:0:0:
426,215,36629,1,0,0:0:0:0:
392,224,36683,5,0,0:0:0:0:
358,221,36736,1,0,0:0:0:0:
326,207,36790,1,0,0:0:0:0:
293,194,36844,1,0,0:0:0:0:
267,170,36897,5,0,0:0:0:0:
234,158,36951,1,0,0:0:0:0:
200,160,37004,1,0,0:0:0:0:
168,175,37058,1,0,0:0:0:0:
146,202,37111,5,0,0:0:0:0:
135,235,37165,1,0,0:0:0:0:
138,269,37218,1,0,0:0:0:0:
155,300,37272,1,0,0:0:0:0:
182,322,37326,5,0,0:0:0:0:
216,331,37379,1,0,0:0:0:0:
250,326,37433,1,0,0:0:0:0:
281,310,37487,1,0,0:0:0:0:
301,281,37540,5,0,0:0:0:0:
307,247,37594,1,0,0:0:0:0:
283,133,37648,2,0,B|357:178|357:178|439:290,1,210.000008010865
28,49,38076,6,0,B|45:117|45:117|79:150,1,105.000004005432
218,318,38290,2,0,B|200:244|200:244|171:217,1,105.000004005432
295,23,38505,2,0,B|263:59|263:59|198:80,1,105.000004005432
334,269,38719,2,0,B|302:208|301:208|316:147,1,105.000004005432
251,235,39040,1,0,0:0:0:0:
366,32,39148,1,0,0:0:0:0:
157,129,39255,1,0,0:0:0:0:
364,229,39362,5,0,0:0:0:0:
346,180,39415,1,0,0:0:0:0:
306,147,39469,1,0,0:0:0:0:
255,140,39522,1,0,0:0:0:0:
207,161,39576,5,0,0:0:0:0:
203,277,39630,1,0,0:0:0:0:
245,245,39683,1,0,0:0:0:0:
279,206,39737,1,0,0:0:0:0:
330,103,39790,6,0,P|251:52|238:53,1,105.000004005432
127,252,40005,2,0,P|148:337|169:343,1,105.000004005432
365,249,40219,2,0,P|352:185|313:159,1,105.000004005432
115,60,40433,2,0,P|127:128|170:154,1,105.000004005432
375,81,40648,5,0,0:0:0:0:
18,373,40862,1,0,0:0:0:0:
315,20,41076,2,0,L|257:122,1,105.000004005432
315,335,41290,2,0,L|378:237,1,105.000004005432
159,151,41505,6,0,L|255:216,1,105.000004005432
476,210,41719,2,0,L|371:146,1,105.000004005432
175,249,41933,5,0,0:0:0:0:
348,97,42040,1,0,0:0:0:0:
389,326,42148,1,0,0:0:0:0:
242,147,42255,1,0,0:0:0:0:
15,102,42362,5,0,0:0:0:0:
52,137,42415,1,0,0:0:0:0:
102,149,42469,1,0,0:0:0:0:
151,131,42522,1,0,0:0:0:0:
184,91,42576,1,0,0:0:0:0:
293,50,42630,5,0,0:0:0:0:
291,102,42683,1,0,0:0:0:0:
313,149,42737,1,0,0:0:0:0:
308,263,42790,2,0,P|270:274|241:265,1,52.5000020027161
160,204,42898,2,0,P|206:174|232:182,1,52.5000020027161
238,64,43005,2,0,P|268:82|310:65,1,52.5000020027161
357,171,43112,2,0,P|371:207|362:227,1,52.5000020027161
282,298,43219,1,0,0:0:0:0:
119,134,43326,5,0,0:0:0:0:
343,79,43433,1,0,0:0:0:0:
445,285,43540,1,0,0:0:0:0:
361,245,43755,6,0,L|331:245,1,20.9999993591309
117,127,44076,2,0,L|146:125,1,20.9999993591309
231,209,44290,2,0,L|206:209,1,20.9999993591309
259,92,44505,5,0,0:0:0:0:
258,102,44558,1,0,0:0:0:0:
258,112,44612,1,0,0:0:0:0:
258,123,44665,1,0,0:0:0:0:
342,186,44719,6,0,B|424:206|424:206|494:347,1,210.000008010865
374,318,44987,1,0,0:0:0:0:
270,314,45040,2,0,L|143:314,1,105.000004005432
56,132,45255,2,0,L|173:132,1,105.000004005432
336,247,45469,5,0,0:0:0:0:
448,70,45576,1,0,0:0:0:0:
272,184,45683,1,0,0:0:0:0:
477,226,45790,1,0,0:0:0:0:
296,114,45898,5,0,0:0:0:0:
397,297,46005,1,0,0:0:0:0:
387,87,46112,1,0,0:0:0:0:
177,69,46219,6,0,P|168:93|175:126,1,52.5000020027161
177,315,46326,2,0,P|168:291|175:258,1,52.5000020027161
244,69,46433,2,0,P|235:93|242:126,1,52.5000020027161
244,315,46540,2,0,P|235:291|242:258,1,52.5000020027161
169,182,46648,6,0,P|197:202|237:206,1,52.5000020027161
343,202,46755,2,0,P|315:182|275:178,1,52.5000020027161
256,79,46862,1,0,0:0:0:0:
49,44,47076,5,0,0:0:0:0:
48,70,47129,1,0,0:0:0:0:
47,96,47183,1,0,0:0:0:0:
46,122,47236,1,0,0:0:0:0:
46,175,47290,5,0,0:0:0:0:
48,227,47343,1,0,0:0:0:0:
73,273,47397,1,0,0:0:0:0:
114,304,47450,1,0,0:0:0:0:
148,202,47505,6,0,B|229:257|229:257|265:249,1,105.000004005432
435,189,47719,2,0,B|346:170|346:170|298:185,1,105.000004005432
211,345,47933,1,0,0:0:0:0:
158,86,48148,2,0,B|212:117|212:117|200:110|200:110|235:128|235:128|223:122|223:122|262:141|262:141|251:135|251:135|279:149,1,210.000008010865
104,270,48469,5,0,0:0:0:0:
81,61,48576,1,0,0:0:0:0:
182,244,48683,1,0,0:0:0:0:
320,86,48790,2,0,P|345:192|307:301,1,210.000008010865
32,170,49112,5,0,0:0:0:0:
240,189,49219,1,0,0:0:0:0:
204,72,49326,1,0,0:0:0:0:
204,72,49433,2,0,P|149:133|122:283,1,210.000008010865
274,111,49755,5,0,0:0:0:0:
416,221,49969,2,0,P|359:265|346:271,2,52.5000020027161
207,202,50183,2,0,B|231:255|231:255|277:292,1,105.000004005432
267,284,50398,1,0,0:0:0:0:
386,111,50505,6,0,B|267:106|267:106|281:106|281:106|243:106|243:106|255:104|255:104|197:104|197:104|223:106|223:106|161:101,1,315.000012016297
150,365,50933,2,0,B|193:295|193:295|179:285|179:285|165:271|165:271|214:225|214:225|219:228|219:228|227:230|227:230|237:230|237:230|243:228|243:228|248:222|248:222|254:217|254:217|254:213|254:213|254:206|254:206|245:194|245:194|237:187|237:187|225:184|225:184|206:190|206:190|193:199|193:199|196:209,1,315.000012016297
358,62,51362,2,0,L|372:184,1,105.000004005432
376,270,51576,1,0,0:0:0:0:
327,288,51629,5,0,0:0:0:0:
275,296,51683,1,0,0:0:0:0:
223,290,51736,1,0,0:0:0:0:
173,272,51790,1,0,0:0:0:0:
130,244,51844,5,0,0:0:0:0:
94,205,51897,1,0,0:0:0:0:
68,160,51950,1,0,0:0:0:0:
54,109,52004,1,0,0:0:0:0:
47,57,52058,5,0,0:0:0:0:
88,26,52111,1,0,0:0:0:0:
140,30,52165,1,0,0:0:0:0:
178,67,52219,6,0,L|212:83,4,26.2500010013581
280,44,52433,2,0,L|334:83,2,52.5000020027161
297,153,52648,2,0,L|332:177,8,26.2500010013581
277,200,52915,1,0,0:0:0:0:
275,251,52968,5,0,0:0:0:0:
243,292,53022,1,0,0:0:0:0:
194,307,53075,1,0,0:0:0:0:
193,217,53130,1,0,0:0:0:0:
192,129,53183,5,0,0:0:0:0:
191,42,53237,1,0,0:0:0:0:
238,19,53290,1,0,0:0:0:0:
289,11,53343,1,0,0:0:0:0:
341,18,53397,1,0,0:0:0:0:
388,41,53450,1,0,0:0:0:0:
427,76,53504,1,0,0:0:0:0:
453,121,53557,1,0,0:0:0:0:
465,172,53611,5,0,0:0:0:0:
462,224,53664,1,0,0:0:0:0:
441,272,53719,1,0,0:0:0:0:
345,313,53772,1,0,0:0:0:0:
241,325,53826,1,0,0:0:0:0:
138,307,53879,1,0,0:0:0:0:
44,260,53933,1,0,0:0:0:0:
124,191,54040,2,0,B|188:170|188:170|245:113,1,105.000004005432
278,227,54362,2,0,B|350:257|350:257|386:248,1,105.000004005432
376,145,54576,2,0,B|306:117|306:117|237:142,1,105.000004005432
207,204,54790,2,0,B|157:150|157:150|156:98,1,105.000004005432
255,192,59933,5,0,0:0:0:0:
255,192,60148,1,0,0:0:0:0:
255,192,60362,1,0,0:0:0:0:
255,192,60576,1,0,0:0:0:0:
253,108,60790,6,0,L|262:108,1,7
253,108,61005,2,0,L|291:108,1,28
253,108,61219,2,0,L|334:108,1,62.9999980773926
253,108,61433,2,0,L|367:108,1,105.000004005432
53,52,63362,6,0,B|156:172|156:172|328:223,1,280
495,38,63790,2,0,L|189:85,1,280
41,313,64219,2,0,B|43:313|43:313|44:309|44:309|50:313|50:313|43:309|43:309|47:309|47:309|46:313|46:313|51:305|51:305|45:305|45:305|54:312|52:312|46:311|46:311|51:310|51:310|57:305|57:305|53:305|53:305|57:307|57:307|50:304|50:304|57:309|57:309|52:302|52:302|54:310|54:310|61:303|61:303|56:301|56:301|59:306|59:306|56:298|56:298|64:300|61:300|55:294|60:296|62:297|63:302|63:302|56:297|61:294|61:294|64:297|64:297|68:294|68:294|63:292|69:293|71:296|67:301|65:293|68:289|74:291|72:293|67:294|67:288|68:288|71:288|72:292|72:292|67:289|70:285|74:284|76:286|77:290|72:290|70:284|74:281|76:279|78:281|80:286|76:290|72:288|71:282|74:275|82:275|85:280|84:289|75:290|70:281|78:279|81:281|82:286|77:282|80:280|83:283|73:285|81:273|84:277|76:283|76:276|80:276|79:280|72:279|78:273|86:279|86:279|83:268|88:270|83:277|83:271|87:273|91:278|81:274|78:271|78:271|90:283|85:283|91:273|90:268|87:268|95:268|90:264|85:263|85:263|93:277|91:272,1,280
446,57,64648,2,0,B|272:111|272:111|143:175,1,280
364,261,64969,5,0,0:0:0:0:
275,204,65076,2,0,P|253:187|242:203,1,52.5000020027161
287,211,65290,2,0,P|251:183|232:210,1,70
300,220,65505,2,0,P|248:180|223:217,1,87.5
304,222,65719,2,0,P|248:179|220:219,1,105.000004005432
309,225,65933,2,0,P|247:178|216:222,1,122.500001168251
310,226,66148,2,0,P|247:177|215:223,1,140
324,235,66362,2,0,P|245:174|205:231,1,161.000003070831
330,239,66576,2,0,P|244:172|200:235,1,181.999991668702
100,25,66790,6,0,B|86:147|86:147|112:254,1,210.000008010865
508,357,67219,2,0,L|299:326,1,210.000008010865
192,41,67648,6,0,B|208:84|208:84|194:120|194:120|227:162|227:162|206:220|206:220|220:249,1,210.000008010865
422,33,68076,2,0,L|380:142,1,105.000004005432
386,236,68237,1,0,0:0:0:0:
367,284,68290,1,0,0:0:0:0:
331,322,68344,1,0,0:0:0:0:
283,343,68397,1,0,0:0:0:0:
231,345,68451,1,0,0:0:0:0:
182,327,68504,1,0,0:0:0:0:
116,126,68612,6,0,B|208:152|208:152|253:144,1,105.000004005432
425,128,68826,1,0,0:0:0:0:
425,128,68880,1,0,0:0:0:0:
425,128,68933,2,0,L|312:182,1,105.000004005432
137,260,69148,5,0,0:0:0:0:
231,72,69255,1,0,0:0:0:0:
65,200,69362,1,0,0:0:0:0:
270,243,69469,1,0,0:0:0:0:
126,90,69576,5,0,0:0:0:0:
328,145,69683,1,0,0:0:0:0:
192,304,69790,1,0,0:0:0:0:
267,106,69898,1,0,0:0:0:0:
106,240,70005,5,0,0:0:0:0:
145,205,70058,1,0,0:0:0:0:
187,178,70112,1,0,0:0:0:0:
236,195,70165,1,0,0:0:0:0:
285,213,70219,1,0,0:0:0:0:
317,112,70273,1,0,0:0:0:0:
371,22,70326,1,0,0:0:0:0:
375,74,70379,1,0,0:0:0:0:
385,125,70433,5,0,0:0:0:0:
394,177,70486,1,0,0:0:0:0:
397,229,70540,1,0,0:0:0:0:
384,280,70593,1,0,0:0:0:0:
354,322,70647,1,0,0:0:0:0:
249,305,70701,2,0,L|196:332,3,52.5000020027161
160,231,70915,2,0,L|101:265,3,52.5000020027161
144,153,71130,2,0,L|210:116,3,52.5000020027161
254,43,71344,5,0,0:0:0:0:
279,88,71397,1,0,0:0:0:0:
295,138,71451,1,0,0:0:0:0:
299,190,71504,1,0,0:0:0:0:
293,242,71558,1,0,0:0:0:0:
275,292,71611,1,0,0:0:0:0:
247,336,71665,1,0,0:0:0:0:
203,361,71719,1,0,0:0:0:0:
153,360,71772,5,0,0:0:0:0:
129,316,71826,1,0,0:0:0:0:
157,275,71879,1,0,0:0:0:0:
121,197,71933,2,0,P|172:205|98:168,1,315.000012016297
287,46,72362,6,0,B|363:194|363:194|354:255,1,210.000008010865
100,107,72790,2,0,B|116:182|116:182|157:221,1,105.000004005432
267,35,73005,1,0,0:0:0:0:
428,168,73112,6,0,B|383:262|383:262|363:280,1,105.000004005432
361,53,73326,1,0,0:0:0:0:
171,142,73433,5,0,0:0:0:0:
165,193,73486,1,0,0:0:0:0:
180,244,73540,1,0,0:0:0:0:
211,285,73593,1,0,0:0:0:0:
256,313,73647,1,0,0:0:0:0:
279,209,73701,2,0,L|321:268,3,52.5000020027161
278,150,73915,5,0,0:0:0:0:
260,101,73968,1,0,0:0:0:0:
272,51,74022,1,0,0:0:0:0:
311,17,74075,1,0,0:0:0:0:
362,10,74129,5,0,0:0:0:0:
408,34,74182,1,0,0:0:0:0:
433,79,74236,1,0,0:0:0:0:
450,183,74290,2,0,L|415:199,7,26.2500010013581
383,228,74505,2,0,L|276:277,1,105.000004005432
126,137,74719,2,0,P|144:215|177:239,1,105.000004005432
258,44,74933,2,0,L|252:125,2,52.5000020027161
210,250,75148,1,0,0:0:0:0:
400,337,75255,5,0,0:0:0:0:
256,192,75362,8,0,75790,0:0:0:0:
62,75,81362,6,0,B|141:134|141:134|182:141,1,105.000004005432
107,340,81576,1,0,0:0:0:0:
316,337,81683,2,0,P|343:242|343:190,1,105.000004005432
268,38,81898,1,0,0:0:0:0:
227,179,81951,2,0,P|190:183|171:206,1,52.5000020027161
189,297,82058,2,0,P|155:313|113:308,1,52.5000020027161
88,221,82165,2,0,P|66:189|70:150,1,52.5000020027161
101,75,82273,2,0,P|123:99|128:129,1,52.5000020027161
323,40,82433,6,0,P|349:234|321:258,1,210.000008010865
173,117,82755,2,0,P|162:177|194:235,1,105.000004005432
345,342,82969,2,0,P|322:272|290:255,1,105.000004005432
266,50,83183,2,0,P|295:137|279:179,1,105.000004005432
134,287,83398,2,0,P|224:242|229:218,1,105.000004005432
382,229,83719,1,0,0:0:0:0:
10,34,83933,5,0,0:0:0:0:
423,117,84148,1,0,0:0:0:0:
236,212,84255,1,0,0:0:0:0:
312,16,84362,1,0,0:0:0:0:
52,345,84576,5,0,0:0:0:0:
102,31,84790,2,0,B|132:140|132:140|189:257,1,210.000008010865
389,113,85219,2,0,L|384:127,8,13.125000500679
337,205,85380,2,0,L|263:225,1,52.5000020027161
219,136,85487,2,0,P|204:170|179:180,1,52.5000020027161
172,281,85594,2,0,P|127:246|129:226,1,52.5000020027161
118,44,85755,2,0,L|102:138,1,52.5000020027161
314,54,85915,2,0,L|295:123,1,52.5000020027161
393,294,86076,6,0,L|411:220,1,52.5000020027161
312,192,86183,2,0,L|291:253,1,52.5000020027161
193,211,86290,2,0,L|219:157,1,52.5000020027161
195,57,86398,2,0,L|172:81,4,26.2500010013581
69,224,86612,6,0,B|137:292|137:292|188:309,1,105.000004005432
250,113,86826,2,0,L|277:216,1,105.000004005432
429,71,87040,2,0,L|429:202,1,105.000004005432
325,195,87255,2,0,P|281:182|277:189,1,52.5000020027161
373,197,87469,6,0,P|298:174|291:186,1,105.000004005432
408,198,87683,2,0,P|311:169|302:185,1,140
491,202,87898,2,0,P|341:157|327:181,1,210.000008010865
511,203,88112,2,0,P|348:154|333:180,1,245.000002336502
150,78,88326,5,0,0:0:0:0:
297,226,88433,1,0,0:0:0:0:
102,304,88540,1,0,0:0:0:0:
206,119,88648,1,0,0:0:0:0:
298,307,88755,1,0,0:0:0:0:
347,103,88862,1,0,0:0:0:0:
160,198,88969,1,0,0:0:0:0:
291,34,89076,1,0,0:0:0:0:
339,53,89129,5,0,0:0:0:0:
379,87,89183,1,0,0:0:0:0:
405,132,89236,1,0,0:0:0:0:
415,183,89290,1,0,0:0:0:0:
407,235,89343,5,0,0:0:0:0:
383,282,89397,1,0,0:0:0:0:
345,317,89451,1,0,0:0:0:0:
297,339,89504,1,0,0:0:0:0:
245,343,89558,5,0,0:0:0:0:
195,331,89611,1,0,0:0:0:0:
151,302,89665,1,0,0:0:0:0:
119,261,89718,1,0,0:0:0:0:
97,50,89826,6,0,B|145:127|145:127|173:156,1,105.000004005432
353,68,90040,2,0,P|274:97|261:131,1,105.000004005432
283,321,90255,2,0,P|206:290|181:297,1,105.000004005432
179,84,90469,2,0,P|187:153|161:175,1,105.000004005432
366,232,90683,1,0,0:0:0:0:
164,289,90790,1,0,0:0:0:0:
307,133,90898,1,0,0:0:0:0:
379,329,91005,1,0,0:0:0:0:
200,218,91112,5,0,0:0:0:0:
396,144,91219,1,0,0:0:0:0:
274,315,91326,1,0,0:0:0:0:
231,109,91433,1,0,0:0:0:0:
366,269,91540,1,0,0:0:0:0:
154,275,91648,1,0,0:0:0:0:
154,275,91701,1,0,0:0:0:0:
154,275,91755,2,0,P|85:192|84:191,1,105.000004005432
270,91,91969,6,0,L|355:178,1,105.000004005432
271,363,92183,2,0,L|251:245,1,105.000004005432
403,109,92398,2,0,L|389:237,1,105.000004005432
187,163,92612,2,0,L|60:158,1,105.000004005432
152,356,92826,5,0,0:0:0:0:
259,111,92933,2,0,L|299:153,1,56
134,85,93790,5,0,0:0:0:0:
134,85,93844,1,0,0:0:0:0:
134,85,93898,2,0,B|144:165|144:165|157:203,2,105.000004005432
236,268,94219,2,0,L|265:43,1,210.000008010865
376,236,94540,5,0,0:0:0:0:
425,30,94648,1,0,0:0:0:0:
459,236,94755,1,0,0:0:0:0:
284,119,94862,1,0,0:0:0:0:
138,269,94969,1,0,0:0:0:0:
69,70,95076,2,0,L|121:130,4,52.5000020027161
199,236,95398,1,0,0:0:0:0:
195,26,95505,2,0,B|224:107|224:107|222:160,1,105.000004005432
353,290,95719,5,0,0:0:0:0:
353,290,95773,1,0,0:0:0:0:
353,290,95826,2,0,B|351:216|351:216|327:177,1,105.000004005432
29,156,96148,2,0,B|210:140|210:140|413:219,1,350
29,156,96469,6,0,B|209:234|209:234|404:138,1,350
250,352,96790,1,0,0:0:0:0:
216,312,96843,1,0,0:0:0:0:
193,264,96897,1,0,0:0:0:0:
184,213,96950,1,0,0:0:0:0:
207,108,97005,2,0,L|287:207,1,105.000004005432
481,169,97219,2,0,L|387:84,1,105.000004005432
318,290,97433,1,0,0:0:0:0:
195,73,97540,6,0,B|78:116|78:116|59:184|59:184|66:142,1,210.000008010865
306,164,97862,2,0,B|201:220|201:220|263:109,1,210.000008010865
59,44,98183,2,0,B|81:172|81:172|79:284,1,210.000008010865
147,313,98505,5,0,0:0:0:0:
196,329,98558,1,0,0:0:0:0:
248,331,98612,1,0,0:0:0:0:
299,318,98665,1,0,0:0:0:0:
344,290,98719,5,0,0:0:0:0:
439,336,98773,1,0,0:0:0:0:
387,325,98826,1,0,0:0:0:0:
340,303,98880,1,0,0:0:0:0:
298,271,98933,5,0,0:0:0:0:
265,231,98987,1,0,0:0:0:0:
241,184,99040,1,0,0:0:0:0:
228,133,99094,1,0,0:0:0:0:
227,81,99148,5,0,0:0:0:0:
19,57,99255,2,0,L|77:157,1,105.000004005432
485,82,99576,2,0,B|442:209|442:209|359:256,1,210.000008010865
181,329,99898,1,0,0:0:0:0:
264,102,100005,1,0,0:0:0:0:
126,60,100219,2,0,B|187:156|187:156|280:207,1,210.000008010865
326,311,100487,5,0,0:0:0:0:
366,278,100540,1,0,0:0:0:0:
391,232,100594,1,0,0:0:0:0:
394,180,100647,1,0,0:0:0:0:
176,287,100755,5,0,0:0:0:0:
220,49,100862,2,0,P|251:117|294:86,1,105.000004005432
89,281,101076,2,0,P|97:177|126:163,1,105.000004005432
308,87,101290,2,0,P|281:167|368:284,1,210.000008010865
168,96,101612,1,0,0:0:0:0:
200,334,101719,2,0,P|151:254|106:223,1,105.000004005432
376,185,101933,2,0,L|300:278,2,105.000004005432
173,50,102255,1,0,0:0:0:0:
95,278,102362,6,0,L|67:151,1,105.000004005432
285,63,102576,2,0,P|318:122|293:178,1,105.000004005432
165,348,102790,2,0,P|139:272|176:216,1,105.000004005432
385,209,103005,2,0,B|358:210|358:210|376:209|376:209|327:210|327:210|339:210|339:210|299:210|299:210|316:210|316:210|266:210|264:210,1,210.000008010865
102,36,103326,5,0,0:0:0:0:
75,275,103433,2,0,P|105:279|102:276,1,105.000004005432
176,47,103648,2,0,B|279:22|279:22|280:335|280:335|291:343|295:344|309:352|324:353|345:357|364:353|377:345|384:333|390:309|388:294|384:286|360:252|338:234|310:217|297:213|251:209|236:208|197:205|153:203|126:199|89:197,1,840.000032043458
346,113,104612,1,0,0:0:0:0:
105,95,104719,5,0,0:0:0:0:
179,324,104826,1,0,0:0:0:0:
247,92,104933,1,0,0:0:0:0:
414,265,105040,1,0,0:0:0:0:
171,244,105148,1,0,0:0:0:0:
373,375,105255,1,0,0:0:0:0:
446,62,105362,5,0,0:0:0:0:
437,131,105415,1,0,0:0:0:0:
406,193,105469,1,0,0:0:0:0:
357,242,105522,1,0,0:0:0:0:
294,273,105576,5,0,0:0:0:0:
225,281,105629,1,0,0:0:0:0:
157,266,105683,1,0,0:0:0:0:
98,230,105737,1,0,0:0:0:0:
117,112,105790,6,0,B|228:113|228:113|102:111|102:111|300:113,1,420.000016021729
410,52,106433,2,0,B|340:158|340:158|219:203,1,210.000008010865
91,360,106755,2,0,P|66:222|121:152,1,210.000008010865
314,58,107076,2,0,P|348:243|325:258,1,210.000008010865
122,177,107398,5,0,0:0:0:0:
183,189,107719,2,0,B|212:189|211:189|166:189|166:189|233:189|233:189|133:189|133:189|163:190,1,210.000008010865
384,53,108148,5,0,0:0:0:0:
256,257,108255,1,0,0:0:0:0:
120,37,108576,2,0,P|109:133|154:92,1,210.000008010865
364,30,109005,5,0,0:0:0:0:
402,65,109058,1,0,0:0:0:0:
424,112,109112,1,0,0:0:0:0:
428,164,109165,1,0,0:0:0:0:
412,214,109219,5,0,0:0:0:0:
379,254,109272,1,0,0:0:0:0:
334,280,109326,1,0,0:0:0:0:
282,287,109380,1,0,0:0:0:0:
231,275,109433,5,0,0:0:0:0:
178,272,109487,1,0,0:0:0:0:
169,222,109540,1,0,0:0:0:0:
122,204,109594,1,0,0:0:0:0:
116,187,109648,6,0,B|69:48|69:48|178:167|181:14|181:14|275:35|246:216|246:216|365:168|292:53|356:216|356:216|107:313|30:126|30:126|461:104|461:104|71:120|70:120|113:341|113:341|174:273,1,2240
64,74,122505,6,0,B|138:131|138:131|167:116|167:116|264:188,1,210.000008010865
176,253,122826,1,0,0:0:0:0:
267,304,122933,2,0,P|325:274|327:226,1,105.000004005432
268,144,123148,2,0,P|227:190|276:228,1,105.000004005432
335,169,123362,2,0,P|375:117|351:76,1,105.000004005432
260,61,123576,2,0,P|185:59|175:96,1,105.000004005432
193,178,123790,2,0,P|128:226|105:198,1,105.000004005432
119,117,124005,2,0,P|158:47|160:102,1,210.000008010865
373,111,124326,5,0,0:0:0:0:
253,283,124433,1,0,0:0:0:0:
457,330,124540,1,0,0:0:0:0:
280,213,124648,1,0,0:0:0:0:
446,85,124755,1,0,0:0:0:0:
400,289,124862,1,0,0:0:0:0:
267,126,124969,1,0,0:0:0:0:
142,294,125076,1,0,0:0:0:0:
340,224,125183,5,0,0:0:0:0:
189,77,125290,1,0,0:0:0:0:
259,276,125398,1,0,0:0:0:0:
76,172,125505,1,0,0:0:0:0:
268,88,125612,1,0,0:0:0:0:
151,262,125719,1,0,0:0:0:0:
127,53,125826,1,0,0:0:0:0:
308,157,125933,1,0,0:0:0:0:
439,320,126040,5,0,0:0:0:0:
427,108,126148,1,0,0:0:0:0:
349,302,126255,1,0,0:0:0:0:
183,173,126362,1,0,0:0:0:0:
390,199,126469,1,0,0:0:0:0:
209,305,126576,1,0,0:0:0:0:
281,108,126683,1,0,0:0:0:0:
303,316,126790,1,0,0:0:0:0:
97,266,126898,5,0,0:0:0:0:
303,228,127005,1,0,0:0:0:0:
165,69,127112,1,0,0:0:0:0:
228,268,127219,1,0,0:0:0:0:
411,166,127326,1,0,0:0:0:0:
201,171,127433,1,0,0:0:0:0:
357,31,127540,1,0,0:0:0:0:
430,229,127648,2,0,L|314:180,1,105.000004005432
136,114,127862,6,0,L|111:246,1,105.000004005432
297,323,128076,2,0,B|243:258|243:258|251:192,1,105.000004005432
377,74,128290,2,0,B|291:98|291:98|281:143,1,105.000004005432
120,243,128505,2,0,L|87:187,2,52.5000020027161
329,244,128719,6,0,L|292:182,2,52.5000020027161
200,78,128933,2,0,L|147:121,2,52.5000020027161
246,284,129148,2,0,L|217:226,2,52.5000020027161
378,121,129362,1,0,0:0:0:0:
169,142,129469,5,0,0:0:0:0:
347,251,129576,1,0,0:0:0:0:
267,57,129683,1,0,0:0:0:0:
184,250,129790,1,0,0:0:0:0:
394,225,129898,5,0,0:0:0:0:
211,120,130005,1,0,0:0:0:0:
274,319,130112,1,0,0:0:0:0:
69,273,130219,5,0,0:0:0:0:
38,231,130272,1,0,0:0:0:0:
32,179,130326,1,0,0:0:0:0:
52,132,130379,1,0,0:0:0:0:
128,58,130433,2,0,L|162:122,3,52.5000020027161
246,52,130648,2,0,L|291:106,3,52.5000020027161
200,162,130862,2,0,L|216:215,3,52.5000020027161
290,137,131076,1,0,0:0:0:0:
393,319,131183,5,0,0:0:0:0:
183,324,131290,1,0,0:0:0:0:
384,258,131398,1,0,0:0:0:0:
175,237,131505,1,0,0:0:0:0:
355,129,131612,1,0,0:0:0:0:
300,331,131719,1,0,0:0:0:0:
226,134,131826,1,0,0:0:0:0:
431,173,131933,1,0,0:0:0:0:
245,269,132040,5,0,0:0:0:0:
114,102,132148,1,0,0:0:0:0:
58,304,132255,1,0,0:0:0:0:
240,201,132362,1,0,0:0:0:0:
32,167,132469,1,0,0:0:0:0:
220,74,132576,1,0,0:0:0:0:
151,272,132683,1,0,0:0:0:0:
76,75,132790,1,0,0:0:0:0:
328,103,132898,5,0,0:0:0:0:
88,179,133005,1,0,0:0:0:0:
325,261,133112,1,0,0:0:0:0:
156,73,133219,1,0,0:0:0:0:
242,309,133326,1,0,0:0:0:0:
446,162,133433,1,0,0:0:0:0:
202,225,133540,1,0,0:0:0:0:
380,44,133648,1,0,0:0:0:0:
128,215,133755,5,0,0:0:0:0:
401,81,133862,1,0,0:0:0:0:
498,369,133969,1,0,0:0:0:0:
271,166,134076,1,0,0:0:0:0:
17,334,134183,1,0,0:0:0:0:
144,57,134290,1,0,0:0:0:0:
375,258,134398,1,0,0:0:0:0:
99,129,134505,2,0,P|104:250|195:286,1,210.000008010865
196,134,134773,5,0,0:0:0:0:
212,183,134826,1,0,0:0:0:0:
249,220,134880,1,0,0:0:0:0:
297,239,134933,1,0,0:0:0:0:
349,235,134987,1,0,0:0:0:0:
395,210,135040,1,0,0:0:0:0:
425,167,135094,1,0,0:0:0:0:
435,116,135147,1,0,0:0:0:0:
290,64,135201,6,0,P|302:143|363:109,1,157.500006008148
225,44,135415,1,0,0:0:0:0:
173,51,135468,1,0,0:0:0:0:
128,77,135522,1,0,0:0:0:0:
96,119,135575,1,0,0:0:0:0:
83,169,135629,1,0,0:0:0:0:
90,221,135682,1,0,0:0:0:0:
116,266,135736,1,0,0:0:0:0:
158,298,135790,5,0,0:0:0:0:
204,149,135844,1,0,0:0:0:0:
195,200,135897,1,0,0:0:0:0:
209,250,135951,1,0,0:0:0:0:
244,289,136004,1,0,0:0:0:0:
292,309,136058,1,0,0:0:0:0:
344,307,136111,1,0,0:0:0:0:
390,283,136165,1,0,0:0:0:0:
421,241,136219,5,0,0:0:0:0:
241,79,136326,1,0,0:0:0:0:
52,229,136433,1,0,0:0:0:0:
293,228,136540,1,0,0:0:0:0:
88,96,136648,1,0,0:0:0:0:
156,327,136755,1,0,0:0:0:0:
310,141,136862,1,0,0:0:0:0:
491,299,136969,1,0,0:0:0:0:
376,86,137076,5,0,0:0:0:0:
263,299,137183,1,0,0:0:0:0:
452,150,137290,1,0,0:0:0:0:
219,78,137398,1,0,0:0:0:0:
137,304,137505,1,0,0:0:0:0:
359,210,137612,1,0,0:0:0:0:
128,139,137719,1,0,0:0:0:0:
366,175,137826,1,0,0:0:0:0:
381,355,137933,5,0,0:0:0:0:
422,322,137986,1,0,0:0:0:0:
450,279,138040,1,0,0:0:0:0:
464,228,138093,1,0,0:0:0:0:
460,176,138148,5,0,0:0:0:0:
440,128,138200,1,0,0:0:0:0:
406,88,138254,1,0,0:0:0:0:
361,62,138307,1,0,0:0:0:0:
309,52,138361,5,0,0:0:0:0:
257,58,138415,1,0,0:0:0:0:
210,81,138468,1,0,0:0:0:0:
173,117,138522,1,0,0:0:0:0:
149,164,138575,5,0,0:0:0:0:
165,226,138630,1,0,0:0:0:0:
143,290,138683,1,0,0:0:0:0:
175,349,138737,1,0,0:0:0:0:
242,365,138790,1,0,0:0:0:0:
297,326,138844,1,0,0:0:0:0:
306,259,138897,1,0,0:0:0:0:
311,194,138951,1,0,0:0:0:0:
285,130,139004,5,0,0:0:0:0:
306,65,139058,1,0,0:0:0:0:
365,30,139111,1,0,0:0:0:0:
433,42,139165,1,0,0:0:0:0:
476,95,139218,1,0,0:0:0:0:
474,164,139272,1,0,0:0:0:0:
427,214,139325,1,0,0:0:0:0:
366,225,139380,1,0,0:0:0:0:
331,164,139433,5,0,0:0:0:0:
277,121,139487,1,0,0:0:0:0:
210,101,139540,1,0,0:0:0:0:
141,108,139594,1,0,0:0:0:0:
483,23,139648,5,0,0:0:0:0:
242,34,139755,1,0,0:0:0:0:
153,258,139862,1,0,0:0:0:0:
391,295,139969,1,0,0:0:0:0:
372,54,140076,1,0,0:0:0:0:
130,52,140183,1,0,0:0:0:0:
235,269,140290,1,0,0:0:0:0:
465,191,140398,1,0,0:0:0:0:
225,164,140505,5,0,0:0:0:0:
446,68,140612,1,0,0:0:0:0:
345,287,140719,1,0,0:0:0:0:
275,55,140826,1,0,0:0:0:0:
421,246,140933,1,0,0:0:0:0:
234,93,141040,1,0,0:0:0:0:
220,336,141148,1,0,0:0:0:0:
63,254,141255,1,0,0:0:0:0:
256,192,141790,12,0,144790,0:0:0:0:
