osu file format v14

[General]
AudioFilename: audio.mp3
AudioLeadIn: 0
PreviewTime: 54803
Countdown: 1
SampleSet: Normal
StackLeniency: 0.7
Mode: 0
LetterboxInBreaks: 0
WidescreenStoryboard: 0

[Editor]
Bookmarks: 39374,39588,39803,42803,43231,46231,46874,47088,47517,49124,49445,52874,54053,54803,75588,81374,102160,102803,104624,104945,105374,105695,107731,109017,109660,116517,116731,122838,123160,123267,123374,123481,123588,123749,123803,124017,124231
DistanceSpacing: 2.4
BeatDivisor: 8
GridSize: 4
TimelineZoom: 2.499999

[Metadata]
Title:Doppelganger
TitleUnicode:Doppelganger
Artist:LeaF
ArtistUnicode:LeaF
Creator:nobbele
Version:Doppelganger
Source:
Tags:
BeatmapID:1862954
BeatmapSetID:891209

[Difficulty]
HPDrainRate:8
CircleSize:4
OverallDifficulty:9
ApproachRate:10
SliderMultiplier:1.4
SliderTickRate:1

[Events]
//Background and Video events
//Break Periods
2,109859,116236
2,124217,141353
//Storyboard Layer 0 (Background)
//Storyboard Layer 1 (Fail)
//Storyboard Layer 2 (Pass)
//Storyboard Layer 3 (Foreground)
//Storyboard Sound Samples

[TimingPoints]
-54,214.285714285714,4,1,0,100,1,0
17517,-66.6666666666667,4,1,0,100,0,0
17731,-100,4,1,0,100,0,0
124231,-66.6666666666667,4,1,0,100,0,0
141803,-400,4,1,0,100,0,0

[HitObjects]
112,88,803,5,0,0:0:0:0:
161,89,910,1,0,0:0:0:0:
391,58,1124,5,0,0:0:0:0:
256,218,1338,1,0,0:0:0:0:
75,108,1553,1,0,0:0:0:0:
234,316,1767,5,0,0:0:0:0:
338,305,1874,1,0,0:0:0:0:
270,224,1981,1,0,0:0:0:0:
226,334,2088,2,0,L|326:318,1,70
338,305,2303,2,0,L|278:224,1,70
270,224,2517,1,0,0:0:0:0:
140,302,2731,5,0,0:0:0:0:
84,300,2838,1,0,0:0:0:0:
83,174,3053,1,0,0:0:0:0:
87,48,3267,1,0,0:0:0:0:
213,45,3481,5,0,0:0:0:0:
173,111,3588,1,0,0:0:0:0:
249,112,3695,1,0,0:0:0:0:
326,113,3803,2,0,P|311:58|279:40,1,70
373,217,4231,6,0,P|340:240|296:242,1,70
310,171,4445,2,0,P|352:142|391:143,1,70
373,217,4660,1,0,0:0:0:0:
373,217,4767,2,0,B|409:211|409:211|433:166,1,70
479,69,4981,1,0,0:0:0:0:
395,22,5195,1,0,0:0:0:0:
395,22,5303,2,0,P|357:50|316:53,1,70
260,42,5518,2,0,P|207:63|199:79,1,70
189,146,5732,2,0,P|143:165|118:147,1,70
69,116,5945,5,0,0:0:0:0:
69,130,6053,1,0,0:0:0:0:
69,143,6160,1,0,0:0:0:0:
69,156,6267,1,0,0:0:0:0:
69,169,6374,1,0,0:0:0:0:
68,182,6481,1,0,0:0:0:0:
68,195,6588,1,0,0:0:0:0:
68,208,6695,1,0,0:0:0:0:
68,222,6803,5,0,0:0:0:0:
74,249,6910,1,0,0:0:0:0:
92,270,7017,1,0,0:0:0:0:
116,283,7124,1,0,0:0:0:0:
143,286,7231,1,0,0:0:0:0:
170,279,7338,1,0,0:0:0:0:
191,260,7445,5,0,0:0:0:0:
198,240,7499,1,0,0:0:0:0:
194,219,7553,1,0,0:0:0:0:
180,202,7606,1,0,0:0:0:0:
159,197,7660,2,0,P|109:232|107:258,1,70
172,319,7874,2,0,P|209:292|249:286,1,70
268,296,8088,1,0,0:0:0:0:
358,305,8195,2,0,P|415:323|437:315,1,70
498,269,8410,1,0,0:0:0:0:
332,194,8624,1,0,0:0:0:0:
415,229,8731,2,0,P|470:198|477:177,1,70
391,143,8945,2,0,P|433:110|461:107,1,70
456,27,9157,2,0,P|404:53|401:71,1,70
361,116,9374,5,0,0:0:0:0:
333,114,9481,1,0,0:0:0:0:
305,114,9588,1,0,0:0:0:0:
277,114,9695,1,0,0:0:0:0:
248,115,9803,5,0,0:0:0:0:
208,127,9910,1,0,0:0:0:0:
186,162,10017,1,0,0:0:0:0:
187,203,10124,1,0,0:0:0:0:
218,230,10231,6,0,P|278:247|311:238,1,70
339,234,10445,2,0,P|415:210|435:209,1,70
461,207,10660,2,0,P|497:165|418:38,1,210
366,45,11088,5,0,0:0:0:0:
156,63,11303,1,0,0:0:0:0:
360,111,11517,1,0,0:0:0:0:
151,134,11731,1,0,0:0:0:0:
360,111,11945,1,0,0:0:0:0:
156,63,12160,1,0,0:0:0:0:
364,38,12374,1,0,0:0:0:0:
157,2,12588,1,0,0:0:0:0:
153,180,12910,5,0,0:0:0:0:
153,180,13017,1,0,0:0:0:0:
354,237,13231,1,0,0:0:0:0:
183,114,13445,1,0,0:0:0:0:
299,289,13660,1,0,0:0:0:0:
183,114,13874,1,0,0:0:0:0:
354,237,14088,1,0,0:0:0:0:
150,183,14303,1,0,0:0:0:0:
303,115,14731,6,0,L|335:112,6,17.5
275,117,14945,2,0,P|258:96|210:86,1,70
152,88,15160,2,0,L|116:93,1,35
66,108,15267,5,0,0:0:0:0:
156,161,15374,1,0,0:0:0:0:
278,210,15588,5,0,0:0:0:0:
296,221,15642,1,0,0:0:0:0:
313,231,15695,1,0,0:0:0:0:
331,240,15749,1,0,0:0:0:0:
349,250,15803,5,0,0:0:0:0:
376,249,15856,1,0,0:0:0:0:
399,232,15910,1,0,0:0:0:0:
411,207,15963,1,0,0:0:0:0:
405,179,16017,1,0,0:0:0:0:
320,117,16124,5,0,0:0:0:0:
213,50,16231,2,0,B|181:83|138:77,1,70
157,161,16553,6,0,P|208:139|247:151,1,70
66,72,16874,6,0,P|72:122|60:156,1,70
285,49,17195,6,0,P|296:101|319:137,1,70
88,52,17517,6,0,B|154:65|95:174|220:115|239:204,1,210.000008010865
293,251,17945,5,0,0:0:0:0:
336,179,18160,5,0,0:0:0:0:
347,161,18213,1,0,0:0:0:0:
357,142,18267,1,0,0:0:0:0:
367,124,18320,1,0,0:0:0:0:
378,105,18374,5,0,0:0:0:0:
380,76,18428,1,0,0:0:0:0:
355,62,18481,1,0,0:0:0:0:
326,61,18535,1,0,0:0:0:0:
304,78,18588,5,0,0:0:0:0:
293,96,18642,1,0,0:0:0:0:
281,113,18695,1,0,0:0:0:0:
268,130,18749,1,0,0:0:0:0:
255,147,18803,1,0,0:0:0:0:
133,170,19017,5,0,0:0:0:0:
133,170,19124,1,0,0:0:0:0:
133,170,19231,2,0,P|145:229|128:260,1,70
148,277,19445,2,0,P|169:320|190:334,1,70
256,252,19660,6,0,P|245:201|262:179,1,70
320,202,19874,1,0,0:0:0:0:
227,96,20088,1,0,0:0:0:0:
367,85,20303,1,0,0:0:0:0:
449,197,20517,1,0,0:0:0:0:
368,311,20731,1,0,0:0:0:0:
368,311,20838,1,0,0:0:0:0:
368,311,20945,1,0,0:0:0:0:
229,332,21160,1,0,0:0:0:0:
323,228,21374,5,0,0:0:0:0:
227,126,21588,1,0,0:0:0:0:
147,241,21803,1,0,0:0:0:0:
52,137,22017,1,0,0:0:0:0:
95,82,22124,1,0,0:0:0:0:
127,69,22231,1,0,0:0:0:0:
222,170,22445,1,0,0:0:0:0:
320,166,22553,1,0,0:0:0:0:
381,177,22660,1,0,0:0:0:0:
277,271,22874,5,0,0:0:0:0:
166,285,22981,1,0,0:0:0:0:
89,287,23088,1,0,0:0:0:0:
152,161,23303,1,0,0:0:0:0:
282,207,23517,1,0,0:0:0:0:
228,77,23731,1,0,0:0:0:0:
102,77,23838,1,0,0:0:0:0:
54,154,23945,1,0,0:0:0:0:
191,184,24160,1,0,0:0:0:0:
80,269,24374,5,0,0:0:0:0:
220,286,24588,1,0,0:0:0:0:
334,205,24695,1,0,0:0:0:0:
294,106,24803,1,0,0:0:0:0:
419,43,25017,1,0,0:0:0:0:
381,179,25231,1,0,0:0:0:0:
370,248,25338,1,0,0:0:0:0:
312,287,25445,1,0,0:0:0:0:
242,297,25553,1,0,0:0:0:0:
172,290,25660,2,0,P|118:265|97:231,1,70
168,216,25874,2,0,P|131:192|97:191,1,70
42,218,26088,2,0,P|40:163|57:139,1,70
106,83,26303,1,0,0:0:0:0:
238,39,26517,5,0,0:0:0:0:
165,158,26731,1,0,0:0:0:0:
303,136,26945,1,0,0:0:0:0:
227,254,27160,1,0,0:0:0:0:
356,306,27374,1,0,0:0:0:0:
230,368,27588,1,0,0:0:0:0:
196,361,27641,1,0,0:0:0:0:
173,335,27695,1,0,0:0:0:0:
170,301,27748,1,0,0:0:0:0:
188,272,27802,1,0,0:0:0:0:
314,207,28017,1,0,0:0:0:0:
177,177,28231,5,0,0:0:0:0:
100,293,28445,1,0,0:0:0:0:
28,172,28660,1,0,0:0:0:0:
108,57,28874,1,0,0:0:0:0:
221,138,29088,2,0,P|276:103|445:107,1,210
470,138,29517,2,0,P|349:105|250:146,1,210
227,182,29945,5,0,0:0:0:0:
308,329,30160,1,0,0:0:0:0:
140,322,30374,1,0,0:0:0:0:
78,287,30481,1,0,0:0:0:0:
49,223,30588,1,0,0:0:0:0:
49,153,30695,1,0,0:0:0:0:
78,89,30803,1,0,0:0:0:0:
143,64,30910,1,0,0:0:0:0:
212,67,31017,1,0,0:0:0:0:
278,87,31124,2,0,P|348:136|371:188,1,140
377,253,31445,2,0,B|310:287,1,70
176,257,31660,6,0,L|206:249,8,17.5
78,157,31981,2,0,L|108:149,8,17.5
179,58,32303,2,0,L|209:50,8,17.5
303,150,32624,2,0,L|333:142,8,17.5
193,295,32945,2,0,L|223:287,16,17.5
336,251,33588,6,0,L|366:243,4,17.5
361,91,33803,2,0,L|391:83,4,17.5
237,193,34017,2,0,L|267:185,4,17.5
127,76,34231,2,0,L|157:68,8,17.5
100,236,34553,2,0,L|130:228,8,17.5
243,307,34874,2,0,L|273:299,8,17.5
256,146,35195,2,0,L|286:138,8,17.5
405,210,35517,2,0,L|435:202,15,17.5
431,190,35945,5,0,0:0:0:0:
396,189,35998,1,0,0:0:0:0:
365,205,36052,1,0,0:0:0:0:
355,238,36105,1,0,0:0:0:0:
364,271,36159,1,0,0:0:0:0:
391,293,36212,1,0,0:0:0:0:
425,288,36266,1,0,0:0:0:0:
453,268,36319,1,0,0:0:0:0:
467,236,36373,1,0,0:0:0:0:
468,201,36427,1,0,0:0:0:0:
456,169,36480,1,0,0:0:0:0:
431,146,36534,1,0,0:0:0:0:
396,140,36587,1,0,0:0:0:0:
363,148,36641,1,0,0:0:0:0:
333,166,36694,1,0,0:0:0:0:
309,191,36748,1,0,0:0:0:0:
288,221,36803,6,0,P|272:257|339:247,1,140
364,186,37124,1,0,0:0:0:0:
370,151,37177,1,0,0:0:0:0:
362,117,37231,1,0,0:0:0:0:
341,90,37284,1,0,0:0:0:0:
311,72,37338,1,0,0:0:0:0:
276,68,37391,1,0,0:0:0:0:
243,79,37445,1,0,0:0:0:0:
217,101,37498,1,0,0:0:0:0:
201,132,37552,1,0,0:0:0:0:
212,208,37660,6,0,P|222:258|148:292,1,140
94,230,38088,6,0,L|38:170,1,70
149,200,38303,2,0,L|93:148,1,70
58,121,38517,2,0,P|126:97|140:20,1,140
249,41,38838,6,0,L|249:80,1,35
191,139,39053,1,0,0:0:0:0:
295,144,39160,1,0,0:0:0:0:
236,239,39374,5,0,0:0:0:0:
257,257,39428,1,0,0:0:0:0:
281,270,39481,1,0,0:0:0:0:
307,280,39535,1,0,0:0:0:0:
334,281,39588,5,0,0:0:0:0:
363,261,39642,1,0,0:0:0:0:
359,226,39695,1,0,0:0:0:0:
325,215,39749,1,0,0:0:0:0:
341,183,39803,6,0,P|373:150|372:122,1,70
268,122,40017,1,0,0:0:0:0:
197,44,40124,2,0,P|158:73|160:122,1,70
50,109,40338,2,0,P|77:57|70:32,1,70
87,258,40660,5,0,0:0:0:0:
196,258,40874,1,0,0:0:0:0:
271,189,41088,2,0,P|322:157|334:67,1,140
240,98,41517,1,0,0:0:0:0:
240,98,41731,1,0,0:0:0:0:
135,88,41838,1,0,0:0:0:0:
70,181,42053,1,0,0:0:0:0:
174,188,42160,1,0,0:0:0:0:
270,185,42374,2,0,P|312:149|327:113,1,70
239,108,42588,6,0,P|266:76|304:56,1,70
360,60,42803,1,0,0:0:0:0:
397,77,42856,1,0,0:0:0:0:
427,107,42910,1,0,0:0:0:0:
444,145,42963,1,0,0:0:0:0:
446,187,43017,1,0,0:0:0:0:
434,226,43070,1,0,0:0:0:0:
408,259,43124,1,0,0:0:0:0:
373,281,43177,1,0,0:0:0:0:
332,289,43231,1,0,0:0:0:0:
265,251,43338,1,0,0:0:0:0:
245,176,43445,1,0,0:0:0:0:
300,122,43553,1,0,0:0:0:0:
142,124,43767,5,0,0:0:0:0:
142,250,43874,1,0,0:0:0:0:
250,187,44088,5,0,0:0:0:0:
341,188,44303,1,0,0:0:0:0:
432,193,44517,6,0,L|464:192,4,17.5
417,261,44731,6,0,P|375:253|332:263,1,70
278,263,44945,1,0,0:0:0:0:
242,262,44999,1,0,0:0:0:0:
206,262,45053,1,0,0:0:0:0:
171,260,45106,1,0,0:0:0:0:
135,263,45160,2,0,L|95:228,1,35
96,206,45267,2,0,L|67:202,4,17.5
155,168,45481,1,0,0:0:0:0:
97,80,45588,1,0,0:0:0:0:
198,53,45695,6,0,P|225:88|208:129,1,70
308,51,45910,2,0,P|298:101|319:128,1,70
374,156,46231,6,0,L|305:207,1,70
291,220,46445,2,0,L|233:264,1,70
206,282,46660,2,0,L|133:329,1,70
82,346,46874,2,0,P|41:316|70:289,1,105
106,289,47088,5,0,0:0:0:0:
144,282,47142,1,0,0:0:0:0:
179,261,47195,1,0,0:0:0:0:
209,226,47249,1,0,0:0:0:0:
226,179,47303,1,0,0:0:0:0:
218,127,47356,1,0,0:0:0:0:
185,81,47410,1,0,0:0:0:0:
133,52,47463,1,0,0:0:0:0:
69,58,47517,5,0,0:0:0:0:
54,309,47731,1,0,0:0:0:0:
305,309,47945,1,0,0:0:0:0:
316,56,48160,2,0,L|276:57,1,35
123,53,48374,6,0,L|184:52,1,35
210,52,48481,2,0,L|266:53,1,35
297,50,48588,2,0,L|371:49,1,70
472,49,48803,2,0,P|472:100|446:130,1,70
420,198,49124,5,0,0:0:0:0:
315,200,49231,1,0,0:0:0:0:
210,197,49338,1,0,0:0:0:0:
105,194,49445,1,0,0:0:0:0:
205,305,49660,5,0,0:0:0:0:
309,306,49767,1,0,0:0:0:0:
311,96,49981,5,0,0:0:0:0:
260,80,50035,1,0,0:0:0:0:
206,89,50088,1,0,0:0:0:0:
206,193,50195,1,0,0:0:0:0:
105,194,50410,1,0,0:0:0:0:
105,89,50517,6,0,P|152:61|234:83,1,140
168,134,50945,2,0,P|235:157|307:112,1,140
226,78,51374,2,0,P|279:53|317:56,1,70
340,66,51535,1,0,0:0:0:0:
419,126,51642,1,0,0:0:0:0:
350,184,51856,1,0,0:0:0:0:
291,123,51963,1,0,0:0:0:0:
268,200,52124,1,0,0:0:0:0:
205,251,52231,6,0,L|183:271,4,17.5
122,186,52445,2,0,L|170:135,1,70
90,65,52660,2,0,L|68:85,4,17.5
195,62,52874,5,0,0:0:0:0:
222,55,52928,1,0,0:0:0:0:
249,57,52981,1,0,0:0:0:0:
276,62,53035,1,0,0:0:0:0:
301,73,53088,1,0,0:0:0:0:
331,91,53142,1,0,0:0:0:0:
353,117,53195,1,0,0:0:0:0:
365,149,53249,1,0,0:0:0:0:
363,184,53303,2,0,L|355:238,1,35
348,252,53410,2,0,L|327:287,1,35
310,311,53517,2,0,P|283:325|264:294,1,70
280,229,53731,2,0,L|293:189,1,35
299,107,54053,5,0,0:0:0:0:
174,95,54160,1,0,0:0:0:0:
292,184,54374,5,0,0:0:0:0:
159,170,54588,1,0,0:0:0:0:
225,181,54803,6,0,L|221:264,1,70
116,251,55017,2,0,P|182:324|226:315,2,140
116,167,55660,1,0,0:0:0:0:
115,84,55874,2,0,L|201:84,2,70
266,83,56303,1,0,0:0:0:0:
269,162,56517,6,0,P|292:221|365:243,1,140
355,165,56945,2,0,P|333:104|248:71,1,140
236,69,57267,1,0,0:0:0:0:
236,69,57374,1,0,0:0:0:0:
131,71,57588,1,0,0:0:0:0:
131,71,57695,2,0,B|61:130|95:215,1,140
128,252,58017,1,0,0:0:0:0:
190,294,58124,1,0,0:0:0:0:
263,287,58231,6,0,P|301:251|239:208,1,140
172,204,58553,2,0,P|134:168|196:125,1,140
259,125,58874,1,0,0:0:0:0:
335,127,58981,1,0,0:0:0:0:
410,132,59088,6,0,P|464:158|463:243,1,140
400,206,59410,2,0,L|334:238,1,70
270,271,59624,1,0,0:0:0:0:
195,296,59731,2,0,B|200:264|169:230|169:230|210:212|210:169,1,140
140,160,60053,5,0,0:0:0:0:
121,292,60267,1,0,0:0:0:0:
260,291,60481,5,0,0:0:0:0:
262,221,60588,1,0,0:0:0:0:
261,151,60695,1,0,0:0:0:0:
269,80,60803,2,0,L|363:80,1,70
340,149,61017,2,0,L|267:147,1,70
257,215,61231,2,0,L|400:217,1,140
285,301,61660,5,0,0:0:0:0:
145,305,61874,1,0,0:0:0:0:
227,192,62088,1,0,0:0:0:0:
86,189,62303,1,0,0:0:0:0:
170,77,62517,1,0,0:0:0:0:
309,75,62731,1,0,0:0:0:0:
309,75,62838,1,0,0:0:0:0:
309,75,62945,1,0,0:0:0:0:
405,177,63160,1,0,0:0:0:0:
296,264,63374,2,0,L|201:262,1,70
230,192,63588,2,0,L|313:193,1,70
302,122,63803,2,0,P|281:89|229:84,1,70
183,79,64017,2,0,P|138:119|136:142,1,70
121,193,64231,2,0,L|182:196,4,35
118,270,64660,1,0,0:0:0:0:
119,339,64767,5,0,0:0:0:0:
153,338,64820,1,0,0:0:0:0:
186,328,64874,1,0,0:0:0:0:
215,308,64928,1,0,0:0:0:0:
235,280,64981,1,0,0:0:0:0:
247,246,65035,1,0,0:0:0:0:
254,212,65088,6,0,P|249:154|226:139,1,70
172,143,65303,2,0,P|178:83|197:69,1,70
252,76,65517,2,0,P|271:47|262:8,1,70
196,4,65731,2,0,B|197:51|169:74,1,70
232,107,65945,2,0,B|236:156|260:177|260:178,1,70
185,185,66160,2,0,P|168:238|144:265,1,70
228,262,66374,2,0,P|244:311|263:331,1,70
186,335,66588,2,0,P|180:371|149:394,1,70
220,363,66803,5,0,0:0:0:0:
359,369,67017,1,0,0:0:0:0:
498,370,67231,1,0,0:0:0:0:
495,230,67445,1,0,0:0:0:0:
498,89,67660,2,0,P|483:26|397:15,1,140
417,95,68088,6,0,L|379:94,5,35
370,135,68410,1,0,0:0:0:0:
352,172,68463,1,0,0:0:0:0:
361,213,68517,1,0,0:0:0:0:
388,239,68624,1,0,0:0:0:0:
321,259,68731,1,0,0:0:0:0:
240,233,68838,1,0,0:0:0:0:
190,165,68945,1,0,0:0:0:0:
154,100,69053,1,0,0:0:0:0:
119,38,69160,1,0,0:0:0:0:
286,30,69374,1,0,0:0:0:0:
292,197,69588,5,0,0:0:0:0:
208,200,69695,1,0,0:0:0:0:
206,283,69910,1,0,0:0:0:0:
289,284,70017,2,0,L|334:279,1,35
364,268,70124,2,0,L|389:242,1,35
413,208,70231,2,0,L|416:125,1,70
410,96,70446,2,0,P|376:80|300:81,1,105
234,92,70767,6,0,L|161:115,1,70
131,118,70981,2,0,L|61:148,1,70
79,228,71195,6,0,P|152:198|152:197,1,70
92,156,71410,2,0,P|147:141|182:164,1,70
131,224,71624,2,0,L|191:213,1,35
145,141,71838,1,0,0:0:0:0:
145,141,71945,2,0,P|197:118|268:175,1,140
189,197,72374,6,0,P|256:239|332:208,1,140
261,155,72803,2,0,P|267:110|248:81,1,70
173,78,73017,1,0,0:0:0:0:
89,81,73124,1,0,0:0:0:0:
85,248,73338,1,0,0:0:0:0:
154,295,73445,6,0,L|203:302,1,35
231,302,73553,2,0,L|281:285,1,35
302,271,73660,2,0,L|337:200,1,70
353,150,73874,2,0,P|341:113|280:73,1,105
156,73,74195,1,0,0:0:0:0:
96,133,74303,2,0,L|77:158,4,17.5
89,220,74517,1,0,0:0:0:0:
229,128,74731,1,0,0:0:0:0:
142,271,74945,5,0,0:0:0:0:
177,294,74999,1,0,0:0:0:0:
218,304,75053,1,0,0:0:0:0:
297,276,75160,1,0,0:0:0:0:
228,228,75267,1,0,0:0:0:0:
150,196,75374,2,0,P|101:197|74:229,1,70
81,124,75588,5,0,0:0:0:0:
149,75,75695,1,0,0:0:0:0:
233,77,75803,2,0,P|296:86|343:155,1,140
335,311,76231,5,0,0:0:0:0:
168,292,76445,1,0,0:0:0:0:
311,204,76660,1,0,0:0:0:0:
143,192,76874,1,0,0:0:0:0:
283,100,77088,5,0,0:0:0:0:
114,95,77303,1,0,0:0:0:0:
114,95,77410,1,0,0:0:0:0:
114,95,77517,1,0,0:0:0:0:
70,257,77731,1,0,0:0:0:0:
225,194,77945,5,0,0:0:0:0:
132,334,78160,1,0,0:0:0:0:
291,282,78374,1,0,0:0:0:0:
134,222,78588,5,0,0:0:0:0:
134,222,78695,1,0,0:0:0:0:
134,222,78803,1,0,0:0:0:0:
202,68,79017,1,0,0:0:0:0:
202,68,79124,1,0,0:0:0:0:
202,68,79231,1,0,0:0:0:0:
325,219,79445,1,0,0:0:0:0:
325,219,79553,1,0,0:0:0:0:
325,219,79660,1,0,0:0:0:0:
153,312,79874,5,0,0:0:0:0:
50,145,80088,1,0,0:0:0:0:
246,136,80303,1,0,0:0:0:0:
246,136,80410,1,0,0:0:0:0:
246,136,80517,1,0,0:0:0:0:
361,293,80731,5,0,0:0:0:0:
417,105,80945,1,0,0:0:0:0:
255,216,81160,1,0,0:0:0:0:
178,214,81374,5,0,0:0:0:0:
178,214,81588,5,0,0:0:0:0:
178,214,81695,1,0,0:0:0:0:
97,210,81910,5,0,0:0:0:0:
77,173,81963,1,0,0:0:0:0:
79,130,82017,1,0,0:0:0:0:
106,98,82070,1,0,0:0:0:0:
143,78,82124,1,0,0:0:0:0:
184,72,82178,1,0,0:0:0:0:
224,80,82231,6,0,L|256:103,1,35
286,124,82338,2,0,L|230:120,1,35
211,137,82445,2,0,L|248:174,1,35
283,194,82553,5,0,0:0:0:0:
336,207,82606,1,0,0:0:0:0:
392,203,82660,1,0,0:0:0:0:
443,182,82713,1,0,0:0:0:0:
483,142,82767,1,0,0:0:0:0:
473,101,82820,5,0,0:0:0:0:
430,100,82874,1,0,0:0:0:0:
394,122,82928,1,0,0:0:0:0:
372,157,82981,1,0,0:0:0:0:
357,196,83035,1,0,0:0:0:0:
346,236,83088,6,0,P|319:279|281:283,1,70
269,206,83303,2,0,P|223:253|219:271,1,70
196,334,83517,2,0,P|147:313|138:283,1,70
89,233,83731,2,0,P|145:202|149:178,1,70
74,155,83945,1,0,0:0:0:0:
215,18,84160,1,0,0:0:0:0:
301,64,84267,5,0,0:0:0:0:
211,104,84374,1,0,0:0:0:0:
382,198,84588,1,0,0:0:0:0:
220,310,84803,6,0,P|277:282|278:264,1,70
200,221,85017,2,0,P|230:187|262:183,1,70
342,220,85231,5,0,0:0:0:0:
362,175,85285,1,0,0:0:0:0:
368,126,85338,1,0,0:0:0:0:
343,82,85392,1,0,0:0:0:0:
298,62,85445,1,0,0:0:0:0:
256,88,85499,1,0,0:0:0:0:
270,135,85553,1,0,0:0:0:0:
312,159,85606,1,0,0:0:0:0:
356,136,85660,1,0,0:0:0:0:
421,63,85767,5,0,0:0:0:0:
465,150,85874,1,0,0:0:0:0:
402,225,85981,1,0,0:0:0:0:
325,234,86088,5,0,0:0:0:0:
311,187,86142,1,0,0:0:0:0:
276,237,86195,1,0,0:0:0:0:
211,162,86303,5,0,0:0:0:0:
193,116,86356,1,0,0:0:0:0:
152,87,86410,1,0,0:0:0:0:
103,89,86463,1,0,0:0:0:0:
60,114,86517,1,0,0:0:0:0:
79,308,86731,6,0,P|107:262|144:232,1,70
175,330,86945,2,0,P|200:281|193:244,1,70
151,181,87160,2,0,P|216:177|248:186,1,70
367,186,87374,1,0,0:0:0:0:
210,68,87588,1,0,0:0:0:0:
406,64,87803,5,0,0:0:0:0:
443,94,87856,1,0,0:0:0:0:
464,138,87910,1,0,0:0:0:0:
475,185,87963,1,0,0:0:0:0:
473,234,88017,1,0,0:0:0:0:
385,278,88124,5,0,0:0:0:0:
232,266,88231,1,0,0:0:0:0:
285,77,88445,1,0,0:0:0:0:
122,187,88660,5,0,0:0:0:0:
57,113,88767,1,0,0:0:0:0:
154,108,88874,1,0,0:0:0:0:
122,187,88981,1,0,0:0:0:0:
57,113,89088,1,0,0:0:0:0:
154,108,89303,5,0,0:0:0:0:
122,187,89517,1,0,0:0:0:0:
123,284,89624,5,0,0:0:0:0:
160,316,89678,1,0,0:0:0:0:
205,333,89731,1,0,0:0:0:0:
254,336,89785,1,0,0:0:0:0:
301,326,89838,1,0,0:0:0:0:
344,302,89892,1,0,0:0:0:0:
379,268,89945,6,0,P|394:228|390:189,1,70
298,230,90160,2,0,P|317:169|334:152,1,70
414,139,90374,2,0,P|366:108|346:99,1,70
258,121,90588,2,0,P|292:66|314:50,1,70
422,52,90803,6,0,L|450:92,1,35
498,50,90910,2,0,L|467:91,1,35
419,104,91017,2,0,L|446:135,1,35
503,113,91124,2,0,L|470:140,1,35
420,166,91231,2,0,L|447:192,1,35
507,179,91338,2,0,L|465:217,1,35
430,241,91445,2,0,L|456:264,1,35
498,252,91553,2,0,L|470:288,1,35
449,337,91660,6,0,P|404:349|293:308,1,140
68,276,92088,2,0,P|75:198|117:146,1,140
349,66,92517,2,0,P|407:117|421:189,1,140
202,51,92945,2,0,P|205:198|205:199,1,140
307,187,93374,5,0,0:0:0:0:
333,100,93803,2,0,B|370:97|370:97|377:134|377:134|419:117|419:117|433:154|433:154,1,140
476,191,94231,1,0,0:0:0:0:
476,191,94445,2,0,B|397:237|335:234|335:234|269:206|251:124,1,280
216,46,95088,5,0,0:0:0:0:
157,70,95142,1,0,0:0:0:0:
124,123,95195,1,0,0:0:0:0:
104,183,95249,1,0,0:0:0:0:
104,246,95303,1,0,0:0:0:0:
139,309,95410,1,0,0:0:0:0:
198,350,95517,1,0,0:0:0:0:
271,348,95624,1,0,0:0:0:0:
339,321,95731,1,0,0:0:0:0:
392,267,95838,1,0,0:0:0:0:
132,192,96160,6,0,P|173:149|216:203,1,140
173,256,96481,2,0,P|207:297|265:245,1,140
217,186,96803,5,0,0:0:0:0:
263,144,96856,1,0,0:0:0:0:
326,146,96910,1,0,0:0:0:0:
385,166,96963,1,0,0:0:0:0:
434,205,97017,2,0,P|478:194|447:116,1,140
372,78,97445,6,0,P|292:67|216:86,1,140
151,47,97874,2,0,P|149:126|182:189,1,140
267,186,98195,1,0,0:0:0:0:
267,186,98517,1,0,0:0:0:0:
267,186,98624,2,0,P|225:253|162:288,1,140
263,323,98945,5,0,0:0:0:0:
312,321,98999,1,0,0:0:0:0:
358,304,99053,1,0,0:0:0:0:
390,267,99106,1,0,0:0:0:0:
403,219,99160,1,0,0:0:0:0:
384,147,99267,5,0,0:0:0:0:
331,93,99374,1,0,0:0:0:0:
257,71,99588,5,0,0:0:0:0:
183,86,99910,5,0,0:0:0:0:
116,120,100017,1,0,0:0:0:0:
68,179,100231,5,0,0:0:0:0:
70,255,100338,5,0,0:0:0:0:
117,312,100392,1,0,0:0:0:0:
181,348,100445,1,0,0:0:0:0:
258,343,100553,5,0,0:0:0:0:
255,161,100767,5,0,0:0:0:0:
255,161,100874,1,0,0:0:0:0:
436,159,101088,1,0,0:0:0:0:
345,160,101195,2,0,P|324:117|291:93,1,70
252,87,101624,1,0,0:0:0:0:
256,238,101945,1,0,0:0:0:0:
161,81,102160,5,0,0:0:0:0:
161,122,102267,1,0,0:0:0:0:
159,163,102374,1,0,0:0:0:0:
158,204,102481,1,0,0:0:0:0:
156,245,102588,1,0,0:0:0:0:
158,286,102695,2,0,P|191:329|226:322,1,70
228,255,103017,2,0,P|238:216|279:193,1,70
338,220,103338,1,0,0:0:0:0:
428,215,103445,2,0,P|403:168|378:149,1,70
299,151,103660,5,0,0:0:0:0:
208,148,103767,2,0,P|151:134|140:120,3,70
67,79,104195,1,0,0:0:0:0:
152,45,104303,2,0,P|214:30|243:30,1,70
399,57,104624,5,0,0:0:0:0:
404,91,104677,1,0,0:0:0:0:
405,126,104731,1,0,0:0:0:0:
401,161,104784,1,0,0:0:0:0:
392,194,104838,1,0,0:0:0:0:
378,227,104891,1,0,0:0:0:0:
360,257,104945,1,0,0:0:0:0:
282,306,105053,5,0,0:0:0:0:
191,317,105160,1,0,0:0:0:0:
104,287,105267,1,0,0:0:0:0:
32,231,105374,5,0,0:0:0:0:
19,194,105427,1,0,0:0:0:0:
18,156,105481,1,0,0:0:0:0:
25,119,105534,1,0,0:0:0:0:
43,85,105588,1,0,0:0:0:0:
69,57,105641,1,0,0:0:0:0:
103,39,105695,6,0,L|151:18,1,35
159,138,105910,2,0,L|208:113,1,35
363,93,106445,5,0,0:0:0:0:
208,93,106767,1,0,0:0:0:0:
275,199,107088,1,0,0:0:0:0:
177,206,107303,2,0,L|178:168,1,35
257,334,107731,5,0,0:0:0:0:
331,316,107838,2,0,P|371:294|399:263,1,70
248,254,108160,2,0,P|314:237|361:177,1,140
241,177,108481,2,0,P|283:167|295:138,1,70
241,100,109017,5,0,0:0:0:0:
208,110,109070,1,0,0:0:0:0:
185,137,109124,1,0,0:0:0:0:
176,170,109177,1,0,0:0:0:0:
180,205,109231,1,0,0:0:0:0:
198,234,109284,1,0,0:0:0:0:
231,243,109338,1,0,0:0:0:0:
266,239,109392,1,0,0:0:0:0:
293,219,109445,5,0,0:0:0:0:
301,185,109499,1,0,0:0:0:0:
288,153,109552,1,0,0:0:0:0:
257,154,109606,1,0,0:0:0:0:
235,181,109659,1,0,0:0:0:0:
147,70,116731,6,0,L|226:63,2,70
102,91,117053,2,0,P|74:138|82:169,1,70
111,183,117267,1,0,0:0:0:0:
155,163,117374,2,0,P|198:198|203:240,1,70
180,254,117588,1,0,0:0:0:0:
279,252,117803,1,0,0:0:0:0:
341,176,118017,1,0,0:0:0:0:
290,91,118231,5,0,0:0:0:0:
261,130,118338,2,0,L|205:83,2,70
231,169,118660,1,0,0:0:0:0:
134,153,118874,1,0,0:0:0:0:
79,234,119088,5,0,0:0:0:0:
172,263,119303,1,0,0:0:0:0:
269,271,119517,1,0,0:0:0:0:
263,173,119731,6,0,L|173:146,2,70
236,78,120160,2,0,L|159:62,2,70
331,99,120588,2,0,L|392:49,2,70
306,194,121017,1,0,0:0:0:0:
196,131,121231,1,0,0:0:0:0:
63,209,121445,6,0,L|125:251,2,70
79,55,121874,1,0,0:0:0:0:
147,192,122088,1,0,0:0:0:0:
218,55,122303,1,0,0:0:0:0:
387,120,122517,6,0,L|332:202,1,70
258,191,122731,2,0,L|293:234,1,35
364,253,122838,5,0,0:0:0:0:
321,288,122891,1,0,0:0:0:0:
269,310,122945,1,0,0:0:0:0:
214,316,122998,1,0,0:0:0:0:
159,306,123052,1,0,0:0:0:0:
109,281,123105,1,0,0:0:0:0:
69,242,123159,1,0,0:0:0:0:
71,150,123320,5,0,0:0:0:0:
161,94,123374,1,0,0:0:0:0:
198,180,123535,5,0,0:0:0:0:
283,120,123588,1,0,0:0:0:0:
346,190,123749,5,0,0:0:0:0:
422,116,123803,1,0,0:0:0:0:
497,42,124017,5,0,0:0:0:0:
116,203,141803,6,0,P|347:54|492:165,1,490
