osu file format v14

[General]
AudioFilename: audio.mp3
AudioLeadIn: 0
PreviewTime: 126473
Countdown: 0
SampleSet: Normal
StackLeniency: 0.7
Mode: 3
LetterboxInBreaks: 0
SpecialStyle: 0
WidescreenStoryboard: 1

[Editor]
Bookmarks: 474,3902,10759,18688,29616,37331,67438,75045,81902,95616,100116,102473,104188,105902,107616,109331,111045,112759,114473,116188,117902,121331,126473,127331,128188,129045,129902,130759,131616,132473,133331,134188,135045,135902,136759,137616,138045,138473,138902,139331,139759,140188,140616,141045,141473,141902,142331,142759,143188,143616,144045,144473,144902,145331,145759,146188,146616,147045,147902,153045,154759,165045,166759,177045,182188,209616,212616,228473,235331,241331,243045,260188,260616,263616
DistanceSpacing: 1.8
BeatDivisor: 4
GridSize: 32
TimelineZoom: 2.699999

[Metadata]
Title:Doppelganger (extended ver.)
TitleUnicode:Doppelganger (extended ver.)
Artist:LeaF
ArtistUnicode:LeaF
Creator:shizehao
Version:EINSAMKEIT
Source:konzertsaal - THE BMS OF FIGHTERS 2013 -
Tags:mappers' guild mg featured artist fa instrumental breakcore speedcore electronic mashcore solitude c94 comiket comic market 94 be-music sakuzyo's circle コミック マーケット nishia-53a leaf-0001 sound voltex iv heavenly haven sdvx chunithm phigros セシル◇タイト kazari カザリ be music source cai_ji_ccc ricca leaf-7
BeatmapID:4163797
BeatmapSetID:1980729

[Difficulty]
HPDrainRate:8.5
CircleSize:4
OverallDifficulty:8.2
ApproachRate:5
SliderMultiplier:1.4
SliderTickRate:1

[Events]
//Background and Video events
0,0,"bg.jpg",0,0
//Break Periods
//Storyboard Layer 0 (Background)
//Storyboard Layer 1 (Fail)
//Storyboard Layer 2 (Pass)
//Storyboard Layer 3 (Foreground)
//Storyboard Layer 4 (Overlay)
//Storyboard Sound Samples
Sample,1438,0,"cym_16_2.wav",70
Sample,1545,0,"cym_16_2.wav",70
Sample,1652,0,"cym_16_2.wav",70
Sample,1759,0,"cym_16_4.wav",70
Sample,1973,0,"cym_16_4.wav",70
Sample,1973,0,"breaks_sn_16_2.wav",70
Sample,2188,0,"cym_16_4.wav",70
Sample,2402,0,"cym_16_2.wav",70
Sample,2509,0,"cym_16_2.wav",70
Sample,2723,0,"cym_16_2.wav",70
Sample,2938,0,"cym_16_4.wav",70
Sample,3152,0,"cym_16_1.wav",70
Sample,3259,0,"cym_16_1.wav",70
Sample,3366,0,"cym_16_1.wav",70
Sample,14081,0,"hihat_16_2.wav",70
Sample,38295,0,"breaks_hh_16_1.wav",70
Sample,38402,0,"breaks_sn_16_2.wav",70
Sample,38402,0,"ride_16_4.wav",70
Sample,38723,0,"breaks_sn_16_1.wav",70
Sample,38723,0,"ride_16_1.wav",70
Sample,38831,0,"breaks_sn_32_f1.wav",70
Sample,39259,0,"breaks_sn_16_2.wav",70
Sample,41188,0,"breaks_kk_16_1.wav",70
Sample,41402,0,"breaks_sn_16_2.wav",70
Sample,42045,0,"breaks_hh_16_1.wav",70
Sample,42259,0,"breaks_cy_16_4.wav",70
Sample,44402,0,"cym_16_8.wav",70
Sample,44402,0,"ride_16_4.wav",70
Sample,44938,0,"breaks_sn_32_f2.wav",70
Sample,45045,0,"breaks_sn_16_1.wav",70
Sample,45152,0,"breaks_sn_16_1.wav",70
Sample,45259,0,"breaks_hh_16_1.wav",70
Sample,45581,0,"breaks_sn_16_1.wav",70
Sample,45902,0,"breaks_kk_16_1.wav",70
Sample,46116,0,"breaks_kk_16_1.wav",70
Sample,46331,0,"breaks_kk_16_1.wav",70
Sample,46438,0,"breaks_sn_32_f2.wav",70
Sample,46545,0,"breaks_cys_16_4.wav",70
Sample,46813,0,"breaks_kk_16_1.wav",70
Sample,46920,0,"breaks_sn_32_1.wav",70
Sample,47134,0,"breaks_sn_32_1.wav",70
Sample,47616,0,"cym_16_4.wav",70
Sample,47831,0,"ride_16_4.wav",70
Sample,48795,0,"ride_16_1.wav",70
Sample,48795,0,"breaks_sn_16_1.wav",70
Sample,48902,0,"breaks_sn_16_1.wav",70
Sample,49009,0,"breaks_sn_16_1.wav",70
Sample,49009,0,"ride_16_1.wav",70
Sample,49331,0,"cym_16_1.wav",70
Sample,49652,0,"cym_16_1.wav",70
Sample,52009,0,"breaks_sn_16_1.wav",70
Sample,52009,0,"hihat_16_2.wav",70
Sample,52116,0,"breaks_sn_16_1.wav",70
Sample,52116,0,"ride_16_1.wav",70
Sample,52223,0,"breaks_sn_32_f1.wav",70
Sample,52438,0,"ride_16_1.wav",70
Sample,52438,0,"breaks_sn_16_1.wav",70
Sample,52545,0,"breaks_sn_32_f1.wav",70
Sample,52973,0,"breaks_sn_16_2.wav",70
Sample,56188,0,"cym_16_1.wav",70
Sample,56509,0,"cym_16_1.wav",70
Sample,56616,0,"cym_16_3.wav",70
Sample,56831,0,"cym_16_1.wav",70
Sample,58759,0,"breaks_kk_16_2.wav",70
Sample,59723,0,"cym_16_1.wav",70
Sample,59938,0,"cym_16_1.wav",70
Sample,60259,0,"cym_16_4.wav",70
Sample,60473,0,"cym_16_1.wav",70
Sample,60795,0,"cym_16_1.wav",70
Sample,61331,0,"cym_16_8.wav",70
Sample,61545,0,"ride_16_4.wav",70
Sample,61973,0,"ride_16_4.wav",70
Sample,62616,0,"cym_16_3.wav",70
Sample,62831,0,"cym_16_3.wav",70
Sample,63045,0,"cym_16_1.wav",70
Sample,63366,0,"cym_16_1.wav",70
Sample,64866,0,"breaks_sn_16_1.wav",70
Sample,64973,0,"breaks_sn_16_1.wav",70
Sample,65188,0,"breaks_sn_16_1.wav",70
Sample,77402,0,"cym_16_3.wav",70
Sample,78152,0,"breaks_sn_16_1.wav",70
Sample,78206,0,"breaks_sn_16_1.wav",70
Sample,78616,0,"hihat_16_1.wav",70
Sample,78831,0,"hihat_16_1.wav",70
Sample,79045,0,"hihat_16_1.wav",70
Sample,79259,0,"hihat_16_1.wav",70
Sample,79473,0,"hihat_16_1.wav",70
Sample,79688,0,"hihat_16_1.wav",70
Sample,79902,0,"hihat_16_1.wav",70
Sample,80116,0,"hihat_16_1.wav",70
Sample,83295,0,"breaks_g1_005.wav",70
Sample,83402,0,"breaks_g1_006.wav",70
Sample,83616,0,"breaks_g1_008.wav",70
Sample,83616,0,"ride_16_4.wav",70
Sample,83723,0,"breaks_g1_009.wav",70
Sample,84259,0,"cym_16_3.wav",70
Sample,85009,0,"cym_16_3.wav",70
Sample,85223,0,"ride_16_1.wav",70
Sample,85223,0,"breaks_g1_029.wav",70
Sample,86723,0,"breaks_g1_046.wav",70
Sample,86831,0,"breaks_g1_047.wav",70
Sample,87045,0,"ride_16_4.wav",70
Sample,87045,0,"breaks_g1_049.wav",70
Sample,87152,0,"breaks_g1_050.wav",70
Sample,87688,0,"cym_16_3.wav",70
Sample,87688,0,"breaks_g1_055.wav",70
Sample,88438,0,"cym_16_3.wav",70
Sample,90152,0,"breaks_g1_005.wav",70
Sample,90259,0,"breaks_g1_006.wav",70
Sample,90473,0,"ride_16_4.wav",70
Sample,90473,0,"breaks_g1_008.wav",70
Sample,90581,0,"breaks_g1_009.wav",70
Sample,91116,0,"cym_16_3.wav",70
Sample,91866,0,"cym_16_3.wav",70
Sample,92081,0,"breaks_g1_029.wav",70
Sample,93581,0,"breaks_g1_046.wav",70
Sample,93688,0,"breaks_g1_047.wav",70
Sample,93902,0,"ride_16_4.wav",70
Sample,93902,0,"breaks_g1_049.wav",70
Sample,94009,0,"breaks_g1_050.wav",70
Sample,94545,0,"cym_16_3.wav",70
Sample,94545,0,"breaks_g1_055.wav",70
Sample,95295,0,"cym_16_3.wav",70
Sample,100759,0,"march_tebyousi_1.wav",70
Sample,101188,0,"march_tebyousi_1.wav",70
Sample,101188,0,"march_tin_2.wav",70
Sample,101616,0,"march_tebyousi_1.wav",70
Sample,102045,0,"march_tin_2.wav",70
Sample,102045,0,"march_tebyousi_1.wav",70
Sample,114045,0,"ridesp.wav",70
Sample,123045,0,"ride_16_1.wav",70
Sample,123152,0,"ride_16_1.wav",70
Sample,123259,0,"ride_16_1.wav",70
Sample,123366,0,"ride_16_1.wav",70
Sample,123473,0,"ride_16_1.wav",70
Sample,123581,0,"ride_16_1.wav",70
Sample,123688,0,"ride_16_1.wav",70
Sample,123795,0,"ride_16_1.wav",70
Sample,123902,0,"ride_16_1.wav",70
Sample,124009,0,"ride_16_1.wav",70
Sample,134616,0,"hihatsp.wav",70
Sample,138259,0,"cym_16_4.wav",70
Sample,147473,0,"march_tri_1.wav",70
Sample,147688,0,"march_tri_1.wav",70
Sample,147902,0,"march_tin_1.wav",70
Sample,147902,0,"march_hue_2.wav",70
Sample,147902,0,"march_tebyousi_1.wav",70
Sample,148331,0,"march_snare_2.wav",70
Sample,148331,0,"march_tin_2.wav",70
Sample,148331,0,"march_tebyousi_1.wav",70
Sample,148759,0,"march_tin_1.wav",70
Sample,148759,0,"march_hue_3.wav",70
Sample,148759,0,"march_tebyousi_1.wav",70
Sample,149188,0,"march_snare_2.wav",70
Sample,149188,0,"march_tin_2.wav",70
Sample,149188,0,"march_tebyousi_1.wav",70
Sample,149616,0,"march_tin_1.wav",70
Sample,149616,0,"march_hue_4.wav",70
Sample,149616,0,"march_tebyousi_1.wav",70
Sample,150045,0,"march_hue_5.wav",70
Sample,150045,0,"march_tin_2.wav",70
Sample,150045,0,"march_tebyousi_1.wav",70
Sample,150473,0,"march_tin_3.wav",70
Sample,150473,0,"march_hue_4.wav",70
Sample,150473,0,"march_tebyousi_1.wav",70
Sample,150902,0,"march_hue_5.wav",70
Sample,150902,0,"march_tin_4.wav",70
Sample,150902,0,"march_tebyousi_1.wav",70
Sample,151331,0,"march_tin_1.wav",70
Sample,151331,0,"march_hue_5.wav",70
Sample,151331,0,"march_tebyousi_1.wav",70
Sample,151759,0,"march_hue_5.wav",70
Sample,151759,0,"march_tin_4.wav",70
Sample,151759,0,"march_tebyousi_1.wav",70
Sample,152188,0,"march_tin_3.wav",70
Sample,152188,0,"march_hue_5.wav",70
Sample,152188,0,"march_tebyousi_1.wav",70
Sample,152616,0,"march_hue_5.wav",70
Sample,152616,0,"march_tin_5.wav",70
Sample,152616,0,"march_tebyousi_2.wav",70
Sample,153831,0,"cym_16_1.wav",70
Sample,154759,0,"breaks_kk_16_1.wav",70
Sample,154759,0,"cym_16_8.wav",70
Sample,154973,0,"breaks_sn_16_1.wav",70
Sample,155188,0,"breaks_sn_16_1.wav",70
Sample,155402,0,"breaks_sn_16_1.wav",70
Sample,156473,0,"breaks_sn_32_f2.wav",70
Sample,157009,0,"breaks_kk_32_1.wav",70
Sample,157063,0,"breaks_kk_32_1.wav",70
Sample,157223,0,"breaks_kk_32_1.wav",70
Sample,157277,0,"breaks_kk_32_1.wav",70
Sample,157331,0,"breaks_sn_16_2.wav",70
Sample,157331,0,"cym_16_2.wav",70
Sample,157491,0,"breaks_sn_16_2.wav",70
Sample,157491,0,"cym_16_2.wav",70
Sample,157652,0,"breaks_sn_16_1.wav",70
Sample,157652,0,"cym_16_1.wav",70
Sample,157759,0,"breaks_sn_16_1.wav",70
Sample,157759,0,"cym_16_2.wav",70
Sample,157866,0,"breaks_sn_16_1.wav",70
Sample,157866,0,"cym_16_2.wav",70
Sample,157973,0,"hihat_16_2.wav",70
Sample,157973,0,"ride_16_2.wav",70
Sample,157973,0,"breaks_sn_16_1.wav",70
Sample,158081,0,"breaks_sn_32_f4.wav",70
Sample,158081,0,"ride_16_2.wav",70
Sample,159902,0,"cym_16_8.wav",70
Sample,159902,0,"breaks_kk_16_1.wav",70
Sample,160116,0,"breaks_kk_16_1.wav",70
Sample,160116,0,"ride_16_2.wav",70
Sample,161188,0,"cym_16_7.wav",70
Sample,161402,0,"breaks_snh8_16_1.wav",70
Sample,161456,0,"breaks_snh10_16_1.wav",70
Sample,161509,0,"breaks_snh12_16_1.wav",70
Sample,161563,0,"breaks_snh14_16_1.wav",70
Sample,161723,0,"breaks_kk_16_2.wav",70
Sample,161938,0,"breaks_kk_16_2.wav",70
Sample,162152,0,"breaks_kk_16_2.wav",70
Sample,162366,0,"breaks_kk_16_2.wav",70
Sample,178223,0,"ride_16_1.wav",70
Sample,180045,0,"cym_16_4.wav",70
Sample,180259,0,"cym_16_4.wav",70
Sample,180473,0,"cym_16_4.wav",70
Sample,180688,0,"cym_16_2.wav",70
Sample,180795,0,"cym_16_2.wav",70
Sample,181009,0,"cym_16_2.wav",70
Sample,181223,0,"cym_16_4.wav",70
Sample,181438,0,"cym_16_1.wav",70
Sample,181545,0,"cym_16_1.wav",70
Sample,181652,0,"cym_16_1.wav",70
Sample,215616,0,"cym_16_8.wav",70
Sample,217331,0,"cym_16_11.wav",70
Sample,224188,0,"cym_16_8.wav",70
Sample,228473,0,"cym_16_4.wav",70
Sample,242402,0,"cym_16_2.wav",70
Sample,242616,0,"cym_16_3.wav",70
Sample,242831,0,"cym_16_3.wav",70
Sample,249045,0,"breaks_g2_062.wav",70
Sample,249259,0,"breaks_g2_063.wav",70
Sample,249473,0,"breaks_g2_064.wav",70
Sample,249902,0,"cym_16_16.wav",70
Sample,250973,0,"breaks_g2_078.wav",70
Sample,251045,0,"breaks_g2_078.wav",70
Sample,251116,0,"breaks_g2_078.wav",70
Sample,251188,0,"breaks_g2_081.wav",70
Sample,252473,0,"breaks_g2_095.wav",70
Sample,252527,0,"breaks_g2_096.wav",70
Sample,252581,0,"breaks_g2_095.wav",70
Sample,252634,0,"breaks_g2_096.wav",70
Sample,252688,0,"ride_16_4.wav",70
Sample,252688,0,"breaks_g2_099.wav",70
Sample,252902,0,"breaks_g2_095.wav",70
Sample,252956,0,"breaks_g2_096.wav",70
Sample,253009,0,"breaks_g2_095.wav",70
Sample,253063,0,"breaks_g2_096.wav",70
Sample,253116,0,"breaks_g2_099.wav",70
Sample,253759,0,"breaks_g2_110.wav",70
Sample,253813,0,"breaks_g2_111.wav",70
Sample,253866,0,"breaks_g2_110.wav",70
Sample,253920,0,"breaks_g2_111.wav",70
Sample,253973,0,"breaks_g2_114.wav",70
Sample,254509,0,"breaks_g2_119.wav",70
Sample,254563,0,"breaks_g2_120.wav",70
Sample,254616,0,"breaks_g2_121.wav",70
Sample,254670,0,"breaks_g2_120.wav",70
Sample,254723,0,"breaks_g2_121.wav",70
Sample,254777,0,"breaks_g2_120.wav",70
Sample,254831,0,"breaks_g2_125.wav",70
Sample,255473,0,"breaks_g2_131.wav",70
Sample,255527,0,"breaks_g2_132.wav",70
Sample,255581,0,"breaks_g2_131.wav",70
Sample,255634,0,"breaks_g2_132.wav",70
Sample,255688,0,"breaks_g2_135.wav",70
Sample,256223,0,"breaks_g2_119.wav",70
Sample,256277,0,"breaks_g2_120.wav",70
Sample,256331,0,"breaks_g2_121.wav",70
Sample,256384,0,"breaks_g2_120.wav",70
Sample,256438,0,"breaks_g2_121.wav",70
Sample,256491,0,"breaks_g2_120.wav",70
Sample,256545,0,"ride_16_4.wav",70
Sample,256545,0,"breaks_g2_146.wav",70
Sample,256759,0,"breaks_g2_147.wav",70
Sample,256759,0,"cym_16_4.wav",70
Sample,256813,0,"breaks_g2_148.wav",70
Sample,256866,0,"breaks_g2_147.wav",70
Sample,256920,0,"breaks_g2_148.wav",70
Sample,256973,0,"breaks_g2_151.wav",70
Sample,256973,0,"ride_16_4.wav",70
Sample,257188,0,"cym_16_4.wav",70
Sample,257188,0,"breaks_g2_147.wav",70
Sample,257241,0,"breaks_g2_148.wav",70
Sample,257295,0,"breaks_g2_147.wav",70
Sample,257348,0,"breaks_g2_148.wav",70
Sample,257402,0,"ride_16_4.wav",70
Sample,257402,0,"breaks_g2_151.wav",70
Sample,257616,0,"cym_16_8.wav",70
Sample,258045,0,"breaks_g2_160.wav",70
Sample,258259,0,"ride_16_4.wav",70
Sample,258259,0,"breaks_g2_161.wav",70
Sample,258259,0,"cym_16_4.wav",70

[TimingPoints]
474,214.285714285714,4,1,1,70,1,0
5616,-108.695652173913,4,1,1,70,0,0
7331,-100,4,1,1,70,0,0
9045,-108.695652173913,4,1,1,70,0,0
9902,-100,4,1,1,70,0,0
15688,-80,4,1,1,70,0,0
15768,-100,4,1,1,70,0,0
15902,-80,4,1,1,70,0,0
16063,-100,4,1,1,70,0,0
16223,-80,4,1,1,70,0,0
16357,-100,4,1,1,70,0,0
16545,-80,4,1,1,70,0,0
16679,-100,4,1,1,70,0,0
16866,-80,4,1,1,70,0,0
17000,-100,4,1,1,70,0,0
17188,-76.9230769230769,4,1,1,70,0,0
17295,-100,4,1,1,70,0,0
20831,-66.6666666666667,4,1,1,70,0,0
20857,-200,4,1,1,70,0,0
20884,-66.6666666666667,4,1,1,70,0,0
20911,-200,4,1,1,70,0,0
20938,-66.6666666666667,4,1,1,70,0,0
20965,-200,4,1,1,70,0,0
20991,-66.6666666666667,4,1,1,70,0,0
21018,-200,4,1,1,70,0,0
21045,-100,4,1,1,70,0,0
28759,-66.6666666666667,4,1,1,70,0,0
28785,-200,4,1,1,70,0,0
28812,-66.6666666666667,4,1,1,70,0,0
28839,-200,4,1,1,70,0,0
28866,-66.6666666666667,4,1,1,70,0,0
28893,-200,4,1,1,70,0,0
28919,-66.6666666666667,4,1,1,70,0,0
28946,-200,4,1,1,70,0,0
28973,-100,4,1,1,70,0,0
29188,-66.6666666666667,4,1,1,70,0,0
29214,-200,4,1,1,70,0,0
29241,-66.6666666666667,4,1,1,70,0,0
29268,-200,4,1,1,70,0,0
29295,-66.6666666666667,4,1,1,70,0,0
29322,-200,4,1,1,70,0,0
29348,-66.6666666666667,4,1,1,70,0,0
29375,-200,4,1,1,70,0,0
29402,-100,4,1,1,70,0,0
31331,-80,4,1,1,70,0,0
31491,-100,4,1,1,70,0,0
31652,-80,4,1,1,70,0,0
31813,-100,4,1,1,70,0,0
31973,-80,4,1,1,70,0,0
32134,-100,4,1,1,70,0,0
32295,-80,4,1,1,70,0,0
32456,-100,4,1,1,70,0,0
32616,-80,4,1,1,70,0,0
33098,-100,4,1,1,70,0,0
33259,-80,4,1,1,70,0,0
33313,-100,4,1,1,70,0,0
33473,-80,4,1,1,70,0,0
33527,-100,4,1,1,70,0,0
33688,-80,4,1,1,70,0,0
33741,-100,4,1,1,70,0,0
33902,-80,4,1,1,70,0,0
34063,-100,4,1,1,70,0,0
34223,-80,4,1,1,70,0,0
34384,-100,4,1,1,70,0,0
34545,-80,4,1,1,70,0,0
34706,-100,4,1,1,70,0,0
34866,-80,4,1,1,70,0,0
35027,-100,4,1,1,70,0,0
35188,-95.2380952380952,4,1,1,70,0,0
35616,-100,4,1,1,70,0,0
37331,-100,4,1,1,70,0,1
67438,-100,4,1,1,70,0,0
69045,-108.695652173913,4,1,1,70,0,0
69902,-100,4,1,1,70,0,0
70330,-108.695652173913,4,1,1,70,0,0
70759,-100,4,1,1,70,0,0
71187,-108.695652173913,4,1,1,70,0,0
71616,-100,4,1,1,70,0,0
71830,-108.695652173913,4,1,1,70,0,0
72045,-100,4,1,1,70,0,0
72259,-108.695652173913,4,1,1,70,0,0
72473,-100,4,1,1,70,0,0
72687,-108.695652173913,4,1,1,70,0,0
73116,-100,4,1,1,70,0,0
74187,-66.6666666666667,4,1,1,70,0,0
74215,-200,4,1,1,70,0,0
74241,-100,4,1,1,70,0,0
74402,-66.6666666666667,4,1,1,70,0,0
74429,-200,4,1,1,70,0,0
74455,-100,4,1,1,70,0,0
74616,-66.6666666666667,4,1,1,70,0,0
74643,-200,4,1,1,70,0,0
74670,-100,4,1,1,70,0,0
81902,-100,4,1,1,70,0,1
95616,-100,4,1,1,70,0,0
127331,-100,4,1,1,70,0,1
147045,-100,4,1,1,70,0,0
154759,-100,4,1,1,70,0,1
164616,-76.9230769230769,4,1,1,70,0,1
164723,-100,4,1,1,70,0,1
165045,-100,4,1,1,70,0,0
228473,-10,4,1,1,70,0,0
228500,-1000,4,1,1,70,0,0
228527,-500,4,1,1,70,0,0
228554,-250,4,1,1,70,0,0
228581,-200,4,1,1,70,0,0
228688,-195.046439628483,4,1,1,70,0,0
228795,-190.332326283988,4,1,1,70,0,0
228902,-185.840707964602,4,1,1,70,0,0
229009,-181.556195965418,4,1,1,70,0,0
229116,-177.464788732394,4,1,1,70,0,0
229223,-173.553719008264,4,1,1,70,0,0
229331,-169.811320754717,4,1,1,70,0,0
229438,-166.22691292876,4,1,1,70,0,0
229545,-162.790697674419,4,1,1,70,0,0
229652,-159.493670886076,4,1,1,70,0,0
229759,-156.327543424318,4,1,1,70,0,0
229866,-153.284671532847,4,1,1,70,0,0
229973,-150.35799522673,4,1,1,70,0,0
230081,-147.540983606557,4,1,1,70,0,0
230188,-144.827586206897,4,1,1,70,0,0
230295,-142.212189616253,4,1,1,70,0,0
230402,-139.689578713969,4,1,1,70,0,0
230509,-137.254901960784,4,1,1,70,0,0
230616,-134.903640256959,4,1,1,70,0,0
230723,-132.631578947368,4,1,1,70,0,0
230831,-130.434782608696,4,1,1,70,0,0
230938,-128.309572301426,4,1,1,70,0,0
231045,-126.25250501002,4,1,1,70,0,0
231152,-124.260355029586,4,1,1,70,0,0
231259,-122.330097087379,4,1,1,70,0,0
231366,-120.458891013384,4,1,1,70,0,0
231473,-118.64406779661,4,1,1,70,0,0
231581,-116.883116883117,4,1,1,70,0,0
231688,-115.173674588665,4,1,1,70,0,0
231795,-113.513513513514,4,1,1,70,0,0
231902,-111.90053285968,4,1,1,70,0,0
232009,-110.332749562172,4,1,1,70,0,0
232116,-108.80829015544,4,1,1,70,0,0
232223,-107.32538330494,4,1,1,70,0,0
232331,-105.882352941176,4,1,1,70,0,0
232438,-104.477611940299,4,1,1,70,0,0
232545,-103.109656301146,4,1,1,70,0,0
232652,-101.777059773829,4,1,1,70,0,0
232760,-100.478468899522,4,1,1,70,0,0
232867,-99.2125984251969,4,1,1,70,0,0
232974,-97.9782270606532,4,1,1,70,0,0
233082,-96.7741935483871,4,1,1,70,0,0
233189,-95.5993930197269,4,1,1,70,0,0
233296,-94.4527736131934,4,1,1,70,0,0
233403,-93.3333333333333,4,1,1,70,0,0
233510,-92.2401171303075,4,1,1,70,0,0
233617,-91.1722141823444,4,1,1,70,0,0
233724,-90.1287553648069,4,1,1,70,0,0
233832,-89.1089108910891,4,1,1,70,0,0
233939,-88.1118881118881,4,1,1,70,0,0
234046,-87.1369294605809,4,1,1,70,0,0
234153,-86.1833105335157,4,1,1,70,0,0
234260,-85.2503382949932,4,1,1,70,0,0
234366,-84.3373493975904,4,1,1,70,0,0
234473,-83.4437086092715,4,1,1,70,0,0
235331,-100,4,1,1,70,0,0
243045,-100,4,1,1,70,0,1
260188,-10,4,1,1,70,0,0
260215,-142.857142857143,4,1,1,70,0,0
261045,-140.845070422535,4,1,1,70,0,0
261205,-139.471533642059,4,1,1,70,0,0
261312,-137.094710786093,4,1,1,70,0,0
261366,-135.507092949397,4,1,1,70,0,0
261419,-133.677584056163,4,1,1,70,0,0
261473,-131.627056672761,4,1,1,70,0,0
261527,-129.377874361955,4,1,1,70,0,0
261580,-126.95334023936,4,1,1,70,0,0
261634,-124.377169447698,4,1,1,70,0,0
261687,-121.673003802281,4,1,1,70,0,0
261741,-118.863982252947,4,1,1,70,0,0
261794,-115.972376024322,4,1,1,70,0,0
261848,-113.019292746457,4,1,1,70,0,0
261902,-110.024449877751,4,1,1,70,0,0
261955,-107.006014443954,4,1,1,70,0,0
262009,-103.980503655565,4,1,1,70,0,0
262062,-100.962739315434,4,1,1,70,0,0
262116,-97.9658480168719,4,1,1,70,0,0
262169,-95.0012988458826,4,1,1,70,0,0
262223,-92.0789705059548,4,1,1,70,0,0
262276,-89.2072403445939,4,1,1,70,0,0
262330,-86.3930885529158,4,1,1,70,0,0
262384,-83.642211726609,4,1,1,70,0,0
262437,-80.9591409335601,4,1,1,70,0,0
262491,-78.3473603672532,4,1,1,70,0,0
262544,-75.8094235325085,4,1,1,70,0,0
262598,-73.3470646848528,4,1,1,70,0,0
262651,-70.9613039139594,4,1,1,70,0,0
262705,-68.6525448223049,4,1,1,70,0,0
262759,-66.4206642066421,4,1,1,70,0,0
262812,-64.2650935107318,4,1,1,70,0,0
262866,-62.1848920940978,4,1,1,70,0,0
262919,-60.1788125654614,4,1,1,70,0,0
262973,-58.2453585729887,4,1,1,70,0,0
263026,-56.3828355378272,4,1,1,70,0,0
263402,-85.4700854700855,4,1,1,70,0,0
263777,-100,4,1,1,70,0,0

[HitObjects]
64,192,474,5,0,0:0:0:70:k-16-2.wav
192,192,474,1,0,0:0:0:70:breaks_sn_16_2.wav
320,192,474,1,0,0:0:0:70:cym_16_2.wav
64,192,581,1,0,0:0:0:70:k-16-2.wav
192,192,581,1,0,0:0:0:70:breaks_sn_16_2.wav
320,192,581,1,0,0:0:0:70:cym_16_2.wav
64,192,795,1,0,0:0:0:70:k-16-2.wav
320,192,795,1,0,0:0:0:70:breaks_sn_16_2.wav
448,192,795,1,0,0:0:0:70:cym_16_2.wav
192,192,1009,1,0,0:0:0:70:k-16-2.wav
320,192,1009,1,0,0:0:0:70:breaks_sn_16_2.wav
448,192,1009,1,0,0:0:0:70:cym_16_2.wav
64,192,1223,1,0,0:0:0:70:k-16-2.wav
192,192,1223,1,0,0:0:0:70:breaks_sn_16_2.wav
448,192,1223,1,0,0:0:0:70:cym_16_2.wav
64,192,1438,1,0,0:0:0:70:k-16-2.wav
192,192,1438,1,0,0:0:0:70:ride_16_4.wav
320,192,1438,1,0,0:0:0:70:breaks_sn_16_2.wav
64,192,1545,1,0,0:0:0:70:k-16-2.wav
192,192,1545,1,0,0:0:0:70:ride_16_4.wav
448,192,1545,1,0,0:0:0:70:breaks_sn_16_2.wav
64,192,1652,1,0,0:0:0:70:k-16-2.wav
320,192,1652,1,0,0:0:0:70:ride_16_4.wav
448,192,1652,1,0,0:0:0:70:breaks_sn_16_2.wav
192,192,1759,1,0,0:0:0:70:k-16-2.wav
320,192,1759,1,0,0:0:0:70:ride_16_4.wav
448,192,1759,1,0,0:0:0:70:breaks_sn_16_2.wav
64,192,1866,1,0,0:0:0:70:breaks_kk_16_1.wav
192,192,1866,1,0,0:0:0:0:
320,192,1920,1,0,0:0:0:70:breaks_kk_16_1.wav
448,192,1920,1,0,0:0:0:0:
64,192,1973,1,0,0:0:0:70:k-16-2.wav
192,192,1973,1,0,0:0:0:70:ride_16_4.wav
320,192,2081,1,0,0:0:0:70:breaks_kk_16_2.wav
448,192,2081,1,0,0:0:0:0:
64,192,2188,1,0,0:0:0:70:k-16-2.wav
320,192,2188,1,0,0:0:0:70:ride_16_4.wav
448,192,2188,1,0,0:0:0:70:breaks_sn_16_2.wav
192,192,2295,1,0,0:0:0:70:hihat_16_2.wav
448,192,2295,1,0,0:0:0:70:breaks_kk_16_2.wav
64,192,2402,1,0,0:0:0:70:k-16-2.wav
192,192,2402,1,0,0:0:0:70:ride_16_4.wav
320,192,2402,1,0,0:0:0:70:breaks_sn_16_2.wav
64,192,2509,1,0,0:0:0:70:k-16-2.wav
192,192,2509,1,0,0:0:0:70:hihat_16_2.wav
320,192,2509,1,0,0:0:0:70:breaks_sn_16_2.wav
64,192,2616,1,0,0:0:0:70:ride_16_4.wav
448,192,2616,1,0,0:0:0:70:breaks_kk_16_2.wav
192,192,2723,1,0,0:0:0:70:k-16-2.wav
320,192,2723,1,0,0:0:0:70:hihat_16_2.wav
448,192,2723,1,0,0:0:0:70:breaks_sn_16_2.wav
64,192,2831,1,0,0:0:0:70:ride_16_4.wav
320,192,2831,1,0,0:0:0:70:breaks_kk_16_2.wav
64,192,2938,1,0,0:0:0:70:k-16-2.wav
192,192,2938,1,0,0:0:0:70:hihat_16_2.wav
448,192,2938,1,0,0:0:0:70:breaks_sn_16_2.wav
192,192,3045,1,0,0:0:0:70:breaks_kk_16_1.wav
320,192,3045,1,0,0:0:0:0:
64,192,3152,1,0,0:0:0:70:k-16-2.wav
320,192,3152,1,0,0:0:0:70:ride_16_1.wav
448,192,3152,1,0,0:0:0:70:breaks_sn_16_1.wav
64,192,3259,1,0,0:0:0:70:k-16-2.wav
192,192,3259,1,0,0:0:0:70:ride_16_1.wav
448,192,3259,1,0,0:0:0:70:breaks_sn_16_1.wav
192,192,3366,1,0,0:0:0:70:k-16-2.wav
320,192,3366,1,0,0:0:0:70:ride_16_1.wav
448,192,3366,1,0,0:0:0:70:breaks_sn_16_1.wav
64,192,3473,1,0,0:0:0:70:k-16-2.wav
192,192,3473,1,0,0:0:0:70:ride_16_2.wav
320,192,3473,1,0,0:0:0:70:breaks_sn_16_2.wav
448,192,3473,1,0,0:0:0:70:cym_16_2.wav
64,192,3581,128,0,3688:0:0:0:0:
192,192,3634,128,0,3741:0:0:0:0:
320,192,3688,128,0,3795:0:0:0:0:
448,192,3741,128,0,3848:0:0:0:0:
64,192,3795,128,0,3902:0:0:0:0:
192,192,3848,128,0,3902:0:0:0:0:
320,192,3902,1,0,0:0:0:70:k-16-2.wav
448,192,3902,1,0,0:0:0:70:cym_16_16.wav
320,192,4009,1,0,0:0:0:70:hihat_16_2.wav
64,192,4116,1,0,0:0:0:70:k-16-2.wav
192,192,4116,1,0,0:0:0:70:s-2.wav
448,192,4116,1,0,0:0:0:0:
192,192,4223,1,0,0:0:0:70:hihat_16_2.wav
64,192,4331,1,0,0:0:0:70:k-16-2.wav
320,192,4331,1,0,0:0:0:0:
192,192,4438,1,0,0:0:0:70:hihat_16_2.wav
448,192,4438,1,0,0:0:0:0:
64,192,4545,1,0,0:0:0:70:k-16-2.wav
320,192,4545,1,0,0:0:0:70:s-2.wav
448,192,4545,1,0,0:0:0:0:
64,192,4652,1,0,0:0:0:70:hihat_16_2.wav
192,192,4652,1,0,0:0:0:0:
192,192,4759,1,0,0:0:0:70:k-16-2.wav
448,192,4759,1,0,0:0:0:0:
320,192,4866,1,0,0:0:0:70:hihat_16_2.wav
448,192,4866,1,0,0:0:0:0:
64,192,4973,1,0,0:0:0:70:k-16-2.wav
192,192,4973,1,0,0:0:0:70:s-2.wav
320,192,4973,1,0,0:0:0:0:
64,192,5081,1,0,0:0:0:70:hihat_16_2.wav
320,192,5188,1,0,0:0:0:70:k-16-2.wav
448,192,5188,1,0,0:0:0:0:
320,192,5295,1,0,0:0:0:70:hihat_16_2.wav
64,192,5402,1,0,0:0:0:70:k-16-2.wav
192,192,5402,1,0,0:0:0:70:s-2.wav
448,192,5402,1,0,0:0:0:0:
192,192,5509,1,0,0:0:0:70:hihat_16_2.wav
64,192,5616,128,0,7116:0:0:0:70:k-16-1.wav
448,192,5616,1,0,0:0:0:0:
448,192,5723,1,0,0:0:0:70:hihat_16_1.wav
192,192,5831,1,0,0:0:0:70:k-16-1.wav
320,192,5831,1,0,0:0:0:70:s-1.wav
192,192,5938,1,0,0:0:0:70:hihat_16_1.wav
320,192,6045,1,0,0:0:0:70:k-16-1.wav
448,192,6045,1,0,0:0:0:0:
448,192,6152,128,0,6259:0:0:0:70:hihat_16_1.wav
192,192,6259,1,0,0:0:0:70:k-16-1.wav
320,192,6259,1,0,0:0:0:70:s-1.wav
192,192,6366,128,0,6473:0:0:0:70:hihat_16_1.wav
320,192,6473,1,0,0:0:0:70:k-16-1.wav
448,192,6473,1,0,0:0:0:0:
320,192,6581,128,0,6688:0:0:0:70:hihat_16_1.wav
192,192,6688,1,0,0:0:0:70:k-16-1.wav
448,192,6688,128,0,6795:0:0:0:70:s-1.wav
320,192,6795,1,0,0:0:0:70:hihat_16_1.wav
192,192,6902,1,0,0:0:0:70:k-16-1.wav
448,192,6902,128,0,7009:0:0:0:0:
320,192,7009,128,0,7116:0:0:0:70:hihat_16_1.wav
192,192,7116,1,0,0:0:0:70:k-16-1.wav
448,192,7170,1,0,0:0:0:70:k-16-1.wav
192,192,7223,1,0,0:0:0:70:k-16-1.wav
448,192,7277,1,0,0:0:0:70:k-16-1.wav
64,192,7331,1,0,0:0:0:70:k-16-2.wav
192,192,7331,1,0,0:0:0:70:cym_16_16.wav
320,192,7331,1,0,0:0:0:0:
64,192,7438,1,0,0:0:0:70:hihat_16_2.wav
192,192,7545,1,0,0:0:0:70:k-16-2.wav
320,192,7545,1,0,0:0:0:70:s-2.wav
448,192,7545,1,0,0:0:0:0:
448,192,7652,1,0,0:0:0:70:hihat_16_2.wav
64,192,7759,1,0,0:0:0:70:k-16-2.wav
320,192,7759,1,0,0:0:0:0:
192,192,7866,1,0,0:0:0:70:hihat_16_2.wav
448,192,7866,1,0,0:0:0:0:
64,192,7973,1,0,0:0:0:70:k-16-2.wav
320,192,7973,1,0,0:0:0:70:s-2.wav
448,192,7973,1,0,0:0:0:0:
64,192,8081,1,0,0:0:0:70:hihat_16_2.wav
192,192,8081,1,0,0:0:0:0:
192,192,8188,1,0,0:0:0:70:k-16-2.wav
320,192,8188,1,0,0:0:0:0:
64,192,8295,1,0,0:0:0:70:hihat_16_2.wav
448,192,8295,1,0,0:0:0:0:
192,192,8402,1,0,0:0:0:70:k-16-2.wav
320,192,8402,1,0,0:0:0:70:s-2.wav
448,192,8402,1,0,0:0:0:0:
320,192,8509,1,0,0:0:0:70:hihat_16_2.wav
192,192,8616,1,0,0:0:0:70:k-16-2.wav
448,192,8616,1,0,0:0:0:0:
192,192,8723,1,0,0:0:0:70:hihat_16_2.wav
64,192,8831,1,0,0:0:0:70:k-16-2.wav
320,192,8831,1,0,0:0:0:70:s-2.wav
448,192,8831,1,0,0:0:0:0:
320,192,8938,1,0,0:0:0:70:hihat_16_2.wav
64,192,9045,128,0,9206:0:0:0:70:k-16-1.wav
448,192,9045,128,0,9313:0:0:0:0:
320,192,9152,1,0,0:0:0:70:hihat_16_1.wav
64,192,9259,128,0,9420:0:0:0:70:k-16-1.wav
192,192,9259,1,0,0:0:0:70:s-1.wav
320,192,9366,1,0,0:0:0:70:hihat_16_1.wav
448,192,9366,128,0,9473:0:0:0:0:
64,192,9473,1,0,0:0:0:70:k-16-1.wav
192,192,9473,1,0,0:0:0:0:
320,192,9581,1,0,0:0:0:70:hihat_16_1.wav
448,192,9581,128,0,9688:0:0:0:0:
192,192,9688,128,0,9795:0:0:0:70:k-16-1.wav
320,192,9688,128,0,9795:0:0:0:70:s-1.wav
64,192,9902,1,0,0:0:0:70:k-16-2.wav
320,192,9902,1,0,0:0:0:70:s-2.wav
448,192,9902,1,0,0:0:0:70:cym_16_4.wav
192,192,9956,1,0,0:0:0:0:
320,192,10009,1,0,0:0:0:0:
64,192,10116,1,0,0:0:0:70:k-16-2.wav
192,192,10116,1,0,0:0:0:70:s-2.wav
448,192,10116,1,0,0:0:0:70:cym_16_4.wav
320,192,10170,1,0,0:0:0:0:
192,192,10223,1,0,0:0:0:0:
64,192,10331,1,0,0:0:0:70:k-16-2.wav
320,192,10331,1,0,0:0:0:70:s-2.wav
448,192,10331,1,0,0:0:0:70:cym_16_8.wav
192,192,10384,1,0,0:0:0:0:
320,192,10438,1,0,0:0:0:0:
448,192,10491,1,0,0:0:0:0:
64,192,10545,1,0,0:0:0:0:
192,192,10598,1,0,0:0:0:0:
320,192,10652,1,0,0:0:0:0:
448,192,10706,1,0,0:0:0:0:
64,192,10759,1,0,0:0:0:70:k-16-2.wav
192,192,10759,1,0,0:0:0:70:cym_16_16.wav
320,192,10759,1,0,0:0:0:0:
192,192,10866,1,0,0:0:0:70:hihat_16_2.wav
64,192,10973,128,0,11081:0:0:0:70:k-16-2.wav
320,192,10973,1,0,0:0:0:70:s-2.wav
448,192,10973,1,0,0:0:0:70:ride_16_4.wav
448,192,11081,1,0,0:0:0:70:hihat_16_2.wav
192,192,11188,128,0,11295:0:0:0:70:k-16-2.wav
320,192,11188,1,0,0:0:0:0:
64,192,11295,1,0,0:0:0:70:hihat_16_2.wav
64,192,11402,1,0,0:0:0:70:k-16-2.wav
192,192,11402,1,0,0:0:0:70:s-2.wav
320,192,11402,128,0,11509:0:0:0:70:ride_16_4.wav
448,192,11509,1,0,0:0:0:70:hihat_16_2.wav
320,192,11616,1,0,0:0:0:70:k-16-2.wav
448,192,11616,128,0,11723:0:0:0:0:
192,192,11723,1,0,0:0:0:70:hihat_16_2.wav
64,192,11831,1,0,0:0:0:70:k-16-2.wav
320,192,11831,128,0,11938:0:0:0:70:s-2.wav
448,192,11831,1,0,0:0:0:70:ride_16_4.wav
192,192,11938,1,0,0:0:0:70:hihat_16_2.wav
64,192,12045,1,0,0:0:0:70:k-16-2.wav
192,192,12045,128,0,12152:0:0:0:0:
320,192,12152,1,0,0:0:0:70:hihat_16_2.wav
64,192,12259,128,0,12366:0:0:0:70:k-16-2.wav
192,192,12259,1,0,0:0:0:70:s-2.wav
448,192,12259,1,0,0:0:0:70:ride_16_4.wav
320,192,12366,128,0,12473:0:0:0:70:hihat_16_2.wav
64,192,12473,1,0,0:0:0:70:k-16-2.wav
192,192,12473,1,0,0:0:0:0:
320,192,12581,128,0,12688:0:0:0:70:hihat_16_2.wav
64,192,12688,128,0,12795:0:0:0:70:k-16-2.wav
192,192,12688,1,0,0:0:0:70:s-2.wav
448,192,12688,1,0,0:0:0:70:ride_16_4.wav
448,192,12795,1,0,0:0:0:70:hihat_16_2.wav
192,192,12902,128,0,13009:0:0:0:70:k-16-2.wav
320,192,12902,1,0,0:0:0:0:
64,192,13009,1,0,0:0:0:70:hihat_16_2.wav
64,192,13116,1,0,0:0:0:70:k-16-2.wav
192,192,13116,1,0,0:0:0:70:s-2.wav
320,192,13116,128,0,13223:0:0:0:70:ride_16_4.wav
448,192,13223,1,0,0:0:0:70:hihat_16_2.wav
320,192,13331,1,0,0:0:0:70:k-16-2.wav
448,192,13331,128,0,13438:0:0:0:0:
192,192,13438,1,0,0:0:0:70:hihat_16_2.wav
64,192,13545,1,0,0:0:0:70:k-16-2.wav
320,192,13545,128,0,13652:0:0:0:70:s-2.wav
448,192,13545,1,0,0:0:0:70:ride_16_4.wav
192,192,13652,1,0,0:0:0:70:hihat_16_2.wav
64,192,13759,1,0,0:0:0:70:k-16-2.wav
192,192,13759,128,0,13866:0:0:0:0:
320,192,13866,1,0,0:0:0:70:hihat_16_2.wav
64,192,13973,128,0,14081:0:0:0:70:k-16-2.wav
192,192,13973,1,0,0:0:0:70:s-2.wav
448,192,13973,1,0,0:0:0:70:ride_16_4.wav
320,192,14081,1,0,0:0:0:70:k-16-2.wav
64,192,14188,1,0,0:0:0:70:glitch_fill1_000.wav
448,192,14188,1,0,0:0:0:0:
320,192,14241,1,0,0:0:0:0:
192,192,14295,1,0,0:0:0:0:
64,192,14348,1,0,0:0:0:0:
320,192,14402,1,0,0:0:0:0:
448,192,14429,1,0,0:0:0:0:
64,192,14456,1,0,0:0:0:0:
192,192,14482,1,0,0:0:0:0:
320,192,14509,1,0,0:0:0:0:
448,192,14536,1,0,0:0:0:0:
64,192,14563,1,0,0:0:0:0:
192,192,14590,1,0,0:0:0:0:
320,192,14616,1,0,0:0:0:0:
448,192,14616,1,0,0:0:0:0:
64,192,14670,1,0,0:0:0:0:
192,192,14670,1,0,0:0:0:0:
320,192,14723,1,0,0:0:0:0:
448,192,14723,1,0,0:0:0:0:
64,192,14831,1,0,0:0:0:0:
192,192,14857,1,0,0:0:0:0:
64,192,14938,1,0,0:0:0:0:
192,192,14965,1,0,0:0:0:0:
448,192,15045,1,0,0:0:0:8:k-16-2.wav
320,192,15098,1,0,0:0:0:13:k-16-2.wav
64,192,15152,1,0,0:0:0:18:k-16-2.wav
192,192,15206,1,0,0:0:0:28:k-16-2.wav
448,192,15259,1,0,0:0:0:33:k-16-2.wav
64,192,15313,1,0,0:0:0:38:k-16-2.wav
320,192,15366,1,0,0:0:0:43:k-16-2.wav
192,192,15420,1,0,0:0:0:48:k-16-2.wav
320,192,15473,1,0,0:0:0:53:k-16-2.wav
448,192,15473,1,0,0:0:0:0:
64,192,15527,1,0,0:0:0:58:k-16-2.wav
192,192,15527,1,0,0:0:0:0:
320,192,15581,1,0,0:0:0:63:k-16-2.wav
448,192,15581,1,0,0:0:0:0:
64,192,15634,1,0,0:0:0:70:k-16-2.wav
192,192,15688,1,0,0:0:0:70:k-d-3.wav
320,192,15688,128,0,15848:0:0:0:70:cym_16_3.wav
448,192,15688,128,0,15848:0:0:0:0:
64,192,15902,1,0,0:0:0:70:k-d-5.wav
192,192,15902,128,0,16170:0:0:0:70:cym_16_5.wav
320,192,15902,1,0,0:0:0:0:
448,192,15902,128,0,16170:0:0:0:0:
192,192,16223,128,0,16491:0:0:0:70:gabba_1.wav
320,192,16223,128,0,16491:0:0:0:70:cym_16_5.wav
64,192,16545,128,0,16813:0:0:0:70:k-d-5.wav
192,192,16545,1,0,0:0:0:70:cym_16_5.wav
320,192,16545,128,0,16813:0:0:0:0:
448,192,16545,1,0,0:0:0:0:
64,192,16866,128,0,17134:0:0:0:70:k-d-5.wav
192,192,16866,128,0,17134:0:0:0:70:cym_16_5.wav
320,192,16866,1,0,0:0:0:0:
448,192,16866,1,0,0:0:0:0:
64,192,17188,1,0,0:0:0:70:duuuun.wav
320,192,17188,128,0,17509:0:0:0:0:
448,192,17188,128,0,17402:0:0:0:0:
192,192,17402,128,0,17616:0:0:0:0:
64,192,17616,1,0,0:0:0:70:k-d-11.wav
448,192,17616,1,0,0:0:0:70:cym_16_16.wav
320,192,17670,1,0,0:0:0:0:
192,192,17723,1,0,0:0:0:0:
448,192,17777,1,0,0:0:0:0:
64,192,17831,1,0,0:0:0:0:
192,192,17884,1,0,0:0:0:0:
320,192,17938,1,0,0:0:0:0:
448,192,17991,1,0,0:0:0:0:
192,192,18045,1,0,0:0:0:0:
320,192,18098,1,0,0:0:0:0:
64,192,18152,1,0,0:0:0:0:
192,192,18206,1,0,0:0:0:0:
448,192,18259,1,0,0:0:0:0:
320,192,18313,1,0,0:0:0:0:
192,192,18366,1,0,0:0:0:0:
64,192,18420,1,0,0:0:0:0:
448,192,18473,1,0,0:0:0:0:
192,192,18527,1,0,0:0:0:0:
320,192,18581,1,0,0:0:0:0:
64,192,18634,1,0,0:0:0:0:
448,192,18688,128,0,18902:0:0:0:0:
192,192,18795,128,0,18902:0:0:0:0:
320,192,18902,128,0,19277:0:0:0:0:
64,192,19116,128,0,19277:0:0:0:0:
64,192,19331,128,0,19491:0:0:0:70:fx1.wav
192,192,19331,128,0,19491:0:0:0:0:
448,192,19331,1,0,0:0:0:0:
320,192,19545,128,0,19706:0:0:0:0:
448,192,19545,128,0,19706:0:0:0:0:
192,192,19759,128,0,19920:0:0:0:0:
320,192,19759,128,0,19920:0:0:0:0:
64,192,19973,128,0,20134:0:0:0:0:
192,192,19973,128,0,20134:0:0:0:0:
320,192,20188,128,0,20348:0:0:0:0:
448,192,20188,128,0,20348:0:0:0:0:
64,192,20402,128,0,20509:0:0:0:0:
448,192,20509,128,0,20616:0:0:0:0:
64,192,20616,128,0,20777:0:0:0:0:
192,192,20616,128,0,20777:0:0:0:0:
448,192,20831,1,0,0:0:0:0:
192,192,20884,1,0,0:0:0:0:
448,192,20938,1,0,0:0:0:0:
192,192,20991,1,0,0:0:0:0:
320,192,21045,128,0,21206:0:0:0:0:
448,192,21045,128,0,21206:0:0:0:0:
64,192,21259,128,0,21420:0:0:0:0:
192,192,21259,128,0,21420:0:0:0:0:
320,192,21473,128,0,21581:0:0:0:0:
448,192,21473,128,0,21741:0:0:0:0:
64,192,21581,128,0,21688:0:0:0:0:
320,192,21688,128,0,21848:0:0:0:0:
64,192,21795,128,0,21956:0:0:0:0:
192,192,21902,128,0,22063:0:0:0:0:
448,192,21902,128,0,22170:0:0:0:0:
320,192,22116,128,0,22277:0:0:0:0:
192,192,22223,128,0,22384:0:0:0:0:
64,192,22331,128,0,22491:0:0:0:0:
448,192,22331,128,0,22438:0:0:0:0:
320,192,22545,128,0,22652:0:0:0:0:
192,192,22652,128,0,22759:0:0:0:0:
320,192,22759,128,0,22920:0:0:0:0:
448,192,22759,128,0,22920:0:0:0:0:
64,192,22973,128,0,23134:0:0:0:0:
192,192,22973,128,0,23134:0:0:0:0:
64,192,23188,128,0,23348:0:0:0:0:
448,192,23188,128,0,23348:0:0:0:0:
192,192,23402,128,0,23509:0:0:0:0:
448,192,23509,128,0,23616:0:0:0:0:
192,192,23616,128,0,23777:0:0:0:0:
320,192,23616,128,0,23777:0:0:0:0:
64,192,23831,128,0,23991:0:0:0:0:
320,192,23831,128,0,23991:0:0:0:0:
64,192,24045,128,0,24206:0:0:0:0:
192,192,24045,128,0,24206:0:0:0:0:
448,192,24259,128,0,24366:0:0:0:0:
192,192,24366,128,0,24473:0:0:0:0:
320,192,24473,128,0,24634:0:0:0:0:
448,192,24473,128,0,24634:0:0:0:0:
64,192,24688,128,0,24848:0:0:0:0:
192,192,24688,128,0,24848:0:0:0:0:
448,192,24902,128,0,25009:0:0:0:0:
192,192,25009,128,0,25116:0:0:0:0:
448,192,25116,128,0,25223:0:0:0:0:
192,192,25223,128,0,25331:0:0:0:0:
320,192,25331,128,0,25491:0:0:0:0:
448,192,25331,128,0,25491:0:0:0:0:
64,192,25545,128,0,25706:0:0:0:0:
192,192,25545,128,0,25706:0:0:0:0:
320,192,25759,128,0,25920:0:0:0:0:
448,192,25759,128,0,25920:0:0:0:0:
192,192,25973,128,0,26081:0:0:0:0:
448,192,25973,128,0,26134:0:0:0:0:
64,192,26188,128,0,26348:0:0:0:0:
320,192,26188,128,0,26348:0:0:0:0:
64,192,26402,128,0,26563:0:0:0:0:
192,192,26402,128,0,26563:0:0:0:0:
320,192,26616,128,0,26777:0:0:0:0:
448,192,26616,128,0,26777:0:0:0:0:
64,192,26831,128,0,26991:0:0:0:0:
192,192,26831,128,0,26991:0:0:0:0:
192,192,27045,128,0,27206:0:0:0:0:
448,192,27045,128,0,27206:0:0:0:0:
320,192,27259,1,0,0:0:0:0:
64,192,27331,1,0,0:0:0:0:
192,192,27402,1,0,0:0:0:0:
320,192,27473,128,0,27634:0:0:0:0:
448,192,27473,128,0,27634:0:0:0:0:
64,192,27688,128,0,27848:0:0:0:0:
192,192,27688,128,0,27848:0:0:0:0:
64,192,27902,128,0,28063:0:0:0:0:
320,192,27902,128,0,28063:0:0:0:0:
192,192,28116,128,0,28277:0:0:0:0:
448,192,28116,128,0,28277:0:0:0:0:
320,192,28331,128,0,28491:0:0:0:0:
448,192,28331,128,0,28491:0:0:0:0:
64,192,28545,128,0,28706:0:0:0:0:
192,192,28545,128,0,28706:0:0:0:0:
448,192,28759,1,0,0:0:0:0:
192,192,28813,1,0,0:0:0:0:
448,192,28866,1,0,0:0:0:0:
192,192,28920,1,0,0:0:0:0:
448,192,28973,128,0,29188:0:0:0:0:
64,192,29188,1,0,0:0:0:0:
320,192,29241,1,0,0:0:0:0:
64,192,29295,1,0,0:0:0:0:
320,192,29348,1,0,0:0:0:0:
64,192,29402,128,0,29616:0:0:0:0:
192,192,29616,1,0,0:0:0:70:k-16-2.wav
320,192,29616,1,0,0:0:0:70:ride_16_3.wav
448,192,29616,1,0,0:0:0:70:cym_16_7.wav
64,192,29831,1,0,0:0:0:70:k-16-1.wav
192,192,29831,1,0,0:0:0:70:ride_16_3.wav
320,192,30045,1,0,0:0:0:70:k-16-1.wav
448,192,30045,1,0,0:0:0:70:ride_16_1.wav
64,192,30152,1,0,0:0:0:70:k-16-1.wav
192,192,30152,1,0,0:0:0:70:ride_16_1.wav
320,192,30259,1,0,0:0:0:70:k-16-2.wav
448,192,30259,1,0,0:0:0:70:ride_16_1.wav
64,192,30366,1,0,0:0:0:70:k-16-2.wav
192,192,30366,1,0,0:0:0:70:ride_16_1.wav
320,192,30473,1,0,0:0:0:70:k-16-1.wav
448,192,30473,1,0,0:0:0:70:ride_16_1.wav
320,192,30581,1,0,0:0:0:70:k-16-1.wav
448,192,30581,1,0,0:0:0:70:ride_16_1.wav
64,192,30688,1,0,0:0:0:70:k-16-2.wav
192,192,30688,1,0,0:0:0:70:ride_16_1.wav
64,192,30795,1,0,0:0:0:70:k-16-1.wav
192,192,30795,1,0,0:0:0:70:s-2.wav
448,192,30795,1,0,0:0:0:70:ride_16_1.wav
320,192,31009,1,0,0:0:0:70:k-16-2.wav
448,192,31009,1,0,0:0:0:0:
64,192,31116,1,0,0:0:0:70:s-2.wav
320,192,31116,1,0,0:0:0:70:ride_16_2.wav
64,192,31331,128,0,31598:0:0:0:70:k-d-5.wav
192,192,31331,128,0,31598:0:0:0:70:cym_16_5.wav
320,192,31331,1,0,0:0:0:0:
448,192,31331,1,0,0:0:0:0:
64,192,31652,128,0,31920:0:0:0:70:k-d-5.wav
192,192,31652,1,0,0:0:0:70:cym_16_5.wav
320,192,31652,128,0,31920:0:0:0:0:
448,192,31652,1,0,0:0:0:0:
64,192,31973,1,0,0:0:0:70:k-d-5.wav
192,192,31973,128,0,32241:0:0:0:70:cym_16_5.wav
320,192,31973,128,0,32241:0:0:0:0:
448,192,31973,1,0,0:0:0:0:
64,192,32295,1,0,0:0:0:70:k-d-5.wav
192,192,32295,128,0,32563:0:0:0:70:cym_16_5.wav
320,192,32295,1,0,0:0:0:0:
448,192,32295,128,0,32563:0:0:0:0:
64,192,32616,1,0,0:0:0:70:k-d-11.wav
192,192,32616,1,0,0:0:0:70:cym_16_11.wav
320,192,32616,128,0,33206:0:0:0:0:
448,192,32616,128,0,33206:0:0:0:0:
64,192,33259,1,0,0:0:0:70:k-d-3.wav
192,192,33259,128,0,33420:0:0:0:70:cym_16_3.wav
320,192,33259,1,0,0:0:0:0:
448,192,33259,128,0,33420:0:0:0:0:
64,192,33473,1,0,0:0:0:70:k-d-3.wav
192,192,33473,128,0,33634:0:0:0:70:cym_16_3.wav
320,192,33473,128,0,33634:0:0:0:0:
448,192,33473,1,0,0:0:0:0:
64,192,33688,128,0,33848:0:0:0:70:k-d-3.wav
192,192,33688,1,0,0:0:0:70:cym_16_3.wav
320,192,33688,128,0,33848:0:0:0:0:
448,192,33688,1,0,0:0:0:0:
64,192,33902,128,0,34170:0:0:0:70:k-d-5.wav
192,192,33902,128,0,34170:0:0:0:70:cym_16_5.wav
320,192,33902,1,0,0:0:0:0:
448,192,33902,1,0,0:0:0:0:
64,192,34223,128,0,34491:0:0:0:70:k-d-5.wav
192,192,34223,1,0,0:0:0:70:cym_16_5.wav
320,192,34223,128,0,34491:0:0:0:0:
448,192,34223,1,0,0:0:0:0:
64,192,34545,1,0,0:0:0:70:k-d-5.wav
192,192,34545,128,0,34813:0:0:0:70:cym_16_5.wav
320,192,34545,128,0,34813:0:0:0:0:
448,192,34545,1,0,0:0:0:0:
64,192,34866,1,0,0:0:0:70:k-d-5.wav
192,192,34866,128,0,35134:0:0:0:70:cym_16_5.wav
320,192,34866,1,0,0:0:0:0:
448,192,34866,128,0,35134:0:0:0:0:
64,192,35188,1,0,0:0:0:70:k-d-11.wav
192,192,35188,1,0,0:0:0:70:cym_16_11.wav
320,192,35188,128,0,35563:0:0:0:0:
448,192,35188,128,0,35563:0:0:0:0:
192,192,35616,1,0,0:0:0:0:
64,192,35670,1,0,0:0:0:0:
448,192,35723,1,0,0:0:0:0:
320,192,35777,1,0,0:0:0:0:
64,192,35831,1,0,0:0:0:0:
192,192,35884,1,0,0:0:0:0:
320,192,35938,1,0,0:0:0:0:
448,192,35991,1,0,0:0:0:0:
64,192,36045,1,0,0:0:0:0:
192,192,36098,1,0,0:0:0:0:
448,192,36152,1,0,0:0:0:0:
320,192,36206,1,0,0:0:0:0:
192,192,36259,1,0,0:0:0:0:
64,192,36313,1,0,0:0:0:0:
448,192,36366,1,0,0:0:0:0:
192,192,36420,1,0,0:0:0:0:
320,192,36473,1,0,0:0:0:0:
64,192,36527,1,0,0:0:0:0:
192,192,36581,1,0,0:0:0:0:
448,192,36634,1,0,0:0:0:0:
64,192,36688,1,0,0:0:0:0:
320,192,36741,1,0,0:0:0:0:
448,192,36795,1,0,0:0:0:0:
64,192,36848,1,0,0:0:0:0:
192,192,36902,128,0,36956:0:0:0:0:
448,192,36956,128,0,37009:0:0:0:0:
192,192,37009,128,0,37063:0:0:0:0:
320,192,37063,128,0,37116:0:0:0:0:
64,192,37116,128,0,37170:0:0:0:0:
320,192,37170,128,0,37223:0:0:0:0:
192,192,37223,128,0,37277:0:0:0:0:
64,192,37331,128,0,37545:0:0:0:70:k-16-2.wav
320,192,37331,1,0,0:0:0:70:ride_16_4.wav
448,192,37331,1,0,0:0:0:70:cym_16_4.wav
192,192,37545,1,0,0:0:0:70:k-16-2.wav
320,192,37545,128,0,37759:0:0:0:70:s-2.wav
448,192,37545,1,0,0:0:0:70:ride_16_4.wav
64,192,37759,1,0,0:0:0:70:k-16-2.wav
192,192,37759,1,0,0:0:0:70:ride_16_4.wav
448,192,37759,1,0,0:0:0:0:
192,192,37866,1,0,0:0:0:70:hihat_16_2.wav
320,192,37866,1,0,0:0:0:0:
64,192,37973,1,0,0:0:0:70:k-16-2.wav
320,192,37973,1,0,0:0:0:70:s-2.wav
448,192,37973,1,0,0:0:0:70:ride_16_4.wav
192,192,38081,1,0,0:0:0:70:hihat_16_2.wav
320,192,38081,1,0,0:0:0:0:
64,192,38188,1,0,0:0:0:70:k-16-2.wav
192,192,38188,1,0,0:0:0:70:ride_16_4.wav
448,192,38188,1,0,0:0:0:70:breaks_kk_16_2.wav
320,192,38295,1,0,0:0:0:70:hihat_16_2.wav
64,192,38348,1,0,0:0:0:70:breaks_kk_16_1.wav
192,192,38348,1,0,0:0:0:0:
320,192,38402,1,0,0:0:0:70:k-16-2.wav
448,192,38402,1,0,0:0:0:70:s-2.wav
64,192,38509,1,0,0:0:0:70:hihat_16_2.wav
192,192,38509,1,0,0:0:0:70:breaks_kk_16_1.wav
192,192,38723,1,0,0:0:0:70:k-16-2.wav
320,192,38723,1,0,0:0:0:70:s-1.wav
448,192,38723,1,0,0:0:0:70:hihat_16_2.wav
64,192,38831,1,0,0:0:0:70:k-16-2.wav
192,192,38831,1,0,0:0:0:70:s-2.wav
448,192,38831,1,0,0:0:0:70:ride_16_4.wav
320,192,38884,1,0,0:0:0:0:
64,192,38938,1,0,0:0:0:70:hihat_16_2.wav
320,192,39045,1,0,0:0:0:70:k-16-1.wav
448,192,39045,1,0,0:0:0:70:s-1.wav
64,192,39098,1,0,0:0:0:70:k-16-1.wav
192,192,39098,1,0,0:0:0:70:s-1.wav
320,192,39152,1,0,0:0:0:70:k-16-1.wav
448,192,39152,1,0,0:0:0:70:s-1.wav
192,192,39206,1,0,0:0:0:0:
64,192,39259,1,0,0:0:0:70:k-16-1.wav
448,192,39259,1,0,0:0:0:70:s-1.wav
320,192,39313,1,0,0:0:0:0:
64,192,39366,1,0,0:0:0:70:k-16-1.wav
192,192,39366,1,0,0:0:0:70:s-1.wav
320,192,39420,1,0,0:0:0:0:
64,192,39473,1,0,0:0:0:70:k-16-2.wav
192,192,39473,1,0,0:0:0:70:breaks_kk_16_2.wav
448,192,39473,1,0,0:0:0:70:cym_16_4.wav
320,192,39581,1,0,0:0:0:70:breaks_kk_16_1.wav
192,192,39634,1,0,0:0:0:70:breaks_kk_16_1.wav
64,192,39688,1,0,0:0:0:70:breaks_sn_16_1.wav
448,192,39688,1,0,0:0:0:0:
320,192,39795,1,0,0:0:0:70:breaks_sn_16_1.wav
64,192,39902,1,0,0:0:0:70:k-16-2.wav
320,192,39902,1,0,0:0:0:70:breaks_sn_16_1.wav
448,192,39902,1,0,0:0:0:70:cym_16_4.wav
192,192,40009,1,0,0:0:0:70:breaks_sn_16_2.wav
320,192,40116,1,0,0:0:0:70:k-16-1.wav
448,192,40116,1,0,0:0:0:70:breaks_snd_16_2.wav
64,192,40223,1,0,0:0:0:70:s-2.wav
192,192,40223,1,0,0:0:0:0:
64,192,40331,1,0,0:0:0:70:k-16-2.wav
320,192,40331,1,0,0:0:0:70:cym_16_7.wav
448,192,40331,128,0,40545:0:0:0:0:
64,192,40545,128,0,40759:0:0:0:0:
192,192,40545,1,0,0:0:0:0:
192,192,40759,1,0,0:0:0:70:k-16-2.wav
320,192,40759,1,0,0:0:0:70:ride_16_4.wav
448,192,40759,1,0,0:0:0:70:cym_16_8.wav
448,192,40866,1,0,0:0:0:70:hihat_16_2.wav
64,192,40973,1,0,0:0:0:70:k-16-2.wav
192,192,40973,1,0,0:0:0:70:s-2.wav
320,192,40973,1,0,0:0:0:70:ride_16_4.wav
192,192,41081,1,0,0:0:0:70:hihat_16_2.wav
320,192,41188,1,0,0:0:0:70:k-16-2.wav
448,192,41188,1,0,0:0:0:70:ride_16_4.wav
64,192,41295,1,0,0:0:0:70:hihat_16_2.wav
320,192,41295,1,0,0:0:0:70:breaks_kk_16_1.wav
64,192,41402,1,0,0:0:0:70:k-16-2.wav
192,192,41402,1,0,0:0:0:70:s-2.wav
448,192,41402,1,0,0:0:0:70:ride_16_4.wav
320,192,41509,1,0,0:0:0:70:hihat_16_2.wav
448,192,41509,1,0,0:0:0:70:breaks_kk_16_2.wav
192,192,41616,1,0,0:0:0:70:k-a-2.wav
320,192,41616,1,0,0:0:0:70:breaks_kk_16_1.wav
192,192,41723,1,0,0:0:0:70:breaks_hh_32_1.wav
64,192,41831,1,0,0:0:0:70:k-a-2.wav
320,192,41831,1,0,0:0:0:70:breaks_sn_16_1.wav
448,192,41831,1,0,0:0:0:0:
64,192,41938,1,0,0:0:0:70:breaks_kk_16_1.wav
192,192,41938,1,0,0:0:0:0:
192,192,42045,1,0,0:0:0:70:k-a-2.wav
320,192,42045,1,0,0:0:0:70:s-2.wav
448,192,42045,1,0,0:0:0:70:ride_16_4.wav
320,192,42152,1,0,0:0:0:70:breaks_sn_16_1.wav
448,192,42152,1,0,0:0:0:0:
64,192,42259,1,0,0:0:0:70:k-a-2.wav
192,192,42259,1,0,0:0:0:70:s-2.wav
448,192,42259,1,0,0:0:0:70:ride_16_4.wav
64,192,42366,1,0,0:0:0:70:k-16-1.wav
192,192,42366,1,0,0:0:0:0:
64,192,42473,1,0,0:0:0:70:k-16-2.wav
448,192,42473,1,0,0:0:0:0:
320,192,42527,1,0,0:0:0:0:
192,192,42581,1,0,0:0:0:70:hihat_16_2.wav
448,192,42634,1,0,0:0:0:0:
64,192,42688,1,0,0:0:0:70:k-16-2.wav
320,192,42688,1,0,0:0:0:70:s-2.wav
192,192,42741,1,0,0:0:0:0:
320,192,42795,1,0,0:0:0:70:hihat_16_2.wav
64,192,42848,1,0,0:0:0:0:
192,192,42902,1,0,0:0:0:70:k-16-1.wav
448,192,42902,1,0,0:0:0:0:
320,192,43009,1,0,0:0:0:70:k-16-1.wav
448,192,43009,1,0,0:0:0:0:
64,192,43116,1,0,0:0:0:70:k-16-1.wav
192,192,43116,1,0,0:0:0:70:s-2.wav
320,192,43116,1,0,0:0:0:0:
64,192,43223,1,0,0:0:0:70:k-16-1.wav
192,192,43223,1,0,0:0:0:0:
192,192,43438,1,0,0:0:0:70:k-d-2.wav
320,192,43438,1,0,0:0:0:70:cym_16_1.wav
448,192,43438,1,0,0:0:0:0:
64,192,43545,1,0,0:0:0:70:k-d-3.wav
320,192,43545,1,0,0:0:0:70:cym_16_3.wav
448,192,43545,128,0,43759:0:0:0:0:
64,192,43759,128,0,43973:0:0:0:70:k-d-3.wav
192,192,43759,1,0,0:0:0:70:cym_16_3.wav
320,192,43759,1,0,0:0:0:0:
192,192,43973,1,0,0:0:0:70:k-d-3.wav
320,192,43973,128,0,44188:0:0:0:70:cym_16_3.wav
448,192,43973,1,0,0:0:0:0:
64,192,44188,1,0,0:0:0:70:k-a-3.wav
192,192,44215,1,0,0:0:0:70:k-a-3.wav
448,192,44241,1,0,0:0:0:70:k-a-3.wav
320,192,44268,1,0,0:0:0:70:k-a-3.wav
64,192,44295,1,0,0:0:0:70:k-a-3.wav
192,192,44322,1,0,0:0:0:70:k-a-3.wav
448,192,44348,1,0,0:0:0:70:k-a-3.wav
320,192,44375,1,0,0:0:0:70:k-a-3.wav
64,192,44402,1,0,0:0:0:70:k-16-2.wav
192,192,44402,1,0,0:0:0:70:s-2.wav
448,192,44509,1,0,0:0:0:70:hihat_16_2.wav
320,192,44616,1,0,0:0:0:70:k-16-2.wav
448,192,44616,1,0,0:0:0:70:ride_16_4.wav
64,192,44670,1,0,0:0:0:0:
320,192,44723,1,0,0:0:0:70:hihat_16_2.wav
64,192,44777,1,0,0:0:0:0:
192,192,44831,1,0,0:0:0:70:k-16-2.wav
320,192,44831,1,0,0:0:0:70:s-2.wav
448,192,44831,1,0,0:0:0:70:ride_16_4.wav
64,192,44938,1,0,0:0:0:70:k-16-2.wav
448,192,44938,1,0,0:0:0:70:hihat_16_2.wav
320,192,44991,1,0,0:0:0:0:
192,192,45045,1,0,0:0:0:70:ride_16_2.wav
320,192,45152,1,0,0:0:0:70:k-16-2.wav
448,192,45152,1,0,0:0:0:70:hihat_16_2.wav
64,192,45259,1,0,0:0:0:70:k-16-2.wav
192,192,45259,1,0,0:0:0:70:s-2.wav
448,192,45259,1,0,0:0:0:70:ride_16_2.wav
320,192,45366,1,0,0:0:0:70:breaks_kk_16_1.wav
64,192,45473,1,0,0:0:0:70:breaks_sc1_16_2.wav
192,192,45473,1,0,0:0:0:70:breaks_kk_16_1.wav
448,192,45473,1,0,0:0:0:0:
64,192,45581,1,0,0:0:0:70:breaks_sc2_16_2.wav
192,192,45688,1,0,0:0:0:70:breaks_sc3_16_2.wav
448,192,45688,128,0,45795:0:0:0:70:breaks_kk_16_1.wav
320,192,45795,1,0,0:0:0:0:
64,192,45902,1,0,0:0:0:70:k-16-2.wav
192,192,45902,1,0,0:0:0:70:s-1.wav
320,192,45956,1,0,0:0:0:70:s-1.wav
448,192,45956,1,0,0:0:0:70:breaks_kk_16_1.wav
64,192,46009,128,0,46116:0:0:0:70:s-2.wav
192,192,46009,128,0,46116:0:0:0:70:breaks_sn_16_2.wav
320,192,46116,1,0,0:0:0:70:k-16-2.wav
448,192,46116,1,0,0:0:0:70:s-1.wav
64,192,46170,1,0,0:0:0:70:s-1.wav
192,192,46170,1,0,0:0:0:70:breaks_kk_16_1.wav
320,192,46223,128,0,46331:0:0:0:70:s-2.wav
448,192,46223,128,0,46331:0:0:0:70:breaks_sn_16_2.wav
64,192,46331,1,0,0:0:0:70:k-16-1.wav
192,192,46331,1,0,0:0:0:70:breaks_sc4_16_2.wav
320,192,46384,1,0,0:0:0:70:k-16-1.wav
448,192,46384,1,0,0:0:0:70:breaks_kk_16_1.wav
64,192,46438,1,0,0:0:0:70:k-16-1.wav
192,192,46438,1,0,0:0:0:70:breaks_sc5_16_2.wav
448,192,46473,1,0,0:0:0:0:
320,192,46509,1,0,0:0:0:0:
64,192,46545,128,0,46652:0:0:0:70:k-16-2.wav
192,192,46545,128,0,46598:0:0:0:70:breaks_sc6_16_2.wav
320,192,46759,1,0,0:0:0:70:s-1.wav
448,192,46759,1,0,0:0:0:70:breaks_kk_16_1.wav
192,192,46813,1,0,0:0:0:70:s-1.wav
64,192,46866,1,0,0:0:0:70:s-1.wav
448,192,46866,1,0,0:0:0:70:breaks_sn_32_1.wav
320,192,46920,1,0,0:0:0:70:s-1.wav
64,192,46973,1,0,0:0:0:70:s-1.wav
192,192,46973,1,0,0:0:0:70:breaks_sn_32_1.wav
320,192,47027,1,0,0:0:0:70:s-1.wav
448,192,47027,1,0,0:0:0:70:breaks_sn_32_1.wav
64,192,47081,1,0,0:0:0:70:s-1.wav
192,192,47081,1,0,0:0:0:70:breaks_sn_32_1.wav
320,192,47134,1,0,0:0:0:70:s-1.wav
64,192,47188,128,0,47295:0:0:0:70:k-16-2.wav
192,192,47188,128,0,47295:0:0:0:70:cym_16_3.wav
448,192,47188,128,0,47402:0:0:0:0:
64,192,47402,128,0,47616:0:0:0:70:k-16-2.wav
192,192,47402,128,0,47509:0:0:0:70:cym_16_3.wav
320,192,47402,128,0,47509:0:0:0:0:
320,192,47616,1,0,0:0:0:70:k-16-2.wav
448,192,47616,1,0,0:0:0:70:ride_16_4.wav
192,192,47670,1,0,0:0:0:0:
448,192,47723,1,0,0:0:0:70:hihat_16_2.wav
320,192,47777,1,0,0:0:0:0:
64,192,47831,1,0,0:0:0:70:k-16-2.wav
192,192,47831,1,0,0:0:0:70:s-2.wav
448,192,47884,1,0,0:0:0:0:
64,192,47938,1,0,0:0:0:70:hihat_16_2.wav
320,192,47991,1,0,0:0:0:0:
192,192,48045,128,0,48098:0:0:0:70:k-16-2.wav
448,192,48045,128,0,48098:0:0:0:70:ride_16_4.wav
192,192,48152,128,0,48206:0:0:0:70:hihat_16_2.wav
448,192,48152,128,0,48206:0:0:0:0:
64,192,48259,128,0,48313:0:0:0:70:k-16-2.wav
320,192,48259,128,0,48313:0:0:0:70:s-2.wav
448,192,48259,1,0,0:0:0:70:ride_16_4.wav
64,192,48366,128,0,48420:0:0:0:70:hihat_16_2.wav
320,192,48366,128,0,48420:0:0:0:0:
64,192,48473,128,0,48581:0:0:0:70:k-16-1.wav
192,192,48473,128,0,48634:0:0:0:70:s-d-1.wav
448,192,48473,128,0,48688:0:0:0:70:ride_16_4.wav
64,192,48795,1,0,0:0:0:70:s-1.wav
192,192,48795,1,0,0:0:0:70:hihat_16_1.wav
64,192,48902,1,0,0:0:0:70:s-1.wav
192,192,48902,1,0,0:0:0:70:ride_16_1.wav
320,192,49009,1,0,0:0:0:70:s-1.wav
448,192,49009,1,0,0:0:0:70:hihat_16_1.wav
64,192,49116,1,0,0:0:0:70:s-2.wav
320,192,49116,1,0,0:0:0:70:ride_16_3.wav
448,192,49116,1,0,0:0:0:70:breaks_sn_16_2.wav
192,192,49331,1,0,0:0:0:70:k-d-1.wav
320,192,49331,1,0,0:0:0:70:breaks_kk_16_1.wav
64,192,49438,1,0,0:0:0:70:k-d-4.wav
192,192,49438,1,0,0:0:0:70:breaks_sn_16_2.wav
448,192,49438,1,0,0:0:0:70:cym_16_3.wav
320,192,49652,1,0,0:0:0:70:k-d-1.wav
448,192,49652,1,0,0:0:0:70:breaks_kk_32_f1.wav
192,192,49706,1,0,0:0:0:0:
64,192,49759,128,0,49866:0:0:0:70:k-d-2.wav
320,192,49759,128,0,49866:0:0:0:70:breaks_sn_16_2.wav
448,192,49759,128,0,49866:0:0:0:70:cym_16_2.wav
64,192,49920,128,0,50027:0:0:0:70:k-d-2.wav
192,192,49920,128,0,50027:0:0:0:70:breaks_sn_16_2.wav
448,192,49920,128,0,50027:0:0:0:70:cym_16_2.wav
192,192,50081,128,0,50134:0:0:0:70:k-d-2.wav
320,192,50081,128,0,50134:0:0:0:70:breaks_snd_16_2.wav
448,192,50081,128,0,50134:0:0:0:70:cym_16_2.wav
64,192,50188,128,0,50402:0:0:0:70:k-d-7.wav
192,192,50188,128,0,50295:0:0:0:70:breaks_kk_16_2.wav
448,192,50188,128,0,50509:0:0:0:70:cym_16_7.wav
320,192,50295,1,0,0:0:0:70:breaks_sn_16_1.wav
192,192,50402,1,0,0:0:0:70:breaks_sn_16_2.wav
64,192,50509,1,0,0:0:0:70:breaks_kk_16_1.wav
64,192,50616,128,0,50938:0:0:0:70:k-d-7.wav
192,192,50616,128,0,50938:0:0:0:70:breaks_sn_16_2.wav
320,192,50616,128,0,50938:0:0:0:70:cym_16_7.wav
64,192,51045,1,0,0:0:0:70:k-16-2.wav
192,192,51045,1,0,0:0:0:70:ride_16_4.wav
448,192,51045,128,0,51259:0:0:0:70:cym_16_4.wav
64,192,51259,1,0,0:0:0:70:k-16-2.wav
192,192,51259,128,0,51473:0:0:0:70:s-2.wav
320,192,51259,1,0,0:0:0:70:ride_16_4.wav
64,192,51473,1,0,0:0:0:70:k-16-2.wav
320,192,51473,1,0,0:0:0:70:ride_16_4.wav
448,192,51473,1,0,0:0:0:0:
192,192,51581,1,0,0:0:0:70:hihat_16_2.wav
320,192,51581,1,0,0:0:0:0:
64,192,51688,1,0,0:0:0:70:k-16-2.wav
192,192,51688,1,0,0:0:0:70:s-2.wav
448,192,51688,1,0,0:0:0:70:ride_16_4.wav
192,192,51795,1,0,0:0:0:70:hihat_16_2.wav
320,192,51795,1,0,0:0:0:0:
64,192,51902,1,0,0:0:0:70:k-16-2.wav
320,192,51902,1,0,0:0:0:70:ride_16_1.wav
448,192,51902,1,0,0:0:0:70:breaks_sn_16_1.wav
192,192,52009,1,0,0:0:0:70:k-16-2.wav
448,192,52009,1,0,0:0:0:70:s-1.wav
64,192,52116,1,0,0:0:0:70:k-16-2.wav
320,192,52116,1,0,0:0:0:70:s-1.wav
64,192,52223,1,0,0:0:0:70:k-16-2.wav
192,192,52223,128,0,52438:0:0:0:70:s-2.wav
448,192,52223,1,0,0:0:0:70:hihat_16_2.wav
64,192,52438,1,0,0:0:0:70:k-16-2.wav
320,192,52438,1,0,0:0:0:70:s-1.wav
448,192,52438,1,0,0:0:0:70:hihat_16_2.wav
192,192,52545,1,0,0:0:0:70:k-16-2.wav
320,192,52545,1,0,0:0:0:70:s-2.wav
448,192,52545,128,0,52759:0:0:0:70:ride_16_4.wav
64,192,52759,1,0,0:0:0:70:k-16-1.wav
192,192,52759,1,0,0:0:0:70:s-1.wav
320,192,52813,1,0,0:0:0:70:k-16-1.wav
448,192,52813,1,0,0:0:0:70:s-1.wav
64,192,52866,1,0,0:0:0:70:k-16-1.wav
192,192,52866,1,0,0:0:0:70:s-1.wav
320,192,52920,1,0,0:0:0:0:
64,192,52973,1,0,0:0:0:70:k-16-1.wav
448,192,52973,1,0,0:0:0:70:s-1.wav
192,192,53027,1,0,0:0:0:0:
320,192,53081,1,0,0:0:0:70:k-16-1.wav
448,192,53081,1,0,0:0:0:70:s-1.wav
192,192,53134,1,0,0:0:0:0:
64,192,53188,1,0,0:0:0:70:k-16-1.wav
320,192,53188,1,0,0:0:0:70:breaks_kk_16_2.wav
448,192,53188,1,0,0:0:0:70:cym_16_4.wav
192,192,53295,1,0,0:0:0:70:breaks_kk_16_1.wav
448,192,53348,1,0,0:0:0:70:hihat_16_2.wav
320,192,53402,1,0,0:0:0:70:breaks_sn_16_1.wav
64,192,53509,1,0,0:0:0:70:k-16-1.wav
192,192,53509,1,0,0:0:0:70:breaks_sn_16_1.wav
64,192,53616,1,0,0:0:0:70:k-16-1.wav
320,192,53616,1,0,0:0:0:70:breaks_sn_16_1.wav
448,192,53616,1,0,0:0:0:70:cym_16_4.wav
192,192,53723,1,0,0:0:0:70:breaks_sn_16_2.wav
320,192,53777,1,0,0:0:0:0:
64,192,53831,1,0,0:0:0:70:k-16-1.wav
448,192,53831,1,0,0:0:0:70:breaks_snd_16_2.wav
192,192,53938,1,0,0:0:0:70:s-2.wav
320,192,53938,1,0,0:0:0:0:
64,192,54045,128,0,54259:0:0:0:70:k-16-2.wav
192,192,54045,1,0,0:0:0:70:cym_16_7.wav
448,192,54045,1,0,0:0:0:0:
320,192,54259,1,0,0:0:0:0:
448,192,54259,128,0,54473:0:0:0:0:
64,192,54473,1,0,0:0:0:70:k-16-2.wav
192,192,54473,1,0,0:0:0:70:cym_16_8.wav
320,192,54473,1,0,0:0:0:0:
320,192,54581,1,0,0:0:0:0:
64,192,54688,1,0,0:0:0:70:s-2.wav
448,192,54688,1,0,0:0:0:70:ride_16_4.wav
192,192,54741,1,0,0:0:0:0:
320,192,54795,1,0,0:0:0:0:
64,192,54848,1,0,0:0:0:0:
192,192,54902,1,0,0:0:0:70:ride_16_4.wav
448,192,54902,128,0,55116:0:0:0:0:
320,192,55009,128,0,55116:0:0:0:0:
64,192,55116,1,0,0:0:0:70:s-2.wav
192,192,55116,1,0,0:0:0:70:ride_16_4.wav
320,192,55223,1,0,0:0:0:70:k-16-2.wav
448,192,55223,1,0,0:0:0:0:
64,192,55331,1,0,0:0:0:70:k-16-1.wav
448,192,55331,1,0,0:0:0:0:
320,192,55384,1,0,0:0:0:0:
192,192,55438,1,0,0:0:0:0:
448,192,55491,1,0,0:0:0:0:
64,192,55545,1,0,0:0:0:70:k-16-1.wav
320,192,55545,1,0,0:0:0:0:
192,192,55652,128,0,55759:0:0:0:0:
64,192,55759,1,0,0:0:0:70:k-16-1.wav
448,192,55759,1,0,0:0:0:70:ride_16_2.wav
320,192,55866,128,0,55973:0:0:0:0:
64,192,55973,1,0,0:0:0:70:k-16-1.wav
192,192,55973,1,0,0:0:0:70:ride_16_2.wav
192,192,56081,1,0,0:0:0:70:k-16-1.wav
448,192,56081,1,0,0:0:0:0:
320,192,56188,1,0,0:0:0:70:k-d-1.wav
448,192,56188,1,0,0:0:0:70:breaks_sn_16_2.wav
64,192,56295,1,0,0:0:0:70:k-d-4.wav
192,192,56295,1,0,0:0:0:70:breaks_kk_16_2.wav
320,192,56295,1,0,0:0:0:70:cym_16_3.wav
320,192,56509,1,0,0:0:0:70:k-d-1.wav
64,192,56509,1,0,0:0:0:70:breaks_sn_16_2.wav
448,192,56616,1,0,0:0:0:70:k-d-2.wav
192,192,56616,1,0,0:0:0:70:s-2.wav
64,192,56616,1,0,0:0:0:70:breaks_kk_16_2.wav
192,192,56831,1,0,0:0:0:70:k-d-1.wav
320,192,56831,1,0,0:0:0:70:breaks_sn_16_2.wav
64,192,56938,1,0,0:0:0:70:k-d-2.wav
320,192,56938,1,0,0:0:0:70:breaks_kk_16_2.wav
448,192,56938,1,0,0:0:0:70:cym_16_3.wav
64,192,57152,1,0,0:0:0:70:k-d-1.wav
192,192,57152,1,0,0:0:0:70:breaks_sn_16_2.wav
448,192,57152,1,0,0:0:0:70:cym_16_1.wav
64,192,57259,1,0,0:0:0:70:k-d-2.wav
192,192,57259,1,0,0:0:0:70:s-2.wav
320,192,57259,128,0,57473:0:0:0:70:breaks_kk_16_2.wav
448,192,57259,1,0,0:0:0:70:cym_16_4.wav
64,192,57473,128,0,57902:0:0:0:70:k-d-7.wav
192,192,57473,1,0,0:0:0:70:breaks_kk_16_2.wav
448,192,57473,1,0,0:0:0:70:cym_16_8.wav
192,192,57902,1,0,0:0:0:70:k-16-2.wav
448,192,57902,1,0,0:0:0:0:
320,192,57956,1,0,0:0:0:0:
192,192,58009,1,0,0:0:0:0:
448,192,58063,1,0,0:0:0:0:
320,192,58116,1,0,0:0:0:0:
64,192,58170,1,0,0:0:0:0:
192,192,58223,1,0,0:0:0:0:
320,192,58277,1,0,0:0:0:0:
64,192,58331,1,0,0:0:0:70:k-16-2.wav
192,192,58331,1,0,0:0:0:70:ride_16_4.wav
448,192,58331,1,0,0:0:0:0:
320,192,58438,1,0,0:0:0:70:k-16-2.wav
448,192,58438,1,0,0:0:0:0:
64,192,58545,1,0,0:0:0:70:k-16-2.wav
192,192,58545,1,0,0:0:0:70:ride_16_4.wav
320,192,58545,1,0,0:0:0:0:
64,192,58652,1,0,0:0:0:70:k-16-2.wav
192,192,58652,1,0,0:0:0:0:
320,192,58759,1,0,0:0:0:70:k-16-2.wav
448,192,58759,1,0,0:0:0:70:ride_16_4.wav
64,192,58866,1,0,0:0:0:70:breaks_sn_16_2.wav
192,192,58973,1,0,0:0:0:70:ride_16_4.wav
448,192,58973,1,0,0:0:0:70:breaks_sn_16_2.wav
320,192,59081,1,0,0:0:0:70:breaks_kk_16_2.wav
64,192,59188,1,0,0:0:0:70:k-16-2.wav
192,192,59188,1,0,0:0:0:70:ride_16_4.wav
448,192,59188,1,0,0:0:0:70:breaks_sn_16_2.wav
192,192,59295,1,0,0:0:0:0:
64,192,59402,1,0,0:0:0:70:k-16-2.wav
320,192,59402,1,0,0:0:0:70:ride_16_4.wav
448,192,59402,1,0,0:0:0:70:breaks_kk_16_2.wav
64,192,59616,1,0,0:0:0:70:k-16-1.wav
192,192,59616,1,0,0:0:0:70:breaks_kk_16_1.wav
448,192,59616,1,0,0:0:0:70:cym_16_1.wav
64,192,59723,1,0,0:0:0:70:k-16-1.wav
192,192,59723,1,0,0:0:0:70:breaks_sn_16_1.wav
64,192,59831,1,0,0:0:0:70:k-16-1.wav
320,192,59831,1,0,0:0:0:70:breaks_kk_16_1.wav
448,192,59831,1,0,0:0:0:70:cym_16_1.wav
320,192,59938,1,0,0:0:0:70:k-16-1.wav
448,192,59938,1,0,0:0:0:70:breaks_sn_16_1.wav
64,192,60045,1,0,0:0:0:70:k-16-2.wav
192,192,60045,1,0,0:0:0:70:cym_16_4.wav
448,192,60098,1,0,0:0:0:0:
192,192,60152,1,0,0:0:0:0:
320,192,60259,1,0,0:0:0:70:k-16-2.wav
448,192,60259,1,0,0:0:0:70:breaks_kk_16_2.wav
64,192,60313,1,0,0:0:0:0:
320,192,60366,1,0,0:0:0:0:
64,192,60473,1,0,0:0:0:70:k-16-1.wav
192,192,60473,1,0,0:0:0:70:breaks_sn_16_2.wav
64,192,60581,1,0,0:0:0:70:k-16-2.wav
320,192,60581,1,0,0:0:0:70:breaks_kk_16_2.wav
448,192,60581,128,0,60795:0:0:0:70:ride_16_3.wav
192,192,60795,1,0,0:0:0:70:k-16-1.wav
320,192,60795,1,0,0:0:0:70:breaks_sn_16_2.wav
64,192,60902,128,0,61116:0:0:0:70:k-16-2.wav
192,192,60902,1,0,0:0:0:70:breaks_kk_16_2.wav
448,192,60902,1,0,0:0:0:70:ride_16_3.wav
192,192,61116,1,0,0:0:0:70:k-16-2.wav
320,192,61116,1,0,0:0:0:70:breaks_kk_16_2.wav
448,192,61116,128,0,61331:0:0:0:70:ride_16_3.wav
64,192,61331,1,0,0:0:0:70:k-16-2.wav
320,192,61331,1,0,0:0:0:70:breaks_kk_16_2.wav
192,192,61384,1,0,0:0:0:0:
320,192,61438,1,0,0:0:0:70:hihat_16_2.wav
64,192,61491,1,0,0:0:0:0:
192,192,61545,1,0,0:0:0:70:k-16-2.wav
448,192,61545,1,0,0:0:0:70:s-2.wav
320,192,61598,1,0,0:0:0:0:
192,192,61652,1,0,0:0:0:70:hihat_16_2.wav
448,192,61706,1,0,0:0:0:0:
64,192,61759,1,0,0:0:0:70:k-16-2.wav
320,192,61759,1,0,0:0:0:70:ride_16_4.wav
64,192,61866,1,0,0:0:0:70:hihat_16_2.wav
192,192,61973,1,0,0:0:0:70:k-16-2.wav
448,192,61973,1,0,0:0:0:70:s-2.wav
320,192,62027,1,0,0:0:0:0:
64,192,62081,1,0,0:0:0:70:hihat_16_2.wav
192,192,62134,1,0,0:0:0:0:
64,192,62188,1,0,0:0:0:70:k-16-2.wav
320,192,62188,1,0,0:0:0:70:ride_16_4.wav
448,192,62188,1,0,0:0:0:0:
192,192,62295,1,0,0:0:0:0:
320,192,62402,1,0,0:0:0:0:
192,192,62509,1,0,0:0:0:70:breaks_sn_16_2.wav
448,192,62509,1,0,0:0:0:0:
64,192,62616,1,0,0:0:0:70:k-16-2.wav
320,192,62616,1,0,0:0:0:70:s-1.wav
448,192,62616,1,0,0:0:0:70:breaks_sn_16_2.wav
64,192,62831,1,0,0:0:0:70:k-16-2.wav
192,192,62831,1,0,0:0:0:70:s-1.wav
448,192,62831,1,0,0:0:0:70:breaks_sn_16_2.wav
192,192,63045,1,0,0:0:0:70:k-d-1.wav
320,192,63045,1,0,0:0:0:70:breaks_sn_16_2.wav
64,192,63152,1,0,0:0:0:70:k-d-4.wav
320,192,63152,1,0,0:0:0:70:breaks_sn_16_2.wav
448,192,63152,1,0,0:0:0:70:cym_16_3.wav
192,192,63366,1,0,0:0:0:70:k-d-1.wav
320,192,63366,1,0,0:0:0:70:breaks_snd_16_2.wav
64,192,63473,128,0,63581:0:0:0:70:k-d-2.wav
192,192,63473,128,0,63581:0:0:0:70:breaks_kk_16_2.wav
448,192,63473,128,0,63581:0:0:0:70:cym_16_2.wav
64,192,63634,128,0,63741:0:0:0:70:k-d-2.wav
320,192,63634,128,0,63741:0:0:0:70:breaks_sn_16_2.wav
448,192,63634,128,0,63741:0:0:0:70:cym_16_2.wav
192,192,63795,128,0,63848:0:0:0:70:k-d-1.wav
320,192,63795,128,0,63848:0:0:0:70:breaks_sn_16_1.wav
448,192,63795,128,0,63848:0:0:0:70:cym_16_1.wav
64,192,63902,128,0,64223:0:0:0:70:k-d-7.wav
192,192,63902,128,0,64223:0:0:0:70:breaks_sn_16_2.wav
448,192,63902,128,0,64223:0:0:0:70:cym_16_7.wav
64,192,64331,128,0,64652:0:0:0:70:k-d-7.wav
192,192,64331,128,0,64652:0:0:0:70:cym_16_7.wav
320,192,64331,128,0,64652:0:0:0:0:
64,192,64759,1,0,0:0:0:70:k-d-4.wav
320,192,64759,1,0,0:0:0:70:breaks_kk_16_2.wav
448,192,64759,1,0,0:0:0:70:cym_16_4.wav
192,192,64813,1,0,0:0:0:0:
320,192,64866,1,0,0:0:0:70:breaks_hh_16_1.wav
448,192,64920,1,0,0:0:0:0:
64,192,64973,1,0,0:0:0:70:breaks_hh_16_1.wav
192,192,65027,1,0,0:0:0:0:
320,192,65081,1,0,0:0:0:70:breaks_kk_16_2.wav
448,192,65134,1,0,0:0:0:0:
320,192,65188,1,0,0:0:0:70:breaks_hh_16_1.wav
192,192,65241,1,0,0:0:0:0:
64,192,65295,1,0,0:0:0:70:breaks_hh_16_1.wav
448,192,65348,1,0,0:0:0:0:
320,192,65402,1,0,0:0:0:70:breaks_kk_16_2.wav
192,192,65456,1,0,0:0:0:0:
64,192,65509,1,0,0:0:0:70:breaks_sn_16_1.wav
448,192,65616,1,0,0:0:0:70:breaks_kk_32_f2.wav
320,192,65643,1,0,0:0:0:0:
64,192,65670,1,0,0:0:0:0:
192,192,65697,1,0,0:0:0:0:
320,192,65723,1,0,0:0:0:0:
64,192,65831,1,0,0:0:0:70:breaks_cy_16_3.wav
448,192,65831,1,0,0:0:0:0:
192,192,65938,1,0,0:0:0:0:
448,192,66045,1,0,0:0:0:70:breaks_sn_32_f3.wav
320,192,66072,1,0,0:0:0:0:
192,192,66098,1,0,0:0:0:0:
64,192,66125,1,0,0:0:0:0:
448,192,66152,1,0,0:0:0:0:
320,192,66179,1,0,0:0:0:0:
192,192,66206,1,0,0:0:0:0:
64,192,66232,1,0,0:0:0:0:
320,192,66259,1,0,0:0:0:70:breaks_cys_16_4.wav
448,192,66259,1,0,0:0:0:0:
192,192,66313,1,0,0:0:0:0:
448,192,66366,1,0,0:0:0:0:
320,192,66420,1,0,0:0:0:0:
64,192,66473,1,0,0:0:0:70:breaks_sn_16_2.wav
192,192,66473,1,0,0:0:0:0:
320,192,66581,1,0,0:0:0:70:breaks_snh1_16_1.wav
64,192,66634,1,0,0:0:0:70:breaks_snh2_16_1.wav
192,192,66688,1,0,0:0:0:70:breaks_snh3_16_1.wav
448,192,66688,1,0,0:0:0:0:
320,192,66795,1,0,0:0:0:70:breaks_snh4_16_2.wav
448,192,66795,1,0,0:0:0:0:
64,192,66902,1,0,0:0:0:70:k-64-1.wav
192,192,66929,1,0,0:0:0:0:
448,192,66956,1,0,0:0:0:0:
320,192,66982,1,0,0:0:0:0:
64,192,67009,1,0,0:0:0:70:k-16-1.wav
192,192,67009,1,0,0:0:0:0:
320,192,67116,1,0,0:0:0:70:k-16-1.wav
448,192,67116,1,0,0:0:0:0:
64,192,67170,1,0,0:0:0:70:k-16-1.wav
192,192,67223,1,0,0:0:0:70:k-16-1.wav
448,192,67223,1,0,0:0:0:0:
192,192,67438,1,0,0:0:0:70:k-d-1.wav
320,192,67438,1,0,0:0:0:70:cym_16_1.wav
64,192,67545,128,0,67652:0:0:0:70:k-d-3.wav
320,192,67545,1,0,0:0:0:70:cym_16_3.wav
448,192,67545,128,0,67866:0:0:0:0:
64,192,67759,1,0,0:0:0:70:k-d-7.wav
192,192,67759,128,0,68081:0:0:0:70:cym_16_7.wav
320,192,67759,128,0,67866:0:0:0:0:
64,192,67973,128,0,68081:0:0:0:0:
320,192,67973,128,0,68081:0:0:0:0:
64,192,68188,1,0,0:0:0:70:k-d-11.wav
192,192,68188,1,0,0:0:0:70:cym_16_16.wav
320,192,68188,128,0,68723:0:0:0:0:
448,192,68188,128,0,68295:0:0:0:0:
448,192,68402,128,0,68509:0:0:0:0:
448,192,68616,128,0,69045:0:0:0:0:
320,192,68831,128,0,69045:0:0:0:0:
64,192,69045,128,0,69313:0:0:0:0:
192,192,69045,128,0,69206:0:0:0:0:
192,192,69259,128,0,69420:0:0:0:0:
64,192,69366,128,0,69634:0:0:0:0:
192,192,69473,128,0,69902:0:0:0:0:
64,192,69688,128,0,69902:0:0:0:0:
320,192,69902,128,0,70009:0:0:0:0:
448,192,69902,128,0,70331:0:0:0:0:
320,192,70116,128,0,70331:0:0:0:0:
64,192,70331,128,0,70491:0:0:0:0:
192,192,70331,128,0,70598:0:0:0:0:
64,192,70545,128,0,70759:0:0:0:0:
192,192,70652,128,0,70759:0:0:0:0:
320,192,70759,128,0,70866:0:0:0:0:
448,192,70759,128,0,70973:0:0:0:0:
320,192,70973,128,0,71188:0:0:0:0:
448,192,71081,128,0,71188:0:0:0:0:
64,192,71188,128,0,71456:0:0:0:0:
192,192,71188,128,0,71348:0:0:0:0:
192,192,71402,128,0,71616:0:0:0:0:
64,192,71509,128,0,71616:0:0:0:0:
320,192,71616,1,0,0:0:0:0:
448,192,71670,1,0,0:0:0:0:
192,192,71723,1,0,0:0:0:0:
320,192,71777,1,0,0:0:0:0:
64,192,71831,128,0,72045:0:0:0:0:
192,192,71831,128,0,71991:0:0:0:0:
320,192,72045,1,0,0:0:0:0:
192,192,72098,1,0,0:0:0:0:
448,192,72152,1,0,0:0:0:0:
320,192,72206,1,0,0:0:0:0:
192,192,72259,128,0,72473:0:0:0:0:
64,192,72366,128,0,72473:0:0:0:0:
320,192,72473,1,0,0:0:0:0:
448,192,72527,1,0,0:0:0:0:
192,192,72581,1,0,0:0:0:0:
320,192,72634,1,0,0:0:0:0:
64,192,72688,128,0,72902:0:0:0:0:
192,192,72902,128,0,73116:0:0:0:0:
320,192,73116,128,0,73223:0:0:0:0:
448,192,73116,128,0,73331:0:0:0:0:
192,192,73223,128,0,73331:0:0:0:0:
64,192,73331,1,0,0:0:0:70:k-16-2.wav
320,192,73331,128,0,73545:0:0:0:0:
64,192,73438,1,0,0:0:0:30:s-1.wav
192,192,73545,128,0,73759:0:0:0:70:k-16-2.wav
448,192,73545,1,0,0:0:0:0:
448,192,73652,1,0,0:0:0:30:s-1.wav
64,192,73759,128,0,73973:0:0:0:70:k-16-2.wav
320,192,73759,1,0,0:0:0:0:
448,192,73866,128,0,73973:0:0:0:30:s-1.wav
192,192,73973,1,0,0:0:0:70:k-16-2.wav
320,192,73973,128,0,74188:0:0:0:0:
64,192,74081,128,0,74188:0:0:0:30:s-1.wav
192,192,74188,1,0,0:0:0:70:k-d-3.wav
448,192,74188,1,0,0:0:0:70:cym_16_3.wav
320,192,74241,1,0,0:0:0:0:
192,192,74295,1,0,0:0:0:30:s-1.wav
64,192,74402,1,0,0:0:0:70:k-d-3.wav
320,192,74402,1,0,0:0:0:70:cym_16_3.wav
448,192,74402,1,0,0:0:0:0:
192,192,74456,1,0,0:0:0:0:
320,192,74509,1,0,0:0:0:30:s-1.wav
64,192,74616,1,0,0:0:0:70:k-d-7.wav
192,192,74616,1,0,0:0:0:70:cym_16_7.wav
448,192,74616,1,0,0:0:0:0:
320,192,74670,1,0,0:0:0:0:
192,192,74723,1,0,0:0:0:0:
64,192,74777,1,0,0:0:0:0:
448,192,74831,1,0,0:0:0:0:
320,192,74884,1,0,0:0:0:0:
192,192,74938,1,0,0:0:0:0:
64,192,74991,1,0,0:0:0:0:
448,192,75045,128,0,75473:0:0:0:0:
320,192,75259,128,0,75688:0:0:0:0:
64,192,75473,128,0,75902:0:0:0:0:
192,192,75688,128,0,76116:0:0:0:0:
320,192,75902,128,0,76116:0:0:0:0:
448,192,76116,128,0,76331:0:0:0:0:
320,192,76188,128,0,76402:0:0:0:0:
192,192,76259,128,0,76473:0:0:0:0:
64,192,76331,128,0,76545:0:0:0:0:
448,192,76545,128,0,76759:0:0:0:0:
64,192,76759,1,0,0:0:0:70:k-d-3.wav
192,192,76759,1,0,0:0:0:70:breaks_kk_16_2.wav
320,192,76759,1,0,0:0:0:70:cym_16_3.wav
320,192,76866,1,0,0:0:0:70:breaks_kk_16_2.wav
64,192,76973,1,0,0:0:0:70:k-d-3.wav
192,192,76973,1,0,0:0:0:70:breaks_sn_16_2.wav
448,192,76973,1,0,0:0:0:70:cym_16_3.wav
192,192,77081,1,0,0:0:0:70:breaks_kk_16_2.wav
64,192,77188,1,0,0:0:0:70:k-d-3.wav
320,192,77188,1,0,0:0:0:70:breaks_sn_16_2.wav
448,192,77188,1,0,0:0:0:70:cym_16_3.wav
64,192,77295,1,0,0:0:0:70:breaks_kk_16_1.wav
192,192,77348,1,0,0:0:0:70:breaks_kk_16_1.wav
320,192,77402,1,0,0:0:0:70:k-d-3.wav
448,192,77402,1,0,0:0:0:70:breaks_sn_16_2.wav
448,192,77509,1,0,0:0:0:70:breaks_kk_16_2.wav
64,192,77616,1,0,0:0:0:70:k-d-7.wav
192,192,77616,1,0,0:0:0:70:breaks_kk_16_2.wav
320,192,77616,1,0,0:0:0:70:cym_16_7.wav
448,192,77723,1,0,0:0:0:70:breaks_sn_16_1.wav
192,192,77777,1,0,0:0:0:70:breaks_sn_16_1.wav
320,192,77831,1,0,0:0:0:70:breaks_sn_16_2.wav
64,192,77938,1,0,0:0:0:70:breaks_kk_16_1.wav
192,192,77938,1,0,0:0:0:0:
64,192,78045,1,0,0:0:0:70:k-d-2.wav
320,192,78045,1,0,0:0:0:70:breaks_sn_16_2.wav
448,192,78045,1,0,0:0:0:70:cym_16_3.wav
448,192,78152,1,0,0:0:0:70:k-16-1.wav
320,192,78206,1,0,0:0:0:70:k-16-1.wav
64,192,78259,1,0,0:0:0:70:k-48-f.wav
192,192,78259,1,0,0:0:0:70:s-1.wav
320,192,78331,1,0,0:0:0:70:k-16-1.wav
448,192,78331,1,0,0:0:0:70:s-1.wav
64,192,78402,1,0,0:0:0:70:k-16-1.wav
192,192,78402,1,0,0:0:0:70:s-1.wav
320,192,78473,128,0,78545:0:0:0:70:k-16-1.wav
448,192,78473,128,0,78616:0:0:0:70:cym_16_2.wav
320,192,78616,1,0,0:0:0:70:s-1.wav
64,192,78688,128,0,78831:0:0:0:70:k-16-1.wav
192,192,78688,128,0,78759:0:0:0:70:cym_16_2.wav
192,192,78831,1,0,0:0:0:70:s-1.wav
320,192,78902,128,0,78973:0:0:0:70:k-16-1.wav
448,192,78902,128,0,79045:0:0:0:70:cym_16_2.wav
320,192,79045,1,0,0:0:0:70:s-1.wav
64,192,79116,128,0,79259:0:0:0:70:k-16-1.wav
192,192,79116,128,0,79188:0:0:0:70:cym_16_2.wav
192,192,79259,1,0,0:0:0:70:s-1.wav
320,192,79331,128,0,79473:0:0:0:70:k-16-1.wav
448,192,79331,128,0,79402:0:0:0:70:cym_16_2.wav
448,192,79473,1,0,0:0:0:70:s-1.wav
64,192,79545,128,0,79616:0:0:0:70:k-16-1.wav
192,192,79545,128,0,79688:0:0:0:70:cym_16_2.wav
64,192,79688,1,0,0:0:0:70:s-1.wav
320,192,79759,128,0,79902:0:0:0:70:k-16-1.wav
448,192,79759,128,0,79831:0:0:0:70:cym_16_2.wav
448,192,79902,1,0,0:0:0:70:s-1.wav
64,192,79973,128,0,80045:0:0:0:70:k-16-1.wav
192,192,79973,128,0,80116:0:0:0:70:cym_16_2.wav
64,192,80116,1,0,0:0:0:70:s-1.wav
320,192,80188,128,0,80331:0:0:0:70:k-d-12-1.wav
448,192,80188,128,0,80295:0:0:0:70:s-12-1.wav
64,192,80402,128,0,80509:0:0:0:70:k-d-12-1.wav
192,192,80402,128,0,80545:0:0:0:70:s-12-1.wav
320,192,80616,128,0,80723:0:0:0:70:k-d-12-1.wav
448,192,80616,128,0,80759:0:0:0:70:s-12-1.wav
64,192,80831,128,0,80973:0:0:0:70:k-d-12-1.wav
192,192,80831,128,0,80938:0:0:0:70:s-12-1.wav
192,192,81045,128,0,81420:0:0:0:70:k-d-8.wav
448,192,81045,128,0,81313:0:0:0:0:
320,192,81206,128,0,81366:0:0:0:0:
64,192,81366,128,0,81473:0:0:0:0:
320,192,81473,1,0,0:0:0:0:
192,192,81527,1,0,0:0:0:0:
320,192,81581,1,0,0:0:0:0:
192,192,81634,1,0,0:0:0:0:
448,192,81688,1,0,0:0:0:0:
64,192,81741,1,0,0:0:0:0:
320,192,81795,1,0,0:0:0:0:
192,192,81848,1,0,0:0:0:0:
64,192,81902,1,0,0:0:0:70:k-d-7.wav
320,192,81902,1,0,0:0:0:70:cym_16_7.wav
448,192,81902,1,0,0:0:0:0:
192,192,82009,1,0,0:0:0:0:
448,192,82009,1,0,0:0:0:0:
64,192,82116,1,0,0:0:0:0:
320,192,82116,1,0,0:0:0:0:
192,192,82223,1,0,0:0:0:0:
320,192,82223,1,0,0:0:0:0:
64,192,82331,1,0,0:0:0:70:k-d-1.wav
192,192,82331,1,0,0:0:0:70:cym_16_1.wav
448,192,82331,1,0,0:0:0:0:
64,192,82438,1,0,0:0:0:70:k-d-1.wav
320,192,82438,1,0,0:0:0:70:cym_16_1.wav
448,192,82438,1,0,0:0:0:0:
192,192,82545,1,0,0:0:0:70:k-d-4.wav
320,192,82545,1,0,0:0:0:70:cym_16_1.wav
448,192,82545,1,0,0:0:0:0:
64,192,82598,1,0,0:0:0:0:
192,192,82652,1,0,0:0:0:0:
320,192,82706,1,0,0:0:0:0:
64,192,82759,128,0,82866:0:0:0:70:k-d-3.wav
192,192,82759,1,0,0:0:0:70:breaks_g1_000.wav
448,192,82759,128,0,82866:0:0:0:70:cym_16_3.wav
320,192,82866,1,0,0:0:0:70:breaks_g1_001.wav
64,192,82973,1,0,0:0:0:70:k-d-1.wav
448,192,82973,1,0,0:0:0:70:breaks_g1_003.wav
64,192,83081,128,0,83188:0:0:0:70:k-d-3.wav
320,192,83081,1,0,0:0:0:70:breaks_g1_004.wav
448,192,83081,128,0,83188:0:0:0:70:cym_16_3.wav
192,192,83188,1,0,0:0:0:0:
192,192,83295,1,0,0:0:0:70:k-d-1.wav
320,192,83295,1,0,0:0:0:70:ride_16_1.wav
64,192,83402,1,0,0:0:0:70:k-48-f2.wav
448,192,83402,1,0,0:0:0:70:ride_16_3.wav
320,192,83456,1,0,0:0:0:0:
192,192,83509,1,0,0:0:0:70:breaks_g1_007.wav
64,192,83563,1,0,0:0:0:0:
448,192,83616,1,0,0:0:0:70:k-d-1.wav
320,192,83643,1,0,0:0:0:70:k-d-1.wav
192,192,83670,1,0,0:0:0:70:k-d-1.wav
64,192,83697,1,0,0:0:0:70:k-d-1.wav
448,192,83723,1,0,0:0:0:70:k-d-1.wav
320,192,83777,1,0,0:0:0:70:breaks_g1_010.wav
64,192,83831,1,0,0:0:0:70:k-d-1.wav
192,192,83831,1,0,0:0:0:70:breaks_g1_009.wav
192,192,83938,1,0,0:0:0:70:k-d-3.wav
320,192,83938,128,0,84045:0:0:0:70:breaks_g1_012.wav
448,192,83938,128,0,84045:0:0:0:70:cym_16_3.wav
64,192,84045,1,0,0:0:0:0:
192,192,84152,1,0,0:0:0:70:k-d-1.wav
320,192,84152,1,0,0:0:0:70:breaks_g1_013.wav
448,192,84206,1,0,0:0:0:0:
64,192,84259,1,0,0:0:0:70:k-d-3.wav
192,192,84259,1,0,0:0:0:70:breaks_g1_014.wav
448,192,84313,1,0,0:0:0:70:breaks_g1_016.wav
320,192,84366,1,0,0:0:0:70:breaks_g1_016.wav
192,192,84420,1,0,0:0:0:70:breaks_g1_016.wav
64,192,84473,128,0,84581:0:0:0:70:k-d-3.wav
320,192,84473,128,0,84581:0:0:0:70:breaks_g1_022.wav
448,192,84473,1,0,0:0:0:70:cym_16_3.wav
192,192,84581,1,0,0:0:0:70:breaks_g1_023.wav
64,192,84688,1,0,0:0:0:70:k-d-3.wav
192,192,84688,128,0,84795:0:0:0:70:breaks_g1_022.wav
448,192,84688,128,0,84795:0:0:0:70:cym_16_3.wav
320,192,84795,1,0,0:0:0:70:breaks_g1_023.wav
64,192,84902,128,0,85009:0:0:0:70:k-d-1.wav
192,192,84902,128,0,85009:0:0:0:70:ride_16_1.wav
448,192,84902,1,0,0:0:0:70:breaks_g1_029.wav
320,192,85009,128,0,85170:0:0:0:70:k-d-3.wav
448,192,85009,128,0,85170:0:0:0:70:breaks_g1_004.wav
64,192,85223,1,0,0:0:0:70:k-d-1.wav
192,192,85277,1,0,0:0:0:70:breaks_g1_030.wav
64,192,85331,128,0,85652:0:0:0:70:k-d-7.wav
320,192,85331,1,0,0:0:0:70:breaks_g1_031.wav
448,192,85331,1,0,0:0:0:70:cym_16_7.wav
320,192,85438,128,0,85652:0:0:0:70:breaks_g1_032.wav
448,192,85491,1,0,0:0:0:70:breaks_g1_033.wav
192,192,85598,1,0,0:0:0:70:breaks_g1_035.wav
448,192,85652,1,0,0:0:0:70:breaks_g1_036.wav
64,192,85759,1,0,0:0:0:70:k-d-7.wav
192,192,85759,1,0,0:0:0:70:breaks_g1_031.wav
448,192,85759,128,0,86081:0:0:0:70:cym_16_7.wav
192,192,85866,128,0,86081:0:0:0:70:breaks_g1_038.wav
64,192,85920,1,0,0:0:0:70:breaks_g1_039.wav
192,192,86188,1,0,0:0:0:70:k-d-3.wav
320,192,86188,128,0,86295:0:0:0:70:breaks_g1_000.wav
448,192,86188,128,0,86295:0:0:0:70:cym_16_3.wav
64,192,86295,1,0,0:0:0:70:breaks_g1_001.wav
192,192,86402,1,0,0:0:0:70:k-d-1.wav
320,192,86402,1,0,0:0:0:70:breaks_g1_003.wav
64,192,86509,128,0,86616:0:0:0:70:k-d-3.wav
192,192,86509,128,0,86616:0:0:0:70:breaks_g1_045.wav
448,192,86509,1,0,0:0:0:70:cym_16_3.wav
320,192,86616,1,0,0:0:0:0:
192,192,86723,1,0,0:0:0:70:k-d-1.wav
320,192,86723,1,0,0:0:0:70:ride_16_1.wav
64,192,86831,1,0,0:0:0:70:k-48-f2.wav
448,192,86831,1,0,0:0:0:70:ride_16_3.wav
320,192,86884,1,0,0:0:0:0:
192,192,86938,1,0,0:0:0:70:breaks_g1_048.wav
64,192,86991,1,0,0:0:0:0:
448,192,87045,1,0,0:0:0:70:k-d-1.wav
320,192,87072,1,0,0:0:0:70:k-d-1.wav
192,192,87098,1,0,0:0:0:70:k-d-1.wav
64,192,87125,1,0,0:0:0:70:k-d-1.wav
448,192,87152,1,0,0:0:0:70:k-d-1.wav
320,192,87206,1,0,0:0:0:70:breaks_g1_051.wav
64,192,87259,1,0,0:0:0:70:k-d-1.wav
192,192,87259,1,0,0:0:0:70:breaks_g1_052.wav
64,192,87366,1,0,0:0:0:70:k-d-3.wav
320,192,87366,128,0,87473:0:0:0:70:breaks_g1_004.wav
448,192,87366,128,0,87473:0:0:0:70:cym_16_3.wav
192,192,87473,1,0,0:0:0:0:
320,192,87581,1,0,0:0:0:70:k-d-1.wav
448,192,87581,1,0,0:0:0:70:breaks_g1_054.wav
64,192,87688,1,0,0:0:0:70:k-64-f2.wav
192,192,87715,1,0,0:0:0:0:
320,192,87741,1,0,0:0:0:0:
448,192,87768,1,0,0:0:0:0:
64,192,87795,1,0,0:0:0:70:breaks_g1_056.wav
192,192,87822,1,0,0:0:0:0:
320,192,87848,1,0,0:0:0:0:
64,192,87902,128,0,88009:0:0:0:70:k-d-3.wav
192,192,87902,128,0,88009:0:0:0:70:breaks_g1_022.wav
448,192,87902,1,0,0:0:0:70:cym_16_3.wav
320,192,88009,1,0,0:0:0:70:breaks_g1_023.wav
64,192,88116,1,0,0:0:0:70:k-d-3.wav
320,192,88116,128,0,88223:0:0:0:70:breaks_g1_022.wav
448,192,88116,128,0,88223:0:0:0:70:cym_16_3.wav
192,192,88223,1,0,0:0:0:70:breaks_g1_023.wav
64,192,88331,128,0,88438:0:0:0:70:k-d-1.wav
192,192,88331,128,0,88438:0:0:0:70:breaks_g1_029.wav
320,192,88331,1,0,0:0:0:0:
320,192,88438,128,0,88598:0:0:0:70:k-d-3.wav
448,192,88438,128,0,88598:0:0:0:70:breaks_g1_062.wav
64,192,88652,1,0,0:0:0:70:k-d-1.wav
192,192,88652,1,0,0:0:0:70:breaks_g1_063.wav
64,192,88759,128,0,89081:0:0:0:70:k-d-7.wav
320,192,88759,1,0,0:0:0:70:breaks_g1_031.wav
448,192,88759,1,0,0:0:0:70:cym_16_7.wav
320,192,88866,128,0,89081:0:0:0:70:breaks_g1_032.wav
448,192,88920,1,0,0:0:0:70:breaks_g1_033.wav
192,192,89027,1,0,0:0:0:0:
448,192,89081,1,0,0:0:0:70:breaks_g1_036.wav
64,192,89188,1,0,0:0:0:70:k-d-7.wav
192,192,89188,1,0,0:0:0:70:breaks_g1_031.wav
448,192,89188,128,0,89509:0:0:0:70:cym_16_7.wav
192,192,89295,128,0,89509:0:0:0:70:breaks_g1_038.wav
64,192,89348,1,0,0:0:0:70:breaks_g1_039.wav
64,192,89616,128,0,89723:0:0:0:70:k-d-3.wav
192,192,89616,128,0,89723:0:0:0:70:breaks_g1_000.wav
448,192,89616,1,0,0:0:0:70:cym_16_3.wav
320,192,89723,1,0,0:0:0:70:breaks_g1_001.wav
64,192,89831,1,0,0:0:0:70:k-d-1.wav
448,192,89831,1,0,0:0:0:70:breaks_g1_003.wav
192,192,89938,1,0,0:0:0:70:k-d-3.wav
320,192,89938,128,0,90045:0:0:0:70:breaks_g1_004.wav
448,192,89938,128,0,90045:0:0:0:70:cym_16_3.wav
64,192,90045,1,0,0:0:0:0:
192,192,90152,1,0,0:0:0:70:k-d-1.wav
320,192,90152,1,0,0:0:0:70:ride_16_1.wav
64,192,90259,1,0,0:0:0:70:k-48-f2.wav
448,192,90259,1,0,0:0:0:70:ride_16_3.wav
320,192,90313,1,0,0:0:0:0:
192,192,90366,1,0,0:0:0:70:breaks_g1_007.wav
448,192,90420,1,0,0:0:0:0:
64,192,90473,1,0,0:0:0:70:k-d-1.wav
192,192,90500,1,0,0:0:0:70:k-d-1.wav
320,192,90527,1,0,0:0:0:70:k-d-1.wav
448,192,90554,1,0,0:0:0:70:k-d-1.wav
64,192,90581,1,0,0:0:0:70:k-d-1.wav
192,192,90634,1,0,0:0:0:70:breaks_g1_010.wav
320,192,90688,1,0,0:0:0:70:k-d-1.wav
448,192,90688,1,0,0:0:0:70:breaks_g1_009.wav
192,192,90795,1,0,0:0:0:70:k-d-3.wav
320,192,90795,128,0,90902:0:0:0:70:breaks_g1_012.wav
448,192,90795,128,0,90902:0:0:0:70:cym_16_3.wav
64,192,90902,1,0,0:0:0:0:
192,192,91009,1,0,0:0:0:70:k-d-1.wav
320,192,91009,1,0,0:0:0:70:breaks_g1_013.wav
64,192,91063,1,0,0:0:0:0:
320,192,91116,1,0,0:0:0:70:k-d-3.wav
448,192,91116,1,0,0:0:0:70:breaks_g1_014.wav
64,192,91170,1,0,0:0:0:70:breaks_g1_016.wav
192,192,91223,1,0,0:0:0:70:breaks_g1_016.wav
320,192,91277,1,0,0:0:0:70:breaks_g1_016.wav
64,192,91331,1,0,0:0:0:70:k-d-3.wav
192,192,91331,128,0,91438:0:0:0:70:breaks_g1_022.wav
448,192,91331,128,0,91438:0:0:0:70:cym_16_3.wav
320,192,91438,1,0,0:0:0:70:breaks_g1_023.wav
64,192,91545,128,0,91652:0:0:0:70:k-d-3.wav
192,192,91545,1,0,0:0:0:70:breaks_g1_022.wav
448,192,91545,128,0,91652:0:0:0:70:cym_16_3.wav
320,192,91652,1,0,0:0:0:70:breaks_g1_023.wav
64,192,91759,128,0,91866:0:0:0:70:k-d-1.wav
192,192,91759,1,0,0:0:0:70:ride_16_1.wav
320,192,91759,128,0,91866:0:0:0:70:breaks_g1_029.wav
192,192,91866,128,0,92027:0:0:0:70:k-d-3.wav
448,192,91866,128,0,92027:0:0:0:70:breaks_g1_004.wav
64,192,92081,1,0,0:0:0:70:k-d-1.wav
320,192,92081,1,0,0:0:0:70:ride_16_1.wav
64,192,92188,128,0,92509:0:0:0:70:k-d-7.wav
192,192,92188,1,0,0:0:0:70:breaks_g1_031.wav
448,192,92188,1,0,0:0:0:70:cym_16_7.wav
320,192,92295,128,0,92509:0:0:0:70:breaks_g1_032.wav
448,192,92348,1,0,0:0:0:70:breaks_g1_033.wav
192,192,92456,1,0,0:0:0:70:breaks_g1_035.wav
448,192,92509,1,0,0:0:0:70:breaks_g1_036.wav
64,192,92616,1,0,0:0:0:70:k-d-7.wav
192,192,92616,1,0,0:0:0:70:breaks_g1_031.wav
448,192,92616,128,0,92938:0:0:0:70:cym_16_7.wav
192,192,92723,128,0,92938:0:0:0:70:breaks_g1_038.wav
64,192,92777,1,0,0:0:0:70:breaks_g1_039.wav
192,192,93045,128,0,93152:0:0:0:70:k-d-3.wav
320,192,93045,1,0,0:0:0:70:breaks_g1_000.wav
448,192,93045,128,0,93152:0:0:0:70:cym_16_3.wav
64,192,93152,1,0,0:0:0:70:breaks_g1_001.wav
320,192,93259,1,0,0:0:0:70:k-d-1.wav
448,192,93259,1,0,0:0:0:70:breaks_g1_003.wav
64,192,93366,128,0,93473:0:0:0:70:k-d-3.wav
192,192,93366,1,0,0:0:0:70:breaks_g1_045.wav
320,192,93366,128,0,93473:0:0:0:70:cym_16_3.wav
448,192,93473,1,0,0:0:0:0:
192,192,93581,1,0,0:0:0:70:k-d-1.wav
320,192,93581,1,0,0:0:0:70:ride_16_1.wav
64,192,93688,1,0,0:0:0:70:k-48-f2.wav
448,192,93688,1,0,0:0:0:70:ride_16_3.wav
320,192,93741,1,0,0:0:0:0:
192,192,93795,1,0,0:0:0:70:breaks_g1_048.wav
64,192,93848,1,0,0:0:0:0:
448,192,93902,1,0,0:0:0:70:k-d-1.wav
320,192,93929,1,0,0:0:0:70:k-d-1.wav
192,192,93956,1,0,0:0:0:70:k-d-1.wav
64,192,93982,1,0,0:0:0:70:k-d-1.wav
448,192,94009,1,0,0:0:0:70:k-d-1.wav
320,192,94063,1,0,0:0:0:70:breaks_g1_051.wav
64,192,94116,1,0,0:0:0:70:k-d-1.wav
192,192,94116,1,0,0:0:0:70:breaks_g1_052.wav
64,192,94223,128,0,94331:0:0:0:70:k-d-3.wav
320,192,94223,1,0,0:0:0:70:breaks_g1_004.wav
448,192,94223,128,0,94331:0:0:0:70:cym_16_3.wav
192,192,94331,1,0,0:0:0:0:
64,192,94438,1,0,0:0:0:70:k-d-1.wav
320,192,94438,1,0,0:0:0:70:breaks_g1_054.wav
448,192,94545,1,0,0:0:0:70:k-64-f2.wav
320,192,94572,1,0,0:0:0:0:
192,192,94598,1,0,0:0:0:0:
64,192,94625,1,0,0:0:0:0:
448,192,94652,1,0,0:0:0:70:breaks_g1_056.wav
320,192,94679,1,0,0:0:0:0:
64,192,94759,128,0,94866:0:0:0:70:k-d-3.wav
192,192,94759,1,0,0:0:0:70:breaks_g1_022.wav
448,192,94759,128,0,94866:0:0:0:70:cym_16_3.wav
320,192,94866,1,0,0:0:0:70:breaks_g1_023.wav
64,192,94973,128,0,95081:0:0:0:70:k-d-3.wav
192,192,94973,128,0,95081:0:0:0:70:breaks_g1_022.wav
448,192,94973,1,0,0:0:0:70:cym_16_3.wav
320,192,95081,1,0,0:0:0:70:breaks_g1_023.wav
64,192,95188,1,0,0:0:0:70:k-d-1.wav
320,192,95188,128,0,95295:0:0:0:70:breaks_g1_029.wav
448,192,95188,128,0,95295:0:0:0:0:
64,192,95295,128,0,95456:0:0:0:70:k-d-3.wav
192,192,95295,128,0,95456:0:0:0:70:breaks_g1_062.wav
320,192,95509,1,0,0:0:0:70:k-d-1.wav
448,192,95509,1,0,0:0:0:70:breaks_g1_063.wav
64,192,95616,1,0,0:0:0:70:k-d-8.wav
448,192,95616,128,0,95723:0:0:0:70:cym_16_8.wav
320,192,95670,128,0,95777:0:0:0:0:
192,192,95723,128,0,95831:0:0:0:0:
64,192,95777,128,0,98777:0:0:0:0:
448,192,95831,128,0,96259:0:0:0:0:
192,192,96259,128,0,97331:0:0:0:0:
448,192,96902,128,0,98616:0:0:0:0:
320,192,97331,128,0,98670:0:0:0:0:
192,192,97866,128,0,98723:0:0:0:0:
448,192,98723,128,0,98831:0:0:0:0:
320,192,98777,128,0,98884:0:0:0:0:
192,192,98831,128,0,98938:0:0:0:0:
64,192,98884,128,0,98991:0:0:0:0:
448,192,98938,128,0,99045:0:0:0:0:
320,192,98991,128,0,99098:0:0:0:0:
192,192,99045,128,0,99152:0:0:0:0:
64,192,99098,128,0,99206:0:0:0:0:
448,192,99152,128,0,99259:0:0:0:0:
320,192,99206,128,0,99313:0:0:0:0:
192,192,99259,128,0,99313:0:0:0:0:
64,192,99313,128,0,99420:0:0:0:0:
192,192,99366,128,0,99473:0:0:0:0:
320,192,99420,128,0,99527:0:0:0:0:
448,192,99473,128,0,99581:0:0:0:0:
64,192,99527,128,0,99634:0:0:0:0:
192,192,99581,128,0,99634:0:0:0:0:
448,192,99634,128,0,99741:0:0:0:0:
320,192,99688,128,0,99795:0:0:0:0:
192,192,99741,128,0,99848:0:0:0:0:
64,192,99795,128,0,99902:0:0:0:0:
448,192,99848,128,0,99902:0:0:0:0:
320,192,99902,128,0,100009:0:0:0:70:bi.wav
64,192,100116,1,0,0:0:0:70:march_snare_1.wav
192,192,100116,1,0,0:0:0:0:
320,192,100223,1,0,0:0:0:70:march_snare_1.wav
192,192,100331,1,0,0:0:0:70:march_snare_1.wav
448,192,100331,1,0,0:0:0:0:
64,192,100545,1,0,0:0:0:70:march_snare_1.wav
320,192,100545,1,0,0:0:0:0:
64,192,100759,1,0,0:0:0:70:march_cow_1.wav
192,192,100759,1,0,0:0:0:70:march_snare_2.wav
448,192,100759,1,0,0:0:0:70:march_tin_1.wav
64,192,100973,1,0,0:0:0:70:march_snare_3.wav
192,192,100973,128,0,101188:0:0:0:0:
320,192,101188,1,0,0:0:0:70:march_cow_1.wav
448,192,101188,128,0,101402:0:0:0:70:march_snare_2.wav
192,192,101402,1,0,0:0:0:70:march_snare_3.wav
64,192,101616,1,0,0:0:0:70:march_cow_1.wav
320,192,101616,1,0,0:0:0:70:march_snare_2.wav
448,192,101616,1,0,0:0:0:70:march_tin_1.wav
448,192,101831,1,0,0:0:0:70:march_snare_3.wav
192,192,101938,1,0,0:0:0:70:march_snare_4.wav
320,192,102045,128,0,102259:0:0:0:70:march_cow_1.wav
448,192,102045,1,0,0:0:0:70:march_snare_2.wav
64,192,102259,128,0,102473:0:0:0:0:
192,192,102259,1,0,0:0:0:0:
192,192,102473,1,0,0:0:0:70:k-16-2.wav
320,192,102473,1,0,0:0:0:0:
448,192,102473,1,0,0:0:0:0:
192,192,102581,1,0,0:0:0:70:hihat_16_2.wav
64,192,102688,1,0,0:0:0:70:k-16-2.wav
320,192,102688,1,0,0:0:0:70:s-2.wav
448,192,102688,1,0,0:0:0:0:
64,192,102795,1,0,0:0:0:70:hihat_16_2.wav
192,192,102795,1,0,0:0:0:0:
320,192,102902,1,0,0:0:0:70:k-16-2.wav
448,192,102902,1,0,0:0:0:0:
320,192,103009,1,0,0:0:0:70:hihat_16_2.wav
64,192,103116,1,0,0:0:0:70:k-16-2.wav
192,192,103116,1,0,0:0:0:70:s-2.wav
448,192,103116,1,0,0:0:0:0:
64,192,103223,1,0,0:0:0:70:hihat_16_2.wav
320,192,103223,1,0,0:0:0:0:
192,192,103331,1,0,0:0:0:70:k-16-2.wav
448,192,103331,1,0,0:0:0:0:
320,192,103438,1,0,0:0:0:70:hihat_16_2.wav
192,192,103491,1,0,0:0:0:0:
64,192,103545,1,0,0:0:0:70:k-16-2.wav
320,192,103545,1,0,0:0:0:70:s-2.wav
448,192,103545,1,0,0:0:0:0:
192,192,103652,1,0,0:0:0:70:hihat_16_2.wav
448,192,103652,1,0,0:0:0:0:
64,192,103759,1,0,0:0:0:70:k-16-2.wav
320,192,103759,1,0,0:0:0:0:
320,192,103866,1,0,0:0:0:70:hihat_16_2.wav
64,192,103973,1,0,0:0:0:70:k-16-2.wav
192,192,103973,1,0,0:0:0:70:s-2.wav
448,192,103973,1,0,0:0:0:0:
192,192,104081,1,0,0:0:0:70:hihat_16_2.wav
320,192,104081,1,0,0:0:0:0:
64,192,104188,1,0,0:0:0:70:k-MereFancy.wav
320,192,104188,128,0,104402:0:0:0:0:
448,192,104188,1,0,0:0:0:0:
64,192,104402,128,0,104616:0:0:0:70:ridesp.wav
192,192,104509,1,0,0:0:0:70:k-MereFancy.wav
192,192,104616,1,0,0:0:0:70:s-MereFancy.wav
320,192,104616,1,0,0:0:0:0:
448,192,104616,128,0,104831:0:0:0:0:
192,192,104831,128,0,104938:0:0:0:70:k-MereFancy.wav
320,192,104831,1,0,0:0:0:70:ridesp.wav
64,192,104938,128,0,105045:0:0:0:0:
448,192,105045,128,0,105259:0:0:0:0:
192,192,105152,1,0,0:0:0:70:k-MereFancy.wav
320,192,105152,1,0,0:0:0:70:ridesp.wav
64,192,105259,1,0,0:0:0:70:k-MereFancy.wav
320,192,105259,128,0,105473:0:0:0:70:ridesp.wav
64,192,105473,1,0,0:0:0:70:s-MereFancy.wav
192,192,105473,128,0,105688:0:0:0:0:
448,192,105473,1,0,0:0:0:0:
64,192,105688,1,0,0:0:0:70:k-MereFancy.wav
320,192,105688,128,0,105795:0:0:0:70:ridesp.wav
448,192,105795,128,0,105902:0:0:0:0:
64,192,105902,128,0,106223:0:0:0:70:k2-Lyrith.wav
192,192,105902,1,0,0:0:0:70:cym_16_8.wav
320,192,105902,1,0,0:0:0:0:
320,192,106116,1,0,0:0:0:70:k2-Lyrith.wav
448,192,106116,1,0,0:0:0:70:hihatsp.wav
192,192,106223,1,0,0:0:0:70:s-Lyrith.wav
320,192,106223,128,0,106384:0:0:0:70:ridesp.wav
448,192,106223,128,0,106759:0:0:0:0:
64,192,106545,1,0,0:0:0:70:k2-Lyrith.wav
320,192,106545,1,0,0:0:0:70:ridesp.wav
192,192,106652,1,0,0:0:0:70:hihatsp.wav
64,192,106759,1,0,0:0:0:70:k1-Lyrith.wav
320,192,106759,1,0,0:0:0:70:cym_16_8.wav
64,192,106866,1,0,0:0:0:70:k2-Lyrith.wav
320,192,106866,1,0,0:0:0:70:cym_16_8.wav
448,192,106866,1,0,0:0:0:0:
64,192,107081,1,0,0:0:0:70:k2-Lyrith.wav
320,192,107081,1,0,0:0:0:70:cym_16_5.wav
448,192,107081,1,0,0:0:0:0:
192,192,107188,128,0,107616:0:0:0:0:
64,192,107402,1,0,0:0:0:70:k2-Lyrith.wav
320,192,107402,1,0,0:0:0:70:cym_16_4.wav
448,192,107402,1,0,0:0:0:0:
64,192,107616,1,0,0:0:0:70:k-Calamity.wav
320,192,107616,1,0,0:0:0:70:cym_16_16.wav
448,192,107616,1,0,0:0:0:0:
320,192,107723,1,0,0:0:0:70:ridesp.wav
64,192,107831,1,0,0:0:0:70:k-Calamity.wav
192,192,107831,1,0,0:0:0:70:s8-Calamity.wav
448,192,107831,1,0,0:0:0:0:
192,192,107938,1,0,0:0:0:70:ridesp.wav
448,192,107938,1,0,0:0:0:0:
64,192,108045,1,0,0:0:0:70:k-Calamity.wav
320,192,108045,1,0,0:0:0:0:
64,192,108152,1,0,0:0:0:70:ridesp.wav
192,192,108259,1,0,0:0:0:70:k-Calamity.wav
320,192,108259,1,0,0:0:0:70:s8-Calamity.wav
448,192,108259,1,0,0:0:0:0:
320,192,108366,1,0,0:0:0:70:ridesp.wav
64,192,108473,1,0,0:0:0:70:k-Calamity.wav
448,192,108473,1,0,0:0:0:0:
192,192,108581,1,0,0:0:0:70:ridesp.wav
64,192,108688,1,0,0:0:0:70:k-Calamity.wav
192,192,108688,1,0,0:0:0:70:s8-Calamity.wav
448,192,108688,1,0,0:0:0:0:
320,192,108759,1,0,0:0:0:0:
192,192,108831,1,0,0:0:0:0:
64,192,108902,1,0,0:0:0:70:k-Calamity.wav
448,192,108902,1,0,0:0:0:0:
320,192,109009,1,0,0:0:0:70:ridesp.wav
64,192,109116,1,0,0:0:0:70:k-Calamity.wav
192,192,109116,1,0,0:0:0:70:s4-Calamity.wav
448,192,109116,1,0,0:0:0:0:
192,192,109223,1,0,0:0:0:70:ridesp.wav
320,192,109331,1,0,0:0:0:70:k-Wizdomiot.wav
448,192,109331,128,0,109438:0:0:0:0:
192,192,109438,1,0,0:0:0:70:hihatsp.wav
64,192,109545,1,0,0:0:0:70:k-Wizdomiot.wav
320,192,109545,1,0,0:0:0:70:hihatsp.wav
448,192,109616,1,0,0:0:0:0:
192,192,109759,1,0,0:0:0:70:s-Wizdomiot.wav
320,192,109759,1,0,0:0:0:0:
448,192,109759,1,0,0:0:0:0:
64,192,109831,1,0,0:0:0:0:
192,192,109902,1,0,0:0:0:0:
320,192,109973,1,0,0:0:0:70:k-Wizdomiot.wav
448,192,109973,128,0,110081:0:0:0:0:
64,192,110081,1,0,0:0:0:70:hihatsp.wav
192,192,110188,128,0,110295:0:0:0:70:hihatsp.wav
320,192,110188,1,0,0:0:0:0:
448,192,110295,1,0,0:0:0:70:hihatsp.wav
192,192,110402,1,0,0:0:0:70:hihatsp.wav
448,192,110473,1,0,0:0:0:0:
320,192,110545,1,0,0:0:0:0:
64,192,110616,128,0,110723:0:0:0:70:s-Wizdomiot.wav
192,192,110616,1,0,0:0:0:0:
320,192,110723,1,0,0:0:0:70:hihatsp.wav
64,192,110831,1,0,0:0:0:70:k-Wizdomiot.wav
448,192,110831,1,0,0:0:0:0:
192,192,110884,1,0,0:0:0:0:
320,192,110938,1,0,0:0:0:70:hihatsp.wav
448,192,110991,1,0,0:0:0:70:hihatsp.wav
64,192,111045,1,0,0:0:0:70:k-16-2.wav
192,192,111045,128,0,111259:0:0:0:70:ridesp.wav
320,192,111045,1,0,0:0:0:70:cym_16_16.wav
320,192,111259,1,0,0:0:0:70:ridesp.wav
448,192,111259,128,0,111366:0:0:0:0:
64,192,111473,1,0,0:0:0:70:s-Alice.wav
192,192,111473,1,0,0:0:0:70:ridesp.wav
448,192,111473,128,0,111688:0:0:0:0:
64,192,111688,128,0,111795:0:0:0:70:ridesp.wav
320,192,111688,1,0,0:0:0:0:
192,192,111902,128,0,112116:0:0:0:70:k-16-2.wav
448,192,111902,1,0,0:0:0:70:hihatsp.wav
320,192,112116,128,0,112223:0:0:0:70:ridesp.wav
64,192,112223,128,0,112331:0:0:0:0:
192,192,112331,1,0,0:0:0:70:s-Alice.wav
320,192,112331,1,0,0:0:0:70:ridesp.wav
448,192,112331,128,0,112545:0:0:0:0:
192,192,112545,128,0,112759:0:0:0:70:ridesp.wav
320,192,112545,1,0,0:0:0:0:
64,192,112759,128,0,113188:0:0:0:70:k-16-2.wav
448,192,112759,1,0,0:0:0:70:ridesp.wav
320,192,112973,128,0,113188:0:0:0:70:ridesp.wav
192,192,113188,1,0,0:0:0:70:s-Alice.wav
448,192,113188,128,0,113509:0:0:0:70:ridesp.wav
64,192,113295,128,0,113402:0:0:0:70:hihatsp.wav
192,192,113402,128,0,113616:0:0:0:70:ridesp.wav
320,192,113509,128,0,113616:0:0:0:0:
64,192,113616,128,0,113831:0:0:0:70:k-16-2.wav
448,192,113616,1,0,0:0:0:70:ridesp.wav
448,192,113831,128,0,113938:0:0:0:0:
64,192,113938,1,0,0:0:0:70:k1-Alice.wav
192,192,113938,128,0,114045:0:0:0:0:
320,192,114045,128,0,114259:0:0:0:70:k2-Alice.wav
448,192,114045,1,0,0:0:0:70:s-Alice.wav
64,192,114259,128,0,114473:0:0:0:70:k2-Alice.wav
448,192,114259,1,0,0:0:0:70:hihatsp.wav
192,192,114366,1,0,0:0:0:0:
320,192,114473,128,0,114634:0:0:0:70:k-mopemope.wav
448,192,114473,128,0,114634:0:0:0:0:
320,192,114688,1,0,0:0:0:70:s-mopemope.wav
448,192,114688,1,0,0:0:0:0:
64,192,114902,128,0,115063:0:0:0:70:k-mopemope.wav
192,192,114902,128,0,115063:0:0:0:0:
64,192,115116,1,0,0:0:0:70:s-mopemope.wav
192,192,115116,1,0,0:0:0:0:
64,192,115223,1,0,0:0:0:0:
320,192,115331,128,0,115491:0:0:0:70:k-mopemope.wav
448,192,115331,128,0,115491:0:0:0:0:
320,192,115545,1,0,0:0:0:70:s-mopemope.wav
448,192,115545,1,0,0:0:0:0:
192,192,115652,1,0,0:0:0:70:s-mopemope.wav
448,192,115652,1,0,0:0:0:0:
64,192,115759,128,0,115866:0:0:0:70:k-mopemope.wav
192,192,115759,128,0,115866:0:0:0:0:
64,192,115973,1,0,0:0:0:70:s-mopemope.wav
320,192,115973,1,0,0:0:0:0:
448,192,116081,1,0,0:0:0:0:
64,192,116188,128,0,116616:0:0:0:70:kdeep-Alpha0.wav
320,192,116188,128,0,116402:0:0:0:0:
448,192,116188,1,0,0:0:0:0:
192,192,116402,128,0,116616:0:0:0:0:
320,192,116616,128,0,116831:0:0:0:0:
448,192,116616,128,0,117045:0:0:0:0:
192,192,116831,128,0,117045:0:0:0:0:
64,192,117045,128,0,117473:0:0:0:100:clap-Alpha0.wav
320,192,117045,128,0,117259:0:0:0:0:
448,192,117259,128,0,117688:0:0:0:0:
192,192,117473,128,0,117902:0:0:0:0:
320,192,117688,128,0,117902:0:0:0:0:
64,192,117902,128,0,118063:0:0:0:70:k-d-11.wav
448,192,117902,128,0,118063:0:0:0:70:cym_16_16.wav
64,192,118116,128,0,118277:0:0:0:0:
192,192,118116,128,0,118277:0:0:0:0:
320,192,118331,128,0,118491:0:0:0:0:
448,192,118331,128,0,118491:0:0:0:0:
64,192,118545,128,0,118706:0:0:0:0:
192,192,118545,128,0,118706:0:0:0:0:
192,192,118759,128,0,118920:0:0:0:0:
448,192,118759,128,0,118920:0:0:0:0:
320,192,118973,1,0,0:0:0:0:
64,192,119045,1,0,0:0:0:0:
192,192,119116,1,0,0:0:0:0:
320,192,119188,128,0,119348:0:0:0:0:
448,192,119188,128,0,119348:0:0:0:0:
64,192,119402,128,0,119563:0:0:0:0:
192,192,119402,128,0,119563:0:0:0:0:
64,192,119616,128,0,119777:0:0:0:0:
320,192,119616,128,0,119777:0:0:0:0:
192,192,119831,128,0,119991:0:0:0:0:
448,192,119831,128,0,119991:0:0:0:0:
320,192,120045,128,0,120206:0:0:0:0:
448,192,120045,128,0,120206:0:0:0:0:
64,192,120259,128,0,120420:0:0:0:0:
192,192,120259,128,0,120420:0:0:0:0:
448,192,120473,1,0,0:0:0:0:
192,192,120527,1,0,0:0:0:0:
448,192,120581,1,0,0:0:0:0:
192,192,120634,1,0,0:0:0:0:
448,192,120688,128,0,120902:0:0:0:0:
64,192,120902,1,0,0:0:0:0:
320,192,120956,1,0,0:0:0:0:
64,192,121009,1,0,0:0:0:0:
320,192,121063,1,0,0:0:0:0:
64,192,121116,128,0,121331:0:0:0:0:
192,192,121331,1,0,0:0:0:70:k-16-2.wav
320,192,121331,128,0,121545:0:0:0:70:ride_16_3.wav
448,192,121331,1,0,0:0:0:70:cym_16_7.wav
192,192,121545,128,0,121759:0:0:0:70:k-16-1.wav
448,192,121545,1,0,0:0:0:70:ride_16_3.wav
320,192,121759,128,0,121813:0:0:0:70:k-16-1.wav
448,192,121759,1,0,0:0:0:70:ride_16_1.wav
64,192,121866,1,0,0:0:0:70:k-16-1.wav
192,192,121866,128,0,121920:0:0:0:70:ride_16_1.wav
320,192,121973,1,0,0:0:0:70:k-16-2.wav
448,192,121973,128,0,122027:0:0:0:70:ride_16_1.wav
64,192,122081,128,0,122134:0:0:0:70:k-16-2.wav
192,192,122081,1,0,0:0:0:70:ride_16_1.wav
320,192,122188,128,0,122241:0:0:0:70:k-16-1.wav
448,192,122188,1,0,0:0:0:70:ride_16_1.wav
64,192,122295,1,0,0:0:0:70:k-16-1.wav
192,192,122295,128,0,122348:0:0:0:70:ride_16_1.wav
320,192,122402,128,0,122456:0:0:0:70:k-16-2.wav
448,192,122402,1,0,0:0:0:70:ride_16_1.wav
64,192,122509,1,0,0:0:0:70:k-16-2.wav
192,192,122509,128,0,122563:0:0:0:70:ride_16_1.wav
320,192,122616,128,0,122670:0:0:0:70:k-16-1.wav
448,192,122616,1,0,0:0:0:70:ride_16_1.wav
64,192,122723,1,0,0:0:0:70:k-16-1.wav
192,192,122723,128,0,122777:0:0:0:70:ride_16_1.wav
320,192,122831,128,0,123045:0:0:0:20:k-16-2.wav
448,192,123045,128,0,123098:0:0:0:70:tinykick.wav
64,192,123152,128,0,123206:0:0:0:70:tinykick.wav
448,192,123259,128,0,123313:0:0:0:70:tinykick.wav
64,192,123366,128,0,123420:0:0:0:70:tinykick.wav
448,192,123473,128,0,123545:0:0:0:70:tinykick.wav
64,192,123581,128,0,123652:0:0:0:70:tinykick.wav
448,192,123688,128,0,123759:0:0:0:70:tinykick.wav
64,192,123795,128,0,123866:0:0:0:70:tinykick.wav
448,192,123902,128,0,123938:0:0:0:70:tinykick.wav
192,192,124009,128,0,124116:0:0:0:70:tinykick.wav
320,192,124223,128,0,124438:0:0:0:70:tinykick.wav
64,192,124438,1,0,0:0:0:70:tinykick.wav
448,192,124545,128,0,124759:0:0:0:70:tinykick.wav
192,192,126473,1,0,0:0:0:70:duuu.wav
320,192,126473,128,0,126581:0:0:0:0:
448,192,126473,128,0,126688:0:0:0:0:
64,192,126688,128,0,126795:0:0:0:0:
192,192,126795,128,0,126902:0:0:0:0:
320,192,126902,128,0,127116:0:0:0:0:
192,192,127116,128,0,127331:0:0:0:0:
448,192,127116,1,0,0:0:0:0:
64,192,127331,128,0,127545:0:0:0:70:k-16-2.wav
320,192,127331,1,0,0:0:0:70:cym_16_4.wav
448,192,127331,1,0,0:0:0:0:
448,192,127438,1,0,0:0:0:0:
192,192,127545,128,0,127652:0:0:0:0:
64,192,127652,1,0,0:0:0:70:ridesp.wav
192,192,127759,1,0,0:0:0:70:k-16-2.wav
320,192,127759,1,0,0:0:0:70:s-Alice.wav
448,192,127759,128,0,127973:0:0:0:0:
192,192,127866,1,0,0:0:0:70:ridesp.wav
64,192,127973,1,0,0:0:0:70:k-Calamity.wav
320,192,127973,128,0,128188:0:0:0:0:
64,192,128081,1,0,0:0:0:70:ridesp.wav
192,192,128188,128,0,128295:0:0:0:70:k-16-2.wav
448,192,128188,1,0,0:0:0:0:
320,192,128295,1,0,0:0:0:0:
64,192,128402,1,0,0:0:0:70:hihatsp.wav
448,192,128402,128,0,128509:0:0:0:0:
192,192,128509,1,0,0:0:0:0:
64,192,128616,1,0,0:0:0:70:k-16-2.wav
320,192,128616,128,0,128831:0:0:0:70:s-Lyrith.wav
448,192,128616,1,0,0:0:0:70:hihatsp.wav
192,192,128831,128,0,129045:0:0:0:70:k-MereFancy.wav
320,192,129045,128,0,129259:0:0:0:70:k-MereFancy.wav
448,192,129045,128,0,129259:0:0:0:70:s-MereFancy.wav
64,192,129259,1,0,0:0:0:70:ridesp.wav
192,192,129259,1,0,0:0:0:0:
192,192,129366,1,0,0:0:0:70:k-16-2.wav
64,192,129473,1,0,0:0:0:70:k-16-2.wav
320,192,129473,1,0,0:0:0:70:s-Alice.wav
448,192,129473,128,0,129688:0:0:0:0:
64,192,129688,1,0,0:0:0:70:k-Calamity.wav
192,192,129688,1,0,0:0:0:70:s4-Calamity.wav
320,192,129688,128,0,129902:0:0:0:70:ridesp.wav
64,192,129795,1,0,0:0:0:70:ridesp.wav
192,192,129902,128,0,130116:0:0:0:70:k-mopemope.wav
448,192,129902,128,0,130116:0:0:0:0:
64,192,130116,1,0,0:0:0:70:s-mopemope.wav
320,192,130116,1,0,0:0:0:0:
192,192,130223,1,0,0:0:0:70:s-mopemope.wav
448,192,130223,1,0,0:0:0:0:
64,192,130331,128,0,130545:0:0:0:70:k2-Alice.wav
320,192,130331,1,0,0:0:0:70:s-Alice.wav
448,192,130331,1,0,0:0:0:0:
192,192,130545,128,0,130652:0:0:0:70:hihatsp.wav
320,192,130545,1,0,0:0:0:0:
448,192,130652,128,0,130759:0:0:0:0:
64,192,130759,1,0,0:0:0:70:k-Alpha0.wav
320,192,130759,128,0,131188:0:0:0:0:
192,192,130973,128,0,131188:0:0:0:0:
64,192,131188,128,0,131402:0:0:0:70:k2-Alice.wav
448,192,131188,1,0,0:0:0:70:s-Alice.wav
192,192,131402,1,0,0:0:0:70:hihatsp.wav
448,192,131402,128,0,131509:0:0:0:0:
320,192,131509,128,0,131616:0:0:0:0:
192,192,131616,128,0,131831:0:0:0:70:k-16-2.wav
448,192,131616,1,0,0:0:0:0:
64,192,131723,128,0,131831:0:0:0:70:hihatsp.wav
320,192,131831,128,0,131884:0:0:0:70:s-mopemope.wav
448,192,131831,128,0,131884:0:0:0:0:
192,192,131938,128,0,132045:0:0:0:70:hihatsp.wav
64,192,132045,128,0,132259:0:0:0:70:k2-Alice.wav
320,192,132045,1,0,0:0:0:70:s-Alice.wav
448,192,132045,1,0,0:0:0:0:
320,192,132152,1,0,0:0:0:0:
192,192,132259,1,0,0:0:0:70:k-MereFancy.wav
448,192,132259,128,0,132473:0:0:0:70:hihatsp.wav
192,192,132366,128,0,132473:0:0:0:70:hihatsp.wav
64,192,132473,1,0,0:0:0:70:k-MereFancy.wav
320,192,132473,128,0,132581:0:0:0:0:
448,192,132581,1,0,0:0:0:70:k-MereFancy.wav
64,192,132688,1,0,0:0:0:70:ridesp.wav
448,192,132688,1,0,0:0:0:0:
192,192,132759,1,0,0:0:0:0:
320,192,132831,1,0,0:0:0:0:
64,192,132902,1,0,0:0:0:70:k-MereFancy.wav
192,192,132902,1,0,0:0:0:70:s-Alice.wav
448,192,132902,128,0,133116:0:0:0:0:
64,192,133116,128,0,133331:0:0:0:70:k-Alpha0.wav
320,192,133116,1,0,0:0:0:0:
320,192,133223,128,0,133331:0:0:0:0:
192,192,133331,1,0,0:0:0:70:k-Calamity.wav
448,192,133331,128,0,133545:0:0:0:70:hihatsp.wav
64,192,133545,1,0,0:0:0:70:s4-Calamity.wav
192,192,133545,128,0,133652:0:0:0:0:
448,192,133652,1,0,0:0:0:70:k-Calamity.wav
192,192,133759,1,0,0:0:0:0:
320,192,133759,128,0,133813:0:0:0:0:
64,192,133973,128,0,134027:0:0:0:0:
320,192,134188,1,0,0:0:0:70:kdeep2-Alpha0.wav
448,192,134188,128,0,134616:0:0:0:0:
192,192,134402,128,0,134616:0:0:0:0:
64,192,134616,128,0,134723:0:0:0:70:k2-Alice.wav
320,192,134616,1,0,0:0:0:70:s-Alice.wav
192,192,134723,1,0,0:0:0:0:
320,192,134831,128,0,134884:0:0:0:70:s-mopemope.wav
448,192,134831,128,0,134884:0:0:0:0:
64,192,135045,128,0,135259:0:0:0:70:k-Alpha0.wav
448,192,135045,1,0,0:0:0:0:
192,192,135152,128,0,135259:0:0:0:0:
320,192,135259,1,0,0:0:0:70:s-mopemope.wav
448,192,135259,1,0,0:0:0:70:ridesp.wav
192,192,135331,1,0,0:0:0:0:
320,192,135402,1,0,0:0:0:0:
64,192,135473,1,0,0:0:0:70:s-Lyrith.wav
448,192,135473,128,0,135688:0:0:0:70:ridesp.wav
192,192,135581,128,0,135688:0:0:0:70:hihatsp.wav
64,192,135688,128,0,135741:0:0:0:70:s-mopemope.wav
320,192,135688,128,0,135741:0:0:0:0:
320,192,135902,128,0,136116:0:0:0:70:k-Wizdomiot.wav
448,192,135902,128,0,136009:0:0:0:0:
192,192,136009,1,0,0:0:0:70:ridesp.wav
64,192,136116,128,0,136331:0:0:0:70:hihatsp.wav
192,192,136116,1,0,0:0:0:0:
320,192,136223,1,0,0:0:0:0:
192,192,136331,128,0,136545:0:0:0:70:k2-Alice.wav
320,192,136331,1,0,0:0:0:70:s-Alice.wav
448,192,136331,1,0,0:0:0:70:hihatsp.wav
448,192,136545,128,0,136759:0:0:0:70:ridesp.wav
192,192,136759,1,0,0:0:0:70:k-Calamity.wav
320,192,136759,128,0,137188:0:0:0:70:ridesp.wav
192,192,136866,1,0,0:0:0:70:ridesp.wav
64,192,136973,1,0,0:0:0:70:k-Calamity.wav
448,192,136973,1,0,0:0:0:70:ridesp.wav
448,192,137081,1,0,0:0:0:70:ridesp.wav
64,192,137188,128,0,137241:0:0:0:70:s-mopemope.wav
192,192,137188,128,0,137616:0:0:0:0:
64,192,137616,128,0,137723:0:0:0:70:k-Calamity.wav
320,192,137616,1,0,0:0:0:70:s4-Calamity.wav
448,192,137616,1,0,0:0:0:70:cym_16_4.wav
320,192,137723,1,0,0:0:0:70:ridesp.wav
64,192,137831,1,0,0:0:0:70:k-Calamity.wav
192,192,137831,1,0,0:0:0:70:s4-Calamity.wav
448,192,137831,128,0,137938:0:0:0:0:
64,192,137938,128,0,138045:0:0:0:70:ridesp.wav
320,192,138045,128,0,138259:0:0:0:70:k-MereFancy.wav
448,192,138045,1,0,0:0:0:0:
192,192,138152,128,0,138259:0:0:0:0:
64,192,138259,1,0,0:0:0:70:s-Alice.wav
448,192,138259,128,0,138473:0:0:0:70:ridesp.wav
64,192,138473,128,0,138634:0:0:0:70:k-mopemope.wav
192,192,138473,128,0,138634:0:0:0:0:
64,192,138688,1,0,0:0:0:70:k-Calamity.wav
192,192,138688,1,0,0:0:0:70:s4-Calamity.wav
448,192,138688,1,0,0:0:0:0:
192,192,138795,1,0,0:0:0:70:hihatsp.wav
320,192,138795,1,0,0:0:0:0:
64,192,138902,1,0,0:0:0:70:s-Lyrith.wav
320,192,138902,128,0,139116:0:0:0:70:ridesp.wav
448,192,138902,1,0,0:0:0:0:
64,192,139116,128,0,139331:0:0:0:0:
192,192,139331,128,0,139438:0:0:0:70:k-Calamity.wav
320,192,139331,1,0,0:0:0:0:
448,192,139438,128,0,139545:0:0:0:0:
64,192,139545,1,0,0:0:0:0:
192,192,139616,1,0,0:0:0:0:
320,192,139688,1,0,0:0:0:0:
64,192,139759,1,0,0:0:0:70:s-Alice.wav
192,192,139759,1,0,0:0:0:0:
448,192,139759,128,0,139973:0:0:0:0:
320,192,139866,1,0,0:0:0:0:
64,192,139973,128,0,140027:0:0:0:70:k-mopemope.wav
320,192,140081,128,0,140134:0:0:0:70:hihatsp.wav
64,192,140188,128,0,140295:0:0:0:70:s4-Calamity.wav
192,192,140188,1,0,0:0:0:0:
448,192,140188,128,0,140295:0:0:0:0:
320,192,140295,1,0,0:0:0:0:
64,192,140402,1,0,0:0:0:70:k-mopemope.wav
64,192,140509,1,0,0:0:0:70:k-mopemope.wav
192,192,140616,128,0,140723:0:0:0:70:k2-Alice.wav
320,192,140616,1,0,0:0:0:70:k1-Alice.wav
448,192,140616,1,0,0:0:0:0:
448,192,140723,1,0,0:0:0:0:
64,192,140831,128,0,140938:0:0:0:70:k-Wizdomiot.wav
320,192,140831,1,0,0:0:0:0:
192,192,140938,128,0,140991:0:0:0:70:ridesp.wav
320,192,141045,128,0,141259:0:0:0:70:k-Alpha0.wav
448,192,141045,1,0,0:0:0:0:
64,192,141259,128,0,141313:0:0:0:70:s-mopemope.wav
192,192,141259,128,0,141313:0:0:0:0:
64,192,141473,1,0,0:0:0:70:k-16-2.wav
448,192,141473,128,0,141688:0:0:0:70:hihatsp.wav
192,192,141581,1,0,0:0:0:70:hihatsp.wav
64,192,141688,128,0,141902:0:0:0:70:k-MereFancy.wav
320,192,141688,1,0,0:0:0:0:
192,192,141795,128,0,141902:0:0:0:0:
320,192,141902,128,0,142009:0:0:0:70:k-MereFancy.wav
448,192,141902,1,0,0:0:0:0:
64,192,142116,128,0,142170:0:0:0:70:s-mopemope.wav
448,192,142116,1,0,0:0:0:0:
64,192,142223,128,0,142277:0:0:0:70:s-mopemope.wav
448,192,142223,1,0,0:0:0:0:
192,192,142331,1,0,0:0:0:70:k2-Alice.wav
320,192,142331,128,0,142438:0:0:0:70:s-Alice.wav
448,192,142331,1,0,0:0:0:0:
192,192,142438,1,0,0:0:0:0:
64,192,142545,128,0,142759:0:0:0:70:k-Calamity.wav
320,192,142545,1,0,0:0:0:70:cym_16_4.wav
448,192,142545,1,0,0:0:0:0:
192,192,142652,1,0,0:0:0:70:hihatsp.wav
192,192,142759,1,0,0:0:0:70:k1-Alice.wav
320,192,142759,128,0,142973:0:0:0:70:s4-Calamity.wav
448,192,142759,1,0,0:0:0:0:
448,192,142866,1,0,0:0:0:70:hihatsp.wav
64,192,142973,1,0,0:0:0:70:k2-Alice.wav
192,192,142973,1,0,0:0:0:70:s4-Calamity.wav
64,192,143081,1,0,0:0:0:70:k2-Alice.wav
320,192,143081,1,0,0:0:0:70:s4-Calamity.wav
192,192,143188,1,0,0:0:0:70:k2-Alice.wav
320,192,143188,1,0,0:0:0:70:s-Alice.wav
448,192,143188,128,0,143295:0:0:0:0:
64,192,143295,128,0,143402:0:0:0:0:
320,192,143402,128,0,143616:0:0:0:0:
192,192,143616,128,0,143723:0:0:0:70:ridesp.wav
448,192,143616,1,0,0:0:0:0:
64,192,143723,1,0,0:0:0:70:ridesp.wav
192,192,143831,1,0,0:0:0:70:hihatsp.wav
448,192,143831,128,0,143938:0:0:0:70:ridesp.wav
320,192,143938,128,0,144045:0:0:0:0:
64,192,144045,128,0,144366:0:0:0:70:s-MereFancy.wav
192,192,144045,1,0,0:0:0:0:
320,192,144259,1,0,0:0:0:70:k-MereFancy.wav
192,192,144366,1,0,0:0:0:70:k-MereFancy.wav
64,192,144473,128,0,144581:0:0:0:70:k-16-2.wav
448,192,144473,128,0,144581:0:0:0:70:cym_16_4.wav
64,192,144688,1,0,0:0:0:70:k-16-2.wav
448,192,144688,1,0,0:0:0:70:cym_16_2.wav
64,192,144795,1,0,0:0:0:70:k-16-2.wav
448,192,144795,1,0,0:0:0:70:cym_16_2.wav
192,192,144902,1,0,0:0:0:70:k2-Alice.wav
320,192,144902,128,0,145009:0:0:0:70:s-Alice.wav
448,192,144902,1,0,0:0:0:0:
64,192,145009,1,0,0:0:0:0:
192,192,145063,1,0,0:0:0:0:
64,192,145116,1,0,0:0:0:70:s4-Calamity.wav
320,192,145116,1,0,0:0:0:0:
448,192,145116,128,0,145331:0:0:0:0:
320,192,145223,1,0,0:0:0:70:ridesp.wav
64,192,145331,128,0,145438:0:0:0:70:k-16-2.wav
192,192,145331,1,0,0:0:0:0:
320,192,145438,128,0,145545:0:0:0:0:
64,192,145545,1,0,0:0:0:70:k2-Lyrith.wav
192,192,145545,1,0,0:0:0:70:s-Lyrith.wav
448,192,145545,1,0,0:0:0:70:ridesp.wav
320,192,145616,1,0,0:0:0:70:ridesp.wav
192,192,145688,1,0,0:0:0:70:ridesp.wav
320,192,145759,128,0,145866:0:0:0:70:k-Wizdomiot.wav
448,192,145759,1,0,0:0:0:0:
192,192,145866,128,0,145920:0:0:0:0:
64,192,145973,128,0,146081:0:0:0:0:
320,192,146081,128,0,146134:0:0:0:0:
192,192,146188,128,0,146402:0:0:0:70:k-Alpha0.wav
448,192,146188,1,0,0:0:0:0:
64,192,146402,1,0,0:0:0:70:k-MereFancy.wav
448,192,146402,128,0,146616:0:0:0:0:
192,192,146509,1,0,0:0:0:70:k-MereFancy.wav
64,192,146616,1,0,0:0:0:70:k2-Alice.wav
192,192,146616,128,0,146831:0:0:0:70:s-Alice.wav
320,192,146616,1,0,0:0:0:0:
320,192,146831,128,0,147045:0:0:0:70:s4-Calamity.wav
448,192,146831,1,0,0:0:0:0:
448,192,146938,1,0,0:0:0:70:hihatsp.wav
64,192,147045,128,0,147259:0:0:0:0:
192,192,147045,128,0,147259:0:0:0:0:
448,192,147259,1,0,0:0:0:70:march_hue_1.wav
448,192,147366,1,0,0:0:0:70:march_hue_1.wav
448,192,147473,128,0,147581:0:0:0:70:march_hue_1.wav
192,192,147688,128,0,147795:0:0:0:70:march_snare_1.wav
320,192,147688,1,0,0:0:0:70:march_hue_1.wav
64,192,147902,1,0,0:0:0:70:march_cow_1.wav
448,192,147902,128,0,148545:0:0:0:70:march_snare_2.wav
320,192,148116,1,0,0:0:0:70:march_snare_3.wav
320,192,148331,1,0,0:0:0:70:march_cow_1.wav
192,192,148545,1,0,0:0:0:70:march_snare_3.wav
64,192,148759,128,0,149616:0:0:0:70:march_cow_1.wav
448,192,148759,1,0,0:0:0:70:march_snare_2.wav
192,192,148973,1,0,0:0:0:70:march_snare_3.wav
448,192,149081,1,0,0:0:0:70:march_snare_4.wav
320,192,149188,1,0,0:0:0:70:march_cow_1.wav
192,192,149402,1,0,0:0:0:0:
320,192,149616,1,0,0:0:0:70:march_cow_1.wav
448,192,149616,128,0,149991:0:0:0:70:march_snare_2.wav
64,192,149831,1,0,0:0:0:70:march_snare_3.wav
320,192,150045,1,0,0:0:0:70:march_cow_1.wav
448,192,150045,128,0,150152:0:0:0:70:march_snare_2.wav
192,192,150259,1,0,0:0:0:0:
320,192,150366,1,0,0:0:0:0:
64,192,150473,128,0,150848:0:0:0:70:march_cow_1.wav
448,192,150473,1,0,0:0:0:70:march_snare_2.wav
448,192,150688,1,0,0:0:0:70:march_snare_3.wav
320,192,150795,1,0,0:0:0:0:
64,192,150902,128,0,151009:0:0:0:70:march_cow_1.wav
192,192,150902,1,0,0:0:0:70:march_snare_6.wav
320,192,151116,1,0,0:0:0:70:march_snare_5.wav
64,192,151223,1,0,0:0:0:70:march_snare_5.wav
320,192,151331,1,0,0:0:0:70:march_cow_1.wav
448,192,151331,128,0,151438:0:0:0:70:march_snare_2.wav
192,192,151545,1,0,0:0:0:70:march_snare_3.wav
64,192,151759,128,0,151866:0:0:0:70:march_cow_1.wav
320,192,151759,1,0,0:0:0:70:march_snare_2.wav
448,192,151973,1,0,0:0:0:70:march_snare_3.wav
192,192,152081,1,0,0:0:0:70:march_snare_4.wav
320,192,152188,1,0,0:0:0:70:march_cow_1.wav
448,192,152188,128,0,152295:0:0:0:70:march_snare_2.wav
192,192,152402,1,0,0:0:0:70:march_snare_3.wav
64,192,152616,128,0,152723:0:0:0:70:march_cow_1.wav
320,192,152616,1,0,0:0:0:70:march_snare_2.wav
448,192,152831,1,0,0:0:0:70:march_snare_3.wav
192,192,152938,1,0,0:0:0:70:march_snare_3.wav
64,192,153045,1,0,0:0:0:70:k-d-3.wav
320,192,153045,1,0,0:0:0:70:cym_16_3.wav
448,192,153045,1,0,0:0:0:0:
64,192,153259,1,0,0:0:0:70:k-d-1.wav
320,192,153259,1,0,0:0:0:70:cym_16_1.wav
448,192,153259,1,0,0:0:0:0:
64,192,153366,1,0,0:0:0:70:k-d-2.wav
192,192,153366,1,0,0:0:0:70:cym_16_2.wav
448,192,153366,1,0,0:0:0:0:
64,192,153545,1,0,0:0:0:70:k-d-1.wav
192,192,153545,1,0,0:0:0:70:cym_16_1.wav
320,192,153616,1,0,0:0:0:70:k-d-1.wav
448,192,153616,1,0,0:0:0:70:cym_16_1.wav
64,192,153688,1,0,0:0:0:70:k-d-1.wav
192,192,153688,1,0,0:0:0:70:cym_16_1.wav
320,192,153759,1,0,0:0:0:70:k-d-1.wav
448,192,153759,1,0,0:0:0:70:cym_16_1.wav
64,192,153831,1,0,0:0:0:70:k-d-1.wav
192,192,153902,1,0,0:0:0:70:k-d-1.wav
320,192,153902,1,0,0:0:0:70:cym_16_2.wav
448,192,153902,1,0,0:0:0:0:
320,192,154045,1,0,0:0:0:70:k-d-1.wav
448,192,154045,1,0,0:0:0:70:cym_16_1.wav
64,192,154116,1,0,0:0:0:70:k-d-3.wav
192,192,154116,128,0,154223:0:0:0:70:cym_16_3.wav
448,192,154223,128,0,154331:0:0:0:0:
64,192,154331,1,0,0:0:0:70:k-d-3.wav
192,192,154331,1,0,0:0:0:70:cym_16_3.wav
320,192,154331,128,0,154491:0:0:0:0:
64,192,154545,1,0,0:0:0:70:k-d-1.wav
192,192,154545,1,0,0:0:0:70:cym_16_3.wav
320,192,154598,1,0,0:0:0:70:k-d-1.wav
448,192,154598,1,0,0:0:0:0:
64,192,154652,1,0,0:0:0:70:k-d-1.wav
192,192,154652,1,0,0:0:0:0:
448,192,154706,1,0,0:0:0:70:k-d-1.wav
64,192,154759,128,0,154866:0:0:0:70:k-16-2.wav
192,192,154759,1,0,0:0:0:70:hihat_16_2.wav
320,192,154759,1,0,0:0:0:70:ride_16_4.wav
320,192,154866,1,0,0:0:0:70:breaks_kk_16_1.wav
64,192,154973,1,0,0:0:0:70:k-16-2.wav
192,192,154973,1,0,0:0:0:70:hihat_16_2.wav
448,192,154973,128,0,155081:0:0:0:70:ride_16_4.wav
64,192,155081,1,0,0:0:0:70:breaks_kk_16_1.wav
192,192,155188,1,0,0:0:0:70:k-16-2.wav
320,192,155188,1,0,0:0:0:70:hihat_16_2.wav
448,192,155188,128,0,155295:0:0:0:70:ride_16_4.wav
320,192,155295,1,0,0:0:0:70:breaks_kk_16_1.wav
64,192,155402,1,0,0:0:0:70:k-16-2.wav
192,192,155402,128,0,155509:0:0:0:70:hihat_16_2.wav
448,192,155402,1,0,0:0:0:70:ride_16_4.wav
448,192,155509,1,0,0:0:0:70:breaks_snd2_16_1.wav
64,192,155616,128,0,155670:0:0:0:70:gabba_2.wav
320,192,155616,128,0,155831:0:0:0:0:
448,192,155831,128,0,155884:0:0:0:70:gabba_3.wav
192,192,155938,128,0,155991:0:0:0:70:gabba_3.wav
320,192,156045,128,0,156152:0:0:0:70:kan.wav
448,192,156045,1,0,0:0:0:0:
64,192,156259,128,0,156366:0:0:0:70:kon.wav
192,192,156259,1,0,0:0:0:0:
64,192,156473,1,0,0:0:0:70:k-16-2.wav
320,192,156473,1,0,0:0:0:70:hihat_16_2.wav
448,192,156473,128,0,156581:0:0:0:70:ride_16_4.wav
192,192,156527,1,0,0:0:0:0:
320,192,156581,1,0,0:0:0:70:breaks_kk_16_2.wav
64,192,156688,128,0,156795:0:0:0:70:k-16-2.wav
192,192,156688,1,0,0:0:0:70:hihat_16_2.wav
448,192,156688,1,0,0:0:0:70:ride_16_4.wav
192,192,156795,1,0,0:0:0:70:breaks_kk_16_2.wav
320,192,156902,128,0,157009:0:0:0:70:k-a-3.wav
448,192,156902,1,0,0:0:0:70:breaks_kk_32_3.wav
64,192,157009,1,0,0:0:0:70:k-a-3.wav
448,192,157063,1,0,0:0:0:70:k-a-3.wav
192,192,157116,128,0,157223:0:0:0:70:k-a-3.wav
320,192,157116,1,0,0:0:0:70:breaks_kk_32_3.wav
448,192,157223,1,0,0:0:0:70:k-a-3.wav
64,192,157277,1,0,0:0:0:70:k-a-3.wav
192,192,157331,1,0,0:0:0:70:k-16-2.wav
320,192,157331,1,0,0:0:0:70:hihat_16_2.wav
448,192,157331,1,0,0:0:0:70:ride_16_2.wav
192,192,157491,1,0,0:0:0:70:k-16-2.wav
320,192,157491,1,0,0:0:0:70:hihat_16_2.wav
448,192,157491,1,0,0:0:0:70:ride_16_2.wav
64,192,157652,1,0,0:0:0:70:k-16-2.wav
192,192,157652,1,0,0:0:0:70:hihat_16_2.wav
448,192,157652,1,0,0:0:0:70:ride_16_2.wav
64,192,157759,1,0,0:0:0:70:k-16-2.wav
192,192,157759,1,0,0:0:0:70:hihat_16_1.wav
448,192,157759,1,0,0:0:0:70:ride_16_1.wav
64,192,157866,1,0,0:0:0:70:k-16-2.wav
192,192,157866,1,0,0:0:0:70:hihat_16_1.wav
448,192,157866,1,0,0:0:0:70:ride_16_1.wav
320,192,157973,1,0,0:0:0:70:k-16-2.wav
192,192,158027,1,0,0:0:0:70:breaks_snh2_16_1.wav
64,192,158081,1,0,0:0:0:70:k-16-2.wav
448,192,158081,1,0,0:0:0:70:hihat_16_2.wav
320,192,158134,1,0,0:0:0:0:
64,192,158188,1,0,0:0:0:70:k-d-4.wav
192,192,158188,128,0,158402:0:0:0:70:hihat_16_2.wav
448,192,158188,1,0,0:0:0:70:cym_16_4.wav
320,192,158295,1,0,0:0:0:0:
64,192,158402,128,0,158616:0:0:0:70:breaks_sn_16_1.wav
448,192,158402,128,0,158509:0:0:0:0:
192,192,158509,128,0,158616:0:0:0:70:breaks_sn_16_1.wav
320,192,158509,1,0,0:0:0:0:
320,192,158616,128,0,158831:0:0:0:70:breaks_sn_16_1.wav
448,192,158616,128,0,158723:0:0:0:0:
64,192,158831,1,0,0:0:0:70:k-d2-3.wav
448,192,158831,128,0,159045:0:0:0:70:breaks_cy_16_2.wav
192,192,158938,128,0,159045:0:0:0:70:breaks_cys_16_2.wav
64,192,159045,1,0,0:0:0:70:k-d-2.wav
320,192,159045,128,0,159152:0:0:0:70:breaks_kk_32_3.wav
64,192,159152,1,0,0:0:0:70:breaks_sn_32_1.wav
192,192,159206,1,0,0:0:0:70:breaks_kk_32_1.wav
320,192,159259,1,0,0:0:0:70:breaks_cy_16_4.wav
448,192,159259,128,0,159473:0:0:0:0:
64,192,159473,128,0,159634:0:0:0:70:k-d-6.wav
192,192,159473,1,0,0:0:0:70:breaks_sn_32_f5.wav
448,192,159527,1,0,0:0:0:0:
320,192,159581,1,0,0:0:0:0:
192,192,159634,1,0,0:0:0:0:
448,192,159688,1,0,0:0:0:70:breaks_kk_32_f3.wav
320,192,159715,1,0,0:0:0:0:
192,192,159741,1,0,0:0:0:0:
64,192,159768,1,0,0:0:0:0:
448,192,159795,1,0,0:0:0:0:
320,192,159822,1,0,0:0:0:0:
192,192,159848,1,0,0:0:0:0:
64,192,159902,1,0,0:0:0:70:k-d-2.wav
320,192,159902,128,0,160009:0:0:0:70:hihat_16_2.wav
448,192,159902,1,0,0:0:0:70:ride_16_2.wav
64,192,160009,1,0,0:0:0:70:breaks_sn_16_1.wav
192,192,160116,1,0,0:0:0:70:k-d-2.wav
448,192,160116,128,0,160223:0:0:0:70:hihat_16_2.wav
192,192,160223,1,0,0:0:0:70:breaks_sn_16_1.wav
64,192,160331,1,0,0:0:0:70:k-a-2.wav
448,192,160331,1,0,0:0:0:0:
64,192,160438,1,0,0:0:0:70:k-a-2.wav
320,192,160438,1,0,0:0:0:0:
192,192,160545,1,0,0:0:0:70:k-a-2.wav
448,192,160545,1,0,0:0:0:0:
64,192,160652,1,0,0:0:0:70:k-a-2.wav
320,192,160652,1,0,0:0:0:0:
64,192,160759,128,0,160866:0:0:0:70:k-d-3.wav
192,192,160759,1,0,0:0:0:70:hihat_16_2.wav
320,192,160759,128,0,160866:0:0:0:70:ride_16_3.wav
448,192,160759,1,0,0:0:0:70:cym_16_3.wav
64,192,160973,1,0,0:0:0:70:k-d-3.wav
192,192,160973,128,0,161081:0:0:0:70:hihat_16_2.wav
320,192,160973,1,0,0:0:0:70:ride_16_3.wav
448,192,160973,128,0,161081:0:0:0:70:cym_16_3.wav
64,192,161188,128,0,161348:0:0:0:70:k-d-7.wav
192,192,161188,128,0,161348:0:0:0:70:hihat_16_2.wav
320,192,161188,1,0,0:0:0:70:ride_16_3.wav
448,192,161188,1,0,0:0:0:70:breaks_sn_16_1.wav
320,192,161295,1,0,0:0:0:70:breaks_snh4_16_1.wav
448,192,161348,1,0,0:0:0:70:breaks_snh6_16_1.wav
64,192,161402,1,0,0:0:0:70:k-a-3.wav
320,192,161456,1,0,0:0:0:70:k-a-3.wav
448,192,161509,1,0,0:0:0:70:k-a-3.wav
192,192,161563,1,0,0:0:0:70:k-a-3.wav
64,192,161616,1,0,0:0:0:70:ride_16_3.wav
320,192,161616,1,0,0:0:0:70:breaks_sn_16_2.wav
448,192,161616,128,0,162473:0:0:0:70:cym_16_16.wav
64,192,161723,1,0,0:0:0:70:hihat_16_2.wav
192,192,161831,1,0,0:0:0:70:ride_16_3.wav
320,192,161831,1,0,0:0:0:70:breaks_sn_16_2.wav
320,192,161938,1,0,0:0:0:70:hihat_16_2.wav
64,192,162045,1,0,0:0:0:70:ride_16_3.wav
192,192,162045,1,0,0:0:0:70:breaks_sn_16_2.wav
64,192,162152,1,0,0:0:0:70:hihat_16_2.wav
192,192,162259,1,0,0:0:0:70:ride_16_3.wav
320,192,162259,1,0,0:0:0:70:breaks_sn_16_2.wav
320,192,162366,1,0,0:0:0:70:hihat_16_2.wav
64,192,162473,1,0,0:0:0:70:ride_16_1.wav
192,192,162473,1,0,0:0:0:70:breaks_kk_16_1.wav
64,192,162581,1,0,0:0:0:70:breaks_kk_16_1.wav
448,192,162581,1,0,0:0:0:0:
192,192,162688,1,0,0:0:0:70:ride_16_1.wav
448,192,162688,1,0,0:0:0:70:breaks_sn_16_1.wav
192,192,162795,1,0,0:0:0:70:breaks_kk_16_1.wav
320,192,162795,1,0,0:0:0:0:
64,192,162902,1,0,0:0:0:70:ride_16_1.wav
320,192,162902,1,0,0:0:0:70:breaks_sn_16_1.wav
64,192,163009,1,0,0:0:0:70:breaks_kk_16_1.wav
448,192,163009,1,0,0:0:0:0:
192,192,163116,1,0,0:0:0:70:ride_16_1.wav
448,192,163116,1,0,0:0:0:70:breaks_sn_16_1.wav
192,192,163223,1,0,0:0:0:70:breaks_kk_16_1.wav
320,192,163223,1,0,0:0:0:0:
64,192,163331,1,0,0:0:0:70:k-d-6.wav
320,192,163331,1,0,0:0:0:70:breaks_sn_16_2.wav
448,192,163331,1,0,0:0:0:0:
192,192,163438,128,0,163759:0:0:0:70:breaks_sn_16_2.wav
448,192,163438,1,0,0:0:0:0:
320,192,163545,1,0,0:0:0:70:breaks_cy_16_4.wav
64,192,163759,1,0,0:0:0:70:k-d-6.wav
320,192,163759,1,0,0:0:0:70:breaks_sn_16_2.wav
448,192,163759,1,0,0:0:0:0:
320,192,163866,128,0,164188:0:0:0:70:breaks_sn_16_2.wav
448,192,163866,1,0,0:0:0:0:
192,192,163973,1,0,0:0:0:70:breaks_cys_16_4.wav
64,192,164188,1,0,0:0:0:70:k-d-3.wav
192,192,164188,1,0,0:0:0:70:breaks_sn_16_2.wav
448,192,164188,1,0,0:0:0:0:
64,192,164295,1,0,0:0:0:70:breaks_snh2_16_2.wav
448,192,164295,128,0,164509:0:0:0:0:
192,192,164402,1,0,0:0:0:70:breaks_snh4_16_2.wav
192,192,164509,1,0,0:0:0:70:breaks_snh6_16_1.wav
64,192,164616,1,0,0:0:0:70:duuuun.wav
320,192,164616,128,0,164938:0:0:0:0:
448,192,164616,128,0,164831:0:0:0:0:
192,192,164831,128,0,165045:0:0:0:0:
64,192,165045,1,0,0:0:0:70:fx2.wav
448,192,165045,1,0,0:0:0:0:
320,192,165098,1,0,0:0:0:0:
192,192,165152,1,0,0:0:0:0:
448,192,165206,1,0,0:0:0:0:
64,192,165259,1,0,0:0:0:0:
192,192,165313,1,0,0:0:0:0:
320,192,165366,1,0,0:0:0:0:
448,192,165420,1,0,0:0:0:0:
192,192,165473,1,0,0:0:0:0:
320,192,165527,1,0,0:0:0:0:
64,192,165581,1,0,0:0:0:0:
192,192,165634,1,0,0:0:0:0:
448,192,165688,1,0,0:0:0:0:
320,192,165741,1,0,0:0:0:0:
192,192,165795,1,0,0:0:0:0:
64,192,165848,1,0,0:0:0:0:
448,192,165902,1,0,0:0:0:0:
192,192,165956,1,0,0:0:0:0:
320,192,166009,1,0,0:0:0:0:
64,192,166063,1,0,0:0:0:0:
448,192,166116,1,0,0:0:0:0:
320,192,166170,1,0,0:0:0:0:
192,192,166223,1,0,0:0:0:0:
64,192,166277,1,0,0:0:0:0:
448,192,166331,1,0,0:0:0:0:
192,192,166384,1,0,0:0:0:0:
320,192,166438,1,0,0:0:0:0:
64,192,166491,1,0,0:0:0:0:
192,192,166545,1,0,0:0:0:0:
320,192,166598,1,0,0:0:0:0:
448,192,166652,1,0,0:0:0:0:
64,192,166759,128,0,166813:0:0:0:70:fx3.wav
192,192,166759,1,0,0:0:0:0:
320,192,166759,1,0,0:0:0:0:
448,192,166973,128,0,167027:0:0:0:0:
448,192,167188,128,0,167241:0:0:0:0:
192,192,167402,128,0,167456:0:0:0:0:
320,192,167616,128,0,167670:0:0:0:0:
448,192,167831,128,0,167884:0:0:0:0:
192,192,167938,128,0,167991:0:0:0:0:
320,192,168045,128,0,168098:0:0:0:0:
64,192,168259,128,0,168313:0:0:0:0:
320,192,168473,128,0,168527:0:0:0:0:
64,192,168688,128,0,168741:0:0:0:0:
320,192,168902,128,0,168956:0:0:0:0:
192,192,169116,128,0,169170:0:0:0:0:
320,192,169223,128,0,169277:0:0:0:0:
448,192,169331,128,0,169384:0:0:0:0:
320,192,169545,128,0,169598:0:0:0:0:
192,192,169652,128,0,169706:0:0:0:0:
64,192,169759,128,0,169813:0:0:0:0:
64,192,169973,128,0,170027:0:0:0:0:
192,192,170081,128,0,170134:0:0:0:0:
448,192,170188,128,0,170241:0:0:0:0:
64,192,170402,128,0,170456:0:0:0:0:
320,192,170616,128,0,170670:0:0:0:0:
448,192,170831,128,0,170884:0:0:0:0:
320,192,170938,128,0,170991:0:0:0:0:
192,192,171045,128,0,171098:0:0:0:0:
448,192,171259,128,0,171313:0:0:0:0:
320,192,171473,128,0,171527:0:0:0:0:
64,192,171688,128,0,171741:0:0:0:0:
320,192,171795,128,0,171848:0:0:0:0:
448,192,171902,128,0,171956:0:0:0:0:
192,192,172116,128,0,172170:0:0:0:0:
320,192,172331,128,0,172384:0:0:0:0:
64,192,172438,128,0,172491:0:0:0:0:
448,192,172545,128,0,172598:0:0:0:0:
192,192,172652,128,0,172706:0:0:0:0:
64,192,172759,128,0,172813:0:0:0:0:
448,192,172973,128,0,173027:0:0:0:0:
192,192,173188,128,0,173241:0:0:0:0:
320,192,173616,128,0,173670:0:0:0:0:
64,192,173831,128,0,173884:0:0:0:0:
192,192,174045,128,0,174098:0:0:0:0:
448,192,174259,128,0,174313:0:0:0:0:
320,192,174473,128,0,174527:0:0:0:0:
448,192,174688,128,0,174741:0:0:0:0:
320,192,174759,128,0,174813:0:0:0:0:
192,192,174831,128,0,174884:0:0:0:0:
64,192,174902,128,0,174956:0:0:0:0:
192,192,175116,128,0,175170:0:0:0:0:
448,192,175331,128,0,175384:0:0:0:0:
320,192,175545,128,0,175598:0:0:0:0:
64,192,175759,128,0,175813:0:0:0:0:
192,192,175973,128,0,176027:0:0:0:0:
320,192,176188,128,0,176616:0:0:0:0:
64,192,176616,128,0,177045:0:0:0:0:
192,192,177045,1,0,0:0:0:70:k-16-2.wav
320,192,177045,1,0,0:0:0:70:ride_16_3.wav
448,192,177045,1,0,0:0:0:70:cym_16_7.wav
64,192,177259,1,0,0:0:0:70:k-16-1.wav
192,192,177259,1,0,0:0:0:70:ride_16_3.wav
320,192,177473,1,0,0:0:0:70:k-16-1.wav
448,192,177473,1,0,0:0:0:70:ride_16_1.wav
64,192,177581,1,0,0:0:0:70:k-16-1.wav
192,192,177581,1,0,0:0:0:70:ride_16_1.wav
320,192,177688,1,0,0:0:0:70:k-16-2.wav
448,192,177688,1,0,0:0:0:70:ride_16_1.wav
64,192,177795,1,0,0:0:0:70:k-16-2.wav
192,192,177795,1,0,0:0:0:70:ride_16_1.wav
320,192,177902,1,0,0:0:0:70:k-16-1.wav
448,192,177902,1,0,0:0:0:70:ride_16_1.wav
320,192,178009,1,0,0:0:0:70:k-16-1.wav
448,192,178009,1,0,0:0:0:70:ride_16_1.wav
64,192,178116,1,0,0:0:0:70:k-16-2.wav
192,192,178116,1,0,0:0:0:70:ride_16_1.wav
192,192,178223,1,0,0:0:0:70:k-16-1.wav
448,192,178223,1,0,0:0:0:70:s-1.wav
320,192,178438,1,0,0:0:0:70:k-16-1.wav
448,192,178438,1,0,0:0:0:70:ride_16_1.wav
64,192,178545,1,0,0:0:0:70:s-2.wav
320,192,178545,1,0,0:0:0:0:
64,192,178759,1,0,0:0:0:70:k-16-2.wav
192,192,178759,1,0,0:0:0:70:breaks_sn_16_2.wav
320,192,178759,1,0,0:0:0:70:cym_16_2.wav
64,192,178866,1,0,0:0:0:70:k-16-2.wav
192,192,178866,1,0,0:0:0:70:breaks_sn_16_2.wav
320,192,178866,1,0,0:0:0:70:cym_16_2.wav
64,192,179081,1,0,0:0:0:70:k-16-2.wav
320,192,179081,1,0,0:0:0:70:breaks_sn_16_2.wav
448,192,179081,1,0,0:0:0:70:cym_16_2.wav
192,192,179295,1,0,0:0:0:70:k-16-2.wav
320,192,179295,1,0,0:0:0:70:breaks_sn_16_2.wav
448,192,179295,1,0,0:0:0:70:cym_16_2.wav
64,192,179509,1,0,0:0:0:70:k-16-2.wav
192,192,179509,1,0,0:0:0:70:breaks_sn_16_2.wav
448,192,179509,1,0,0:0:0:70:cym_16_2.wav
64,192,179723,1,0,0:0:0:70:k-16-2.wav
192,192,179723,1,0,0:0:0:70:breaks_sn_16_2.wav
320,192,179723,1,0,0:0:0:70:cym_16_2.wav
64,192,179831,1,0,0:0:0:70:k-16-2.wav
192,192,179831,1,0,0:0:0:70:breaks_sn_16_2.wav
448,192,179831,1,0,0:0:0:70:cym_16_2.wav
64,192,179938,1,0,0:0:0:70:k-16-2.wav
320,192,179938,1,0,0:0:0:70:breaks_sn_16_2.wav
448,192,179938,1,0,0:0:0:70:cym_16_2.wav
192,192,180045,1,0,0:0:0:70:k-16-2.wav
320,192,180045,1,0,0:0:0:70:ride_16_4.wav
448,192,180045,1,0,0:0:0:70:breaks_sn_16_2.wav
64,192,180259,1,0,0:0:0:70:k-16-2.wav
192,192,180259,1,0,0:0:0:70:ride_16_4.wav
320,192,180259,1,0,0:0:0:70:breaks_sn_16_2.wav
64,192,180473,1,0,0:0:0:70:k-16-2.wav
320,192,180473,1,0,0:0:0:70:ride_16_4.wav
448,192,180473,1,0,0:0:0:70:breaks_sn_16_2.wav
64,192,180688,1,0,0:0:0:70:k-16-2.wav
192,192,180688,1,0,0:0:0:70:ride_16_4.wav
320,192,180688,1,0,0:0:0:70:breaks_sn_16_2.wav
64,192,180795,1,0,0:0:0:70:k-16-2.wav
192,192,180795,1,0,0:0:0:70:ride_16_1.wav
320,192,180795,1,0,0:0:0:70:breaks_sn_16_2.wav
192,192,181009,1,0,0:0:0:70:k-16-2.wav
320,192,181009,1,0,0:0:0:70:ride_16_1.wav
448,192,181009,1,0,0:0:0:70:breaks_sn_16_2.wav
64,192,181223,1,0,0:0:0:70:k-16-2.wav
192,192,181223,1,0,0:0:0:70:ride_16_2.wav
448,192,181223,1,0,0:0:0:70:breaks_sn_16_2.wav
64,192,181438,1,0,0:0:0:70:k-16-2.wav
320,192,181438,1,0,0:0:0:70:ride_16_1.wav
448,192,181438,1,0,0:0:0:70:breaks_sn_16_1.wav
64,192,181545,1,0,0:0:0:70:k-16-2.wav
192,192,181545,1,0,0:0:0:70:ride_16_1.wav
448,192,181545,1,0,0:0:0:70:breaks_sn_16_1.wav
192,192,181652,1,0,0:0:0:70:k-16-2.wav
320,192,181652,1,0,0:0:0:70:ride_16_1.wav
448,192,181652,1,0,0:0:0:70:breaks_sn_16_1.wav
64,192,181759,1,0,0:0:0:70:k-16-2.wav
192,192,181759,1,0,0:0:0:70:ride_16_2.wav
320,192,181759,1,0,0:0:0:70:breaks_sn_16_2.wav
448,192,181759,1,0,0:0:0:70:cym_16_2.wav
64,192,181866,128,0,181973:0:0:0:0:
192,192,181920,128,0,182027:0:0:0:0:
320,192,181973,128,0,182081:0:0:0:0:
448,192,182027,128,0,182134:0:0:0:0:
64,192,182081,128,0,182188:0:0:0:0:
192,192,182134,128,0,182188:0:0:0:0:
320,192,182188,1,0,0:0:0:70:k-16-2.wav
448,192,182188,1,0,0:0:0:70:cym_16_16.wav
320,192,182295,1,0,0:0:0:70:hihat_16_2.wav
64,192,182402,128,0,182509:0:0:0:70:k-16-2.wav
192,192,182402,1,0,0:0:0:70:s-2.wav
448,192,182402,1,0,0:0:0:0:
448,192,182509,1,0,0:0:0:70:hihat_16_2.wav
192,192,182616,128,0,182723:0:0:0:70:k-16-2.wav
320,192,182616,1,0,0:0:0:0:
320,192,182723,1,0,0:0:0:70:hihat_16_2.wav
64,192,182831,1,0,0:0:0:70:k-16-2.wav
192,192,182831,1,0,0:0:0:70:s-2.wav
448,192,182831,128,0,182938:0:0:0:0:
192,192,182938,1,0,0:0:0:70:hihat_16_2.wav
64,192,183045,1,0,0:0:0:70:k-16-2.wav
320,192,183045,128,0,183152:0:0:0:0:
64,192,183152,1,0,0:0:0:70:hihat_16_2.wav
192,192,183259,128,0,183366:0:0:0:70:k-16-2.wav
320,192,183259,1,0,0:0:0:70:s-2.wav
448,192,183259,1,0,0:0:0:0:
448,192,183366,1,0,0:0:0:70:hihat_16_2.wav
64,192,183473,128,0,183581:0:0:0:70:k-16-2.wav
320,192,183473,1,0,0:0:0:0:
320,192,183581,1,0,0:0:0:70:hihat_16_2.wav
64,192,183688,1,0,0:0:0:70:k-16-2.wav
192,192,183688,1,0,0:0:0:70:s-2.wav
448,192,183688,128,0,183795:0:0:0:0:
192,192,183795,128,0,183902:0:0:0:70:hihat_16_2.wav
64,192,183902,128,0,184009:0:0:0:70:k-16-2.wav
320,192,183902,1,0,0:0:0:0:
320,192,184009,128,0,184116:0:0:0:70:hihat_16_2.wav
64,192,184116,1,0,0:0:0:70:k-16-2.wav
192,192,184116,128,0,184223:0:0:0:70:s-2.wav
448,192,184116,1,0,0:0:0:0:
448,192,184223,1,0,0:0:0:70:hihat_16_2.wav
64,192,184331,1,0,0:0:0:70:k-16-2.wav
320,192,184331,128,0,184438:0:0:0:0:
64,192,184438,1,0,0:0:0:70:hihat_16_2.wav
192,192,184545,128,0,184652:0:0:0:70:k-16-2.wav
320,192,184545,1,0,0:0:0:70:s-2.wav
448,192,184545,1,0,0:0:0:0:
320,192,184652,1,0,0:0:0:70:hihat_16_2.wav
64,192,184759,1,0,0:0:0:70:k-16-2.wav
448,192,184759,128,0,184866:0:0:0:0:
64,192,184866,1,0,0:0:0:70:hihat_16_2.wav
192,192,184973,1,0,0:0:0:70:k-16-2.wav
320,192,184973,128,0,185081:0:0:0:70:s-2.wav
448,192,184973,1,0,0:0:0:0:
192,192,185081,1,0,0:0:0:70:hihat_16_2.wav
64,192,185188,128,0,185295:0:0:0:70:k-16-2.wav
320,192,185188,1,0,0:0:0:0:
320,192,185295,1,0,0:0:0:70:hihat_16_2.wav
64,192,185402,1,0,0:0:0:70:k-16-2.wav
192,192,185402,128,0,185509:0:0:0:70:s-2.wav
448,192,185402,1,0,0:0:0:0:
448,192,185509,1,0,0:0:0:70:hihat_16_2.wav
64,192,185616,1,0,0:0:0:70:k-16-2.wav
320,192,185616,1,0,0:0:0:0:
64,192,185723,1,0,0:0:0:70:hihat_16_2.wav
192,192,185831,1,0,0:0:0:70:k-16-2.wav
320,192,185831,1,0,0:0:0:70:s-2.wav
448,192,185831,128,0,185938:0:0:0:0:
192,192,185938,1,0,0:0:0:70:hihat_16_2.wav
64,192,186045,1,0,0:0:0:70:k-16-2.wav
320,192,186045,128,0,186152:0:0:0:0:
64,192,186152,1,0,0:0:0:70:hihat_16_2.wav
192,192,186259,128,0,186366:0:0:0:70:k-16-2.wav
320,192,186259,1,0,0:0:0:70:s-2.wav
448,192,186259,1,0,0:0:0:0:
448,192,186366,1,0,0:0:0:70:hihat_16_2.wav
64,192,186473,128,0,186581:0:0:0:70:k-16-2.wav
320,192,186473,1,0,0:0:0:0:
320,192,186581,1,0,0:0:0:70:hihat_16_2.wav
64,192,186688,1,0,0:0:0:70:k-16-2.wav
192,192,186688,1,0,0:0:0:70:s-2.wav
448,192,186688,128,0,186795:0:0:0:0:
64,192,186795,1,0,0:0:0:70:hihat_16_2.wav
192,192,186902,128,0,187009:0:0:0:70:k-16-2.wav
448,192,186902,1,0,0:0:0:0:
448,192,187009,1,0,0:0:0:70:hihat_16_2.wav
64,192,187116,1,0,0:0:0:70:k-16-2.wav
192,192,187116,1,0,0:0:0:70:s-2.wav
320,192,187116,128,0,187223:0:0:0:0:
64,192,187223,128,0,187331:0:0:0:70:hihat_16_2.wav
192,192,187331,1,0,0:0:0:70:k-16-2.wav
448,192,187331,128,0,187438:0:0:0:0:
192,192,187438,128,0,187545:0:0:0:70:hihat_16_2.wav
64,192,187545,1,0,0:0:0:70:k-16-2.wav
320,192,187545,128,0,187652:0:0:0:70:s-2.wav
448,192,187545,1,0,0:0:0:0:
64,192,187652,1,0,0:0:0:70:hihat_16_2.wav
192,192,187759,128,0,187866:0:0:0:70:k-16-2.wav
448,192,187759,1,0,0:0:0:0:
448,192,187866,1,0,0:0:0:70:hihat_16_2.wav
64,192,187973,1,0,0:0:0:70:k-16-2.wav
192,192,187973,1,0,0:0:0:70:s-2.wav
320,192,187973,128,0,188081:0:0:0:0:
192,192,188081,1,0,0:0:0:70:hihat_16_2.wav
64,192,188188,128,0,188295:0:0:0:70:k-16-2.wav
320,192,188188,1,0,0:0:0:0:
320,192,188295,1,0,0:0:0:70:hihat_16_2.wav
64,192,188402,1,0,0:0:0:70:k-16-2.wav
192,192,188402,128,0,188509:0:0:0:70:s-2.wav
448,192,188402,1,0,0:0:0:0:
448,192,188509,1,0,0:0:0:70:hihat_16_2.wav
64,192,188616,1,0,0:0:0:70:k-16-2.wav
320,192,188616,128,0,188723:0:0:0:0:
64,192,188723,1,0,0:0:0:70:hihat_16_2.wav
192,192,188831,1,0,0:0:0:70:k-16-2.wav
320,192,188831,1,0,0:0:0:70:s-2.wav
448,192,188831,128,0,188938:0:0:0:0:
192,192,188938,1,0,0:0:0:70:hihat_16_2.wav
64,192,189045,1,0,0:0:0:70:k-16-2.wav
320,192,189045,1,0,0:0:0:70:cym_16_16.wav
448,192,189045,1,0,0:0:0:0:
448,192,189152,1,0,0:0:0:70:hihat_16_2.wav
64,192,189259,128,0,189366:0:0:0:70:k-16-2.wav
192,192,189259,1,0,0:0:0:70:s-2.wav
320,192,189259,1,0,0:0:0:0:
320,192,189366,1,0,0:0:0:70:hihat_16_2.wav
64,192,189473,1,0,0:0:0:70:k-16-2.wav
448,192,189473,128,0,189581:0:0:0:0:
64,192,189581,1,0,0:0:0:70:hihat_16_2.wav
192,192,189688,128,0,189795:0:0:0:70:k-16-2.wav
320,192,189688,1,0,0:0:0:70:s-2.wav
448,192,189688,1,0,0:0:0:0:
448,192,189795,1,0,0:0:0:70:hihat_16_2.wav
192,192,189902,1,0,0:0:0:70:k-16-2.wav
320,192,189902,128,0,190009:0:0:0:0:
192,192,190009,1,0,0:0:0:70:hihat_16_2.wav
64,192,190116,128,0,190223:0:0:0:70:k-16-2.wav
320,192,190116,1,0,0:0:0:70:s-2.wav
448,192,190116,1,0,0:0:0:0:
320,192,190223,1,0,0:0:0:70:hihat_16_2.wav
192,192,190331,128,0,190438:0:0:0:70:k-16-2.wav
448,192,190331,1,0,0:0:0:0:
448,192,190438,1,0,0:0:0:70:hihat_16_2.wav
64,192,190545,1,0,0:0:0:70:k-16-2.wav
192,192,190545,1,0,0:0:0:70:s-2.wav
320,192,190545,128,0,190652:0:0:0:0:
64,192,190652,128,0,190759:0:0:0:70:hihat_16_2.wav
192,192,190759,128,0,190866:0:0:0:70:k-16-2.wav
448,192,190759,1,0,0:0:0:0:
448,192,190866,128,0,190973:0:0:0:70:hihat_16_2.wav
64,192,190973,128,0,191081:0:0:0:70:k-16-2.wav
192,192,190973,1,0,0:0:0:70:s-2.wav
320,192,190973,1,0,0:0:0:0:
320,192,191081,1,0,0:0:0:70:hihat_16_2.wav
192,192,191188,128,0,191295:0:0:0:70:k-16-2.wav
448,192,191188,1,0,0:0:0:0:
448,192,191295,1,0,0:0:0:70:hihat_16_2.wav
64,192,191402,1,0,0:0:0:70:k-16-2.wav
192,192,191402,1,0,0:0:0:70:s-2.wav
320,192,191402,128,0,191509:0:0:0:0:
192,192,191509,1,0,0:0:0:70:hihat_16_2.wav
64,192,191616,1,0,0:0:0:70:k-16-2.wav
448,192,191616,128,0,191723:0:0:0:0:
64,192,191723,1,0,0:0:0:70:hihat_16_2.wav
192,192,191831,128,0,191938:0:0:0:70:k-16-2.wav
320,192,191831,1,0,0:0:0:70:s-2.wav
448,192,191831,1,0,0:0:0:0:
448,192,191938,1,0,0:0:0:70:hihat_16_2.wav
192,192,192045,1,0,0:0:0:70:k-16-2.wav
320,192,192045,128,0,192152:0:0:0:0:
192,192,192152,1,0,0:0:0:70:hihat_16_2.wav
64,192,192259,128,0,192366:0:0:0:70:k-16-2.wav
320,192,192259,1,0,0:0:0:70:s-2.wav
448,192,192259,1,0,0:0:0:0:
320,192,192366,1,0,0:0:0:70:hihat_16_2.wav
192,192,192473,1,0,0:0:0:70:k-16-2.wav
448,192,192473,1,0,0:0:0:0:
448,192,192581,1,0,0:0:0:70:hihat_16_2.wav
64,192,192688,1,0,0:0:0:70:k-16-2.wav
192,192,192688,1,0,0:0:0:70:s-2.wav
320,192,192688,128,0,192795:0:0:0:0:
192,192,192795,1,0,0:0:0:70:hihat_16_2.wav
64,192,192902,1,0,0:0:0:70:k-16-2.wav
448,192,192902,128,0,193009:0:0:0:0:
64,192,193009,1,0,0:0:0:70:hihat_16_2.wav
192,192,193116,128,0,193223:0:0:0:70:k-16-2.wav
320,192,193116,1,0,0:0:0:70:s-2.wav
448,192,193116,1,0,0:0:0:0:
448,192,193223,1,0,0:0:0:70:hihat_16_2.wav
192,192,193331,1,0,0:0:0:70:k-16-2.wav
320,192,193331,128,0,193438:0:0:0:0:
192,192,193438,1,0,0:0:0:70:hihat_16_2.wav
64,192,193545,128,0,193652:0:0:0:70:k-16-2.wav
320,192,193545,1,0,0:0:0:70:s-2.wav
448,192,193545,1,0,0:0:0:0:
320,192,193652,1,0,0:0:0:70:hihat_16_2.wav
192,192,193759,128,0,193866:0:0:0:70:k-16-2.wav
448,192,193759,1,0,0:0:0:0:
448,192,193866,1,0,0:0:0:70:hihat_16_2.wav
64,192,193973,1,0,0:0:0:70:k-16-2.wav
192,192,193973,1,0,0:0:0:70:s-2.wav
320,192,193973,128,0,194081:0:0:0:0:
64,192,194081,128,0,194188:0:0:0:70:hihat_16_2.wav
192,192,194188,128,0,194295:0:0:0:70:k-16-2.wav
448,192,194188,1,0,0:0:0:0:
448,192,194295,128,0,194402:0:0:0:70:hihat_16_2.wav
64,192,194402,128,0,194509:0:0:0:70:k-16-2.wav
192,192,194402,1,0,0:0:0:70:s-2.wav
320,192,194402,1,0,0:0:0:0:
320,192,194509,1,0,0:0:0:70:hihat_16_2.wav
192,192,194616,1,0,0:0:0:70:k-16-2.wav
448,192,194616,128,0,194723:0:0:0:0:
192,192,194723,1,0,0:0:0:70:hihat_16_2.wav
64,192,194831,1,0,0:0:0:70:k-16-2.wav
320,192,194831,128,0,194938:0:0:0:70:s-2.wav
448,192,194831,1,0,0:0:0:0:
64,192,194938,1,0,0:0:0:70:hihat_16_2.wav
192,192,195045,128,0,195152:0:0:0:70:k-16-2.wav
448,192,195045,1,0,0:0:0:0:
448,192,195152,1,0,0:0:0:70:hihat_16_2.wav
64,192,195259,1,0,0:0:0:70:k-16-2.wav
192,192,195259,1,0,0:0:0:70:s-2.wav
320,192,195313,1,0,0:0:0:70:k-16-2.wav
448,192,195313,1,0,0:0:0:0:
64,192,195366,1,0,0:0:0:70:k-16-2.wav
192,192,195366,1,0,0:0:0:70:hihat_16_2.wav
320,192,195420,1,0,0:0:0:70:k-16-2.wav
448,192,195420,1,0,0:0:0:0:
64,192,195473,1,0,0:0:0:70:k-16-2.wav
192,192,195473,128,0,195581:0:0:0:0:
320,192,195581,1,0,0:0:0:70:hihat_16_2.wav
320,192,195688,1,0,0:0:0:70:k-16-2.wav
448,192,195688,1,0,0:0:0:70:s-2.wav
64,192,195741,1,0,0:0:0:70:k-16-2.wav
192,192,195741,1,0,0:0:0:0:
320,192,195795,1,0,0:0:0:70:k-16-2.wav
448,192,195795,1,0,0:0:0:70:hihat_16_2.wav
192,192,195848,1,0,0:0:0:70:k-16-2.wav
64,192,195902,1,0,0:0:0:70:k-16-2.wav
320,192,195902,1,0,0:0:0:70:cym_16_16.wav
448,192,195902,1,0,0:0:0:0:
192,192,196009,1,0,0:0:0:70:hihat_16_2.wav
64,192,196116,1,0,0:0:0:70:k-16-2.wav
320,192,196116,1,0,0:0:0:70:s-2.wav
448,192,196116,128,0,196223:0:0:0:70:ride_16_4.wav
64,192,196223,1,0,0:0:0:70:hihat_16_2.wav
192,192,196331,1,0,0:0:0:70:k-16-2.wav
320,192,196331,128,0,196438:0:0:0:70:ride_16_4.wav
192,192,196438,1,0,0:0:0:70:hihat_16_2.wav
64,192,196545,128,0,196652:0:0:0:70:k-16-2.wav
320,192,196545,1,0,0:0:0:70:s-2.wav
448,192,196545,1,0,0:0:0:70:ride_16_4.wav
320,192,196652,1,0,0:0:0:70:hihat_16_2.wav
192,192,196759,128,0,196866:0:0:0:70:k-16-2.wav
448,192,196759,1,0,0:0:0:70:ride_16_4.wav
448,192,196866,1,0,0:0:0:70:hihat_16_2.wav
64,192,196973,1,0,0:0:0:70:k-16-2.wav
192,192,196973,1,0,0:0:0:70:s-2.wav
320,192,196973,128,0,197081:0:0:0:70:ride_16_4.wav
64,192,197081,1,0,0:0:0:70:hihat_16_2.wav
192,192,197188,1,0,0:0:0:70:k-16-2.wav
448,192,197188,128,0,197295:0:0:0:70:ride_16_4.wav
192,192,197295,1,0,0:0:0:70:hihat_16_2.wav
64,192,197402,128,0,197509:0:0:0:70:k-16-2.wav
320,192,197402,1,0,0:0:0:70:s-2.wav
448,192,197402,1,0,0:0:0:70:ride_16_4.wav
320,192,197509,128,0,197616:0:0:0:70:hihat_16_2.wav
64,192,197616,1,0,0:0:0:70:k-16-2.wav
192,192,197616,1,0,0:0:0:70:ride_16_4.wav
192,192,197723,128,0,197831:0:0:0:70:hihat_16_2.wav
64,192,197831,1,0,0:0:0:70:k-16-2.wav
320,192,197831,1,0,0:0:0:70:s-2.wav
448,192,197831,128,0,197938:0:0:0:70:ride_16_4.wav
64,192,197938,1,0,0:0:0:70:hihat_16_2.wav
192,192,198045,128,0,198152:0:0:0:70:k-16-2.wav
448,192,198045,1,0,0:0:0:70:ride_16_4.wav
448,192,198152,1,0,0:0:0:70:hihat_16_2.wav
64,192,198259,1,0,0:0:0:70:k-16-2.wav
192,192,198259,1,0,0:0:0:70:s-2.wav
320,192,198259,128,0,198366:0:0:0:70:ride_16_4.wav
192,192,198366,1,0,0:0:0:70:hihat_16_2.wav
64,192,198473,128,0,198581:0:0:0:70:k-16-2.wav
448,192,198473,1,0,0:0:0:70:ride_16_4.wav
448,192,198581,1,0,0:0:0:70:hihat_16_2.wav
64,192,198688,1,0,0:0:0:70:k-16-2.wav
192,192,198688,128,0,198795:0:0:0:70:s-2.wav
320,192,198688,1,0,0:0:0:70:ride_16_4.wav
320,192,198795,1,0,0:0:0:70:hihat_16_2.wav
192,192,198902,1,0,0:0:0:70:k-16-2.wav
448,192,198902,128,0,199009:0:0:0:70:ride_16_4.wav
192,192,199009,1,0,0:0:0:70:hihat_16_2.wav
64,192,199116,1,0,0:0:0:70:k-16-2.wav
320,192,199116,128,0,199223:0:0:0:70:s-2.wav
448,192,199116,1,0,0:0:0:70:ride_16_4.wav
64,192,199223,1,0,0:0:0:70:hihat_16_2.wav
192,192,199331,1,0,0:0:0:70:k-16-2.wav
448,192,199331,1,0,0:0:0:70:ride_16_4.wav
448,192,199438,1,0,0:0:0:70:hihat_16_2.wav
64,192,199545,128,0,199652:0:0:0:70:k-16-2.wav
192,192,199545,1,0,0:0:0:70:s-2.wav
320,192,199545,1,0,0:0:0:70:ride_16_4.wav
320,192,199652,1,0,0:0:0:70:hihat_16_2.wav
192,192,199759,128,0,199866:0:0:0:70:k-16-2.wav
448,192,199759,1,0,0:0:0:70:ride_16_4.wav
448,192,199866,1,0,0:0:0:70:hihat_16_2.wav
64,192,199973,1,0,0:0:0:70:k-16-2.wav
192,192,199973,1,0,0:0:0:70:s-2.wav
320,192,199973,128,0,200081:0:0:0:70:ride_16_4.wav
64,192,200081,1,0,0:0:0:70:hihat_16_2.wav
192,192,200188,1,0,0:0:0:70:k-16-2.wav
448,192,200188,128,0,200295:0:0:0:70:ride_16_4.wav
192,192,200295,1,0,0:0:0:70:hihat_16_2.wav
64,192,200402,128,0,200509:0:0:0:70:k-16-2.wav
320,192,200402,1,0,0:0:0:70:s-2.wav
448,192,200402,1,0,0:0:0:70:ride_16_4.wav
448,192,200509,1,0,0:0:0:70:hihat_16_2.wav
64,192,200616,1,0,0:0:0:70:k-16-2.wav
320,192,200616,128,0,200723:0:0:0:70:ride_16_4.wav
64,192,200723,1,0,0:0:0:70:hihat_16_2.wav
192,192,200831,128,0,200938:0:0:0:70:k-16-2.wav
320,192,200831,1,0,0:0:0:70:s-2.wav
448,192,200831,1,0,0:0:0:70:ride_16_4.wav
448,192,200938,128,0,201045:0:0:0:70:hihat_16_2.wav
64,192,201045,1,0,0:0:0:70:k-16-2.wav
320,192,201045,1,0,0:0:0:70:ride_16_4.wav
320,192,201152,128,0,201259:0:0:0:70:hihat_16_2.wav
64,192,201259,128,0,201366:0:0:0:70:k-16-2.wav
192,192,201259,1,0,0:0:0:70:s-2.wav
448,192,201259,1,0,0:0:0:70:ride_16_4.wav
448,192,201366,1,0,0:0:0:70:hihat_16_2.wav
64,192,201473,1,0,0:0:0:70:k-16-2.wav
320,192,201473,128,0,201581:0:0:0:70:ride_16_4.wav
64,192,201581,1,0,0:0:0:70:hihat_16_2.wav
192,192,201688,128,0,201795:0:0:0:70:k-16-2.wav
320,192,201688,1,0,0:0:0:70:s-2.wav
448,192,201688,1,0,0:0:0:70:ride_16_4.wav
320,192,201795,1,0,0:0:0:70:hihat_16_2.wav
192,192,201902,1,0,0:0:0:70:k-16-2.wav
448,192,201902,128,0,202009:0:0:0:70:ride_16_4.wav
192,192,202009,1,0,0:0:0:70:hihat_16_2.wav
64,192,202116,1,0,0:0:0:70:k-16-2.wav
320,192,202116,128,0,202223:0:0:0:70:s-2.wav
448,192,202116,1,0,0:0:0:70:ride_16_4.wav
64,192,202223,1,0,0:0:0:70:hihat_16_2.wav
192,192,202331,128,0,202438:0:0:0:70:k-16-2.wav
448,192,202331,1,0,0:0:0:70:ride_16_4.wav
448,192,202438,1,0,0:0:0:70:hihat_16_2.wav
64,192,202545,128,0,202652:0:0:0:70:k-16-2.wav
192,192,202545,1,0,0:0:0:70:s-2.wav
320,192,202545,1,0,0:0:0:70:ride_16_4.wav
320,192,202652,1,0,0:0:0:70:hihat_16_2.wav
64,192,202759,1,0,0:0:0:70:k-16-2.wav
192,192,202759,1,0,0:0:0:70:cym_16_16.wav
448,192,202759,1,0,0:0:0:0:
64,192,202973,1,0,0:0:0:70:s-2.wav
320,192,202973,128,0,203081:0:0:0:0:
448,192,202973,128,0,203081:0:0:0:0:
64,192,203188,128,0,203295:0:0:0:70:k-16-2.wav
320,192,203188,128,0,203295:0:0:0:0:
64,192,203402,128,0,203509:0:0:0:70:s-2.wav
192,192,203402,128,0,203509:0:0:0:0:
448,192,203402,1,0,0:0:0:0:
192,192,203616,128,0,203723:0:0:0:70:k-16-2.wav
448,192,203616,128,0,203723:0:0:0:0:
64,192,203831,1,0,0:0:0:70:s-2.wav
320,192,203831,128,0,203938:0:0:0:0:
448,192,203831,128,0,203938:0:0:0:0:
192,192,204045,128,0,204152:0:0:0:70:k-16-2.wav
320,192,204045,128,0,204152:0:0:0:0:
64,192,204259,128,0,204366:0:0:0:70:s-2.wav
192,192,204259,128,0,204366:0:0:0:0:
448,192,204259,1,0,0:0:0:0:
320,192,204366,128,0,204473:0:0:0:0:
448,192,204366,128,0,204473:0:0:0:0:
64,192,204473,1,0,0:0:0:70:k-16-2.wav
192,192,204473,1,0,0:0:0:0:
320,192,204581,1,0,0:0:0:0:
64,192,204688,1,0,0:0:0:70:s-2.wav
192,192,204688,128,0,204795:0:0:0:0:
448,192,204688,128,0,204795:0:0:0:0:
64,192,204902,128,0,205009:0:0:0:70:k-16-2.wav
320,192,204902,128,0,205009:0:0:0:0:
64,192,205116,128,0,205223:0:0:0:70:s-2.wav
192,192,205116,128,0,205223:0:0:0:0:
448,192,205116,1,0,0:0:0:0:
192,192,205331,128,0,205438:0:0:0:70:k-16-2.wav
448,192,205331,128,0,205438:0:0:0:0:
192,192,205545,1,0,0:0:0:70:s-2.wav
320,192,205545,128,0,205652:0:0:0:0:
448,192,205545,128,0,205652:0:0:0:0:
64,192,205759,128,0,205866:0:0:0:70:k-16-2.wav
320,192,205759,128,0,205866:0:0:0:0:
64,192,205973,128,0,206081:0:0:0:70:s-2.wav
192,192,205973,128,0,206081:0:0:0:0:
448,192,205973,1,0,0:0:0:0:
320,192,206188,1,0,0:0:0:70:k-16-2.wav
448,192,206188,1,0,0:0:0:0:
192,192,206402,128,0,206509:0:0:0:0:
448,192,206616,128,0,206723:0:0:0:0:
64,192,206831,128,0,206938:0:0:0:0:
320,192,207045,128,0,207152:0:0:0:0:
192,192,207259,128,0,207366:0:0:0:0:
64,192,207473,128,0,209616:0:0:0:0:
448,192,207473,128,0,207581:0:0:0:0:
192,192,207688,128,0,207795:0:0:0:0:
320,192,207795,128,0,207902:0:0:0:0:
192,192,208009,128,0,208116:0:0:0:0:
448,192,208116,128,0,208223:0:0:0:0:
320,192,208331,128,0,208438:0:0:0:0:
192,192,208545,128,0,208652:0:0:0:0:
320,192,208759,128,0,208973:0:0:0:0:
192,192,208973,128,0,209188:0:0:0:0:
448,192,209188,128,0,209402:0:0:0:0:
320,192,209402,128,0,209616:0:0:0:0:
192,192,209616,1,0,0:0:0:70:k-d-11.wav
448,192,209616,1,0,0:0:0:70:cym_16_16.wav
320,192,209670,1,0,0:0:0:0:
192,192,209723,1,0,0:0:0:0:
448,192,209777,1,0,0:0:0:0:
64,192,209831,1,0,0:0:0:0:
192,192,209884,1,0,0:0:0:0:
320,192,209938,1,0,0:0:0:0:
448,192,209991,1,0,0:0:0:0:
192,192,210045,1,0,0:0:0:0:
320,192,210098,1,0,0:0:0:0:
64,192,210152,1,0,0:0:0:0:
192,192,210206,1,0,0:0:0:0:
448,192,210259,1,0,0:0:0:0:
320,192,210313,1,0,0:0:0:0:
192,192,210366,1,0,0:0:0:0:
64,192,210420,1,0,0:0:0:0:
448,192,210473,1,0,0:0:0:0:
192,192,210527,1,0,0:0:0:0:
320,192,210581,1,0,0:0:0:0:
64,192,210634,1,0,0:0:0:0:
448,192,210688,1,0,0:0:0:0:
192,192,210741,1,0,0:0:0:0:
64,192,210795,1,0,0:0:0:0:
320,192,210848,1,0,0:0:0:0:
192,192,210902,1,0,0:0:0:0:
448,192,210956,1,0,0:0:0:0:
64,192,211009,1,0,0:0:0:0:
192,192,211063,1,0,0:0:0:0:
448,192,211116,1,0,0:0:0:0:
320,192,211170,1,0,0:0:0:0:
192,192,211223,1,0,0:0:0:0:
64,192,211277,1,0,0:0:0:0:
320,192,211331,1,0,0:0:0:70:s-3.wav
448,192,211331,1,0,0:0:0:0:
192,192,211384,1,0,0:0:0:0:
64,192,211438,1,0,0:0:0:70:s-3.wav
448,192,211438,1,0,0:0:0:0:
320,192,211491,1,0,0:0:0:0:
192,192,211545,1,0,0:0:0:0:
448,192,211598,1,0,0:0:0:0:
64,192,211652,1,0,0:0:0:70:s-3.wav
192,192,211652,1,0,0:0:0:0:
320,192,211706,1,0,0:0:0:0:
64,192,211759,1,0,0:0:0:70:s-3.wav
448,192,211759,1,0,0:0:0:0:
192,192,211813,1,0,0:0:0:0:
320,192,211866,1,0,0:0:0:0:
64,192,211920,1,0,0:0:0:0:
320,192,211973,1,0,0:0:0:70:s-3.wav
448,192,211973,1,0,0:0:0:0:
192,192,212027,1,0,0:0:0:0:
448,192,212081,1,0,0:0:0:0:
64,192,212134,1,0,0:0:0:0:
192,192,212188,128,0,212241:0:0:0:70:fx1.wav
320,192,212188,128,0,212241:0:0:0:0:
448,192,212188,128,0,212241:0:0:0:0:
64,192,212616,128,0,212777:0:0:0:70:k-16-2.wav
192,192,212616,128,0,212777:0:0:0:70:ride_16_4.wav
448,192,212616,1,0,0:0:0:70:cym_16_16.wav
320,192,212777,1,0,0:0:0:0:
448,192,212831,1,0,0:0:0:70:ride_16_4.wav
64,192,212866,1,0,0:0:0:0:
192,192,212902,1,0,0:0:0:0:
320,192,212938,128,0,213045:0:0:0:70:s-3.wav
448,192,212938,128,0,213152:0:0:0:0:
192,192,213045,1,0,0:0:0:70:ride_16_4.wav
64,192,213259,128,0,213473:0:0:0:70:k-16-2.wav
448,192,213259,1,0,0:0:0:70:ride_16_4.wav
320,192,213366,128,0,213473:0:0:0:0:
192,192,213473,128,0,213581:0:0:0:70:ride_16_4.wav
448,192,213581,128,0,213688:0:0:0:0:
64,192,213688,128,0,213795:0:0:0:70:s-3.wav
192,192,213688,1,0,0:0:0:70:ride_16_4.wav
320,192,213795,128,0,213902:0:0:0:0:
64,192,213902,1,0,0:0:0:70:k-a-3.wav
448,192,213902,1,0,0:0:0:70:ride_16_4.wav
192,192,213938,1,0,0:0:0:70:k-a-3.wav
320,192,213973,1,0,0:0:0:70:k-a-3.wav
192,192,214045,1,0,0:0:0:70:k-a-3.wav
448,192,214045,1,0,0:0:0:0:
64,192,214116,1,0,0:0:0:70:k-a-3.wav
320,192,214116,1,0,0:0:0:70:ride_16_4.wav
192,192,214223,1,0,0:0:0:70:k-16-2.wav
448,192,214223,1,0,0:0:0:0:
64,192,214331,1,0,0:0:0:70:k-16-1.wav
320,192,214331,1,0,0:0:0:70:s-3.wav
448,192,214331,128,0,214438:0:0:0:70:ride_16_4.wav
64,192,214438,1,0,0:0:0:70:k-16-1.wav
192,192,214438,128,0,214545:0:0:0:0:
320,192,214545,1,0,0:0:0:70:k-16-1.wav
448,192,214545,128,0,214652:0:0:0:70:ride_16_4.wav
192,192,214652,1,0,0:0:0:70:k-16-1.wav
320,192,214652,128,0,214759:0:0:0:70:s-2.wav
64,192,214973,1,0,0:0:0:70:k-d-6.wav
192,192,214973,1,0,0:0:0:70:cym_16_6.wav
320,192,214973,128,0,215188:0:0:0:0:
448,192,214973,128,0,215188:0:0:0:0:
64,192,215295,1,0,0:0:0:70:k-d-6.wav
192,192,215295,128,0,215616:0:0:0:70:cym_16_6.wav
320,192,215295,128,0,215616:0:0:0:0:
448,192,215295,1,0,0:0:0:0:
448,192,215616,1,0,0:0:0:70:k-16-1.wav
64,192,215670,1,0,0:0:0:70:k-16-1.wav
320,192,215723,1,0,0:0:0:70:k-16-1.wav
192,192,215777,1,0,0:0:0:70:k-16-1.wav
320,192,215831,128,0,215938:0:0:0:70:k-16-1.wav
448,192,215831,1,0,0:0:0:70:ride_16_4.wav
64,192,215938,128,0,216152:0:0:0:0:
192,192,216045,128,0,216152:0:0:0:70:s-2.wav
320,192,216045,1,0,0:0:0:70:ride_16_4.wav
448,192,216045,1,0,0:0:0:0:
64,192,216259,1,0,0:0:0:70:s-2.wav
320,192,216259,1,0,0:0:0:70:ride_16_2.wav
64,192,216366,128,0,216527:0:0:0:70:k-16-2.wav
192,192,216366,1,0,0:0:0:70:cym_16_4.wav
320,192,216366,128,0,216581:0:0:0:0:
448,192,216366,1,0,0:0:0:0:
192,192,216473,128,0,216581:0:0:0:0:
64,192,216688,1,0,0:0:0:70:k-16-2.wav
192,192,216688,128,0,216902:0:0:0:70:cym_16_4.wav
320,192,216688,128,0,216848:0:0:0:0:
448,192,216688,1,0,0:0:0:0:
448,192,216795,128,0,216902:0:0:0:0:
64,192,217009,1,0,0:0:0:70:k-16-2.wav
192,192,217009,128,0,217170:0:0:0:70:cym_16_4.wav
320,192,217009,128,0,217223:0:0:0:0:
448,192,217009,1,0,0:0:0:0:
64,192,217116,128,0,217223:0:0:0:0:
320,192,217331,128,0,217491:0:0:0:70:gabba_4.wav
64,192,217438,128,0,217545:0:0:0:0:
192,192,217491,128,0,217598:0:0:0:0:
448,192,217545,128,0,217759:0:0:0:0:
320,192,217652,128,0,217759:0:0:0:0:
192,192,217759,1,0,0:0:0:0:
64,192,217813,128,0,217866:0:0:0:0:
448,192,217866,128,0,217920:0:0:0:0:
192,192,217920,128,0,217973:0:0:0:0:
320,192,217973,128,0,218027:0:0:0:0:
64,192,218027,128,0,218081:0:0:0:0:
192,192,218081,1,0,0:0:0:70:k-16-2.wav
320,192,218081,1,0,0:0:0:70:s-2.wav
448,192,218081,1,0,0:0:0:0:
64,192,218188,1,0,0:0:0:70:k-16-2.wav
320,192,218188,128,0,218295:0:0:0:70:s-2.wav
448,192,218188,128,0,218295:0:0:0:0:
64,192,218402,128,0,218616:0:0:0:70:k-16-2.wav
192,192,218402,128,0,218616:0:0:0:70:s-3.wav
448,192,218402,1,0,0:0:0:0:
64,192,218723,1,0,0:0:0:70:k-16-2.wav
320,192,218723,1,0,0:0:0:70:cym_16_6.wav
448,192,218723,128,0,218831:0:0:0:0:
192,192,218831,128,0,219045:0:0:0:0:
64,192,219045,128,0,219152:0:0:0:70:k-16-2.wav
320,192,219045,1,0,0:0:0:70:cym_16_11.wav
448,192,219045,128,0,219152:0:0:0:0:
192,192,219152,1,0,0:0:0:70:k-16-1.wav
320,192,219206,1,0,0:0:0:70:k-16-1.wav
64,192,219259,1,0,0:0:0:70:k-16-2.wav
448,192,219259,128,0,219366:0:0:0:70:ride_16_4.wav
192,192,219366,128,0,219473:0:0:0:70:k-16-2.wav
320,192,219366,1,0,0:0:0:0:
192,192,219581,128,0,219634:0:0:0:0:
320,192,219581,1,0,0:0:0:0:
64,192,219688,1,0,0:0:0:70:ride_16_4.wav
192,192,219688,128,0,219795:0:0:0:0:
320,192,219795,1,0,0:0:0:70:s-3.wav
448,192,219795,1,0,0:0:0:0:
64,192,219902,1,0,0:0:0:70:ride_16_4.wav
320,192,219902,128,0,220116:0:0:0:0:
192,192,220009,128,0,220116:0:0:0:0:
64,192,220116,128,0,220331:0:0:0:70:k-16-2.wav
448,192,220116,1,0,0:0:0:70:ride_16_4.wav
320,192,220331,1,0,0:0:0:70:ride_16_4.wav
64,192,220438,1,0,0:0:0:70:k-16-2.wav
192,192,220438,128,0,220652:0:0:0:0:
448,192,220545,1,0,0:0:0:70:ride_16_4.wav
320,192,220759,1,0,0:0:0:70:ride_16_4.wav
448,192,220759,1,0,0:0:0:70:cym_16_8.wav
64,192,220866,1,0,0:0:0:0:
192,192,220920,1,0,0:0:0:0:
320,192,220973,1,0,0:0:0:70:ride_16_4.wav
448,192,220973,128,0,221081:0:0:0:0:
64,192,221081,1,0,0:0:0:70:s-3.wav
192,192,221081,1,0,0:0:0:0:
448,192,221188,128,0,221295:0:0:0:70:ride_16_4.wav
64,192,221295,1,0,0:0:0:70:k-16-2.wav
192,192,221295,1,0,0:0:0:0:
448,192,221402,128,0,221509:0:0:0:70:ride_16_2.wav
64,192,221509,1,0,0:0:0:70:k-16-2.wav
192,192,221509,128,0,221723:0:0:0:70:s-3.wav
320,192,221509,128,0,221723:0:0:0:70:ride_16_4.wav
64,192,221831,1,0,0:0:0:70:k-16-2.wav
192,192,221831,128,0,222045:0:0:0:70:s-3.wav
448,192,221831,128,0,222045:0:0:0:70:ride_16_4.wav
64,192,222152,128,0,222206:0:0:0:70:k-16-2.wav
192,192,222152,128,0,222206:0:0:0:70:s-2.wav
448,192,222152,1,0,0:0:0:70:ride_16_2.wav
64,192,222259,1,0,0:0:0:70:k-d-2.wav
320,192,222259,128,0,222366:0:0:0:70:s-2.wav
448,192,222259,128,0,222366:0:0:0:70:cym_16_2.wav
64,192,222473,1,0,0:0:0:70:k-d-8.wav
320,192,222473,1,0,0:0:0:70:ride_16_4.wav
448,192,222473,1,0,0:0:0:70:cym_16_8.wav
320,192,222581,128,0,222688:0:0:0:0:
448,192,222634,128,0,222688:0:0:0:0:
64,192,222688,1,0,0:0:0:70:ride_16_4.wav
192,192,222741,1,0,0:0:0:0:
320,192,222795,128,0,222902:0:0:0:70:s-3.wav
448,192,222795,1,0,0:0:0:0:
192,192,222848,128,0,222902:0:0:0:0:
64,192,222902,1,0,0:0:0:70:ride_16_4.wav
448,192,222956,128,0,223063:0:0:0:0:
320,192,223009,128,0,223116:0:0:0:0:
64,192,223116,1,0,0:0:0:70:s-3.wav
192,192,223116,128,0,223223:0:0:0:70:ride_16_4.wav
448,192,223223,128,0,223331:0:0:0:0:
64,192,223331,1,0,0:0:0:70:k-16-2.wav
320,192,223331,1,0,0:0:0:0:
320,192,223402,1,0,0:0:0:0:
192,192,223473,1,0,0:0:0:0:
64,192,223545,1,0,0:0:0:70:k-d-5.wav
192,192,223545,1,0,0:0:0:0:
448,192,223616,1,0,0:0:0:0:
448,192,223688,1,0,0:0:0:0:
192,192,223759,1,0,0:0:0:0:
64,192,223866,1,0,0:0:0:70:k-16-1.wav
448,192,223866,1,0,0:0:0:0:
192,192,223973,1,0,0:0:0:70:k-16-1.wav
320,192,223973,1,0,0:0:0:0:
192,192,224081,1,0,0:0:0:70:k-16-1.wav
320,192,224081,1,0,0:0:0:0:
448,192,224188,128,0,224241:0:0:0:70:k-48-f3.wav
320,192,224241,1,0,0:0:0:0:
64,192,224295,128,0,224348:0:0:0:0:
192,192,224348,1,0,0:0:0:0:
320,192,224402,128,0,224456:0:0:0:0:
448,192,224456,1,0,0:0:0:0:
192,192,224509,128,0,224563:0:0:0:0:
64,192,224563,1,0,0:0:0:0:
320,192,224616,128,0,224831:0:0:0:70:k-16-2.wav
448,192,224616,128,0,224723:0:0:0:70:ride_16_4.wav
64,192,224831,128,0,224938:0:0:0:70:k-16-2.wav
192,192,224831,128,0,225045:0:0:0:70:ride_16_4.wav
64,192,225259,1,0,0:0:0:70:k-16-2.wav
192,192,225259,128,0,225473:0:0:0:70:cym_16_5.wav
320,192,225259,1,0,0:0:0:0:
448,192,225259,128,0,225473:0:0:0:0:
64,192,225581,128,0,225795:0:0:0:70:k-16-2.wav
192,192,225581,1,0,0:0:0:70:cym_16_5.wav
320,192,225581,128,0,225795:0:0:0:0:
448,192,225581,1,0,0:0:0:0:
64,192,225902,128,0,226331:0:0:0:70:k-16-2.wav
192,192,225902,128,0,226116:0:0:0:70:cym_16_8.wav
320,192,225902,1,0,0:0:0:0:
448,192,225902,1,0,0:0:0:0:
320,192,226116,1,0,0:0:0:70:k-16-1.wav
448,192,226116,1,0,0:0:0:70:ride_16_4.wav
192,192,226223,1,0,0:0:0:70:s-2.wav
448,192,226223,1,0,0:0:0:0:
192,192,226545,1,0,0:0:0:70:s-3.wav
320,192,226545,128,0,226652:0:0:0:70:ride_16_4.wav
448,192,226545,128,0,226652:0:0:0:0:
64,192,226759,128,0,226973:0:0:0:70:k-16-2.wav
320,192,226759,1,0,0:0:0:70:cym_16_8.wav
448,192,226759,1,0,0:0:0:0:
192,192,226866,128,0,226973:0:0:0:0:
320,192,226973,1,0,0:0:0:70:ride_16_4.wav
448,192,226973,1,0,0:0:0:0:
192,192,227081,128,0,227295:0:0:0:0:
320,192,227188,128,0,227295:0:0:0:70:ride_16_4.wav
64,192,227295,1,0,0:0:0:0:
192,192,227402,1,0,0:0:0:70:ride_16_4.wav
320,192,227402,128,0,227616:0:0:0:0:
448,192,227509,128,0,227616:0:0:0:0:
64,192,227831,1,0,0:0:0:70:k-16-2.wav
192,192,227831,1,0,0:0:0:70:cym_16_11.wav
448,192,227831,1,0,0:0:0:0:
320,192,227884,1,0,0:0:0:0:
192,192,227938,1,0,0:0:0:0:
64,192,227991,1,0,0:0:0:0:
448,192,228045,1,0,0:0:0:0:
192,192,228098,1,0,0:0:0:0:
320,192,228152,1,0,0:0:0:0:
64,192,228206,1,0,0:0:0:0:
448,192,228259,1,0,0:0:0:0:
320,192,228313,1,0,0:0:0:0:
192,192,228366,1,0,0:0:0:0:
64,192,228420,1,0,0:0:0:0:
192,192,228473,128,0,235277:0:0:0:70:k-16-2.wav
320,192,228473,128,0,235277:0:0:0:70:stop-kick2.wav
448,192,228473,1,0,0:0:0:70:fx3.wav
64,192,228902,1,0,0:0:0:70:stop-kick.wav
448,192,229116,1,0,0:0:0:0:
64,192,229331,1,0,0:0:0:70:stop-snare.wav
448,192,229331,1,0,0:0:0:0:
448,192,229759,1,0,0:0:0:0:
64,192,229973,1,0,0:0:0:70:stop-kick.wav
64,192,230188,1,0,0:0:0:70:stop-kick.wav
448,192,230188,1,0,0:0:0:70:stop-kick2.wav
64,192,230616,1,0,0:0:0:70:stop-kick.wav
448,192,230831,1,0,0:0:0:0:
64,192,231045,1,0,0:0:0:70:stop-snare.wav
448,192,231045,1,0,0:0:0:0:
448,192,231473,1,0,0:0:0:70:stop-kick.wav
64,192,231902,1,0,0:0:0:70:stop-kick.wav
448,192,231902,1,0,0:0:0:70:stop-kick2.wav
448,192,232331,1,0,0:0:0:70:stop-kick.wav
64,192,232545,1,0,0:0:0:0:
64,192,232759,1,0,0:0:0:70:stop-snare.wav
448,192,232759,1,0,0:0:0:0:
64,192,233188,1,0,0:0:0:0:
448,192,233402,1,0,0:0:0:70:stop-kick.wav
64,192,233616,1,0,0:0:0:70:stop-kick.wav
448,192,233616,1,0,0:0:0:70:stop-kick2.wav
448,192,234045,1,0,0:0:0:70:stop-kick.wav
64,192,234259,1,0,0:0:0:0:
64,192,234473,1,0,0:0:0:70:stop-snare.wav
448,192,234473,128,0,235331:0:0:0:0:
64,192,234902,128,0,235331:0:0:0:70:stop-kick.wav
192,192,235331,128,0,235438:0:0:0:70:za-.wav
320,192,235331,128,0,235545:0:0:0:0:
64,192,235545,1,0,0:0:0:0:
192,192,235652,1,0,0:0:0:0:
448,192,235759,1,0,0:0:0:0:
320,192,235973,1,0,0:0:0:0:
64,192,236188,1,0,0:0:0:0:
448,192,236402,1,0,0:0:0:0:
448,192,236616,1,0,0:0:0:0:
192,192,236831,1,0,0:0:0:0:
320,192,237045,1,0,0:0:0:0:
448,192,237259,1,0,0:0:0:0:
192,192,237366,1,0,0:0:0:0:
320,192,237473,1,0,0:0:0:0:
64,192,237688,1,0,0:0:0:0:
320,192,237902,1,0,0:0:0:0:
64,192,238116,1,0,0:0:0:0:
320,192,238331,1,0,0:0:0:0:
192,192,238545,1,0,0:0:0:0:
320,192,238652,1,0,0:0:0:0:
448,192,238759,1,0,0:0:0:0:
320,192,238973,1,0,0:0:0:0:
192,192,239081,1,0,0:0:0:0:
64,192,239188,1,0,0:0:0:0:
64,192,239402,1,0,0:0:0:0:
192,192,239509,1,0,0:0:0:0:
448,192,239616,1,0,0:0:0:0:
64,192,239831,1,0,0:0:0:0:
320,192,240045,1,0,0:0:0:0:
448,192,240259,1,0,0:0:0:0:
320,192,240366,1,0,0:0:0:0:
64,192,240473,128,0,241331:0:0:0:0:
192,192,240473,1,0,0:0:0:0:
448,192,240688,1,0,0:0:0:0:
320,192,240902,1,0,0:0:0:0:
192,192,241116,1,0,0:0:0:0:
192,192,241331,1,0,0:0:0:70:k-d-3.wav
320,192,241331,1,0,0:0:0:70:cym_16_3.wav
448,192,241331,1,0,0:0:0:0:
64,192,241545,1,0,0:0:0:70:k-d-2.wav
192,192,241545,1,0,0:0:0:70:cym_16_2.wav
320,192,241545,1,0,0:0:0:0:
320,192,241688,1,0,0:0:0:70:k-d-1.wav
448,192,241688,1,0,0:0:0:70:cym_16_1.wav
64,192,241759,1,0,0:0:0:70:k-d-1.wav
192,192,241759,1,0,0:0:0:70:cym_16_1.wav
320,192,241831,1,0,0:0:0:70:k-d-1.wav
448,192,241831,1,0,0:0:0:70:cym_16_1.wav
64,192,241902,1,0,0:0:0:70:k-d-1.wav
192,192,241902,1,0,0:0:0:70:cym_16_1.wav
320,192,241973,128,0,242116:0:0:0:70:k-d-2.wav
448,192,241973,128,0,242116:0:0:0:70:cym_16_2.wav
64,192,242116,1,0,0:0:0:70:k-d-1.wav
192,192,242116,1,0,0:0:0:70:cym_16_1.wav
320,192,242188,1,0,0:0:0:70:k-d-2.wav
448,192,242188,1,0,0:0:0:70:cym_16_2.wav
64,192,242331,1,0,0:0:0:70:k-d-1.wav
192,192,242331,1,0,0:0:0:70:cym_16_1.wav
192,192,242402,1,0,0:0:0:70:k-d-2.wav
320,192,242402,1,0,0:0:0:70:breaks_g2_000.wav
192,192,242545,1,0,0:0:0:70:k-d-1.wav
320,192,242545,1,0,0:0:0:70:cym_16_1.wav
320,192,242616,128,0,242831:0:0:0:70:k-d-3.wav
448,192,242616,128,0,242831:0:0:0:70:breaks_g2_001.wav
64,192,242831,1,0,0:0:0:70:k-d-3.wav
192,192,242831,1,0,0:0:0:70:breaks_g2_002.wav
64,192,243045,1,0,0:0:0:70:k-16-2.wav
192,192,243045,1,0,0:0:0:70:ride_16_4.wav
320,192,243045,1,0,0:0:0:70:breaks_g2_003.wav
448,192,243045,1,0,0:0:0:70:cym_16_16.wav
320,192,243152,1,0,0:0:0:70:k-s.wav
448,192,243152,1,0,0:0:0:70:breaks_g2_004.wav
64,192,243259,1,0,0:0:0:70:k-16-2.wav
192,192,243259,1,0,0:0:0:70:ride_16_4.wav
320,192,243259,1,0,0:0:0:70:breaks_g2_006.wav
64,192,243366,1,0,0:0:0:70:k-s.wav
192,192,243366,1,0,0:0:0:70:breaks_g2_004.wav
64,192,243473,1,0,0:0:0:70:k-16-2.wav
320,192,243473,1,0,0:0:0:70:ride_16_4.wav
448,192,243473,1,0,0:0:0:70:breaks_g2_006.wav
320,192,243581,1,0,0:0:0:70:k-s.wav
448,192,243581,1,0,0:0:0:70:breaks_g2_010.wav
64,192,243688,1,0,0:0:0:70:k-16-2.wav
192,192,243688,1,0,0:0:0:70:ride_16_4.wav
448,192,243688,1,0,0:0:0:70:breaks_g2_012.wav
64,192,243795,1,0,0:0:0:70:k-s.wav
320,192,243795,1,0,0:0:0:70:breaks_g2_013.wav
64,192,243902,1,0,0:0:0:70:k-16-2.wav
320,192,243902,1,0,0:0:0:70:ride_16_4.wav
448,192,243902,1,0,0:0:0:70:breaks_g2_014.wav
192,192,244009,1,0,0:0:0:70:k-s.wav
448,192,244009,1,0,0:0:0:0:
64,192,244116,1,0,0:0:0:70:k-16-2.wav
320,192,244116,1,0,0:0:0:70:ride_16_2.wav
448,192,244116,1,0,0:0:0:70:breaks_g2_016.wav
64,192,244223,1,0,0:0:0:70:k-16-2.wav
192,192,244223,1,0,0:0:0:70:ride_16_2.wav
320,192,244223,1,0,0:0:0:70:breaks_g2_017.wav
64,192,244331,1,0,0:0:0:70:k-16-2.wav
320,192,244331,1,0,0:0:0:70:ride_16_4.wav
448,192,244331,1,0,0:0:0:70:breaks_g2_018.wav
192,192,244438,1,0,0:0:0:70:k-s.wav
448,192,244438,1,0,0:0:0:70:breaks_g2_019.wav
64,192,244545,1,0,0:0:0:70:k-16-2.wav
192,192,244545,1,0,0:0:0:70:ride_16_4.wav
448,192,244545,1,0,0:0:0:70:breaks_g2_020.wav
64,192,244652,1,0,0:0:0:70:k-s.wav
320,192,244652,1,0,0:0:0:0:
64,192,244759,1,0,0:0:0:70:k-16-2.wav
320,192,244759,1,0,0:0:0:70:ride_16_4.wav
448,192,244759,1,0,0:0:0:70:breaks_g2_021.wav
320,192,244866,1,0,0:0:0:70:k-s.wav
448,192,244866,1,0,0:0:0:70:breaks_g2_021.wav
64,192,244973,1,0,0:0:0:70:k-16-2.wav
192,192,244973,1,0,0:0:0:70:ride_16_4.wav
448,192,244973,1,0,0:0:0:70:breaks_g2_025.wav
64,192,245081,1,0,0:0:0:70:k-s.wav
192,192,245081,1,0,0:0:0:70:breaks_g2_026.wav
64,192,245188,1,0,0:0:0:70:k-16-2.wav
320,192,245188,1,0,0:0:0:70:ride_16_4.wav
448,192,245188,1,0,0:0:0:70:breaks_g2_028.wav
192,192,245295,1,0,0:0:0:70:k-s.wav
320,192,245295,1,0,0:0:0:70:breaks_g2_029.wav
64,192,245402,1,0,0:0:0:70:k-16-2.wav
192,192,245402,1,0,0:0:0:70:ride_16_2.wav
448,192,245402,1,0,0:0:0:70:breaks_g2_030.wav
64,192,245509,1,0,0:0:0:70:k-16-2.wav
320,192,245509,1,0,0:0:0:70:ride_16_2.wav
448,192,245509,1,0,0:0:0:0:
64,192,245616,1,0,0:0:0:70:k-16-2.wav
320,192,245616,1,0,0:0:0:70:ride_16_4.wav
448,192,245616,1,0,0:0:0:70:breaks_g2_031.wav
192,192,245723,1,0,0:0:0:70:k-s.wav
320,192,245723,1,0,0:0:0:70:breaks_g2_032.wav
64,192,245831,1,0,0:0:0:70:k-16-2.wav
320,192,245831,1,0,0:0:0:70:ride_16_2.wav
448,192,245831,1,0,0:0:0:70:breaks_g2_034.wav
64,192,245938,1,0,0:0:0:70:k-16-2.wav
192,192,245938,1,0,0:0:0:70:ride_16_2.wav
448,192,245938,1,0,0:0:0:70:breaks_g2_035.wav
64,192,246045,1,0,0:0:0:70:k-16-2.wav
192,192,246045,1,0,0:0:0:70:ride_16_4.wav
448,192,246045,1,0,0:0:0:70:breaks_g2_036.wav
192,192,246152,1,0,0:0:0:70:k-s.wav
320,192,246152,1,0,0:0:0:70:breaks_g2_037.wav
64,192,246259,1,0,0:0:0:70:k-16-2.wav
320,192,246259,1,0,0:0:0:70:ride_16_2.wav
448,192,246259,1,0,0:0:0:70:breaks_g2_039.wav
64,192,246366,1,0,0:0:0:70:k-16-2.wav
192,192,246366,1,0,0:0:0:70:ride_16_2.wav
448,192,246366,1,0,0:0:0:0:
64,192,246473,1,0,0:0:0:70:k-16-2.wav
320,192,246473,1,0,0:0:0:70:ride_16_4.wav
448,192,246473,1,0,0:0:0:70:breaks_g2_021.wav
64,192,246581,1,0,0:0:0:70:k-s.wav
192,192,246581,1,0,0:0:0:70:breaks_g2_021.wav
192,192,246688,1,0,0:0:0:70:k-16-2.wav
320,192,246688,1,0,0:0:0:70:ride_16_4.wav
448,192,246688,1,0,0:0:0:70:breaks_g2_044.wav
320,192,246795,1,0,0:0:0:70:k-s.wav
448,192,246795,1,0,0:0:0:70:breaks_g2_045.wav
64,192,246902,1,0,0:0:0:70:k-16-2.wav
192,192,246902,1,0,0:0:0:70:ride_16_4.wav
320,192,246902,1,0,0:0:0:70:breaks_g2_046.wav
64,192,247009,1,0,0:0:0:70:k-s.wav
192,192,247009,1,0,0:0:0:70:breaks_g2_047.wav
64,192,247116,1,0,0:0:0:70:k-16-2.wav
320,192,247116,1,0,0:0:0:70:ride_16_2.wav
448,192,247116,1,0,0:0:0:70:breaks_g2_048.wav
192,192,247223,1,0,0:0:0:70:k-16-2.wav
320,192,247223,1,0,0:0:0:70:ride_16_2.wav
448,192,247223,1,0,0:0:0:0:
64,192,247331,1,0,0:0:0:70:k-16-2.wav
320,192,247331,1,0,0:0:0:70:ride_16_4.wav
448,192,247331,1,0,0:0:0:70:breaks_g2_049.wav
192,192,247438,1,0,0:0:0:70:k-s.wav
320,192,247438,1,0,0:0:0:0:
64,192,247545,1,0,0:0:0:70:k-16-2.wav
192,192,247545,1,0,0:0:0:70:ride_16_4.wav
448,192,247545,1,0,0:0:0:70:breaks_g2_050.wav
64,192,247652,1,0,0:0:0:70:k-s.wav
192,192,247652,1,0,0:0:0:70:breaks_g2_052.wav
64,192,247759,1,0,0:0:0:70:k-16-2.wav
320,192,247759,1,0,0:0:0:70:ride_16_4.wav
448,192,247759,1,0,0:0:0:70:breaks_g2_053.wav
192,192,247866,1,0,0:0:0:70:k-s.wav
320,192,247866,1,0,0:0:0:70:breaks_g2_052.wav
64,192,247973,1,0,0:0:0:70:k-16-2.wav
192,192,247973,1,0,0:0:0:70:ride_16_2.wav
448,192,247973,1,0,0:0:0:70:breaks_g2_055.wav
64,192,248081,1,0,0:0:0:70:k-16-2.wav
320,192,248081,1,0,0:0:0:70:ride_16_2.wav
448,192,248081,1,0,0:0:0:0:
64,192,248188,1,0,0:0:0:70:k-16-2.wav
192,192,248188,1,0,0:0:0:70:ride_16_4.wav
448,192,248188,1,0,0:0:0:70:breaks_g2_056.wav
192,192,248295,1,0,0:0:0:70:k-s.wav
320,192,248295,1,0,0:0:0:70:breaks_g2_057.wav
64,192,248402,1,0,0:0:0:70:k-16-2.wav
320,192,248402,1,0,0:0:0:70:ride_16_4.wav
448,192,248402,1,0,0:0:0:70:breaks_g2_058.wav
320,192,248509,1,0,0:0:0:70:k-s.wav
448,192,248509,1,0,0:0:0:70:breaks_g2_059.wav
64,192,248616,1,0,0:0:0:70:k-16-2.wav
192,192,248616,1,0,0:0:0:70:ride_16_2.wav
448,192,248616,1,0,0:0:0:70:breaks_g2_060.wav
64,192,248723,1,0,0:0:0:70:k-16-2.wav
192,192,248723,1,0,0:0:0:70:ride_16_2.wav
64,192,248831,1,0,0:0:0:70:k-16-2.wav
320,192,248831,1,0,0:0:0:70:ride_16_2.wav
448,192,248831,1,0,0:0:0:70:breaks_g2_061.wav
192,192,248938,1,0,0:0:0:70:k-16-2.wav
448,192,248938,1,0,0:0:0:70:ride_16_2.wav
320,192,249045,1,0,0:0:0:70:k-16-2.wav
448,192,249045,1,0,0:0:0:70:ride_16_4.wav
64,192,249088,1,0,0:0:0:0:
192,192,249131,1,0,0:0:0:0:
320,192,249173,1,0,0:0:0:0:
64,192,249259,1,0,0:0:0:70:k-16-2.wav
192,192,249259,1,0,0:0:0:70:ride_16_4.wav
448,192,249302,1,0,0:0:0:0:
320,192,249345,1,0,0:0:0:0:
192,192,249388,1,0,0:0:0:0:
320,192,249473,1,0,0:0:0:70:k-16-2.wav
448,192,249473,1,0,0:0:0:70:ride_16_4.wav
64,192,249516,1,0,0:0:0:0:
192,192,249559,1,0,0:0:0:0:
320,192,249602,1,0,0:0:0:0:
64,192,249688,1,0,0:0:0:70:k-16-1.wav
192,192,249688,1,0,0:0:0:70:breaks_g2_065.wav
320,192,249741,1,0,0:0:0:70:k-16-1.wav
448,192,249741,1,0,0:0:0:0:
64,192,249795,1,0,0:0:0:70:k-16-1.wav
192,192,249795,1,0,0:0:0:0:
320,192,249848,1,0,0:0:0:70:k-16-1.wav
64,192,249902,1,0,0:0:0:70:k-16-2.wav
192,192,249902,1,0,0:0:0:70:ride_16_4.wav
448,192,249902,1,0,0:0:0:70:breaks_g2_066.wav
320,192,250009,1,0,0:0:0:70:k-s.wav
448,192,250009,1,0,0:0:0:70:breaks_g2_067.wav
64,192,250116,1,0,0:0:0:70:k-16-2.wav
192,192,250116,1,0,0:0:0:70:ride_16_4.wav
448,192,250116,1,0,0:0:0:70:breaks_g2_068.wav
192,192,250223,1,0,0:0:0:70:k-s.wav
320,192,250223,1,0,0:0:0:70:breaks_g2_070.wav
64,192,250331,1,0,0:0:0:70:k-16-2.wav
320,192,250331,1,0,0:0:0:70:ride_16_4.wav
448,192,250331,1,0,0:0:0:70:breaks_g2_072.wav
64,192,250438,1,0,0:0:0:70:k-s.wav
320,192,250438,1,0,0:0:0:70:breaks_g2_073.wav
64,192,250545,1,0,0:0:0:70:k-16-2.wav
192,192,250545,1,0,0:0:0:70:ride_16_4.wav
448,192,250545,1,0,0:0:0:70:breaks_g2_074.wav
192,192,250652,1,0,0:0:0:70:k-s.wav
448,192,250652,1,0,0:0:0:70:breaks_g2_075.wav
64,192,250759,1,0,0:0:0:70:k-16-2.wav
192,192,250759,1,0,0:0:0:70:ride_16_4.wav
320,192,250759,1,0,0:0:0:70:breaks_g2_076.wav
320,192,250866,1,0,0:0:0:70:k-s.wav
448,192,250866,1,0,0:0:0:70:breaks_g2_077.wav
64,192,250973,1,0,0:0:0:70:k-16-1.wav
192,192,250973,1,0,0:0:0:70:ride_16_1.wav
64,192,251045,1,0,0:0:0:70:k-16-1.wav
192,192,251045,1,0,0:0:0:70:ride_16_1.wav
320,192,251116,1,0,0:0:0:70:k-16-1.wav
448,192,251116,1,0,0:0:0:70:ride_16_1.wav
320,192,251188,1,0,0:0:0:70:k-16-2.wav
448,192,251188,1,0,0:0:0:70:ride_16_4.wav
64,192,251295,1,0,0:0:0:70:k-s.wav
192,192,251295,1,0,0:0:0:70:breaks_g2_082.wav
64,192,251402,1,0,0:0:0:70:k-16-2.wav
320,192,251402,1,0,0:0:0:70:ride_16_4.wav
448,192,251402,1,0,0:0:0:70:breaks_g2_083.wav
320,192,251509,1,0,0:0:0:70:k-s.wav
448,192,251509,1,0,0:0:0:0:
64,192,251616,1,0,0:0:0:70:k-16-2.wav
192,192,251616,1,0,0:0:0:70:ride_16_4.wav
320,192,251616,1,0,0:0:0:70:breaks_g2_084.wav
448,192,251616,1,0,0:0:0:0:
64,192,251723,1,0,0:0:0:70:k-s.wav
192,192,251723,1,0,0:0:0:70:breaks_g2_085.wav
64,192,251831,1,0,0:0:0:70:k-16-2.wav
192,192,251831,1,0,0:0:0:70:ride_16_4.wav
320,192,251831,1,0,0:0:0:70:breaks_g2_087.wav
448,192,251831,1,0,0:0:0:0:
320,192,251938,1,0,0:0:0:70:k-s.wav
448,192,251938,1,0,0:0:0:70:breaks_g2_089.wav
64,192,252045,1,0,0:0:0:70:k-16-2.wav
192,192,252045,1,0,0:0:0:70:ride_16_4.wav
320,192,252045,1,0,0:0:0:70:breaks_g2_090.wav
448,192,252045,1,0,0:0:0:0:
64,192,252152,1,0,0:0:0:70:k-s.wav
192,192,252152,1,0,0:0:0:70:breaks_g2_092.wav
64,192,252259,1,0,0:0:0:70:k-16-2.wav
192,192,252259,1,0,0:0:0:70:ride_16_4.wav
320,192,252259,1,0,0:0:0:70:breaks_g2_094.wav
448,192,252259,1,0,0:0:0:0:
320,192,252366,1,0,0:0:0:70:k-s.wav
448,192,252366,1,0,0:0:0:0:
64,192,252473,1,0,0:0:0:70:k-16-1.wav
192,192,252473,1,0,0:0:0:70:ride_32_1.wav
320,192,252527,1,0,0:0:0:70:k-16-1.wav
448,192,252527,1,0,0:0:0:70:ride_32_1.wav
64,192,252581,1,0,0:0:0:70:k-16-1.wav
192,192,252581,1,0,0:0:0:70:ride_32_1.wav
320,192,252634,1,0,0:0:0:70:k-16-1.wav
448,192,252634,1,0,0:0:0:70:ride_32_1.wav
64,192,252688,128,0,252795:0:0:0:70:k-16-2.wav
192,192,252741,128,0,252848:0:0:0:0:
320,192,252795,128,0,252902:0:0:0:70:k-s.wav
448,192,252848,128,0,252902:0:0:0:0:
64,192,252902,1,0,0:0:0:70:k-16-1.wav
192,192,252902,1,0,0:0:0:70:ride_32_1.wav
320,192,252956,1,0,0:0:0:70:k-16-1.wav
448,192,252956,1,0,0:0:0:70:ride_32_1.wav
64,192,253009,1,0,0:0:0:70:k-16-1.wav
192,192,253009,1,0,0:0:0:70:ride_32_1.wav
320,192,253063,1,0,0:0:0:70:k-16-1.wav
448,192,253063,1,0,0:0:0:70:ride_32_1.wav
64,192,253116,128,0,253223:0:0:0:70:k-16-2.wav
192,192,253116,128,0,253223:0:0:0:70:ride_16_4.wav
320,192,253223,1,0,0:0:0:70:k-s.wav
448,192,253223,1,0,0:0:0:0:
64,192,253331,1,0,0:0:0:70:k-16-2.wav
192,192,253331,1,0,0:0:0:70:ride_16_4.wav
320,192,253331,1,0,0:0:0:70:breaks_g2_105.wav
448,192,253331,1,0,0:0:0:70:cym_16_8.wav
320,192,253438,1,0,0:0:0:70:k-s.wav
448,192,253438,1,0,0:0:0:70:breaks_g2_106.wav
64,192,253545,1,0,0:0:0:70:k-16-2.wav
192,192,253545,1,0,0:0:0:70:ride_16_4.wav
320,192,253545,1,0,0:0:0:70:breaks_g2_108.wav
448,192,253545,1,0,0:0:0:0:
64,192,253652,1,0,0:0:0:70:k-s.wav
192,192,253652,1,0,0:0:0:70:breaks_g2_109.wav
320,192,253759,1,0,0:0:0:70:k-16-1.wav
448,192,253759,1,0,0:0:0:70:ride_32_1.wav
64,192,253813,1,0,0:0:0:70:k-16-1.wav
192,192,253813,1,0,0:0:0:70:ride_32_1.wav
320,192,253866,1,0,0:0:0:70:k-16-1.wav
448,192,253866,1,0,0:0:0:70:ride_32_1.wav
64,192,253920,1,0,0:0:0:70:k-16-1.wav
192,192,253920,1,0,0:0:0:70:ride_32_1.wav
320,192,253973,128,0,254081:0:0:0:70:k-16-2.wav
448,192,253973,128,0,254081:0:0:0:70:ride_16_4.wav
64,192,254081,1,0,0:0:0:70:k-s.wav
192,192,254081,1,0,0:0:0:0:
64,192,254188,1,0,0:0:0:70:k-16-2.wav
192,192,254188,1,0,0:0:0:70:ride_16_4.wav
320,192,254188,1,0,0:0:0:70:breaks_g2_105.wav
448,192,254188,1,0,0:0:0:70:cym_16_8.wav
320,192,254295,1,0,0:0:0:70:k-s.wav
448,192,254295,1,0,0:0:0:70:breaks_g2_106.wav
64,192,254402,1,0,0:0:0:70:k-16-2.wav
192,192,254402,1,0,0:0:0:70:ride_16_4.wav
320,192,254402,1,0,0:0:0:70:breaks_g2_108.wav
448,192,254402,1,0,0:0:0:0:
64,192,254509,1,0,0:0:0:70:k-16-1.wav
192,192,254509,1,0,0:0:0:70:ride_32_1.wav
320,192,254563,1,0,0:0:0:70:k-16-1.wav
448,192,254563,1,0,0:0:0:70:ride_32_1.wav
64,192,254616,1,0,0:0:0:70:k-16-1.wav
192,192,254616,1,0,0:0:0:70:ride_32_1.wav
320,192,254670,1,0,0:0:0:70:k-16-1.wav
448,192,254670,1,0,0:0:0:70:ride_32_1.wav
64,192,254723,1,0,0:0:0:70:k-16-1.wav
192,192,254723,1,0,0:0:0:70:ride_32_1.wav
320,192,254777,1,0,0:0:0:70:k-16-1.wav
448,192,254777,1,0,0:0:0:70:ride_32_1.wav
64,192,254831,128,0,254938:0:0:0:70:k-16-2.wav
192,192,254831,128,0,254938:0:0:0:70:ride_16_4.wav
320,192,254938,1,0,0:0:0:70:k-s.wav
448,192,254938,1,0,0:0:0:0:
64,192,255045,1,0,0:0:0:70:k-16-2.wav
192,192,255045,1,0,0:0:0:70:ride_16_4.wav
320,192,255045,1,0,0:0:0:70:breaks_g2_126.wav
448,192,255045,1,0,0:0:0:70:cym_16_8.wav
64,192,255152,1,0,0:0:0:70:k-s.wav
192,192,255152,1,0,0:0:0:70:breaks_g2_127.wav
64,192,255259,1,0,0:0:0:70:k-16-2.wav
192,192,255259,1,0,0:0:0:70:ride_16_4.wav
320,192,255259,1,0,0:0:0:70:breaks_g2_129.wav
448,192,255259,1,0,0:0:0:0:
320,192,255366,1,0,0:0:0:70:k-s.wav
448,192,255366,1,0,0:0:0:70:breaks_g2_130.wav
64,192,255473,1,0,0:0:0:70:k-16-1.wav
192,192,255473,1,0,0:0:0:70:ride_32_1.wav
320,192,255527,1,0,0:0:0:70:k-16-1.wav
448,192,255527,1,0,0:0:0:70:ride_32_1.wav
64,192,255581,1,0,0:0:0:70:k-16-1.wav
192,192,255581,1,0,0:0:0:70:ride_32_1.wav
320,192,255634,1,0,0:0:0:70:k-16-1.wav
448,192,255634,1,0,0:0:0:70:ride_32_1.wav
64,192,255688,128,0,255795:0:0:0:70:k-16-2.wav
192,192,255688,128,0,255795:0:0:0:70:ride_16_4.wav
320,192,255795,1,0,0:0:0:70:k-s.wav
448,192,255795,1,0,0:0:0:0:
64,192,255902,1,0,0:0:0:70:k-16-2.wav
192,192,255902,1,0,0:0:0:70:ride_16_4.wav
320,192,255902,1,0,0:0:0:70:breaks_g2_136.wav
448,192,255902,1,0,0:0:0:70:cym_16_8.wav
64,192,256009,1,0,0:0:0:70:k-s.wav
192,192,256009,1,0,0:0:0:70:breaks_g2_137.wav
64,192,256116,1,0,0:0:0:70:k-16-2.wav
192,192,256116,1,0,0:0:0:70:ride_16_4.wav
320,192,256116,1,0,0:0:0:70:breaks_g2_139.wav
448,192,256116,1,0,0:0:0:0:
320,192,256223,1,0,0:0:0:70:k-16-1.wav
448,192,256223,1,0,0:0:0:70:ride_32_1.wav
64,192,256277,1,0,0:0:0:70:k-16-1.wav
192,192,256277,1,0,0:0:0:70:ride_32_1.wav
320,192,256331,1,0,0:0:0:70:k-16-1.wav
448,192,256331,1,0,0:0:0:70:ride_32_1.wav
64,192,256384,1,0,0:0:0:70:k-16-1.wav
192,192,256384,1,0,0:0:0:70:ride_32_1.wav
320,192,256438,1,0,0:0:0:70:k-16-1.wav
448,192,256438,1,0,0:0:0:70:ride_32_1.wav
64,192,256491,1,0,0:0:0:70:k-16-1.wav
192,192,256491,1,0,0:0:0:70:ride_32_1.wav
448,192,256545,128,0,256652:0:0:0:70:k-16-2.wav
320,192,256598,128,0,256706:0:0:0:0:
192,192,256652,128,0,256759:0:0:0:70:k-s.wav
64,192,256706,128,0,256759:0:0:0:0:
320,192,256759,1,0,0:0:0:70:k-16-1.wav
448,192,256759,1,0,0:0:0:70:ride_32_1.wav
64,192,256813,1,0,0:0:0:70:k-16-1.wav
192,192,256813,1,0,0:0:0:70:ride_32_1.wav
320,192,256866,1,0,0:0:0:70:k-16-1.wav
448,192,256866,1,0,0:0:0:70:ride_32_1.wav
64,192,256920,1,0,0:0:0:70:k-16-1.wav
192,192,256920,1,0,0:0:0:70:ride_32_1.wav
448,192,256973,1,0,0:0:0:70:k-16-2.wav
192,192,257016,1,0,0:0:0:0:
320,192,257059,1,0,0:0:0:0:
64,192,257102,1,0,0:0:0:0:
192,192,257145,1,0,0:0:0:0:
320,192,257188,1,0,0:0:0:70:k-16-1.wav
448,192,257188,1,0,0:0:0:70:ride_32_1.wav
64,192,257241,1,0,0:0:0:70:k-16-1.wav
192,192,257241,1,0,0:0:0:70:ride_32_1.wav
320,192,257295,1,0,0:0:0:70:k-16-1.wav
448,192,257295,1,0,0:0:0:70:ride_32_1.wav
64,192,257348,1,0,0:0:0:70:k-16-1.wav
192,192,257348,1,0,0:0:0:70:ride_32_1.wav
448,192,257402,1,0,0:0:0:70:k-16-2.wav
192,192,257445,1,0,0:0:0:0:
320,192,257488,1,0,0:0:0:0:
64,192,257531,1,0,0:0:0:0:
192,192,257573,1,0,0:0:0:0:
64,192,257616,1,0,0:0:0:70:k-16-2.wav
320,192,257616,1,0,0:0:0:70:ride_16_4.wav
448,192,257616,1,0,0:0:0:70:breaks_g2_157.wav
320,192,257723,1,0,0:0:0:70:k-s.wav
448,192,257723,1,0,0:0:0:70:breaks_g2_158.wav
64,192,257831,1,0,0:0:0:70:k-16-2.wav
192,192,257831,1,0,0:0:0:70:ride_16_4.wav
448,192,257831,1,0,0:0:0:70:breaks_g2_159.wav
320,192,257873,1,0,0:0:0:0:
192,192,257916,1,0,0:0:0:0:
64,192,257959,1,0,0:0:0:0:
320,192,258002,1,0,0:0:0:0:
64,192,258045,1,0,0:0:0:70:k-16-2.wav
448,192,258045,1,0,0:0:0:70:ride_16_4.wav
192,192,258081,1,0,0:0:0:0:
320,192,258116,1,0,0:0:0:0:
448,192,258152,1,0,0:0:0:70:k-16-2.wav
64,192,258259,1,0,0:0:0:70:k-16-1.wav
192,192,258286,1,0,0:0:0:70:k-16-1.wav
320,192,258313,1,0,0:0:0:70:k-16-1.wav
448,192,258340,1,0,0:0:0:70:k-16-1.wav
64,192,258366,1,0,0:0:0:70:k-16-1.wav
192,192,258393,1,0,0:0:0:70:k-16-1.wav
320,192,258420,1,0,0:0:0:70:k-16-1.wav
448,192,258447,1,0,0:0:0:70:k-16-1.wav
64,192,258473,128,0,258581:0:0:0:70:k-16-2.wav
192,192,258473,128,0,258581:0:0:0:70:cym_16_16.wav
448,192,258581,1,0,0:0:0:0:
192,192,258688,128,0,258795:0:0:0:0:
320,192,258688,128,0,258795:0:0:0:0:
64,192,258795,1,0,0:0:0:70:breaks_g2_162.wav
192,192,258902,1,0,0:0:0:70:k-16-2.wav
320,192,258902,128,0,259009:0:0:0:70:breaks_g2_164.wav
448,192,258902,128,0,259009:0:0:0:0:
64,192,259009,1,0,0:0:0:0:
192,192,259116,128,0,259223:0:0:0:0:
448,192,259116,128,0,259223:0:0:0:0:
320,192,259223,1,0,0:0:0:0:
64,192,259331,128,0,259438:0:0:0:70:breaks_g2_165.wav
192,192,259331,128,0,259438:0:0:0:0:
448,192,259438,1,0,0:0:0:0:
64,192,259545,128,0,259652:0:0:0:0:
320,192,259545,128,0,259652:0:0:0:0:
192,192,259652,1,0,0:0:0:0:
320,192,259759,128,0,259866:0:0:0:0:
448,192,259759,128,0,259866:0:0:0:0:
64,192,259866,1,0,0:0:0:0:
192,192,259973,128,0,260188:0:0:0:0:
448,192,259973,128,0,260188:0:0:0:0:
64,192,260616,128,0,263563:0:0:0:70:fx5.wav
192,192,260616,1,0,0:0:0:0:
320,192,260616,1,0,0:0:0:0:
448,192,260616,128,0,263563:0:0:0:0:
192,192,262223,128,0,263563:0:0:0:0:
320,192,263081,128,0,263563:0:0:0:0:
64,192,263616,128,0,263777:0:0:0:70:za-.wav
192,192,263616,128,0,263777:0:0:0:0:
320,192,263616,128,0,263777:0:0:0:0:
448,192,263616,128,0,263777:0:0:0:0:
