osu file format v14

[General]
AudioFilename: audio.mp3
AudioLeadIn: 0
PreviewTime: 178706
Countdown: 0
SampleSet: Normal
StackLeniency: 0.7
Mode: 1
LetterboxInBreaks: 0
WidescreenStoryboard: 1

[Editor]
Bookmarks: 10759,37331,51045,68188,81902,127331,147902,154759,189045,195902,202759,236188
DistanceSpacing: 1.8
BeatDivisor: 4
GridSize: 32
TimelineZoom: 4.199998

[Metadata]
Title:Doppelganger (extended ver.)
TitleUnicode:Doppelganger (extended ver.)
Artist:LeaF
ArtistUnicode:LeaF
Creator:Midnaait
Version:TAIKO-HOLIC
Source:osu!
Tags:tasuke912 BMS Featured Artist FA Electronic Instrumental EINSAMKEIT
BeatmapID:1800975
BeatmapSetID:833092

[Difficulty]
HPDrainRate:5.5
CircleSize:2
OverallDifficulty:8.8
ApproachRate:5
SliderMultiplier:1.4
SliderTickRate:1

[Events]
//Background and Video events
0,0,"rip other bg.jpg",0,105
//Break Periods
//Storyboard Layer 0 (Background)
//Storyboard Layer 1 (Fail)
//Storyboard Layer 2 (Pass)
//Storyboard Layer 3 (Foreground)
//Storyboard Layer 4 (Overlay)
//Storyboard Sound Samples

[TimingPoints]
474,214.285714285714,4,1,0,80,1,0
17723,-100,4,1,0,40,0,0
18581,-100,4,1,0,60,0,0
19331,-200,4,1,0,80,0,0
29616,-100,4,1,0,80,0,0
31277,-83.3333333333333,4,1,0,80,0,0
35348,-100,4,1,0,80,0,0
68188,-200,4,1,0,80,0,0
74188,-100,4,1,0,80,0,0
75045,-200,4,1,0,80,0,0
76759,-100,4,1,0,80,0,0
95777,-50,4,1,0,40,0,0
96473,-100,4,1,0,40,0,0
97331,-133.333333333333,4,1,0,40,0,0
98188,-71.4285714285714,4,1,0,40,0,0
99045,-35.7142857142857,4,1,0,40,0,0
99902,-25,4,1,0,40,0,0
100009,-133.333333333333,4,1,0,80,0,0
102473,-100,4,1,0,80,0,0
104188,-133.333333333333,4,1,0,80,0,0
105902,-100,4,1,0,80,0,0
111045,-133.333333333333,4,1,0,80,0,0
112759,-160,4,1,0,80,0,0
114473,-200,4,1,0,80,0,0
116188,-500,4,1,0,60,0,0
117045,-888.888888888889,4,1,0,60,0,0
117902,-200,4,1,0,60,0,0
121331,-100,4,1,0,80,0,0
123045,-100,4,1,0,60,0,0
124759,-100,4,1,0,40,0,0
125616,-133.333333333333,4,1,0,40,0,0
126366,-66.6666666666667,4,1,0,80,0,0
126581,-200,4,1,0,40,0,0
127277,-133.333333333333,4,1,0,80,0,0
129045,-100,4,1,0,80,0,0
129902,-133.333333333333,4,1,0,80,0,0
130759,-200,4,1,0,80,0,0
131188,-133.333333333333,4,1,0,80,0,0
131616,-100,4,1,0,80,0,0
132473,-133.333333333333,4,1,0,80,0,0
133331,-100,4,1,0,80,0,0
134188,-200,4,1,0,80,0,0
134616,-133.333333333333,4,1,0,80,0,0
135045,-100,4,1,0,80,0,0
135902,-133.333333333333,4,1,0,80,0,0
136759,-100,4,1,0,80,0,0
137188,-200,4,1,0,80,0,0
137616,-100,4,1,0,80,0,0
138473,-133.333333333333,4,1,0,80,0,0
138688,-100,4,1,0,80,0,0
139331,-133.333333333333,4,1,0,80,0,0
140188,-100,4,1,0,80,0,0
141045,-200,4,1,0,80,0,0
141259,-133.333333333333,4,1,0,80,0,0
142545,-200,4,1,0,80,0,0
142759,-100,4,1,0,80,0,0
143616,-133.333333333333,4,1,0,80,0,0
144473,-200,4,1,0,80,0,0
145116,-100,4,1,0,80,0,0
146188,-200,4,1,0,80,0,0
146402,-133.333333333333,4,1,0,80,0,0
147045,-200,4,1,0,80,0,0
147259,-100,4,1,0,80,0,0
147902,-200,4,1,0,80,0,0
153259,-166.666666666667,4,1,0,80,0,0
153527,-133.333333333333,4,1,0,80,0,0
154009,-105.263157894737,4,1,0,80,0,0
154331,-83.3333333333333,4,1,0,80,0,0
154545,-100,4,1,0,80,0,0
154759,-100,4,1,0,80,0,1
166759,-100,4,1,0,60,0,0
166973,-101.781170483461,4,1,0,60,0,0
167188,-103.626943005181,4,1,0,60,0,0
167402,-105.540897097625,4,1,0,60,0,0
167616,-107.52688172043,4,1,0,60,0,0
167831,-109.58904109589,4,1,0,60,0,0
167938,-110.650069156293,4,1,0,60,0,0
168045,-111.731843575419,4,1,0,60,0,0
168259,-113.960113960114,4,1,0,60,0,0
168473,-116.279069767442,4,1,0,60,0,0
168688,-118.694362017804,4,1,0,60,0,0
168902,-121.212121212121,4,1,0,60,0,0
169116,-123.839009287926,4,1,0,60,0,0
169223,-125.195618153365,4,1,0,60,0,0
169331,-126.582278481013,4,1,0,60,0,0
169545,-129.449838187702,4,1,0,60,0,0
169652,-130.932896890344,4,1,0,60,0,0
169759,-132.450331125828,4,1,0,60,0,0
169973,-135.593220338983,4,1,0,60,0,0
170081,-137.221269296741,4,1,0,60,0,0
170188,-138.888888888889,4,1,0,60,0,0
170402,-142.348754448399,4,1,0,60,0,0
170616,-145.985401459854,4,1,0,60,0,0
170831,-149.812734082397,4,1,0,60,0,0
170938,-151.80265654649,4,1,0,60,0,0
171045,-153.846153846154,4,1,0,60,0,0
171259,-158.102766798419,4,1,0,60,0,0
171473,-162.60162601626,4,1,0,60,0,0
171688,-167.364016736402,4,1,0,60,0,0
171795,-169.851380042463,4,1,0,60,0,0
171902,-172.413793103448,4,1,0,60,0,0
172116,-177.777777777778,4,1,0,60,0,0
172331,-183.48623853211,4,1,0,60,0,0
172438,-186.480186480186,4,1,0,60,0,0
172545,-189.57345971564,4,1,0,60,0,0
172652,-192.771084337349,4,1,0,60,0,0
172759,-196.078431372549,4,1,0,60,0,0
172973,-203.045685279188,4,1,0,60,0,0
173188,-210.526315789474,4,1,0,60,0,0
173402,-218.579234972678,4,1,0,60,0,0
173616,-227.272727272727,4,1,0,60,0,0
173831,-236.686390532544,4,1,0,60,0,0
174045,-246.913580246914,4,1,0,60,0,0
174259,-258.064516129032,4,1,0,60,0,0
174473,-270.27027027027,4,1,0,60,0,0
174688,-283.687943262411,4,1,0,60,0,0
174759,-288.461261094941,4,1,0,60,0,0
174831,-293.398819949946,4,1,0,60,0,0
174902,-298.507462686567,4,1,0,60,0,0
175116,-314.96062992126,4,1,0,60,0,0
175331,-333.333333333333,4,1,0,60,0,0
175545,-353.982300884956,4,1,0,60,0,0
175759,-377.358490566038,4,1,0,60,0,0
175973,-404.040404040404,4,1,0,60,0,0
176188,-434.782608695652,4,1,0,60,0,0
176616,-512.820512820513,4,1,0,60,0,0
177045,-100,4,1,0,80,0,0
178759,-80,4,1,0,80,0,1
181973,-83.3333333333333,4,1,0,80,0,1
182027,-86.9565217391304,4,1,0,80,0,1
182081,-90.9090909090909,4,1,0,80,0,1
182134,-95.2380952380952,4,1,0,80,0,1
182188,-100,4,1,0,80,0,0
206188,-133.333333333333,4,1,0,60,0,0
209616,-100,4,1,0,60,0,0
212188,-100,4,1,0,80,0,0
225259,-105.263157894737,4,1,0,80,0,0
225581,-114.285714285714,4,1,0,80,0,0
225902,-125,4,1,0,80,0,0
226116,-133.333333333333,4,1,0,80,0,0
226223,-137.931034482759,4,1,0,80,0,0
226545,-153.846153846153,4,1,0,80,0,0
226759,-166.666666666667,4,1,0,80,0,0
226973,-181.818181818182,4,1,0,60,0,0
227616,-250,4,1,0,60,0,0
228473,-769.230769230769,4,1,0,80,0,0
228902,-780.487804878049,4,1,0,80,0,0
229331,-792.079207920792,4,1,0,80,0,0
229973,-810.372771474878,4,1,0,80,0,0
230188,-816.326530612245,4,1,0,80,0,0
230616,-829.015544041451,4,1,0,80,0,0
231045,-842.105263157895,4,1,0,80,0,0
231473,-855.614973262032,4,1,0,80,0,0
231902,-869.565217391304,4,1,0,80,0,0
232331,-883.977900552486,4,1,0,80,0,0
232759,-898.876404494382,4,1,0,80,0,0
233402,-922.190201729107,4,1,0,80,0,0
233616,-930.232558139535,4,1,0,80,0,0
234045,-946.745562130177,4,1,0,80,0,0
234473,-963.855421686747,4,1,0,80,0,0
234902,-981.59509202454,4,1,0,80,0,0
235491,-200,4,1,0,60,0,0
241545,-166.666666666667,4,1,0,80,0,0
241652,-133.333333333333,4,1,0,80,0,0
242081,-117.647058823529,4,1,0,80,0,0
242295,-105.263157894737,4,1,0,80,0,0
242509,-95.2380952380952,4,1,0,80,0,0
242831,-86.9565217391304,4,1,0,80,0,0
243045,-86.9565217391304,4,1,0,80,0,1
258473,-86.9565217391304,4,1,0,80,0,0
260723,-86.9565217391304,4,1,0,30,0,0
263563,-25,4,1,0,60,0,0

[HitObjects]
256,192,474,5,0,0:0:0:0:
256,192,581,1,0,0:0:0:0:
256,192,795,1,0,0:0:0:0:
256,192,1009,1,2,0:0:0:0:
256,192,1223,1,0,0:0:0:0:
256,192,1438,1,0,0:0:0:0:
256,192,1545,1,2,0:0:0:0:
256,192,1652,1,2,0:0:0:0:
256,192,1759,1,0,0:0:0:0:
256,192,1866,1,0,0:0:0:0:
256,192,1920,1,0,0:0:0:0:
256,192,1973,1,2,0:0:0:0:
256,192,2081,1,0,0:0:0:0:
256,192,2188,1,2,0:0:0:0:
256,192,2295,1,0,0:0:0:0:
256,192,2402,1,2,0:0:0:0:
256,192,2509,1,2,0:0:0:0:
256,192,2616,1,0,0:0:0:0:
256,192,2723,1,2,0:0:0:0:
256,192,2938,1,2,0:0:0:0:
256,192,3045,1,0,0:0:0:0:
256,192,3152,1,2,0:0:0:0:
256,192,3259,1,2,0:0:0:0:
256,192,3366,1,2,0:0:0:0:
256,192,3473,1,0,0:0:0:0:
256,192,3581,1,0,0:0:0:0:
256,192,3634,1,0,0:0:0:0:
256,192,3688,1,2,0:0:0:0:
256,192,3741,1,2,0:0:0:0:
256,192,3795,1,2,0:0:0:0:
256,192,3848,1,2,0:0:0:0:
256,192,3902,1,0,0:0:0:0:
256,192,4009,1,0,0:0:0:0:
256,192,4116,1,2,0:0:0:0:
256,192,4223,1,0,0:0:0:0:
256,192,4277,1,0,0:0:0:0:
256,192,4331,1,2,0:0:0:0:
256,192,4438,1,0,0:0:0:0:
256,192,4545,1,2,0:0:0:0:
256,192,4652,1,2,0:0:0:0:
256,192,4706,1,2,0:0:0:0:
256,192,4759,1,0,0:0:0:0:
256,192,4866,1,2,0:0:0:0:
256,192,4973,1,2,0:0:0:0:
256,192,5081,1,0,0:0:0:0:
256,192,5134,1,0,0:0:0:0:
256,192,5188,1,2,0:0:0:0:
256,192,5241,1,2,0:0:0:0:
256,192,5295,1,0,0:0:0:0:
256,192,5402,1,2,0:0:0:0:
256,192,5509,1,0,0:0:0:0:
256,192,5563,1,0,0:0:0:0:
256,192,5616,1,0,0:0:0:0:
256,192,5723,1,0,0:0:0:0:
256,192,5831,1,2,0:0:0:0:
256,192,5938,1,0,0:0:0:0:
256,192,5991,1,2,0:0:0:0:
256,192,6045,1,0,0:0:0:0:
256,192,6152,1,2,0:0:0:0:
256,192,6259,1,0,0:0:0:0:
256,192,6313,1,0,0:0:0:0:
256,192,6366,1,2,0:0:0:0:
256,192,6473,1,0,0:0:0:0:
256,192,6581,1,2,0:0:0:0:
256,192,6634,1,2,0:0:0:0:
256,192,6688,1,2,0:0:0:0:
256,192,6795,1,2,0:0:0:0:
256,192,6902,1,0,0:0:0:0:
256,192,7009,1,2,0:0:0:0:
256,192,7116,1,0,0:0:0:0:
256,192,7170,1,0,0:0:0:0:
256,192,7223,1,0,0:0:0:0:
256,192,7277,1,0,0:0:0:0:
256,192,7331,1,0,0:0:0:0:
256,192,7438,1,0,0:0:0:0:
256,192,7545,1,2,0:0:0:0:
256,192,7652,1,0,0:0:0:0:
256,192,7706,1,2,0:0:0:0:
256,192,7759,1,2,0:0:0:0:
256,192,7866,1,0,0:0:0:0:
256,192,7973,1,2,0:0:0:0:
256,192,8081,1,2,0:0:0:0:
256,192,8134,1,2,0:0:0:0:
256,192,8188,1,0,0:0:0:0:
256,192,8295,1,2,0:0:0:0:
256,192,8402,1,2,0:0:0:0:
256,192,8509,1,0,0:0:0:0:
256,192,8563,1,0,0:0:0:0:
256,192,8616,1,2,0:0:0:0:
256,192,8670,1,2,0:0:0:0:
256,192,8723,1,0,0:0:0:0:
256,192,8831,1,2,0:0:0:0:
256,192,8938,1,0,0:0:0:0:
256,192,8991,1,0,0:0:0:0:
256,192,9045,1,0,0:0:0:0:
256,192,9152,1,0,0:0:0:0:
256,192,9259,1,2,0:0:0:0:
256,192,9366,1,2,0:0:0:0:
256,192,9420,1,0,0:0:0:0:
256,192,9473,1,0,0:0:0:0:
256,192,9581,1,2,0:0:0:0:
256,192,9688,1,0,0:0:0:0:
256,192,9741,1,0,0:0:0:0:
256,192,9795,1,2,0:0:0:0:
256,192,9902,1,4,0:0:0:0:
256,192,10116,1,6,0:0:0:0:
256,192,10331,1,6,0:0:0:0:
256,192,10759,5,4,0:0:0:0:
256,192,10920,1,0,0:0:0:0:
256,192,10973,1,2,0:0:0:0:
256,192,11081,1,2,0:0:0:0:
256,192,11188,1,0,0:0:0:0:
256,192,11295,1,0,0:0:0:0:
256,192,11348,1,0,0:0:0:0:
256,192,11402,1,2,0:0:0:0:
256,192,11509,1,2,0:0:0:0:
256,192,11616,1,0,0:0:0:0:
256,192,11723,1,2,0:0:0:0:
256,192,11777,1,2,0:0:0:0:
256,192,11831,1,0,0:0:0:0:
256,192,11938,1,2,0:0:0:0:
256,192,12045,1,0,0:0:0:0:
256,192,12152,1,2,0:0:0:0:
256,192,12259,1,0,0:0:0:0:
256,192,12313,1,0,0:0:0:0:
256,192,12366,1,0,0:0:0:0:
256,192,12420,1,0,0:0:0:0:
256,192,12473,1,0,0:0:0:0:
256,192,12581,1,0,0:0:0:0:
256,192,12688,1,2,0:0:0:0:
256,192,12795,1,0,0:0:0:0:
256,192,12848,1,0,0:0:0:0:
256,192,12902,1,2,0:0:0:0:
256,192,13009,1,0,0:0:0:0:
256,192,13116,1,2,0:0:0:0:
256,192,13223,1,0,0:0:0:0:
256,192,13277,1,2,0:0:0:0:
256,192,13331,1,2,0:0:0:0:
256,192,13438,1,0,0:0:0:0:
256,192,13545,1,2,0:0:0:0:
256,192,13652,1,2,0:0:0:0:
256,192,13706,1,0,0:0:0:0:
256,192,13759,1,2,0:0:0:0:
256,192,13813,1,2,0:0:0:0:
256,192,13866,1,0,0:0:0:0:
256,192,13973,1,2,0:0:0:0:
256,192,14081,1,0,0:0:0:0:
256,192,14134,1,0,0:0:0:0:
256,192,14188,1,0,0:0:0:0:
256,192,14402,1,2,0:0:0:0:
256,192,14456,1,2,0:0:0:0:
256,192,14509,1,2,0:0:0:0:
256,192,14563,1,2,0:0:0:0:
256,192,14616,1,0,0:0:0:0:
256,192,14670,1,2,0:0:0:0:
256,192,14723,1,0,0:0:0:0:
256,192,14777,1,0,0:0:0:0:
256,192,14831,1,2,0:0:0:0:
256,192,14938,1,2,0:0:0:0:
256,192,14991,1,2,0:0:0:0:
256,192,15045,1,0,0:0:0:0:
256,192,15152,1,2,0:0:0:0:
256,192,15206,1,0,0:0:0:0:
256,192,15259,1,2,0:0:0:0:
256,192,15313,1,2,0:0:0:0:
256,192,15366,1,0,0:0:0:0:
256,192,15420,1,2,0:0:0:0:
256,192,15473,1,0,0:0:0:0:
256,192,15527,1,0,0:0:0:0:
256,192,15581,1,2,0:0:0:0:
256,192,15688,1,4,0:0:0:0:
256,192,15902,1,6,0:0:0:0:
256,192,16223,1,4,0:0:0:0:
256,192,16545,1,6,0:0:0:0:
256,192,16866,1,6,0:0:0:0:
256,192,17188,1,4,0:0:0:0:
256,192,17616,1,6,0:0:0:0:
256,192,17723,12,0,18473,0:0:0:0:
256,192,18688,5,2,0:0:0:0:
256,192,18795,1,2,0:0:0:0:
256,192,18902,1,2,0:0:0:0:
256,192,19116,1,2,0:0:0:0:
256,192,19331,1,4,0:0:0:0:
256,192,19545,1,2,0:0:0:0:
256,192,19759,1,2,0:0:0:0:
256,192,19973,1,0,0:0:0:0:
256,192,20188,1,2,0:0:0:0:
256,192,20402,1,0,0:0:0:0:
256,192,20509,1,0,0:0:0:0:
256,192,20616,1,2,0:0:0:0:
256,192,20831,1,0,0:0:0:0:
256,192,20884,1,0,0:0:0:0:
256,192,20938,1,0,0:0:0:0:
256,192,20991,1,0,0:0:0:0:
256,192,21045,1,2,0:0:0:0:
256,192,21259,1,0,0:0:0:0:
256,192,21473,1,2,0:0:0:0:
256,192,21688,1,0,0:0:0:0:
256,192,21795,1,2,0:0:0:0:
256,192,21902,1,2,0:0:0:0:
256,192,22116,1,2,0:0:0:0:
256,192,22223,1,0,0:0:0:0:
256,192,22331,1,0,0:0:0:0:
256,192,22545,1,2,0:0:0:0:
256,192,22652,1,2,0:0:0:0:
256,192,22759,1,2,0:0:0:0:
256,192,22973,1,0,0:0:0:0:
256,192,23188,1,2,0:0:0:0:
256,192,23402,1,2,0:0:0:0:
256,192,23509,1,2,0:0:0:0:
256,192,23616,1,0,0:0:0:0:
256,192,23831,1,2,0:0:0:0:
256,192,24045,1,0,0:0:0:0:
256,192,24259,1,0,0:0:0:0:
256,192,24366,1,2,0:0:0:0:
256,192,24473,1,2,0:0:0:0:
256,192,24688,1,0,0:0:0:0:
256,192,24902,1,2,0:0:0:0:
256,192,25009,1,0,0:0:0:0:
256,192,25116,1,2,0:0:0:0:
256,192,25223,1,2,0:0:0:0:
256,192,25331,1,0,0:0:0:0:
256,192,25545,1,2,0:0:0:0:
256,192,25759,1,0,0:0:0:0:
256,192,25973,1,0,0:0:0:0:
256,192,26188,1,2,0:0:0:0:
256,192,26402,1,0,0:0:0:0:
256,192,26616,1,2,0:0:0:0:
256,192,26831,1,2,0:0:0:0:
256,192,27045,1,0,0:0:0:0:
256,192,27259,1,2,0:0:0:0:
256,192,27331,1,2,0:0:0:0:
256,192,27402,1,2,0:0:0:0:
256,192,27473,1,0,0:0:0:0:
256,192,27688,1,0,0:0:0:0:
256,192,27902,1,2,0:0:0:0:
256,192,28116,1,0,0:0:0:0:
256,192,28223,1,0,0:0:0:0:
256,192,28331,1,2,0:0:0:0:
256,192,28545,1,2,0:0:0:0:
256,192,28759,1,0,0:0:0:0:
256,192,28813,1,0,0:0:0:0:
256,192,28866,1,0,0:0:0:0:
256,192,28920,1,0,0:0:0:0:
256,192,28973,1,2,0:0:0:0:
256,192,29188,1,0,0:0:0:0:
256,192,29241,1,0,0:0:0:0:
256,192,29295,1,0,0:0:0:0:
256,192,29348,1,0,0:0:0:0:
256,192,29402,1,2,0:0:0:0:
256,192,29616,5,6,0:0:0:0:
256,192,29831,1,0,0:0:0:0:
256,192,30045,1,2,0:0:0:0:
256,192,30152,1,0,0:0:0:0:
256,192,30259,1,2,0:0:0:0:
256,192,30366,1,2,0:0:0:0:
256,192,30473,1,0,0:0:0:0:
256,192,30581,1,0,0:0:0:0:
256,192,30688,1,0,0:0:0:0:
256,192,30795,1,2,0:0:0:0:
256,192,31009,1,2,0:0:0:0:
256,192,31116,1,0,0:0:0:0:
256,192,31331,1,4,0:0:0:0:
256,192,31652,1,4,0:0:0:0:
256,192,31973,1,6,0:0:0:0:
256,192,32295,1,6,0:0:0:0:
256,192,32616,1,4,0:0:0:0:
256,192,33259,1,6,0:0:0:0:
256,192,33473,1,6,0:0:0:0:
256,192,33688,1,6,0:0:0:0:
256,192,33902,1,4,0:0:0:0:
256,192,34223,1,4,0:0:0:0:
256,192,34545,1,6,0:0:0:0:
256,192,34866,1,6,0:0:0:0:
256,192,35188,1,4,0:0:0:0:
256,192,35616,1,0,0:0:0:0:
256,192,35670,1,0,0:0:0:0:
256,192,35723,1,0,0:0:0:0:
256,192,35777,1,2,0:0:0:0:
256,192,35831,1,0,0:0:0:0:
256,192,35884,1,0,0:0:0:0:
256,192,35938,1,2,0:0:0:0:
256,192,35991,1,2,0:0:0:0:
256,192,36045,1,0,0:0:0:0:
256,192,36098,1,0,0:0:0:0:
256,192,36152,1,2,0:0:0:0:
256,192,36206,1,0,0:0:0:0:
256,192,36259,1,2,0:0:0:0:
256,192,36313,1,2,0:0:0:0:
256,192,36366,1,0,0:0:0:0:
256,192,36420,1,2,0:0:0:0:
256,192,36473,1,0,0:0:0:0:
256,192,36527,1,0,0:0:0:0:
256,192,36581,1,2,0:0:0:0:
256,192,36634,1,0,0:0:0:0:
256,192,36688,1,0,0:0:0:0:
256,192,36741,1,2,0:0:0:0:
256,192,36795,1,0,0:0:0:0:
256,192,36848,1,0,0:0:0:0:
256,192,36902,1,2,0:0:0:0:
256,192,36956,1,2,0:0:0:0:
256,192,37009,1,0,0:0:0:0:
256,192,37063,1,2,0:0:0:0:
256,192,37116,1,2,0:0:0:0:
256,192,37170,1,0,0:0:0:0:
256,192,37223,1,2,0:0:0:0:
256,192,37277,1,2,0:0:0:0:
256,192,37331,1,0,0:0:0:0:
256,192,37545,1,0,0:0:0:0:
256,192,37652,1,2,0:0:0:0:
256,192,37759,1,0,0:0:0:0:
256,192,37866,1,2,0:0:0:0:
256,192,37920,1,2,0:0:0:0:
256,192,37973,1,2,0:0:0:0:
256,192,38081,1,2,0:0:0:0:
256,192,38188,1,0,0:0:0:0:
256,192,38295,1,2,0:0:0:0:
256,192,38348,1,0,0:0:0:0:
256,192,38402,1,0,0:0:0:0:
256,192,38509,1,0,0:0:0:0:
256,192,38723,1,0,0:0:0:0:
256,192,38831,1,2,0:0:0:0:
256,192,38866,1,2,0:0:0:0:
256,192,38902,1,2,0:0:0:0:
256,192,38938,1,2,0:0:0:0:
256,192,39045,1,0,0:0:0:0:
256,192,39098,1,0,0:0:0:0:
256,192,39152,1,0,0:0:0:0:
256,192,39259,1,2,0:0:0:0:
256,192,39366,1,2,0:0:0:0:
256,192,39473,1,0,0:0:0:0:
256,192,39581,1,2,0:0:0:0:
256,192,39634,1,2,0:0:0:0:
256,192,39688,1,2,0:0:0:0:
256,192,39795,1,2,0:0:0:0:
256,192,39902,1,0,0:0:0:0:
256,192,40009,1,2,0:0:0:0:
256,192,40063,1,2,0:0:0:0:
256,192,40116,1,0,0:0:0:0:
256,192,40170,1,0,0:0:0:0:
256,192,40223,1,2,0:0:0:0:
256,192,40277,1,0,0:0:0:0:
256,192,40331,1,2,0:0:0:0:
256,192,40491,1,0,0:0:0:0:
256,192,40545,1,2,0:0:0:0:
256,192,40706,1,2,0:0:0:0:
256,192,40759,1,0,0:0:0:0:
256,192,40866,1,2,0:0:0:0:
256,192,40973,1,0,0:0:0:0:
256,192,41081,1,0,0:0:0:0:
256,192,41134,1,0,0:0:0:0:
256,192,41188,1,0,0:0:0:0:
256,192,41295,1,0,0:0:0:0:
256,192,41402,1,2,0:0:0:0:
256,192,41509,1,0,0:0:0:0:
256,192,41563,1,2,0:0:0:0:
256,192,41616,1,0,0:0:0:0:
256,192,41723,1,2,0:0:0:0:
256,192,41831,1,0,0:0:0:0:
256,192,41884,1,0,0:0:0:0:
256,192,41938,1,2,0:0:0:0:
256,192,42045,1,0,0:0:0:0:
256,192,42098,1,2,0:0:0:0:
256,192,42152,1,0,0:0:0:0:
256,192,42206,1,0,0:0:0:0:
256,192,42259,1,2,0:0:0:0:
256,192,42366,1,2,0:0:0:0:
256,192,42420,1,2,0:0:0:0:
256,192,42473,1,0,0:0:0:0:
256,192,42527,1,2,0:0:0:0:
256,192,42581,1,0,0:0:0:0:
256,192,42634,1,0,0:0:0:0:
256,192,42688,1,2,0:0:0:0:
256,192,42741,1,0,0:0:0:0:
256,192,42795,1,0,0:0:0:0:
256,192,42848,1,2,0:0:0:0:
256,192,42902,1,0,0:0:0:0:
256,192,43009,1,2,0:0:0:0:
256,192,43116,1,2,0:0:0:0:
256,192,43223,1,0,0:0:0:0:
256,192,43438,1,4,0:0:0:0:
256,192,43545,1,6,0:0:0:0:
256,192,43759,1,6,0:0:0:0:
256,192,43973,1,6,0:0:0:0:
256,192,44188,1,0,0:0:0:0:
256,192,44223,1,0,0:0:0:0:
256,192,44259,1,0,0:0:0:0:
256,192,44295,1,0,0:0:0:0:
256,192,44348,1,0,0:0:0:0:
256,192,44402,1,2,0:0:0:0:
256,192,44509,1,2,0:0:0:0:
256,192,44616,1,0,0:0:0:0:
256,192,44670,1,2,0:0:0:0:
256,192,44723,1,2,0:0:0:0:
256,192,44777,1,0,0:0:0:0:
256,192,44831,1,2,0:0:0:0:
256,192,44884,1,2,0:0:0:0:
256,192,44938,1,0,0:0:0:0:
256,192,44973,1,0,0:0:0:0:
256,192,45009,1,0,0:0:0:0:
256,192,45045,1,2,0:0:0:0:
256,192,45152,1,0,0:0:0:0:
256,192,45259,1,2,0:0:0:0:
256,192,45366,1,2,0:0:0:0:
256,192,45420,1,0,0:0:0:0:
256,192,45473,1,2,0:0:0:0:
256,192,45527,1,2,0:0:0:0:
256,192,45581,1,0,0:0:0:0:
256,192,45634,1,0,0:0:0:0:
256,192,45688,1,2,0:0:0:0:
256,192,45795,1,2,0:0:0:0:
256,192,45902,1,0,0:0:0:0:
256,192,45956,1,0,0:0:0:0:
256,192,46009,1,2,0:0:0:0:
256,192,46063,1,0,0:0:0:0:
256,192,46116,1,0,0:0:0:0:
256,192,46170,1,0,0:0:0:0:
256,192,46223,1,2,0:0:0:0:
256,192,46277,1,2,0:0:0:0:
256,192,46331,1,0,0:0:0:0:
256,192,46384,1,0,0:0:0:0:
256,192,46438,1,2,0:0:0:0:
256,192,46473,1,2,0:0:0:0:
256,192,46509,1,2,0:0:0:0:
256,192,46545,1,0,0:0:0:0:
256,192,46652,1,2,0:0:0:0:
256,192,46759,1,0,0:0:0:0:
256,192,46813,1,0,0:0:0:0:
256,192,46866,1,0,0:0:0:0:
256,192,46920,1,0,0:0:0:0:
256,192,46973,1,2,0:0:0:0:
256,192,47027,1,2,0:0:0:0:
256,192,47081,1,2,0:0:0:0:
256,192,47134,1,2,0:0:0:0:
256,192,47188,1,0,0:0:0:0:
256,192,47295,1,2,0:0:0:0:
256,192,47402,1,4,0:0:0:0:
256,192,47563,1,2,0:0:0:0:
256,192,47616,1,0,0:0:0:0:
256,192,47723,1,0,0:0:0:0:
256,192,47831,1,6,0:0:0:0:
256,192,47938,1,0,0:0:0:0:
256,192,47991,1,0,0:0:0:0:
256,192,48045,1,0,0:0:0:0:
256,192,48152,1,0,0:0:0:0:
256,192,48259,1,2,0:0:0:0:
256,192,48366,1,2,0:0:0:0:
256,192,48473,1,4,0:0:0:0:
256,192,48795,1,6,0:0:0:0:
256,192,48902,1,6,0:0:0:0:
256,192,49009,1,6,0:0:0:0:
256,192,49116,1,6,0:0:0:0:
256,192,49331,1,4,0:0:0:0:
256,192,49438,1,6,0:0:0:0:
256,192,49652,1,0,0:0:0:0:
256,192,49688,1,0,0:0:0:0:
256,192,49723,1,0,0:0:0:0:
256,192,49759,1,2,0:0:0:0:
256,192,49920,1,6,0:0:0:0:
256,192,50081,1,6,0:0:0:0:
256,192,50188,1,4,0:0:0:0:
256,192,50295,1,2,0:0:0:0:
256,192,50348,1,2,0:0:0:0:
256,192,50402,1,2,0:0:0:0:
256,192,50509,1,2,0:0:0:0:
256,192,50616,1,4,0:0:0:0:
256,192,50777,1,2,0:0:0:0:
256,192,50938,1,2,0:0:0:0:
256,192,51045,1,4,0:0:0:0:
256,192,51259,1,0,0:0:0:0:
256,192,51366,1,2,0:0:0:0:
256,192,51473,1,0,0:0:0:0:
256,192,51527,1,0,0:0:0:0:
256,192,51581,1,2,0:0:0:0:
256,192,51634,1,2,0:0:0:0:
256,192,51688,1,2,0:0:0:0:
256,192,51795,1,2,0:0:0:0:
256,192,51902,1,0,0:0:0:0:
256,192,52009,1,2,0:0:0:0:
256,192,52063,1,0,0:0:0:0:
256,192,52116,1,0,0:0:0:0:
256,192,52223,1,0,0:0:0:0:
256,192,52277,1,2,0:0:0:0:
256,192,52438,1,0,0:0:0:0:
256,192,52545,1,2,0:0:0:0:
256,192,52652,1,2,0:0:0:0:
256,192,52706,1,2,0:0:0:0:
256,192,52759,1,0,0:0:0:0:
256,192,52813,1,0,0:0:0:0:
256,192,52866,1,0,0:0:0:0:
256,192,52973,1,2,0:0:0:0:
256,192,53081,1,2,0:0:0:0:
256,192,53188,1,0,0:0:0:0:
256,192,53295,1,0,0:0:0:0:
256,192,53348,1,2,0:0:0:0:
256,192,53402,1,0,0:0:0:0:
256,192,53509,1,0,0:0:0:0:
256,192,53616,1,2,0:0:0:0:
256,192,53723,1,2,0:0:0:0:
256,192,53777,1,0,0:0:0:0:
256,192,53831,1,2,0:0:0:0:
256,192,53938,1,2,0:0:0:0:
256,192,54045,1,4,0:0:0:0:
256,192,54259,1,2,0:0:0:0:
256,192,54473,1,0,0:0:0:0:
256,192,54581,1,0,0:0:0:0:
256,192,54634,1,0,0:0:0:0:
256,192,54688,1,2,0:0:0:0:
256,192,54741,1,2,0:0:0:0:
256,192,54795,1,2,0:0:0:0:
256,192,54848,1,2,0:0:0:0:
256,192,54902,1,0,0:0:0:0:
256,192,54956,1,2,0:0:0:0:
256,192,55009,1,0,0:0:0:0:
256,192,55063,1,0,0:0:0:0:
256,192,55116,1,2,0:0:0:0:
256,192,55223,1,2,0:0:0:0:
256,192,55277,1,0,0:0:0:0:
256,192,55331,1,2,0:0:0:0:
256,192,55384,1,2,0:0:0:0:
256,192,55438,1,0,0:0:0:0:
256,192,55491,1,2,0:0:0:0:
256,192,55545,1,2,0:0:0:0:
256,192,55652,1,0,0:0:0:0:
256,192,55759,1,2,0:0:0:0:
256,192,55813,1,2,0:0:0:0:
256,192,55866,1,0,0:0:0:0:
256,192,55920,1,0,0:0:0:0:
256,192,55973,1,2,0:0:0:0:
256,192,56027,1,2,0:0:0:0:
256,192,56081,1,0,0:0:0:0:
256,192,56188,1,4,0:0:0:0:
256,192,56295,1,6,0:0:0:0:
256,192,56509,1,6,0:0:0:0:
256,192,56616,1,4,0:0:0:0:
256,192,56831,1,6,0:0:0:0:
256,192,56938,1,4,0:0:0:0:
256,192,57152,1,6,0:0:0:0:
256,192,57259,1,6,0:0:0:0:
256,192,57473,1,4,0:0:0:0:
256,192,57688,1,2,0:0:0:0:
256,192,57902,1,0,0:0:0:0:
256,192,57973,1,0,0:0:0:0:
256,192,58045,1,0,0:0:0:0:
256,192,58116,1,2,0:0:0:0:
256,192,58188,1,2,0:0:0:0:
256,192,58259,1,2,0:0:0:0:
256,192,58331,1,0,0:0:0:0:
256,192,58438,1,0,0:0:0:0:
256,192,58491,1,0,0:0:0:0:
256,192,58545,1,2,0:0:0:0:
256,192,58652,1,0,0:0:0:0:
256,192,58706,1,2,0:0:0:0:
256,192,58759,1,0,0:0:0:0:
256,192,58866,1,2,0:0:0:0:
256,192,58973,1,2,0:0:0:0:
256,192,59027,1,0,0:0:0:0:
256,192,59081,1,2,0:0:0:0:
256,192,59134,1,2,0:0:0:0:
256,192,59188,1,0,0:0:0:0:
256,192,59295,1,2,0:0:0:0:
256,192,59402,1,4,0:0:0:0:
256,192,59616,1,0,0:0:0:0:
256,192,59723,1,2,0:0:0:0:
256,192,59831,1,0,0:0:0:0:
256,192,59884,1,0,0:0:0:0:
256,192,59938,1,2,0:0:0:0:
256,192,60045,1,6,0:0:0:0:
256,192,60259,1,6,0:0:0:0:
256,192,60473,1,6,0:0:0:0:
256,192,60581,1,4,0:0:0:0:
256,192,60795,1,6,0:0:0:0:
256,192,60902,1,6,0:0:0:0:
256,192,61116,1,6,0:0:0:0:
256,192,61331,1,4,0:0:0:0:
256,192,61438,1,0,0:0:0:0:
256,192,61491,1,0,0:0:0:0:
256,192,61545,1,2,0:0:0:0:
256,192,61616,1,2,0:0:0:0:
256,192,61688,1,2,0:0:0:0:
256,192,61759,1,0,0:0:0:0:
256,192,61813,1,2,0:0:0:0:
256,192,61866,1,0,0:0:0:0:
256,192,61920,1,0,0:0:0:0:
256,192,61973,1,2,0:0:0:0:
256,192,62081,1,2,0:0:0:0:
256,192,62134,1,2,0:0:0:0:
256,192,62188,1,0,0:0:0:0:
256,192,62295,1,2,0:0:0:0:
256,192,62402,1,2,0:0:0:0:
256,192,62509,1,4,0:0:0:0:
256,192,62616,1,6,0:0:0:0:
256,192,62831,1,6,0:0:0:0:
256,192,63045,1,4,0:0:0:0:
256,192,63152,1,4,0:0:0:0:
256,192,63366,1,6,0:0:0:0:
256,192,63473,1,4,0:0:0:0:
256,192,63634,1,6,0:0:0:0:
256,192,63795,1,6,0:0:0:0:
256,192,63902,1,4,0:0:0:0:
256,192,64009,1,2,0:0:0:0:
256,192,64063,1,2,0:0:0:0:
256,192,64116,1,2,0:0:0:0:
256,192,64223,1,2,0:0:0:0:
256,192,64331,1,4,0:0:0:0:
256,192,64491,1,2,0:0:0:0:
256,192,64652,1,2,0:0:0:0:
256,192,64759,1,4,0:0:0:0:
256,192,64866,1,2,0:0:0:0:
256,192,64973,1,2,0:0:0:0:
256,192,65081,1,0,0:0:0:0:
256,192,65134,1,0,0:0:0:0:
256,192,65188,1,2,0:0:0:0:
256,192,65295,1,2,0:0:0:0:
256,192,65402,1,0,0:0:0:0:
256,192,65509,1,2,0:0:0:0:
256,192,65616,1,0,0:0:0:0:
256,192,65652,1,0,0:0:0:0:
256,192,65688,1,0,0:0:0:0:
256,192,65723,1,0,0:0:0:0:
256,192,65831,1,2,0:0:0:0:
256,192,65938,1,0,0:0:0:0:
256,192,66045,1,2,0:0:0:0:
256,192,66081,1,2,0:0:0:0:
256,192,66116,1,2,0:0:0:0:
256,192,66152,1,2,0:0:0:0:
256,192,66259,1,2,0:0:0:0:
256,192,66366,1,2,0:0:0:0:
256,192,66420,1,2,0:0:0:0:
256,192,66473,1,0,0:0:0:0:
256,192,66581,1,0,0:0:0:0:
256,192,66634,1,2,0:0:0:0:
256,192,66688,1,2,0:0:0:0:
256,192,66795,1,2,0:0:0:0:
256,192,66848,1,2,0:0:0:0:
256,192,66902,1,0,0:0:0:0:
256,192,66956,1,2,0:0:0:0:
256,192,67009,1,0,0:0:0:0:
256,192,67063,1,0,0:0:0:0:
256,192,67116,1,2,0:0:0:0:
256,192,67170,1,2,0:0:0:0:
256,192,67223,1,0,0:0:0:0:
256,192,67438,1,4,0:0:0:0:
256,192,67545,1,6,0:0:0:0:
256,192,67759,1,6,0:0:0:0:
256,192,67973,1,6,0:0:0:0:
256,192,68188,5,4,0:0:0:0:
256,192,68402,1,2,0:0:0:0:
256,192,68616,1,2,0:0:0:0:
256,192,68831,1,0,0:0:0:0:
256,192,69045,1,2,0:0:0:0:
256,192,69259,1,0,0:0:0:0:
256,192,69366,1,0,0:0:0:0:
256,192,69473,1,2,0:0:0:0:
256,192,69688,1,0,0:0:0:0:
256,192,69902,1,2,0:0:0:0:
256,192,70116,1,0,0:0:0:0:
256,192,70331,1,2,0:0:0:0:
256,192,70545,1,0,0:0:0:0:
256,192,70652,1,2,0:0:0:0:
256,192,70759,1,2,0:0:0:0:
256,192,70973,1,2,0:0:0:0:
256,192,71081,1,0,0:0:0:0:
256,192,71188,1,0,0:0:0:0:
256,192,71402,1,2,0:0:0:0:
256,192,71509,1,2,0:0:0:0:
256,192,71616,1,2,0:0:0:0:
256,192,71831,1,0,0:0:0:0:
256,192,72045,1,2,0:0:0:0:
256,192,72259,1,2,0:0:0:0:
256,192,72366,1,2,0:0:0:0:
256,192,72473,1,0,0:0:0:0:
256,192,72688,1,2,0:0:0:0:
256,192,72902,1,0,0:0:0:0:
256,192,73116,1,0,0:0:0:0:
256,192,73223,1,2,0:0:0:0:
256,192,73331,1,2,0:0:0:0:
256,192,73545,1,0,0:0:0:0:
256,192,73759,1,2,0:0:0:0:
256,192,73866,1,0,0:0:0:0:
256,192,73973,1,2,0:0:0:0:
256,192,74081,1,2,0:0:0:0:
256,192,74188,1,4,0:0:0:0:
256,192,74402,1,6,0:0:0:0:
256,192,74616,1,4,0:0:0:0:
256,192,75045,1,2,0:0:0:0:
256,192,75259,1,0,0:0:0:0:
256,192,75473,1,2,0:0:0:0:
256,192,75688,1,2,0:0:0:0:
256,192,75902,1,0,0:0:0:0:
256,192,76116,1,0,0:0:0:0:
256,192,76188,1,2,0:0:0:0:
256,192,76259,1,2,0:0:0:0:
256,192,76331,1,0,0:0:0:0:
256,192,76545,1,2,0:0:0:0:
256,192,76759,1,0,0:0:0:0:
256,192,76866,1,0,0:0:0:0:
256,192,76973,1,2,0:0:0:0:
256,192,77081,1,0,0:0:0:0:
256,192,77134,1,0,0:0:0:0:
256,192,77188,1,2,0:0:0:0:
256,192,77295,1,0,0:0:0:0:
256,192,77348,1,0,0:0:0:0:
256,192,77402,1,2,0:0:0:0:
256,192,77509,1,2,0:0:0:0:
256,192,77616,1,0,0:0:0:0:
256,192,77723,1,2,0:0:0:0:
256,192,77777,1,2,0:0:0:0:
256,192,77831,1,2,0:0:0:0:
256,192,77938,1,2,0:0:0:0:
256,192,78045,1,0,0:0:0:0:
256,192,78152,1,2,0:0:0:0:
256,192,78206,1,2,0:0:0:0:
256,192,78259,1,0,0:0:0:0:
256,192,78331,1,2,0:0:0:0:
256,192,78402,1,2,0:0:0:0:
256,192,78473,1,0,0:0:0:0:
256,192,78616,1,2,0:0:0:0:
256,192,78688,1,0,0:0:0:0:
256,192,78831,1,2,0:0:0:0:
256,192,78902,1,0,0:0:0:0:
256,192,78973,1,2,0:0:0:0:
256,192,79045,1,2,0:0:0:0:
256,192,79116,1,0,0:0:0:0:
256,192,79259,1,2,0:0:0:0:
256,192,79331,1,0,0:0:0:0:
256,192,79402,1,0,0:0:0:0:
256,192,79473,1,2,0:0:0:0:
256,192,79545,1,0,0:0:0:0:
256,192,79616,1,0,0:0:0:0:
256,192,79688,1,2,0:0:0:0:
256,192,79759,1,0,0:0:0:0:
256,192,79831,1,2,0:0:0:0:
256,192,79902,1,2,0:0:0:0:
256,192,79973,1,0,0:0:0:0:
256,192,80045,1,2,0:0:0:0:
256,192,80116,1,2,0:0:0:0:
256,192,80188,1,4,0:0:0:0:
256,192,80402,1,4,0:0:0:0:
256,192,80616,1,6,0:0:0:0:
256,192,80831,1,6,0:0:0:0:
256,192,81045,1,4,0:0:0:0:
256,192,81366,1,2,0:0:0:0:
256,192,81420,1,2,0:0:0:0:
256,192,81473,1,2,0:0:0:0:
256,192,81581,1,0,0:0:0:0:
256,192,81688,1,2,0:0:0:0:
256,192,81741,1,2,0:0:0:0:
256,192,81795,1,2,0:0:0:0:
256,192,81848,1,2,0:0:0:0:
256,192,81902,1,0,0:0:0:0:
256,192,82009,1,0,0:0:0:0:
256,192,82063,1,0,0:0:0:0:
256,192,82116,1,2,0:0:0:0:
256,192,82223,1,2,0:0:0:0:
256,192,82331,1,4,0:0:0:0:
256,192,82438,1,4,0:0:0:0:
256,192,82545,1,6,0:0:0:0:
256,192,82759,1,4,0:0:0:0:
256,192,82920,1,0,0:0:0:0:
256,192,82973,1,2,0:0:0:0:
256,192,83081,1,4,0:0:0:0:
256,192,83241,1,0,0:0:0:0:
256,192,83295,1,2,0:0:0:0:
256,192,83402,1,2,0:0:0:0:
256,192,83438,1,2,0:0:0:0:
256,192,83473,1,2,0:0:0:0:
256,192,83509,1,0,0:0:0:0:
256,192,83563,1,0,0:0:0:0:
256,192,83616,1,2,0:0:0:0:
256,192,83652,1,2,0:0:0:0:
256,192,83688,1,2,0:0:0:0:
256,192,83723,1,0,0:0:0:0:
256,192,83777,1,0,0:0:0:0:
256,192,83831,1,2,0:0:0:0:
256,192,83938,1,0,0:0:0:0:
256,192,83991,1,2,0:0:0:0:
256,192,84045,1,0,0:0:0:0:
256,192,84098,1,0,0:0:0:0:
256,192,84152,1,2,0:0:0:0:
256,192,84188,1,0,0:0:0:0:
256,192,84223,1,0,0:0:0:0:
256,192,84259,1,2,0:0:0:0:
256,192,84313,1,0,0:0:0:0:
256,192,84366,1,2,0:0:0:0:
256,192,84420,1,2,0:0:0:0:
256,192,84473,1,0,0:0:0:0:
256,192,84581,1,2,0:0:0:0:
256,192,84688,1,4,0:0:0:0:
256,192,84795,1,0,0:0:0:0:
256,192,84848,1,0,0:0:0:0:
256,192,84902,1,2,0:0:0:0:
256,192,84956,1,2,0:0:0:0:
256,192,85009,1,0,0:0:0:0:
256,192,85116,1,2,0:0:0:0:
256,192,85223,1,0,0:0:0:0:
256,192,85277,1,2,0:0:0:0:
256,192,85331,1,0,0:0:0:0:
256,192,85491,1,2,0:0:0:0:
256,192,85598,1,2,0:0:0:0:
256,192,85759,1,0,0:0:0:0:
256,192,85866,1,2,0:0:0:0:
256,192,85920,1,2,0:0:0:0:
256,192,86081,1,2,0:0:0:0:
256,192,86134,1,2,0:0:0:0:
256,192,86188,1,0,0:0:0:0:
256,192,86295,1,2,0:0:0:0:
256,192,86348,1,0,0:0:0:0:
256,192,86402,1,2,0:0:0:0:
256,192,86456,1,2,0:0:0:0:
256,192,86509,1,0,0:0:0:0:
256,192,86616,1,0,0:0:0:0:
256,192,86670,1,2,0:0:0:0:
256,192,86723,1,0,0:0:0:0:
256,192,86777,1,0,0:0:0:0:
256,192,86831,1,2,0:0:0:0:
256,192,86866,1,2,0:0:0:0:
256,192,86902,1,2,0:0:0:0:
256,192,86938,1,0,0:0:0:0:
256,192,86991,1,0,0:0:0:0:
256,192,87045,1,2,0:0:0:0:
256,192,87081,1,0,0:0:0:0:
256,192,87116,1,0,0:0:0:0:
256,192,87152,1,2,0:0:0:0:
256,192,87206,1,0,0:0:0:0:
256,192,87259,1,2,0:0:0:0:
256,192,87366,1,0,0:0:0:0:
256,192,87420,1,2,0:0:0:0:
256,192,87473,1,2,0:0:0:0:
256,192,87527,1,2,0:0:0:0:
256,192,87581,1,0,0:0:0:0:
256,192,87616,1,0,0:0:0:0:
256,192,87652,1,0,0:0:0:0:
256,192,87688,1,2,0:0:0:0:
256,192,87741,1,0,0:0:0:0:
256,192,87795,1,2,0:0:0:0:
256,192,87848,1,2,0:0:0:0:
256,192,87902,1,0,0:0:0:0:
256,192,88009,1,2,0:0:0:0:
256,192,88116,1,4,0:0:0:0:
256,192,88223,1,0,0:0:0:0:
256,192,88277,1,0,0:0:0:0:
256,192,88331,1,2,0:0:0:0:
256,192,88384,1,2,0:0:0:0:
256,192,88438,1,0,0:0:0:0:
256,192,88545,1,0,0:0:0:0:
256,192,88652,1,2,0:0:0:0:
256,192,88706,1,2,0:0:0:0:
256,192,88759,1,0,0:0:0:0:
256,192,88866,1,2,0:0:0:0:
256,192,88920,1,2,0:0:0:0:
256,192,89081,1,2,0:0:0:0:
256,192,89188,1,0,0:0:0:0:
256,192,89295,1,2,0:0:0:0:
256,192,89348,1,2,0:0:0:0:
256,192,89509,1,2,0:0:0:0:
256,192,89563,1,2,0:0:0:0:
256,192,89616,1,0,0:0:0:0:
256,192,89723,1,2,0:0:0:0:
256,192,89777,1,0,0:0:0:0:
256,192,89831,1,2,0:0:0:0:
256,192,89938,1,0,0:0:0:0:
256,192,89991,1,2,0:0:0:0:
256,192,90045,1,0,0:0:0:0:
256,192,90098,1,0,0:0:0:0:
256,192,90152,1,2,0:0:0:0:
256,192,90206,1,2,0:0:0:0:
256,192,90259,1,0,0:0:0:0:
256,192,90295,1,0,0:0:0:0:
256,192,90331,1,0,0:0:0:0:
256,192,90366,1,2,0:0:0:0:
256,192,90420,1,2,0:0:0:0:
256,192,90473,1,0,0:0:0:0:
256,192,90509,1,2,0:0:0:0:
256,192,90545,1,2,0:0:0:0:
256,192,90581,1,0,0:0:0:0:
256,192,90634,1,0,0:0:0:0:
256,192,90688,1,2,0:0:0:0:
256,192,90795,1,0,0:0:0:0:
256,192,90848,1,2,0:0:0:0:
256,192,90902,1,0,0:0:0:0:
256,192,90956,1,0,0:0:0:0:
256,192,91009,1,2,0:0:0:0:
256,192,91045,1,0,0:0:0:0:
256,192,91081,1,0,0:0:0:0:
256,192,91116,1,2,0:0:0:0:
256,192,91170,1,0,0:0:0:0:
256,192,91223,1,2,0:0:0:0:
256,192,91259,1,2,0:0:0:0:
256,192,91295,1,2,0:0:0:0:
256,192,91331,1,0,0:0:0:0:
256,192,91438,1,2,0:0:0:0:
256,192,91545,1,4,0:0:0:0:
256,192,91652,1,0,0:0:0:0:
256,192,91706,1,0,0:0:0:0:
256,192,91759,1,2,0:0:0:0:
256,192,91813,1,2,0:0:0:0:
256,192,91866,1,0,0:0:0:0:
256,192,91973,1,2,0:0:0:0:
256,192,92081,1,0,0:0:0:0:
256,192,92134,1,2,0:0:0:0:
256,192,92188,1,0,0:0:0:0:
256,192,92348,1,2,0:0:0:0:
256,192,92456,1,2,0:0:0:0:
256,192,92616,1,0,0:0:0:0:
256,192,92723,1,2,0:0:0:0:
256,192,92777,1,2,0:0:0:0:
256,192,92938,1,2,0:0:0:0:
256,192,92991,1,2,0:0:0:0:
256,192,93045,1,0,0:0:0:0:
256,192,93152,1,2,0:0:0:0:
256,192,93206,1,0,0:0:0:0:
256,192,93259,1,2,0:0:0:0:
256,192,93313,1,2,0:0:0:0:
256,192,93366,1,0,0:0:0:0:
256,192,93473,1,0,0:0:0:0:
256,192,93527,1,2,0:0:0:0:
256,192,93581,1,0,0:0:0:0:
256,192,93634,1,0,0:0:0:0:
256,192,93688,1,2,0:0:0:0:
256,192,93723,1,2,0:0:0:0:
256,192,93759,1,2,0:0:0:0:
256,192,93795,1,0,0:0:0:0:
256,192,93848,1,0,0:0:0:0:
256,192,93902,1,2,0:0:0:0:
256,192,93938,1,2,0:0:0:0:
256,192,93973,1,2,0:0:0:0:
256,192,94009,1,0,0:0:0:0:
256,192,94063,1,0,0:0:0:0:
256,192,94116,1,2,0:0:0:0:
256,192,94170,1,0,0:0:0:0:
256,192,94223,1,2,0:0:0:0:
256,192,94277,1,2,0:0:0:0:
256,192,94331,1,0,0:0:0:0:
256,192,94384,1,2,0:0:0:0:
256,192,94438,1,0,0:0:0:0:
256,192,94473,1,0,0:0:0:0:
256,192,94509,1,0,0:0:0:0:
256,192,94545,1,2,0:0:0:0:
256,192,94581,1,2,0:0:0:0:
256,192,94616,1,2,0:0:0:0:
256,192,94652,1,0,0:0:0:0:
256,192,94706,1,0,0:0:0:0:
256,192,94759,1,0,0:0:0:0:
256,192,94866,1,2,0:0:0:0:
256,192,94973,1,0,0:0:0:0:
256,192,95081,1,0,0:0:0:0:
256,192,95134,1,0,0:0:0:0:
256,192,95188,1,2,0:0:0:0:
256,192,95241,1,2,0:0:0:0:
256,192,95295,1,0,0:0:0:0:
256,192,95348,1,2,0:0:0:0:
256,192,95402,1,0,0:0:0:0:
256,192,95456,1,0,0:0:0:0:
256,192,95509,1,2,0:0:0:0:
256,192,95563,1,2,0:0:0:0:
256,192,95616,1,0,0:0:0:0:
256,192,95652,1,0,0:0:0:0:
256,192,95688,1,0,0:0:0:0:
256,192,95723,1,2,0:0:0:0:
256,192,95777,12,0,99902,0:0:0:0:
256,192,100116,5,2,0:0:0:0:
256,192,100223,1,2,0:0:0:0:
256,192,100331,1,2,0:0:0:0:
256,192,100545,1,2,0:0:0:0:
256,192,100759,1,0,0:0:0:0:
256,192,100973,1,2,0:0:0:0:
256,192,101188,1,2,0:0:0:0:
256,192,101402,1,0,0:0:0:0:
256,192,101616,1,2,0:0:0:0:
256,192,101831,1,0,0:0:0:0:
256,192,101938,1,0,0:0:0:0:
256,192,102045,1,2,0:0:0:0:
256,192,102259,1,0,0:0:0:0:
256,192,102473,1,2,0:0:0:0:
256,192,102581,1,0,0:0:0:0:
256,192,102688,1,2,0:0:0:0:
256,192,102795,1,2,0:0:0:0:
256,192,102902,1,0,0:0:0:0:
256,192,103063,1,0,0:0:0:0:
256,192,103116,1,2,0:0:0:0:
256,192,103223,1,2,0:0:0:0:
256,192,103331,1,0,0:0:0:0:
256,192,103438,1,2,0:0:0:0:
256,192,103473,1,2,0:0:0:0:
256,192,103509,1,2,0:0:0:0:
256,192,103545,1,0,0:0:0:0:
256,192,103652,1,0,0:0:0:0:
256,192,103759,1,0,0:0:0:0:
256,192,103973,1,0,0:0:0:0:
256,192,104081,1,2,0:0:0:0:
256,192,104188,1,2,0:0:0:0:
256,192,104509,1,0,0:0:0:0:
256,192,104616,1,2,0:0:0:0:
256,192,104831,1,0,0:0:0:0:
256,192,105045,1,2,0:0:0:0:
256,192,105152,1,2,0:0:0:0:
256,192,105259,1,0,0:0:0:0:
256,192,105473,1,2,0:0:0:0:
256,192,105688,1,0,0:0:0:0:
256,192,105795,1,2,0:0:0:0:
256,192,105902,1,4,0:0:0:0:
256,192,106116,1,4,0:0:0:0:
256,192,106223,1,2,0:0:0:0:
256,192,106438,1,0,0:0:0:0:
256,192,106491,1,0,0:0:0:0:
256,192,106545,1,2,0:0:0:0:
256,192,106652,1,2,0:0:0:0:
256,192,106759,1,4,0:0:0:0:
256,192,106866,1,4,0:0:0:0:
256,192,107081,1,6,0:0:0:0:
256,192,107402,1,6,0:0:0:0:
256,192,107616,1,0,0:0:0:0:
256,192,107723,1,0,0:0:0:0:
256,192,107831,1,2,0:0:0:0:
256,192,107938,1,0,0:0:0:0:
256,192,107991,1,0,0:0:0:0:
256,192,108045,1,2,0:0:0:0:
256,192,108152,1,0,0:0:0:0:
256,192,108206,1,0,0:0:0:0:
256,192,108259,1,2,0:0:0:0:
256,192,108366,1,2,0:0:0:0:
256,192,108473,1,0,0:0:0:0:
256,192,108581,1,2,0:0:0:0:
256,192,108634,1,2,0:0:0:0:
256,192,108688,1,0,0:0:0:0:
256,192,108759,1,2,0:0:0:0:
256,192,108831,1,2,0:0:0:0:
256,192,108902,1,0,0:0:0:0:
256,192,109009,1,2,0:0:0:0:
256,192,109063,1,2,0:0:0:0:
256,192,109116,1,0,0:0:0:0:
256,192,109223,1,2,0:0:0:0:
256,192,109331,1,0,0:0:0:0:
256,192,109545,1,0,0:0:0:0:
256,192,109616,1,2,0:0:0:0:
256,192,109831,1,0,0:0:0:0:
256,192,109902,1,2,0:0:0:0:
256,192,109973,1,2,0:0:0:0:
256,192,110188,1,0,0:0:0:0:
256,192,110473,1,2,0:0:0:0:
256,192,110545,1,0,0:0:0:0:
256,192,110616,1,0,0:0:0:0:
256,192,110831,1,0,0:0:0:0:
256,192,110902,1,2,0:0:0:0:
256,192,110973,1,2,0:0:0:0:
256,192,111045,1,0,0:0:0:0:
256,192,111259,1,2,0:0:0:0:
256,192,111473,1,2,0:0:0:0:
256,192,111688,1,0,0:0:0:0:
256,192,111902,1,2,0:0:0:0:
256,192,112116,1,0,0:0:0:0:
256,192,112223,1,0,0:0:0:0:
256,192,112331,1,2,0:0:0:0:
256,192,112545,1,0,0:0:0:0:
256,192,112759,1,2,0:0:0:0:
256,192,112973,1,0,0:0:0:0:
256,192,113188,1,2,0:0:0:0:
256,192,113295,1,0,0:0:0:0:
256,192,113402,1,2,0:0:0:0:
256,192,113509,1,2,0:0:0:0:
256,192,113616,1,0,0:0:0:0:
256,192,113831,1,2,0:0:0:0:
256,192,113938,1,0,0:0:0:0:
256,192,114045,1,0,0:0:0:0:
256,192,114259,1,0,0:0:0:0:
256,192,114473,1,0,0:0:0:0:
256,192,114688,1,2,0:0:0:0:
256,192,114902,1,0,0:0:0:0:
256,192,115116,1,2,0:0:0:0:
256,192,115223,1,2,0:0:0:0:
256,192,115331,1,0,0:0:0:0:
256,192,115545,1,2,0:0:0:0:
256,192,115652,1,2,0:0:0:0:
256,192,115759,1,0,0:0:0:0:
256,192,115973,1,2,0:0:0:0:
256,192,116188,1,0,0:0:0:0:
256,192,117045,1,2,0:0:0:0:
256,192,117902,5,0,0:0:0:0:
256,192,118116,1,0,0:0:0:0:
256,192,118331,1,2,0:0:0:0:
256,192,118545,1,2,0:0:0:0:
256,192,118759,1,0,0:0:0:0:
256,192,118973,1,2,0:0:0:0:
256,192,119045,1,2,0:0:0:0:
256,192,119116,1,2,0:0:0:0:
256,192,119188,1,0,0:0:0:0:
256,192,119402,1,2,0:0:0:0:
256,192,119616,1,0,0:0:0:0:
256,192,119723,1,2,0:0:0:0:
256,192,119831,1,0,0:0:0:0:
256,192,119938,1,0,0:0:0:0:
256,192,120045,1,2,0:0:0:0:
256,192,120098,1,2,0:0:0:0:
256,192,120152,1,0,0:0:0:0:
256,192,120206,1,0,0:0:0:0:
256,192,120259,1,2,0:0:0:0:
256,192,120366,1,2,0:0:0:0:
256,192,120473,1,0,0:0:0:0:
256,192,120527,1,0,0:0:0:0:
256,192,120581,1,0,0:0:0:0:
256,192,120634,1,0,0:0:0:0:
256,192,120688,1,2,0:0:0:0:
256,192,120795,1,2,0:0:0:0:
256,192,120902,1,0,0:0:0:0:
256,192,120956,1,0,0:0:0:0:
256,192,121009,1,2,0:0:0:0:
256,192,121063,1,2,0:0:0:0:
256,192,121116,1,2,0:0:0:0:
256,192,121331,1,6,0:0:0:0:
256,192,121545,1,0,0:0:0:0:
256,192,121759,1,2,0:0:0:0:
256,192,121866,1,0,0:0:0:0:
256,192,121973,1,2,0:0:0:0:
256,192,122081,1,2,0:0:0:0:
256,192,122188,1,0,0:0:0:0:
256,192,122295,1,2,0:0:0:0:
256,192,122402,1,0,0:0:0:0:
256,192,122509,1,2,0:0:0:0:
256,192,122616,1,0,0:0:0:0:
256,192,122723,1,0,0:0:0:0:
256,192,122831,1,2,0:0:0:0:
256,192,123045,1,2,0:0:0:0:
256,192,123152,1,0,0:0:0:0:
256,192,123259,1,2,0:0:0:0:
256,192,123366,1,0,0:0:0:0:
256,192,123473,1,2,0:0:0:0:
256,192,123581,1,2,0:0:0:0:
256,192,123688,1,0,0:0:0:0:
256,192,123795,1,2,0:0:0:0:
256,192,123902,1,0,0:0:0:0:
256,192,124009,1,2,0:0:0:0:
256,192,124223,1,6,0:0:0:0:
256,192,124438,1,0,0:0:0:0:
256,192,124545,1,2,0:0:0:0:
256,192,126473,1,4,0:0:0:0:
256,192,126688,1,2,0:0:0:0:
256,192,126795,1,2,0:0:0:0:
256,192,126902,1,2,0:0:0:0:
256,192,127116,1,2,0:0:0:0:
256,192,127331,1,4,0:0:0:0:
256,192,127545,1,0,0:0:0:0:
256,192,127759,1,2,0:0:0:0:
256,192,127973,1,0,0:0:0:0:
256,192,128188,1,2,0:0:0:0:
256,192,128295,1,0,0:0:0:0:
256,192,128402,1,0,0:0:0:0:
256,192,128509,1,2,0:0:0:0:
256,192,128616,1,2,0:0:0:0:
256,192,128831,1,0,0:0:0:0:
256,192,128938,1,0,0:0:0:0:
256,192,129045,1,2,0:0:0:0:
256,192,129259,1,0,0:0:0:0:
256,192,129331,1,0,0:0:0:0:
256,192,129402,1,0,0:0:0:0:
256,192,129473,1,2,0:0:0:0:
256,192,129581,1,0,0:0:0:0:
256,192,129688,1,2,0:0:0:0:
256,192,129795,1,2,0:0:0:0:
256,192,129902,1,0,0:0:0:0:
256,192,130116,1,2,0:0:0:0:
256,192,130223,1,0,0:0:0:0:
256,192,130331,1,2,0:0:0:0:
256,192,130545,1,2,0:0:0:0:
256,192,130652,1,2,0:0:0:0:
256,192,130759,1,0,0:0:0:0:
256,192,130973,1,0,0:0:0:0:
256,192,131188,1,2,0:0:0:0:
256,192,131402,1,2,0:0:0:0:
256,192,131509,1,2,0:0:0:0:
256,192,131616,1,0,0:0:0:0:
256,192,131723,1,0,0:0:0:0:
256,192,131831,1,2,0:0:0:0:
256,192,132045,1,0,0:0:0:0:
256,192,132259,1,0,0:0:0:0:
256,192,132313,1,0,0:0:0:0:
256,192,132366,1,2,0:0:0:0:
256,192,132473,1,2,0:0:0:0:
256,192,132688,1,0,0:0:0:0:
256,192,132759,1,0,0:0:0:0:
256,192,132831,1,0,0:0:0:0:
256,192,132902,1,2,0:0:0:0:
256,192,133009,1,0,0:0:0:0:
256,192,133116,1,2,0:0:0:0:
256,192,133223,1,2,0:0:0:0:
256,192,133331,1,0,0:0:0:0:
256,192,133438,1,0,0:0:0:0:
256,192,133491,1,0,0:0:0:0:
256,192,133545,1,2,0:0:0:0:
256,192,133652,1,0,0:0:0:0:
256,192,133759,1,2,0:0:0:0:
256,192,133973,1,2,0:0:0:0:
256,192,134188,1,4,0:0:0:0:
256,192,134616,1,2,0:0:0:0:
256,192,134831,1,2,0:0:0:0:
256,192,135045,1,0,0:0:0:0:
256,192,135259,1,2,0:0:0:0:
256,192,135331,1,2,0:0:0:0:
256,192,135402,1,2,0:0:0:0:
256,192,135473,1,0,0:0:0:0:
256,192,135688,1,2,0:0:0:0:
256,192,135902,1,0,0:0:0:0:
256,192,136116,1,0,0:0:0:0:
256,192,136223,1,0,0:0:0:0:
256,192,136331,1,2,0:0:0:0:
256,192,136545,1,2,0:0:0:0:
256,192,136759,1,0,0:0:0:0:
256,192,136866,1,2,0:0:0:0:
256,192,136973,1,0,0:0:0:0:
256,192,137081,1,2,0:0:0:0:
256,192,137188,1,0,0:0:0:0:
256,192,137616,1,0,0:0:0:0:
256,192,137723,1,0,0:0:0:0:
256,192,137777,1,0,0:0:0:0:
256,192,137831,1,2,0:0:0:0:
256,192,137938,1,0,0:0:0:0:
256,192,138045,1,2,0:0:0:0:
256,192,138259,1,0,0:0:0:0:
256,192,138473,1,2,0:0:0:0:
256,192,138688,1,0,0:0:0:0:
256,192,138795,1,0,0:0:0:0:
256,192,138902,1,2,0:0:0:0:
256,192,139116,1,0,0:0:0:0:
256,192,139331,1,0,0:0:0:0:
256,192,139438,1,2,0:0:0:0:
256,192,139545,1,0,0:0:0:0:
256,192,139616,1,0,0:0:0:0:
256,192,139688,1,0,0:0:0:0:
256,192,139759,1,2,0:0:0:0:
256,192,139973,1,2,0:0:0:0:
256,192,140081,1,2,0:0:0:0:
256,192,140188,1,0,0:0:0:0:
256,192,140402,1,0,0:0:0:0:
256,192,140509,1,0,0:0:0:0:
256,192,140616,1,2,0:0:0:0:
256,192,140831,1,0,0:0:0:0:
256,192,140938,1,2,0:0:0:0:
256,192,141045,1,0,0:0:0:0:
256,192,141259,1,2,0:0:0:0:
256,192,141473,1,0,0:0:0:0:
256,192,141581,1,0,0:0:0:0:
256,192,141688,1,2,0:0:0:0:
256,192,141795,1,2,0:0:0:0:
256,192,141902,1,0,0:0:0:0:
256,192,142116,1,2,0:0:0:0:
256,192,142223,1,2,0:0:0:0:
256,192,142331,1,0,0:0:0:0:
256,192,142545,1,4,0:0:0:0:
256,192,142759,1,0,0:0:0:0:
256,192,142973,1,0,0:0:0:0:
256,192,143081,1,2,0:0:0:0:
256,192,143188,1,2,0:0:0:0:
256,192,143295,1,0,0:0:0:0:
256,192,143402,1,2,0:0:0:0:
256,192,143616,1,0,0:0:0:0:
256,192,143723,1,0,0:0:0:0:
256,192,143831,1,2,0:0:0:0:
256,192,143938,1,2,0:0:0:0:
256,192,144045,1,0,0:0:0:0:
256,192,144473,1,0,0:0:0:0:
256,192,144688,1,0,0:0:0:0:
256,192,144795,1,0,0:0:0:0:
256,192,144902,1,2,0:0:0:0:
256,192,145116,1,2,0:0:0:0:
256,192,145331,1,0,0:0:0:0:
256,192,145545,1,0,0:0:0:0:
256,192,145616,1,2,0:0:0:0:
256,192,145688,1,2,0:0:0:0:
256,192,145759,1,0,0:0:0:0:
256,192,145973,1,0,0:0:0:0:
256,192,146081,1,2,0:0:0:0:
256,192,146188,1,0,0:0:0:0:
256,192,146402,1,0,0:0:0:0:
256,192,146509,1,0,0:0:0:0:
256,192,146616,1,2,0:0:0:0:
256,192,146831,1,2,0:0:0:0:
256,192,147045,1,4,0:0:0:0:
256,192,147259,1,2,0:0:0:0:
256,192,147366,1,2,0:0:0:0:
256,192,147473,1,2,0:0:0:0:
256,192,147688,1,2,0:0:0:0:
256,192,147902,1,0,0:0:0:0:
256,192,148116,1,2,0:0:0:0:
256,192,148331,1,2,0:0:0:0:
256,192,148545,1,0,0:0:0:0:
256,192,148759,1,2,0:0:0:0:
256,192,148973,1,0,0:0:0:0:
256,192,149081,1,0,0:0:0:0:
256,192,149188,1,2,0:0:0:0:
256,192,149402,1,0,0:0:0:0:
256,192,149616,1,2,0:0:0:0:
256,192,149831,1,0,0:0:0:0:
256,192,149938,1,0,0:0:0:0:
256,192,150045,1,2,0:0:0:0:
256,192,150259,1,2,0:0:0:0:
256,192,150366,1,2,0:0:0:0:
256,192,150473,1,0,0:0:0:0:
256,192,150581,1,2,0:0:0:0:
256,192,150688,1,0,0:0:0:0:
256,192,150795,1,0,0:0:0:0:
256,192,150902,1,2,0:0:0:0:
256,192,151116,1,0,0:0:0:0:
256,192,151223,1,2,0:0:0:0:
256,192,151331,1,2,0:0:0:0:
256,192,151545,1,0,0:0:0:0:
256,192,151759,1,2,0:0:0:0:
256,192,151866,1,0,0:0:0:0:
256,192,151973,1,2,0:0:0:0:
256,192,152081,1,2,0:0:0:0:
256,192,152188,1,0,0:0:0:0:
256,192,152402,1,2,0:0:0:0:
256,192,152616,1,0,0:0:0:0:
256,192,152831,1,2,0:0:0:0:
256,192,152938,1,2,0:0:0:0:
256,192,153045,1,0,0:0:0:0:
256,192,153259,1,0,0:0:0:0:
256,192,153366,1,2,0:0:0:0:
256,192,153545,1,0,0:0:0:0:
256,192,153616,1,0,0:0:0:0:
256,192,153688,1,0,0:0:0:0:
256,192,153759,1,2,0:0:0:0:
256,192,153831,1,2,0:0:0:0:
256,192,153902,1,0,0:0:0:0:
256,192,154045,1,0,0:0:0:0:
256,192,154116,1,2,0:0:0:0:
256,192,154331,1,6,0:0:0:0:
256,192,154545,1,2,0:0:0:0:
256,192,154598,1,2,0:0:0:0:
256,192,154652,1,2,0:0:0:0:
256,192,154706,1,2,0:0:0:0:
256,192,154759,1,0,0:0:0:0:
256,192,154866,1,0,0:0:0:0:
256,192,154973,1,2,0:0:0:0:
256,192,155081,1,0,0:0:0:0:
256,192,155134,1,0,0:0:0:0:
256,192,155188,1,2,0:0:0:0:
256,192,155241,1,2,0:0:0:0:
256,192,155295,1,0,0:0:0:0:
256,192,155402,1,2,0:0:0:0:
256,192,155509,1,0,0:0:0:0:
256,192,155563,1,0,0:0:0:0:
256,192,155616,1,2,0:0:0:0:
256,192,155831,1,2,0:0:0:0:
256,192,155938,1,0,0:0:0:0:
256,192,156045,1,6,0:0:0:0:
256,192,156259,1,4,0:0:0:0:
256,192,156473,1,2,0:0:0:0:
256,192,156509,1,2,0:0:0:0:
256,192,156545,1,2,0:0:0:0:
256,192,156581,1,2,0:0:0:0:
256,192,156634,1,2,0:0:0:0:
256,192,156688,1,0,0:0:0:0:
256,192,156795,1,0,0:0:0:0:
256,192,156902,1,2,0:0:0:0:
256,192,157009,1,0,0:0:0:0:
256,192,157063,1,0,0:0:0:0:
256,192,157116,1,2,0:0:0:0:
256,192,157223,1,2,0:0:0:0:
256,192,157277,1,2,0:0:0:0:
256,192,157331,1,0,0:0:0:0:
256,192,157491,1,6,0:0:0:0:
256,192,157652,1,6,0:0:0:0:
256,192,157759,1,4,0:0:0:0:
256,192,157866,1,0,0:0:0:0:
256,192,157920,1,0,0:0:0:0:
256,192,157973,1,2,0:0:0:0:
256,192,158027,1,0,0:0:0:0:
256,192,158081,1,2,0:0:0:0:
256,192,158116,1,2,0:0:0:0:
256,192,158152,1,2,0:0:0:0:
256,192,158188,1,0,0:0:0:0:
256,192,158295,1,2,0:0:0:0:
256,192,158402,1,0,0:0:0:0:
256,192,158509,1,0,0:0:0:0:
256,192,158616,1,2,0:0:0:0:
256,192,158831,1,6,0:0:0:0:
256,192,158938,1,2,0:0:0:0:
256,192,159045,1,4,0:0:0:0:
256,192,159152,1,0,0:0:0:0:
256,192,159206,1,0,0:0:0:0:
256,192,159259,1,2,0:0:0:0:
256,192,159366,1,2,0:0:0:0:
256,192,159473,1,0,0:0:0:0:
256,192,159509,1,2,0:0:0:0:
256,192,159545,1,2,0:0:0:0:
256,192,159581,1,2,0:0:0:0:
256,192,159634,1,2,0:0:0:0:
256,192,159688,1,0,0:0:0:0:
256,192,159723,1,0,0:0:0:0:
256,192,159759,1,0,0:0:0:0:
256,192,159795,1,2,0:0:0:0:
256,192,159848,1,2,0:0:0:0:
256,192,159902,1,0,0:0:0:0:
256,192,160009,1,2,0:0:0:0:
256,192,160116,1,0,0:0:0:0:
256,192,160223,1,0,0:0:0:0:
256,192,160277,1,0,0:0:0:0:
256,192,160331,1,2,0:0:0:0:
256,192,160384,1,2,0:0:0:0:
256,192,160438,1,0,0:0:0:0:
256,192,160491,1,0,0:0:0:0:
256,192,160545,1,2,0:0:0:0:
256,192,160652,1,2,0:0:0:0:
256,192,160759,1,4,0:0:0:0:
256,192,160973,1,6,0:0:0:0:
256,192,161188,1,4,0:0:0:0:
256,192,161295,1,0,0:0:0:0:
256,192,161348,1,0,0:0:0:0:
256,192,161402,1,2,0:0:0:0:
256,192,161456,1,0,0:0:0:0:
256,192,161509,1,2,0:0:0:0:
256,192,161563,1,2,0:0:0:0:
256,192,161616,1,2,0:0:0:0:
256,192,161723,1,0,0:0:0:0:
256,192,161831,1,2,0:0:0:0:
256,192,161938,1,0,0:0:0:0:
256,192,162045,1,2,0:0:0:0:
256,192,162152,1,0,0:0:0:0:
256,192,162259,1,2,0:0:0:0:
256,192,162366,1,0,0:0:0:0:
256,192,162473,1,2,0:0:0:0:
256,192,162581,1,2,0:0:0:0:
256,192,162688,1,0,0:0:0:0:
256,192,162795,1,2,0:0:0:0:
256,192,162902,1,2,0:0:0:0:
256,192,163009,1,0,0:0:0:0:
256,192,163116,1,2,0:0:0:0:
256,192,163223,1,2,0:0:0:0:
256,192,163331,1,0,0:0:0:0:
256,192,163438,1,2,0:0:0:0:
256,192,163491,1,2,0:0:0:0:
256,192,163545,1,2,0:0:0:0:
256,192,163652,1,2,0:0:0:0:
256,192,163759,1,0,0:0:0:0:
256,192,163866,1,2,0:0:0:0:
256,192,163920,1,2,0:0:0:0:
256,192,163973,1,2,0:0:0:0:
256,192,164081,1,2,0:0:0:0:
256,192,164188,1,0,0:0:0:0:
256,192,164295,1,0,0:0:0:0:
256,192,164348,1,2,0:0:0:0:
256,192,164402,1,2,0:0:0:0:
256,192,164509,1,2,0:0:0:0:
256,192,164616,1,4,0:0:0:0:
256,192,165045,1,0,0:0:0:0:
256,192,165098,1,0,0:0:0:0:
256,192,165152,1,0,0:0:0:0:
256,192,165206,1,2,0:0:0:0:
256,192,165259,1,2,0:0:0:0:
256,192,165313,1,0,0:0:0:0:
256,192,165366,1,2,0:0:0:0:
256,192,165420,1,2,0:0:0:0:
256,192,165473,1,0,0:0:0:0:
256,192,165527,1,2,0:0:0:0:
256,192,165581,1,0,0:0:0:0:
256,192,165634,1,0,0:0:0:0:
256,192,165688,1,2,0:0:0:0:
256,192,165741,1,0,0:0:0:0:
256,192,165795,1,0,0:0:0:0:
256,192,165848,1,2,0:0:0:0:
256,192,165902,1,0,0:0:0:0:
256,192,165956,1,0,0:0:0:0:
256,192,166009,1,0,0:0:0:0:
256,192,166063,1,2,0:0:0:0:
256,192,166116,1,0,0:0:0:0:
256,192,166170,1,0,0:0:0:0:
256,192,166223,1,2,0:0:0:0:
256,192,166277,1,0,0:0:0:0:
256,192,166331,1,0,0:0:0:0:
256,192,166384,1,2,0:0:0:0:
256,192,166438,1,2,0:0:0:0:
256,192,166491,1,0,0:0:0:0:
256,192,166545,1,2,0:0:0:0:
256,192,166598,1,2,0:0:0:0:
256,192,166652,1,0,0:0:0:0:
256,192,166706,1,2,0:0:0:0:
256,192,166759,1,0,0:0:0:0:
256,192,166973,1,2,0:0:0:0:
256,192,167188,1,2,0:0:0:0:
256,192,167402,1,0,0:0:0:0:
256,192,167616,1,2,0:0:0:0:
256,192,167831,1,0,0:0:0:0:
256,192,167938,1,0,0:0:0:0:
256,192,168045,1,2,0:0:0:0:
256,192,168259,1,0,0:0:0:0:
256,192,168473,1,2,0:0:0:0:
256,192,168688,1,0,0:0:0:0:
256,192,168902,1,2,0:0:0:0:
256,192,169116,1,0,0:0:0:0:
256,192,169223,1,2,0:0:0:0:
256,192,169331,1,2,0:0:0:0:
256,192,169545,1,2,0:0:0:0:
256,192,169652,1,0,0:0:0:0:
256,192,169759,1,0,0:0:0:0:
256,192,169973,1,2,0:0:0:0:
256,192,170081,1,2,0:0:0:0:
256,192,170188,1,2,0:0:0:0:
256,192,170402,1,0,0:0:0:0:
256,192,170616,1,2,0:0:0:0:
256,192,170831,1,2,0:0:0:0:
256,192,170938,1,2,0:0:0:0:
256,192,171045,1,0,0:0:0:0:
256,192,171259,1,2,0:0:0:0:
256,192,171473,1,0,0:0:0:0:
256,192,171688,1,0,0:0:0:0:
256,192,171795,1,2,0:0:0:0:
256,192,171902,1,2,0:0:0:0:
256,192,172116,1,0,0:0:0:0:
256,192,172331,1,2,0:0:0:0:
256,192,172438,1,0,0:0:0:0:
256,192,172545,1,2,0:0:0:0:
256,192,172652,1,2,0:0:0:0:
256,192,172759,1,0,0:0:0:0:
256,192,172973,1,2,0:0:0:0:
256,192,173188,1,2,0:0:0:0:
256,192,173402,1,0,0:0:0:0:
256,192,173616,1,2,0:0:0:0:
256,192,173831,1,0,0:0:0:0:
256,192,174045,1,2,0:0:0:0:
256,192,174259,1,2,0:0:0:0:
256,192,174473,1,0,0:0:0:0:
256,192,174688,1,0,0:0:0:0:
256,192,174759,1,2,0:0:0:0:
256,192,174831,1,2,0:0:0:0:
256,192,174902,1,0,0:0:0:0:
256,192,175116,1,0,0:0:0:0:
256,192,175331,1,2,0:0:0:0:
256,192,175545,1,0,0:0:0:0:
256,192,175759,1,2,0:0:0:0:
256,192,175973,1,2,0:0:0:0:
256,192,176188,1,0,0:0:0:0:
256,192,176616,1,2,0:0:0:0:
256,192,177045,1,6,0:0:0:0:
256,192,177259,1,0,0:0:0:0:
256,192,177473,1,2,0:0:0:0:
256,192,177581,1,0,0:0:0:0:
256,192,177688,1,2,0:0:0:0:
256,192,177795,1,0,0:0:0:0:
256,192,177902,1,2,0:0:0:0:
256,192,178009,1,2,0:0:0:0:
256,192,178116,1,0,0:0:0:0:
256,192,178223,1,2,0:0:0:0:
256,192,178438,1,2,0:0:0:0:
256,192,178545,1,0,0:0:0:0:
256,192,178759,1,0,0:0:0:0:
256,192,178866,1,0,0:0:0:0:
256,192,179081,1,0,0:0:0:0:
256,192,179295,1,2,0:0:0:0:
256,192,179509,1,0,0:0:0:0:
256,192,179723,1,0,0:0:0:0:
256,192,179831,1,2,0:0:0:0:
256,192,179938,1,2,0:0:0:0:
256,192,180045,1,0,0:0:0:0:
256,192,180259,1,0,0:0:0:0:
256,192,180473,1,2,0:0:0:0:
256,192,180688,1,0,0:0:0:0:
256,192,180795,1,2,0:0:0:0:
256,192,181009,1,0,0:0:0:0:
256,192,181223,1,2,0:0:0:0:
256,192,181438,1,2,0:0:0:0:
256,192,181545,1,0,0:0:0:0:
256,192,181652,1,0,0:0:0:0:
256,192,181759,1,2,0:0:0:0:
256,192,181973,1,2,0:0:0:0:
256,192,182027,1,2,0:0:0:0:
256,192,182081,1,2,0:0:0:0:
256,192,182134,1,2,0:0:0:0:
256,192,182188,1,0,0:0:0:0:
256,192,182295,1,0,0:0:0:0:
256,192,182402,1,2,0:0:0:0:
256,192,182509,1,0,0:0:0:0:
256,192,182563,1,0,0:0:0:0:
256,192,182616,1,2,0:0:0:0:
256,192,182723,1,0,0:0:0:0:
256,192,182831,1,2,0:0:0:0:
256,192,182938,1,2,0:0:0:0:
256,192,183045,1,0,0:0:0:0:
256,192,183152,1,2,0:0:0:0:
256,192,183206,1,2,0:0:0:0:
256,192,183259,1,0,0:0:0:0:
256,192,183366,1,2,0:0:0:0:
256,192,183473,1,0,0:0:0:0:
256,192,183527,1,0,0:0:0:0:
256,192,183581,1,2,0:0:0:0:
256,192,183634,1,2,0:0:0:0:
256,192,183688,1,0,0:0:0:0:
256,192,183795,1,0,0:0:0:0:
256,192,183848,1,0,0:0:0:0:
256,192,183902,1,0,0:0:0:0:
256,192,184009,1,0,0:0:0:0:
256,192,184116,1,2,0:0:0:0:
256,192,184223,1,2,0:0:0:0:
256,192,184277,1,0,0:0:0:0:
256,192,184331,1,2,0:0:0:0:
256,192,184384,1,2,0:0:0:0:
256,192,184438,1,0,0:0:0:0:
256,192,184545,1,2,0:0:0:0:
256,192,184652,1,0,0:0:0:0:
256,192,184706,1,0,0:0:0:0:
256,192,184759,1,2,0:0:0:0:
256,192,184866,1,0,0:0:0:0:
256,192,184973,1,2,0:0:0:0:
256,192,185027,1,2,0:0:0:0:
256,192,185081,1,0,0:0:0:0:
256,192,185134,1,2,0:0:0:0:
256,192,185188,1,0,0:0:0:0:
256,192,185295,1,2,0:0:0:0:
256,192,185402,1,0,0:0:0:0:
256,192,185509,1,0,0:0:0:0:
256,192,185563,1,0,0:0:0:0:
256,192,185616,1,0,0:0:0:0:
256,192,185723,1,0,0:0:0:0:
256,192,185831,1,2,0:0:0:0:
256,192,185938,1,0,0:0:0:0:
256,192,185991,1,2,0:0:0:0:
256,192,186045,1,0,0:0:0:0:
256,192,186098,1,0,0:0:0:0:
256,192,186152,1,2,0:0:0:0:
256,192,186259,1,0,0:0:0:0:
256,192,186366,1,2,0:0:0:0:
256,192,186420,1,2,0:0:0:0:
256,192,186473,1,0,0:0:0:0:
256,192,186581,1,2,0:0:0:0:
256,192,186688,1,0,0:0:0:0:
256,192,186741,1,2,0:0:0:0:
256,192,186795,1,2,0:0:0:0:
256,192,186848,1,2,0:0:0:0:
256,192,186902,1,0,0:0:0:0:
256,192,187009,1,2,0:0:0:0:
256,192,187116,1,0,0:0:0:0:
256,192,187223,1,0,0:0:0:0:
256,192,187277,1,0,0:0:0:0:
256,192,187331,1,0,0:0:0:0:
256,192,187438,1,0,0:0:0:0:
256,192,187545,1,2,0:0:0:0:
256,192,187652,1,0,0:0:0:0:
256,192,187706,1,0,0:0:0:0:
256,192,187759,1,2,0:0:0:0:
256,192,187813,1,0,0:0:0:0:
256,192,187866,1,0,0:0:0:0:
256,192,187973,1,2,0:0:0:0:
256,192,188081,1,0,0:0:0:0:
256,192,188134,1,2,0:0:0:0:
256,192,188188,1,2,0:0:0:0:
256,192,188295,1,0,0:0:0:0:
256,192,188402,1,2,0:0:0:0:
256,192,188456,1,2,0:0:0:0:
256,192,188509,1,0,0:0:0:0:
256,192,188563,1,2,0:0:0:0:
256,192,188616,1,0,0:0:0:0:
256,192,188670,1,0,0:0:0:0:
256,192,188723,1,2,0:0:0:0:
256,192,188777,1,2,0:0:0:0:
256,192,188831,1,0,0:0:0:0:
256,192,188938,1,0,0:0:0:0:
256,192,188991,1,0,0:0:0:0:
256,192,189045,1,0,0:0:0:0:
256,192,189152,1,0,0:0:0:0:
256,192,189259,1,2,0:0:0:0:
256,192,189366,1,0,0:0:0:0:
256,192,189420,1,0,0:0:0:0:
256,192,189473,1,2,0:0:0:0:
256,192,189581,1,0,0:0:0:0:
256,192,189688,1,2,0:0:0:0:
256,192,189795,1,2,0:0:0:0:
256,192,189848,1,0,0:0:0:0:
256,192,189902,1,0,0:0:0:0:
256,192,190009,1,2,0:0:0:0:
256,192,190116,1,0,0:0:0:0:
256,192,190170,1,0,0:0:0:0:
256,192,190223,1,2,0:0:0:0:
256,192,190277,1,2,0:0:0:0:
256,192,190331,1,0,0:0:0:0:
256,192,190438,1,2,0:0:0:0:
256,192,190545,1,0,0:0:0:0:
256,192,190652,1,0,0:0:0:0:
256,192,190706,1,0,0:0:0:0:
256,192,190759,1,0,0:0:0:0:
256,192,190866,1,0,0:0:0:0:
256,192,190973,1,2,0:0:0:0:
256,192,191081,1,2,0:0:0:0:
256,192,191134,1,0,0:0:0:0:
256,192,191188,1,2,0:0:0:0:
256,192,191241,1,0,0:0:0:0:
256,192,191295,1,0,0:0:0:0:
256,192,191402,1,2,0:0:0:0:
256,192,191509,1,0,0:0:0:0:
256,192,191563,1,0,0:0:0:0:
256,192,191616,1,2,0:0:0:0:
256,192,191723,1,0,0:0:0:0:
256,192,191831,1,2,0:0:0:0:
256,192,191884,1,0,0:0:0:0:
256,192,191938,1,0,0:0:0:0:
256,192,191991,1,2,0:0:0:0:
256,192,192045,1,0,0:0:0:0:
256,192,192152,1,2,0:0:0:0:
256,192,192259,1,0,0:0:0:0:
256,192,192366,1,0,0:0:0:0:
256,192,192420,1,0,0:0:0:0:
256,192,192473,1,0,0:0:0:0:
256,192,192580,1,0,0:0:0:0:
256,192,192688,1,2,0:0:0:0:
256,192,192795,1,0,0:0:0:0:
256,192,192848,1,2,0:0:0:0:
256,192,192902,1,0,0:0:0:0:
256,192,192955,1,0,0:0:0:0:
256,192,193009,1,2,0:0:0:0:
256,192,193116,1,0,0:0:0:0:
256,192,193223,1,2,0:0:0:0:
256,192,193277,1,2,0:0:0:0:
256,192,193330,1,0,0:0:0:0:
256,192,193438,1,2,0:0:0:0:
256,192,193545,1,0,0:0:0:0:
256,192,193598,1,2,0:0:0:0:
256,192,193652,1,2,0:0:0:0:
256,192,193705,1,0,0:0:0:0:
256,192,193759,1,0,0:0:0:0:
256,192,193866,1,2,0:0:0:0:
256,192,193973,1,0,0:0:0:0:
256,192,194080,1,0,0:0:0:0:
256,192,194134,1,0,0:0:0:0:
256,192,194188,1,0,0:0:0:0:
256,192,194295,1,0,0:0:0:0:
256,192,194402,1,2,0:0:0:0:
256,192,194509,1,0,0:0:0:0:
256,192,194563,1,0,0:0:0:0:
256,192,194616,1,2,0:0:0:0:
256,192,194670,1,0,0:0:0:0:
256,192,194723,1,0,0:0:0:0:
256,192,194830,1,2,0:0:0:0:
256,192,194938,1,0,0:0:0:0:
256,192,194991,1,0,0:0:0:0:
256,192,195045,1,2,0:0:0:0:
256,192,195152,1,2,0:0:0:0:
256,192,195259,1,0,0:0:0:0:
256,192,195313,1,0,0:0:0:0:
256,192,195366,1,0,0:0:0:0:
256,192,195420,1,0,0:0:0:0:
256,192,195473,1,0,0:0:0:0:
256,192,195580,1,2,0:0:0:0:
256,192,195688,1,0,0:0:0:0:
256,192,195741,1,0,0:0:0:0:
256,192,195795,1,0,0:0:0:0:
256,192,195848,1,0,0:0:0:0:
256,192,195902,1,0,0:0:0:0:
256,192,196009,1,0,0:0:0:0:
256,192,196116,1,2,0:0:0:0:
256,192,196223,1,0,0:0:0:0:
256,192,196277,1,2,0:0:0:0:
256,192,196331,1,2,0:0:0:0:
256,192,196438,1,0,0:0:0:0:
256,192,196545,1,2,0:0:0:0:
256,192,196652,1,2,0:0:0:0:
256,192,196706,1,2,0:0:0:0:
256,192,196759,1,0,0:0:0:0:
256,192,196866,1,2,0:0:0:0:
256,192,196973,1,0,0:0:0:0:
256,192,197027,1,2,0:0:0:0:
256,192,197081,1,2,0:0:0:0:
256,192,197134,1,2,0:0:0:0:
256,192,197188,1,0,0:0:0:0:
256,192,197295,1,2,0:0:0:0:
256,192,197402,1,0,0:0:0:0:
256,192,197509,1,0,0:0:0:0:
256,192,197563,1,0,0:0:0:0:
256,192,197616,1,0,0:0:0:0:
256,192,197723,1,0,0:0:0:0:
256,192,197831,1,2,0:0:0:0:
256,192,197938,1,2,0:0:0:0:
256,192,197991,1,0,0:0:0:0:
256,192,198045,1,2,0:0:0:0:
256,192,198098,1,2,0:0:0:0:
256,192,198152,1,0,0:0:0:0:
256,192,198259,1,2,0:0:0:0:
256,192,198366,1,0,0:0:0:0:
256,192,198420,1,2,0:0:0:0:
256,192,198473,1,2,0:0:0:0:
256,192,198581,1,0,0:0:0:0:
256,192,198688,1,2,0:0:0:0:
256,192,198741,1,2,0:0:0:0:
256,192,198795,1,0,0:0:0:0:
256,192,198848,1,2,0:0:0:0:
256,192,198902,1,0,0:0:0:0:
256,192,199009,1,2,0:0:0:0:
256,192,199116,1,0,0:0:0:0:
256,192,199223,1,0,0:0:0:0:
256,192,199277,1,0,0:0:0:0:
256,192,199331,1,0,0:0:0:0:
256,192,199438,1,0,0:0:0:0:
256,192,199545,1,2,0:0:0:0:
256,192,199652,1,0,0:0:0:0:
256,192,199706,1,2,0:0:0:0:
256,192,199759,1,2,0:0:0:0:
256,192,199813,1,0,0:0:0:0:
256,192,199866,1,2,0:0:0:0:
256,192,199973,1,0,0:0:0:0:
256,192,200081,1,2,0:0:0:0:
256,192,200134,1,2,0:0:0:0:
256,192,200188,1,0,0:0:0:0:
256,192,200295,1,2,0:0:0:0:
256,192,200402,1,0,0:0:0:0:
256,192,200456,1,2,0:0:0:0:
256,192,200509,1,2,0:0:0:0:
256,192,200563,1,2,0:0:0:0:
256,192,200616,1,0,0:0:0:0:
256,192,200723,1,2,0:0:0:0:
256,192,200831,1,0,0:0:0:0:
256,192,200938,1,0,0:0:0:0:
256,192,200991,1,0,0:0:0:0:
256,192,201045,1,0,0:0:0:0:
256,192,201152,1,0,0:0:0:0:
256,192,201259,1,2,0:0:0:0:
256,192,201366,1,0,0:0:0:0:
256,192,201420,1,0,0:0:0:0:
256,192,201473,1,2,0:0:0:0:
256,192,201527,1,2,0:0:0:0:
256,192,201581,1,0,0:0:0:0:
256,192,201688,1,2,0:0:0:0:
256,192,201795,1,0,0:0:0:0:
256,192,201848,1,2,0:0:0:0:
256,192,201902,1,2,0:0:0:0:
256,192,202009,1,0,0:0:0:0:
256,192,202116,1,2,0:0:0:0:
256,192,202170,1,2,0:0:0:0:
256,192,202223,1,0,0:0:0:0:
256,192,202277,1,2,0:0:0:0:
256,192,202331,1,0,0:0:0:0:
256,192,202384,1,0,0:0:0:0:
256,192,202438,1,2,0:0:0:0:
256,192,202491,1,2,0:0:0:0:
256,192,202545,1,0,0:0:0:0:
256,192,202652,1,0,0:0:0:0:
256,192,202706,1,0,0:0:0:0:
256,192,202759,1,0,0:0:0:0:
256,192,202973,1,4,0:0:0:0:
256,192,203188,1,6,0:0:0:0:
256,192,203402,1,4,0:0:0:0:
256,192,203616,1,6,0:0:0:0:
256,192,203831,1,6,0:0:0:0:
256,192,204045,1,4,0:0:0:0:
256,192,204259,1,6,0:0:0:0:
256,192,204688,1,6,0:0:0:0:
256,192,204902,1,4,0:0:0:0:
256,192,205116,1,6,0:0:0:0:
256,192,205331,1,4,0:0:0:0:
256,192,205545,1,4,0:0:0:0:
256,192,205759,1,6,0:0:0:0:
256,192,205973,1,4,0:0:0:0:
256,192,206402,1,0,0:0:0:0:
256,192,206616,1,2,0:0:0:0:
256,192,206831,1,2,0:0:0:0:
256,192,207045,1,2,0:0:0:0:
256,192,207259,1,0,0:0:0:0:
256,192,207473,1,2,0:0:0:0:
256,192,207688,1,2,0:0:0:0:
256,192,207795,1,0,0:0:0:0:
256,192,208009,1,0,0:0:0:0:
256,192,208116,1,2,0:0:0:0:
256,192,208331,1,0,0:0:0:0:
256,192,208545,1,2,0:0:0:0:
256,192,208759,1,2,0:0:0:0:
256,192,208973,1,0,0:0:0:0:
256,192,209188,1,2,0:0:0:0:
256,192,209402,1,2,0:0:0:0:
256,192,209616,1,0,0:0:0:0:
256,192,209670,1,0,0:0:0:0:
256,192,209723,1,0,0:0:0:0:
256,192,209777,1,2,0:0:0:0:
256,192,209831,1,0,0:0:0:0:
256,192,209884,1,0,0:0:0:0:
256,192,209938,1,2,0:0:0:0:
256,192,209991,1,2,0:0:0:0:
256,192,210045,1,0,0:0:0:0:
256,192,210098,1,2,0:0:0:0:
256,192,210152,1,2,0:0:0:0:
256,192,210206,1,0,0:0:0:0:
256,192,210259,1,2,0:0:0:0:
256,192,210313,1,2,0:0:0:0:
256,192,210366,1,0,0:0:0:0:
256,192,210420,1,2,0:0:0:0:
256,192,210473,1,0,0:0:0:0:
256,192,210527,1,0,0:0:0:0:
256,192,210581,1,2,0:0:0:0:
256,192,210634,1,0,0:0:0:0:
256,192,210688,1,0,0:0:0:0:
256,192,210741,1,2,0:0:0:0:
256,192,210795,1,0,0:0:0:0:
256,192,210848,1,0,0:0:0:0:
256,192,210902,1,2,0:0:0:0:
256,192,210956,1,2,0:0:0:0:
256,192,211009,1,0,0:0:0:0:
256,192,211063,1,2,0:0:0:0:
256,192,211116,1,2,0:0:0:0:
256,192,211170,1,0,0:0:0:0:
256,192,211223,1,2,0:0:0:0:
256,192,211277,1,2,0:0:0:0:
256,192,211331,1,0,0:0:0:0:
256,192,211384,1,2,0:0:0:0:
256,192,211438,1,0,0:0:0:0:
256,192,211491,1,0,0:0:0:0:
256,192,211545,1,2,0:0:0:0:
256,192,211598,1,2,0:0:0:0:
256,192,211652,1,0,0:0:0:0:
256,192,211706,1,0,0:0:0:0:
256,192,211759,1,2,0:0:0:0:
256,192,211813,1,0,0:0:0:0:
256,192,211866,1,0,0:0:0:0:
256,192,211920,1,2,0:0:0:0:
256,192,211973,1,0,0:0:0:0:
256,192,212027,1,0,0:0:0:0:
256,192,212081,1,2,0:0:0:0:
256,192,212134,1,2,0:0:0:0:
256,192,212188,1,2,0:0:0:0:
256,192,212616,1,0,0:0:0:0:
256,192,212670,1,0,0:0:0:0:
256,192,212723,1,0,0:0:0:0:
256,192,212777,1,0,0:0:0:0:
256,192,212831,1,0,0:0:0:0:
256,192,212884,1,0,0:0:0:0:
256,192,212938,1,2,0:0:0:0:
256,192,212991,1,2,0:0:0:0:
256,192,213045,1,2,0:0:0:0:
256,192,213098,1,2,0:0:0:0:
256,192,213152,1,2,0:0:0:0:
256,192,213206,1,2,0:0:0:0:
256,192,213259,1,0,0:0:0:0:
256,192,213366,1,2,0:0:0:0:
256,192,213473,1,0,0:0:0:0:
256,192,213527,1,0,0:0:0:0:
256,192,213581,1,0,0:0:0:0:
256,192,213634,1,0,0:0:0:0:
256,192,213688,1,2,0:0:0:0:
256,192,213795,1,2,0:0:0:0:
256,192,213902,1,0,0:0:0:0:
256,192,213938,1,0,0:0:0:0:
256,192,213973,1,0,0:0:0:0:
256,192,214045,1,0,0:0:0:0:
256,192,214116,1,0,0:0:0:0:
256,192,214223,1,0,0:0:0:0:
256,192,214331,1,2,0:0:0:0:
256,192,214438,1,2,0:0:0:0:
256,192,214545,1,2,0:0:0:0:
256,192,214652,1,2,0:0:0:0:
256,192,214973,1,6,0:0:0:0:
256,192,215295,1,6,0:0:0:0:
256,192,215616,1,0,0:0:0:0:
256,192,215652,1,0,0:0:0:0:
256,192,215688,1,0,0:0:0:0:
256,192,215723,1,0,0:0:0:0:
256,192,215759,1,0,0:0:0:0:
256,192,215795,1,0,0:0:0:0:
256,192,215831,1,2,0:0:0:0:
256,192,215938,1,0,0:0:0:0:
256,192,216045,1,2,0:0:0:0:
256,192,216259,1,2,0:0:0:0:
256,192,216366,1,4,0:0:0:0:
256,192,216688,1,12,0:0:0:0:
256,192,217009,1,6,0:0:0:0:
256,192,217331,1,0,0:0:0:0:
256,192,217384,1,0,0:0:0:0:
256,192,217438,1,2,0:0:0:0:
256,192,217491,1,2,0:0:0:0:
256,192,217545,1,0,0:0:0:0:
256,192,217652,1,0,0:0:0:0:
256,192,217706,1,0,0:0:0:0:
256,192,217759,1,2,0:0:0:0:
256,192,217813,1,2,0:0:0:0:
256,192,217866,1,2,0:0:0:0:
256,192,217920,1,2,0:0:0:0:
256,192,217973,1,2,0:0:0:0:
256,192,218081,1,6,0:0:0:0:
256,192,218188,1,6,0:0:0:0:
256,192,218402,1,4,0:0:0:0:
256,192,218616,1,0,0:0:0:0:
256,192,218723,1,6,0:0:0:0:
256,192,218831,1,6,0:0:0:0:
256,192,219045,1,4,0:0:0:0:
256,192,219152,1,0,0:0:0:0:
256,192,219206,1,0,0:0:0:0:
256,192,219259,1,2,0:0:0:0:
256,192,219366,1,2,0:0:0:0:
256,192,219581,1,0,0:0:0:0:
256,192,219688,1,2,0:0:0:0:
256,192,219795,1,2,0:0:0:0:
256,192,219902,1,0,0:0:0:0:
256,192,220009,1,2,0:0:0:0:
256,192,220063,1,2,0:0:0:0:
256,192,220116,1,0,0:0:0:0:
256,192,220331,1,0,0:0:0:0:
256,192,220438,1,6,0:0:0:0:
256,192,220759,1,6,0:0:0:0:
256,192,220973,1,2,0:0:0:0:
256,192,221081,1,2,0:0:0:0:
256,192,221295,1,0,0:0:0:0:
256,192,221509,1,4,0:0:0:0:
256,192,221831,1,4,0:0:0:0:
256,192,222152,1,6,0:0:0:0:
256,192,222259,1,4,0:0:0:0:
256,192,222473,1,6,0:0:0:0:
256,192,222688,1,2,0:0:0:0:
256,192,222759,1,2,0:0:0:0:
256,192,222831,1,2,0:0:0:0:
256,192,222902,1,0,0:0:0:0:
256,192,222973,1,0,0:0:0:0:
256,192,223045,1,0,0:0:0:0:
256,192,223116,1,2,0:0:0:0:
256,192,223170,1,2,0:0:0:0:
256,192,223223,1,2,0:0:0:0:
256,192,223277,1,2,0:0:0:0:
256,192,223331,1,0,0:0:0:0:
256,192,223402,1,2,0:0:0:0:
256,192,223473,1,2,0:0:0:0:
256,192,223545,1,0,0:0:0:0:
256,192,223616,1,2,0:0:0:0:
256,192,223688,1,2,0:0:0:0:
256,192,223759,1,0,0:0:0:0:
256,192,223866,1,0,0:0:0:0:
256,192,223973,1,2,0:0:0:0:
256,192,224081,1,2,0:0:0:0:
256,192,224188,1,0,0:0:0:0:
256,192,224223,1,0,0:0:0:0:
256,192,224259,1,0,0:0:0:0:
256,192,224295,1,2,0:0:0:0:
256,192,224348,1,2,0:0:0:0:
256,192,224402,1,0,0:0:0:0:
256,192,224438,1,2,0:0:0:0:
256,192,224473,1,2,0:0:0:0:
256,192,224509,1,2,0:0:0:0:
256,192,224563,1,2,0:0:0:0:
256,192,224616,1,0,0:0:0:0:
256,192,224723,1,2,0:0:0:0:
256,192,224831,1,4,0:0:0:0:
256,192,225259,1,6,0:0:0:0:
256,192,225581,1,6,0:0:0:0:
256,192,225902,1,6,0:0:0:0:
256,192,226116,1,0,0:0:0:0:
256,192,226223,1,2,0:0:0:0:
256,192,226545,1,2,0:0:0:0:
256,192,226759,1,4,0:0:0:0:
256,192,226973,12,0,227616,0:0:0:0:
256,192,227831,5,6,0:0:0:0:
256,192,228473,5,0,0:0:0:0:
256,192,228902,1,0,0:0:0:0:
256,192,229331,1,2,0:0:0:0:
256,192,229973,1,0,0:0:0:0:
256,192,230188,1,0,0:0:0:0:
256,192,230616,1,0,0:0:0:0:
256,192,231045,1,2,0:0:0:0:
256,192,231473,1,0,0:0:0:0:
256,192,231902,1,0,0:0:0:0:
256,192,232331,1,0,0:0:0:0:
256,192,232759,1,2,0:0:0:0:
256,192,233402,1,0,0:0:0:0:
256,192,233616,1,0,0:0:0:0:
256,192,234045,1,0,0:0:0:0:
256,192,234473,1,2,0:0:0:0:
256,192,234902,1,0,0:0:0:0:
256,192,235545,5,2,0:0:0:0:
256,192,235652,1,2,0:0:0:0:
256,192,235759,1,2,0:0:0:0:
256,192,235973,1,2,0:0:0:0:
256,192,236188,1,0,0:0:0:0:
256,192,236402,1,2,0:0:0:0:
256,192,236616,1,2,0:0:0:0:
256,192,236831,1,0,0:0:0:0:
256,192,237045,1,2,0:0:0:0:
256,192,237259,1,0,0:0:0:0:
256,192,237366,1,0,0:0:0:0:
256,192,237473,1,2,0:0:0:0:
256,192,237688,1,0,0:0:0:0:
256,192,237902,1,2,0:0:0:0:
256,192,238116,1,0,0:0:0:0:
256,192,238331,1,2,0:0:0:0:
256,192,238545,1,0,0:0:0:0:
256,192,238652,1,2,0:0:0:0:
256,192,238759,1,2,0:0:0:0:
256,192,238973,1,2,0:0:0:0:
256,192,239081,1,0,0:0:0:0:
256,192,239188,1,0,0:0:0:0:
256,192,239402,1,2,0:0:0:0:
256,192,239509,1,2,0:0:0:0:
256,192,239616,1,2,0:0:0:0:
256,192,239831,1,0,0:0:0:0:
256,192,240045,1,2,0:0:0:0:
256,192,240259,1,2,0:0:0:0:
256,192,240366,1,2,0:0:0:0:
256,192,240473,1,0,0:0:0:0:
256,192,240688,1,2,0:0:0:0:
256,192,240902,1,0,0:0:0:0:
256,192,241116,1,0,0:0:0:0:
256,192,241223,1,2,0:0:0:0:
256,192,241331,1,0,0:0:0:0:
256,192,241545,1,2,0:0:0:0:
256,192,241688,1,2,0:0:0:0:
256,192,241759,1,0,0:0:0:0:
256,192,241831,1,0,0:0:0:0:
256,192,241902,1,0,0:0:0:0:
256,192,241973,1,2,0:0:0:0:
256,192,242116,1,2,0:0:0:0:
256,192,242188,1,0,0:0:0:0:
256,192,242331,1,0,0:0:0:0:
256,192,242402,1,2,0:0:0:0:
256,192,242545,1,0,0:0:0:0:
256,192,242616,1,6,0:0:0:0:
256,192,242831,1,2,0:0:0:0:
256,192,242884,1,2,0:0:0:0:
256,192,242938,1,2,0:0:0:0:
256,192,242991,1,2,0:0:0:0:
256,192,243045,1,0,0:0:0:0:
256,192,243152,1,0,0:0:0:0:
256,192,243259,1,2,0:0:0:0:
256,192,243366,1,0,0:0:0:0:
256,192,243420,1,0,0:0:0:0:
256,192,243473,1,2,0:0:0:0:
256,192,243527,1,2,0:0:0:0:
256,192,243581,1,0,0:0:0:0:
256,192,243688,1,2,0:0:0:0:
256,192,243795,1,0,0:0:0:0:
256,192,243848,1,0,0:0:0:0:
256,192,243902,1,2,0:0:0:0:
256,192,244009,1,0,0:0:0:0:
256,192,244116,1,2,0:0:0:0:
256,192,244170,1,0,0:0:0:0:
256,192,244223,1,2,0:0:0:0:
256,192,244277,1,2,0:0:0:0:
256,192,244331,1,0,0:0:0:0:
256,192,244438,1,2,0:0:0:0:
256,192,244545,1,0,0:0:0:0:
256,192,244652,1,0,0:0:0:0:
256,192,244706,1,0,0:0:0:0:
256,192,244759,1,0,0:0:0:0:
256,192,244866,1,2,0:0:0:0:
256,192,244973,1,0,0:0:0:0:
256,192,245081,1,0,0:0:0:0:
256,192,245134,1,0,0:0:0:0:
256,192,245188,1,2,0:0:0:0:
256,192,245241,1,2,0:0:0:0:
256,192,245295,1,0,0:0:0:0:
256,192,245348,1,2,0:0:0:0:
256,192,245402,1,0,0:0:0:0:
256,192,245438,1,0,0:0:0:0:
256,192,245473,1,0,0:0:0:0:
256,192,245509,1,2,0:0:0:0:
256,192,245563,1,2,0:0:0:0:
256,192,245616,1,0,0:0:0:0:
256,192,245723,1,0,0:0:0:0:
256,192,245777,1,2,0:0:0:0:
256,192,245831,1,0,0:0:0:0:
256,192,245938,1,2,0:0:0:0:
256,192,246045,1,0,0:0:0:0:
256,192,246098,1,0,0:0:0:0:
256,192,246152,1,2,0:0:0:0:
256,192,246206,1,2,0:0:0:0:
256,192,246259,1,0,0:0:0:0:
256,192,246313,1,2,0:0:0:0:
256,192,246366,1,2,0:0:0:0:
256,192,246420,1,2,0:0:0:0:
256,192,246473,1,0,0:0:0:0:
256,192,246581,1,2,0:0:0:0:
256,192,246688,1,0,0:0:0:0:
256,192,246795,1,0,0:0:0:0:
256,192,246848,1,0,0:0:0:0:
256,192,246902,1,2,0:0:0:0:
256,192,246956,1,2,0:0:0:0:
256,192,247009,1,0,0:0:0:0:
256,192,247063,1,0,0:0:0:0:
256,192,247116,1,2,0:0:0:0:
256,192,247152,1,2,0:0:0:0:
256,192,247188,1,2,0:0:0:0:
256,192,247223,1,0,0:0:0:0:
256,192,247277,1,0,0:0:0:0:
256,192,247331,1,2,0:0:0:0:
256,192,247384,1,0,0:0:0:0:
256,192,247438,1,2,0:0:0:0:
256,192,247491,1,2,0:0:0:0:
256,192,247545,1,0,0:0:0:0:
256,192,247598,1,2,0:0:0:0:
256,192,247652,1,2,0:0:0:0:
256,192,247706,1,2,0:0:0:0:
256,192,247759,1,0,0:0:0:0:
256,192,247813,1,2,0:0:0:0:
256,192,247866,1,0,0:0:0:0:
256,192,247920,1,0,0:0:0:0:
256,192,247973,1,2,0:0:0:0:
256,192,248009,1,2,0:0:0:0:
256,192,248045,1,2,0:0:0:0:
256,192,248081,1,0,0:0:0:0:
256,192,248116,1,0,0:0:0:0:
256,192,248152,1,0,0:0:0:0:
256,192,248188,1,0,0:0:0:0:
256,192,248295,1,2,0:0:0:0:
256,192,248402,1,0,0:0:0:0:
256,192,248509,1,2,0:0:0:0:
256,192,248563,1,0,0:0:0:0:
256,192,248616,1,2,0:0:0:0:
256,192,248670,1,2,0:0:0:0:
256,192,248723,1,0,0:0:0:0:
256,192,248777,1,0,0:0:0:0:
256,192,248831,1,2,0:0:0:0:
256,192,248884,1,2,0:0:0:0:
256,192,248938,1,0,0:0:0:0:
256,192,248991,1,2,0:0:0:0:
256,192,249045,1,0,0:0:0:0:
256,192,249081,1,0,0:0:0:0:
256,192,249116,1,0,0:0:0:0:
256,192,249152,1,2,0:0:0:0:
256,192,249206,1,2,0:0:0:0:
256,192,249259,1,0,0:0:0:0:
256,192,249295,1,2,0:0:0:0:
256,192,249331,1,2,0:0:0:0:
256,192,249366,1,2,0:0:0:0:
256,192,249420,1,2,0:0:0:0:
256,192,249473,1,0,0:0:0:0:
256,192,249509,1,2,0:0:0:0:
256,192,249545,1,2,0:0:0:0:
256,192,249581,1,0,0:0:0:0:
256,192,249634,1,2,0:0:0:0:
256,192,249688,1,0,0:0:0:0:
256,192,249741,1,0,0:0:0:0:
256,192,249795,1,0,0:0:0:0:
256,192,249848,1,0,0:0:0:0:
256,192,249902,1,0,0:0:0:0:
256,192,250009,1,2,0:0:0:0:
256,192,250063,1,2,0:0:0:0:
256,192,250116,1,0,0:0:0:0:
256,192,250152,1,0,0:0:0:0:
256,192,250188,1,0,0:0:0:0:
256,192,250223,1,0,0:0:0:0:
256,192,250277,1,0,0:0:0:0:
256,192,250331,1,2,0:0:0:0:
256,192,250438,1,0,0:0:0:0:
256,192,250545,1,2,0:0:0:0:
256,192,250598,1,2,0:0:0:0:
256,192,250652,1,2,0:0:0:0:
256,192,250706,1,2,0:0:0:0:
256,192,250759,1,0,0:0:0:0:
256,192,250866,1,2,0:0:0:0:
256,192,250920,1,2,0:0:0:0:
256,192,250973,1,0,0:0:0:0:
256,192,251045,1,2,0:0:0:0:
256,192,251116,1,2,0:0:0:0:
256,192,251188,1,0,0:0:0:0:
256,192,251295,1,2,0:0:0:0:
256,192,251348,1,2,0:0:0:0:
256,192,251402,1,0,0:0:0:0:
256,192,251438,1,2,0:0:0:0:
256,192,251473,1,2,0:0:0:0:
256,192,251509,1,0,0:0:0:0:
256,192,251563,1,0,0:0:0:0:
256,192,251616,1,2,0:0:0:0:
256,192,251723,1,2,0:0:0:0:
256,192,251777,1,0,0:0:0:0:
256,192,251831,1,2,0:0:0:0:
256,192,251884,1,2,0:0:0:0:
256,192,251938,1,0,0:0:0:0:
256,192,251991,1,2,0:0:0:0:
256,192,252045,1,0,0:0:0:0:
256,192,252098,1,0,0:0:0:0:
256,192,252152,1,0,0:0:0:0:
256,192,252206,1,0,0:0:0:0:
256,192,252259,1,2,0:0:0:0:
256,192,252366,1,2,0:0:0:0:
256,192,252420,1,2,0:0:0:0:
256,192,252473,1,0,0:0:0:0:
256,192,252527,1,0,0:0:0:0:
256,192,252581,1,0,0:0:0:0:
256,192,252634,1,0,0:0:0:0:
256,192,252688,1,2,0:0:0:0:
256,192,252795,1,2,0:0:0:0:
256,192,252902,1,0,0:0:0:0:
256,192,252956,1,0,0:0:0:0:
256,192,253009,1,2,0:0:0:0:
256,192,253063,1,2,0:0:0:0:
256,192,253116,1,2,0:0:0:0:
256,192,253223,1,2,0:0:0:0:
256,192,253331,1,0,0:0:0:0:
256,192,253438,1,2,0:0:0:0:
256,192,253491,1,0,0:0:0:0:
256,192,253545,1,2,0:0:0:0:
256,192,253598,1,2,0:0:0:0:
256,192,253652,1,0,0:0:0:0:
256,192,253706,1,2,0:0:0:0:
256,192,253759,1,0,0:0:0:0:
256,192,253813,1,0,0:0:0:0:
256,192,253866,1,0,0:0:0:0:
256,192,253920,1,0,0:0:0:0:
256,192,253973,1,2,0:0:0:0:
256,192,254081,1,2,0:0:0:0:
256,192,254188,1,0,0:0:0:0:
256,192,254241,1,2,0:0:0:0:
256,192,254295,1,2,0:0:0:0:
256,192,254348,1,0,0:0:0:0:
256,192,254402,1,2,0:0:0:0:
256,192,254456,1,2,0:0:0:0:
256,192,254509,1,0,0:0:0:0:
256,192,254563,1,2,0:0:0:0:
256,192,254616,1,0,0:0:0:0:
256,192,254670,1,0,0:0:0:0:
256,192,254723,1,0,0:0:0:0:
256,192,254777,1,0,0:0:0:0:
256,192,254831,1,2,0:0:0:0:
256,192,254866,1,2,0:0:0:0:
256,192,254902,1,2,0:0:0:0:
256,192,254938,1,0,0:0:0:0:
256,192,254991,1,0,0:0:0:0:
256,192,255045,1,2,0:0:0:0:
256,192,255152,1,2,0:0:0:0:
256,192,255206,1,0,0:0:0:0:
256,192,255259,1,2,0:0:0:0:
256,192,255313,1,2,0:0:0:0:
256,192,255366,1,0,0:0:0:0:
256,192,255420,1,0,0:0:0:0:
256,192,255473,1,2,0:0:0:0:
256,192,255527,1,0,0:0:0:0:
256,192,255581,1,0,0:0:0:0:
256,192,255634,1,0,0:0:0:0:
256,192,255688,1,2,0:0:0:0:
256,192,255795,1,2,0:0:0:0:
256,192,255848,1,2,0:0:0:0:
256,192,255902,1,0,0:0:0:0:
256,192,255956,1,0,0:0:0:0:
256,192,256009,1,2,0:0:0:0:
256,192,256045,1,2,0:0:0:0:
256,192,256081,1,2,0:0:0:0:
256,192,256116,1,0,0:0:0:0:
256,192,256170,1,0,0:0:0:0:
256,192,256223,1,2,0:0:0:0:
256,192,256277,1,0,0:0:0:0:
256,192,256331,1,2,0:0:0:0:
256,192,256384,1,2,0:0:0:0:
256,192,256438,1,0,0:0:0:0:
256,192,256491,1,2,0:0:0:0:
256,192,256545,1,0,0:0:0:0:
256,192,256581,1,0,0:0:0:0:
256,192,256616,1,0,0:0:0:0:
256,192,256652,1,2,0:0:0:0:
256,192,256706,1,2,0:0:0:0:
256,192,256759,1,0,0:0:0:0:
256,192,256813,1,0,0:0:0:0:
256,192,256866,1,0,0:0:0:0:
256,192,256920,1,0,0:0:0:0:
256,192,256973,1,2,0:0:0:0:
256,192,257081,1,2,0:0:0:0:
256,192,257188,1,0,0:0:0:0:
256,192,257241,1,0,0:0:0:0:
256,192,257295,1,2,0:0:0:0:
256,192,257348,1,2,0:0:0:0:
256,192,257402,1,2,0:0:0:0:
256,192,257509,1,2,0:0:0:0:
256,192,257616,1,0,0:0:0:0:
256,192,257723,1,2,0:0:0:0:
256,192,257777,1,0,0:0:0:0:
256,192,257831,1,2,0:0:0:0:
256,192,257884,1,2,0:0:0:0:
256,192,257938,1,0,0:0:0:0:
256,192,257991,1,2,0:0:0:0:
256,192,258045,1,0,0:0:0:0:
256,192,258098,1,0,0:0:0:0:
256,192,258152,1,2,0:0:0:0:
256,192,258206,1,0,0:0:0:0:
256,192,258259,1,2,0:0:0:0:
256,192,258295,1,2,0:0:0:0:
256,192,258331,1,2,0:0:0:0:
256,192,258366,1,0,0:0:0:0:
256,192,258402,1,0,0:0:0:0:
256,192,258438,1,0,0:0:0:0:
256,192,258473,5,0,0:0:0:0:
256,192,258688,1,0,0:0:0:0:
256,192,258902,1,2,0:0:0:0:
256,192,259116,1,0,0:0:0:0:
256,192,259331,1,2,0:0:0:0:
256,192,259545,1,2,0:0:0:0:
256,192,259759,1,0,0:0:0:0:
256,192,259973,1,2,0:0:0:0:
256,192,260616,1,4,0:0:0:0:
256,192,260723,12,0,263402,0:0:0:0:
256,192,263616,5,6,0:0:0:0:
