osu file format v14

[General]
AudioFilename: audio.mp3
AudioLeadIn: 0
PreviewTime: 178706
Countdown: 0
SampleSet: Normal
StackLeniency: 0.7
Mode: 1
LetterboxInBreaks: 0
WidescreenStoryboard: 0

[Editor]
DistanceSpacing: 1.8
BeatDivisor: 4
GridSize: 32
TimelineZoom: 2.449999

[Metadata]
Title:Doppelganger (extended ver.)
TitleUnicode:Doppelganger (extended ver.)
Artist:LeaF
ArtistUnicode:LeaF
Creator:Midnaait
Version:Oni
Source:osu!
Tags:tasuke912 BMS Featured Artist FA Electronic Instrumental EINSAMKEIT
BeatmapID:1746831
BeatmapSetID:833092

[Difficulty]
HPDrainRate:5.5
CircleSize:5
OverallDifficulty:5.5
ApproachRate:9.4
SliderMultiplier:1.4
SliderTickRate:1

[Events]
//Background and Video events
0,0,"rip other bg.jpg",0,105
//Break Periods
//Storyboard Layer 0 (Background)
//Storyboard Layer 1 (Fail)
//Storyboard Layer 2 (Pass)
//Storyboard Layer 3 (Foreground)
//Storyboard Layer 4 (Overlay)
//Storyboard Sound Samples

[TimingPoints]
474,214.285714285714,4,1,0,90,1,0
474,-117.647058823529,4,1,0,90,0,0
17616,-117.647058823529,4,1,0,90,0,0
17670,-118.080065369124,4,1,0,90,0,0
17723,-118.516271098859,4,1,0,90,0,0
17831,-119.398422985629,4,1,0,90,0,0
17938,-120.293660884952,4,1,0,90,0,0
18045,-121.202571918576,4,1,0,90,0,0
18098,-121.662197608608,4,1,0,90,0,0
18152,-122.125322563508,4,1,0,90,0,0
18259,-123.062231339766,4,1,0,90,0,0
18366,-124.013472823688,4,1,0,90,0,0
18473,-124.979690800245,4,1,0,90,0,0
18688,-126.958009907803,4,1,0,90,0,0
18795,-127.970679357946,4,1,0,90,0,0
18902,-128.99980005031,4,1,0,90,0,0
19116,-131.108509335581,4,1,0,90,0,0
19331,-133.287127129262,4,1,0,90,0,0
29188,-125,4,1,0,90,0,0
29616,-117.647058823529,4,1,0,90,0,0
67438,-117.647058823529,4,1,0,90,0,0
67545,-119.658160566893,4,1,0,90,0,0
67759,-123.893783381631,4,1,0,90,0,0
67973,-128.440437673635,4,1,0,90,0,0
68188,-133.333333333333,4,1,0,90,0,0
75045,-142.857142857143,4,1,0,90,0,0
76759,-117.647058823529,4,1,0,90,0,0
95777,-117.647058823529,4,1,0,25,0,0
99473,-133.333333333333,4,1,0,90,0,0
120902,-125,4,1,0,90,0,0
121331,-117.647058823529,4,1,0,90,0,0
121545,-116.279069767442,4,1,0,90,0,0
121759,-114.942528735632,4,1,0,90,0,0
121866,-114.285714285714,4,1,0,90,0,0
121973,-113.636363636364,4,1,0,90,0,0
122081,-112.994350282486,4,1,0,90,0,0
122188,-112.359550561798,4,1,0,90,0,0
122295,-111.731843575419,4,1,0,90,0,0
122402,-111.111111111111,4,1,0,90,0,0
122616,-109.89010989011,4,1,0,90,0,0
122723,-109.289617486339,4,1,0,90,0,0
122831,-108.695652173913,4,1,0,90,0,0
123045,-107.52688172043,4,1,0,90,0,0
123152,-106.951871657754,4,1,0,90,0,0
123259,-106.382978723404,4,1,0,90,0,0
123366,-105.820105820106,4,1,0,90,0,0
123473,-105.263157894737,4,1,0,90,0,0
123688,-104.166666666667,4,1,0,90,0,0
123795,-103.626943005181,4,1,0,90,0,0
123902,-103.092783505155,4,1,0,90,0,0
124009,-102.564102564103,4,1,0,90,0,0
124223,-101.522842639594,4,1,0,90,0,0
124545,-100,4,1,0,90,0,0
126473,-117.647058823529,4,1,0,90,0,0
147045,-117.647058823529,4,1,0,90,0,0
147259,-121.212121212121,4,1,0,90,0,0
147366,-123.076923076923,4,1,0,90,0,0
147473,-125,4,1,0,90,0,0
147688,-129.032258064516,4,1,0,90,0,0
147902,-133.333333333333,4,1,0,90,0,0
153045,-117.647058823529,4,1,0,90,0,0
165045,-117.647058823529,4,1,0,90,0,0
165098,-118.081180811808,4,1,0,90,0,0
165152,-118.518518518519,4,1,0,90,0,0
165259,-119.402985074627,4,1,0,90,0,0
165366,-120.300751879699,4,1,0,90,0,0
165473,-121.212121212121,4,1,0,90,0,0
165527,-121.673003802281,4,1,0,90,0,0
165581,-122.137404580153,4,1,0,90,0,0
165688,-123.076923076923,4,1,0,90,0,0
165795,-124.031007751938,4,1,0,90,0,0
165902,-125,4,1,0,90,0,0
166009,-125.984251968504,4,1,0,90,0,0
166063,-126.482213438735,4,1,0,90,0,0
166116,-126.984126984127,4,1,0,90,0,0
166223,-128,4,1,0,90,0,0
166331,-129.032258064516,4,1,0,90,0,0
166384,-129.554655870445,4,1,0,90,0,0
166438,-130.081300813008,4,1,0,90,0,0
166545,-131.147540983607,4,1,0,90,0,0
166652,-132.231404958678,4,1,0,90,0,0
166759,-133.333333333333,4,1,0,90,0,0
176616,-125,4,1,0,90,0,0
177045,-117.647058823529,4,1,0,90,0,0
228902,-125,4,1,0,90,0,0
229331,-133.333333333333,4,1,0,90,0,0
241331,-117.647058823529,4,1,0,90,0,0
243045,-117.647058823529,4,1,0,90,0,1
260188,-117.647058823529,4,1,0,90,0,0
260670,-117.647058823529,4,1,0,25,0,0
263563,-117.647058823529,4,1,0,100,0,0

[HitObjects]
192,128,474,5,0,0:0:0:0:
192,128,581,1,0,0:0:0:0:
192,128,795,1,0,0:0:0:0:
192,128,1009,1,8,0:0:0:0:
192,128,1223,1,0,0:0:0:0:
192,128,1438,1,0,0:0:0:0:
192,128,1545,1,0,0:0:0:0:
192,128,1652,1,0,0:0:0:0:
192,128,1759,1,0,0:0:0:0:
192,128,1973,1,12,0:0:0:0:
192,128,2188,1,12,0:0:0:0:
192,128,2402,1,0,0:0:0:0:
192,128,2509,1,0,0:0:0:0:
192,128,2723,1,0,0:0:0:0:
192,128,2938,1,0,0:0:0:0:
192,128,3152,1,0,0:0:0:0:
192,128,3259,1,0,0:0:0:0:
192,128,3366,1,0,0:0:0:0:
192,128,3473,1,0,0:0:0:0:
228,156,3902,1,4,0:0:0:0:
228,156,4116,1,8,0:0:0:0:
228,156,4331,1,0,0:0:0:0:
228,156,4438,1,8,0:0:0:0:
228,156,4652,1,0,0:0:0:0:
228,156,4866,1,8,0:0:0:0:
228,156,4973,1,8,0:0:0:0:
228,156,5188,1,0,0:0:0:0:
228,156,5402,1,8,0:0:0:0:
228,156,5616,1,0,0:0:0:0:
228,156,5831,1,8,0:0:0:0:
228,156,5938,1,8,0:0:0:0:
228,156,6045,1,0,0:0:0:0:
226,146,6152,1,8,0:0:0:0:
228,156,6366,1,0,0:0:0:0:
224,160,6581,1,0,0:0:0:0:
228,156,6688,1,8,0:0:0:0:
228,156,6902,1,0,0:0:0:0:
228,156,7116,1,0,0:0:0:0:
228,156,7223,1,0,0:0:0:0:
228,156,7331,1,0,0:0:0:0:
228,148,7545,1,8,0:0:0:0:
228,148,7759,1,0,0:0:0:0:
228,148,7866,1,8,0:0:0:0:
228,148,8081,1,0,0:0:0:0:
228,144,8295,1,8,0:0:0:0:
228,148,8402,1,8,0:0:0:0:
228,148,8616,1,0,0:0:0:0:
224,144,8831,1,8,0:0:0:0:
228,148,8938,1,8,0:0:0:0:
224,128,9045,1,0,0:0:0:0:
224,160,9259,1,0,0:0:0:0:
224,160,9366,1,8,0:0:0:0:
224,160,9581,1,8,0:0:0:0:
224,128,9688,1,0,0:0:0:0:
224,128,9902,1,12,0:0:0:0:
256,160,10116,1,4,0:0:0:0:
256,160,10331,1,12,0:0:0:0:
256,160,10759,1,4,0:0:0:0:
256,160,10973,1,8,0:0:0:0:
256,160,11188,1,0,0:0:0:0:
256,160,11295,1,0,0:0:0:0:
256,160,11402,1,8,0:0:0:0:
256,160,11616,1,0,0:0:0:0:
256,160,11723,1,0,0:0:0:0:
256,160,11831,1,8,0:0:0:0:
256,160,11938,1,8,0:0:0:0:
256,160,12045,1,0,0:0:0:0:
256,160,12259,1,8,0:0:0:0:
224,128,12473,1,0,0:0:0:0:
224,128,12688,1,8,0:0:0:0:
224,128,12902,1,0,0:0:0:0:
256,128,13009,1,0,0:0:0:0:
224,128,13116,1,8,0:0:0:0:
256,160,13331,1,0,0:0:0:0:
256,160,13438,1,0,0:0:0:0:
256,128,13545,1,8,0:0:0:0:
256,128,13652,1,8,0:0:0:0:
256,128,13759,1,0,0:0:0:0:
256,128,13973,1,8,0:0:0:0:
256,160,14188,1,0,0:0:0:0:
256,160,14402,1,0,0:0:0:0:
256,160,14456,1,0,0:0:0:0:
256,160,14509,1,0,0:0:0:0:
256,160,14616,1,8,0:0:0:0:
256,160,14831,1,8,0:0:0:0:
256,160,14938,1,8,0:0:0:0:
256,160,15045,1,0,0:0:0:0:
244,147,15098,1,0,0:0:0:0:
244,147,15152,1,0,0:0:0:0:
256,160,15259,1,8,0:0:0:0:
249,153,15313,1,8,0:0:0:0:
256,160,15366,1,8,0:0:0:0:
256,160,15473,1,0,0:0:0:0:
249,153,15581,1,0,0:0:0:0:
256,160,15688,1,12,0:0:0:0:
256,160,15902,1,12,0:0:0:0:
256,160,16223,1,4,0:0:0:0:
256,160,16545,1,12,0:0:0:0:
256,160,16866,1,12,0:0:0:0:
256,160,17188,1,4,0:0:0:0:
256,160,17616,1,0,0:0:0:0:
247,159,17670,1,0,0:0:0:0:
256,160,17723,1,0,0:0:0:0:
256,160,17831,1,8,0:0:0:0:
256,160,17938,1,0,0:0:0:0:
256,160,18045,1,8,0:0:0:0:
250,155,18098,1,8,0:0:0:0:
256,160,18152,1,8,0:0:0:0:
256,160,18259,1,0,0:0:0:0:
256,160,18366,1,8,0:0:0:0:
256,160,18473,1,0,0:0:0:0:
256,160,18688,1,0,0:0:0:0:
256,160,18795,1,0,0:0:0:0:
256,160,18902,1,8,0:0:0:0:
256,160,19116,1,8,0:0:0:0:
256,160,19331,1,4,0:0:0:0:
256,160,19545,1,8,0:0:0:0:
256,160,19759,1,8,0:0:0:0:
256,160,19973,1,8,0:0:0:0:
256,160,20188,1,0,0:0:0:0:
256,160,20402,1,8,0:0:0:0:
256,160,20509,1,0,0:0:0:0:
256,160,20616,1,8,0:0:0:0:
256,160,20831,1,0,0:0:0:0:
256,154,20884,1,0,0:0:0:0:
256,154,20938,1,0,0:0:0:0:
256,160,21045,1,8,0:0:0:0:
256,160,21259,1,0,0:0:0:0:
256,160,21473,1,8,0:0:0:0:
256,160,21688,1,0,0:0:0:0:
256,160,21795,1,0,0:0:0:0:
256,160,21902,1,8,0:0:0:0:
256,160,22116,1,8,0:0:0:0:
256,160,22223,1,8,0:0:0:0:
256,160,22331,1,0,0:0:0:0:
256,160,22545,1,0,0:0:0:0:
256,160,22652,1,0,0:0:0:0:
256,160,22759,1,8,0:0:0:0:
256,160,22973,1,0,0:0:0:0:
256,160,23188,1,8,0:0:0:0:
256,160,23402,1,8,0:0:0:0:
256,160,23509,1,8,0:0:0:0:
256,160,23616,1,0,0:0:0:0:
256,160,23831,1,8,0:0:0:0:
256,160,24045,1,0,0:0:0:0:
256,160,24259,1,0,0:0:0:0:
256,160,24366,1,0,0:0:0:0:
256,160,24473,1,8,0:0:0:0:
256,160,24688,1,0,0:0:0:0:
256,160,24902,1,8,0:0:0:0:
256,160,25009,1,0,0:0:0:0:
256,160,25116,1,8,0:0:0:0:
256,160,25223,1,8,0:0:0:0:
256,160,25331,1,0,0:0:0:0:
256,160,25545,1,8,0:0:0:0:
256,160,25759,1,8,0:0:0:0:
256,160,26188,1,8,0:0:0:0:
256,160,26402,1,0,0:0:0:0:
256,160,26616,1,8,0:0:0:0:
256,160,26831,1,8,0:0:0:0:
256,160,27045,1,0,0:0:0:0:
256,160,27259,1,8,0:0:0:0:
256,160,27331,1,8,0:0:0:0:
269,149,27402,1,8,0:0:0:0:
256,160,27473,1,0,0:0:0:0:
256,160,27688,1,0,0:0:0:0:
256,160,27902,1,8,0:0:0:0:
256,160,28116,1,0,0:0:0:0:
256,160,28331,1,8,0:0:0:0:
256,160,28545,1,0,0:0:0:0:
256,160,28759,1,12,0:0:0:0:
256,160,29188,1,4,0:0:0:0:
256,160,29616,1,12,0:0:0:0:
256,160,29831,1,0,0:0:0:0:
256,160,30045,1,8,0:0:0:0:
256,160,30152,1,0,0:0:0:0:
256,160,30259,1,8,0:0:0:0:
256,160,30366,1,0,0:0:0:0:
256,160,30473,1,8,0:0:0:0:
256,160,30581,1,8,0:0:0:0:
237,175,30688,1,0,0:0:0:0:
256,160,30795,1,8,0:0:0:0:
256,160,31009,1,0,0:0:0:0:
256,160,31116,1,8,0:0:0:0:
256,160,31331,1,4,0:0:0:0:
256,160,31652,1,4,0:0:0:0:
256,160,31973,1,12,0:0:0:0:
256,160,32295,1,12,0:0:0:0:
256,160,32616,1,4,0:0:0:0:
256,160,33259,1,12,0:0:0:0:
256,160,33473,1,12,0:0:0:0:
256,160,33688,1,12,0:0:0:0:
256,160,33902,1,4,0:0:0:0:
256,160,34223,1,12,0:0:0:0:
256,160,34545,1,12,0:0:0:0:
256,160,34866,1,12,0:0:0:0:
256,160,35188,1,4,0:0:0:0:
257,149,35616,1,0,0:0:0:0:
243,146,35723,1,0,0:0:0:0:
242,146,35831,1,8,0:0:0:0:
242,147,35938,1,8,0:0:0:0:
240,151,36045,1,0,0:0:0:0:
240,151,36152,1,8,0:0:0:0:
239,160,36206,1,8,0:0:0:0:
239,158,36259,1,8,0:0:0:0:
239,159,36366,1,0,0:0:0:0:
239,159,36473,1,0,0:0:0:0:
239,160,36581,1,8,0:0:0:0:
239,160,36688,1,0,0:0:0:0:
239,160,36795,1,0,0:0:0:0:
239,160,36902,1,8,0:0:0:0:
237,160,37009,1,8,0:0:0:0:
240,151,37063,1,8,0:0:0:0:
237,160,37116,1,0,0:0:0:0:
240,151,37170,1,0,0:0:0:0:
237,160,37223,1,8,0:0:0:0:
256,160,37331,1,4,0:0:0:0:
256,160,37545,1,0,0:0:0:0:
256,160,37759,1,8,0:0:0:0:
256,160,37866,1,0,0:0:0:0:
256,160,37973,1,8,0:0:0:0:
256,160,38081,1,8,0:0:0:0:
256,160,38188,1,0,0:0:0:0:
256,160,38402,1,8,0:0:0:0:
256,160,38509,1,8,0:0:0:0:
256,160,38723,1,0,0:0:0:0:
256,160,38831,1,0,0:0:0:0:
256,160,39045,1,8,0:0:0:0:
256,160,39152,1,0,0:0:0:0:
244,154,39206,1,0,0:0:0:0:
256,160,39259,1,8,0:0:0:0:
256,160,39366,1,8,0:0:0:0:
256,160,39473,1,0,0:0:0:0:
256,160,39688,1,8,0:0:0:0:
243,147,39795,1,8,0:0:0:0:
256,160,39902,1,0,0:0:0:0:
248,154,39956,1,0,0:0:0:0:
249,156,40009,1,0,0:0:0:0:
256,160,40116,1,8,0:0:0:0:
256,160,40331,1,12,0:0:0:0:
256,160,40759,1,12,0:0:0:0:
256,160,40973,1,0,0:0:0:0:
256,160,41188,1,0,0:0:0:0:
256,160,41241,1,0,0:0:0:0:
256,160,41295,1,0,0:0:0:0:
256,160,41402,1,8,0:0:0:0:
256,160,41509,1,8,0:0:0:0:
256,160,41723,1,8,0:0:0:0:
256,160,41831,1,8,0:0:0:0:
256,160,42045,1,0,0:0:0:0:
251,155,42152,1,0,0:0:0:0:
256,160,42259,1,8,0:0:0:0:
256,160,42473,1,0,0:0:0:0:
256,160,42527,1,0,0:0:0:0:
256,160,42581,1,0,0:0:0:0:
256,160,42688,1,8,0:0:0:0:
256,160,42795,1,0,0:0:0:0:
256,160,42902,1,8,0:0:0:0:
256,160,43009,1,8,0:0:0:0:
256,160,43116,1,8,0:0:0:0:
256,160,43223,1,0,0:0:0:0:
256,160,43438,1,0,0:0:0:0:
256,160,43545,1,12,0:0:0:0:
256,160,43759,1,12,0:0:0:0:
256,160,43973,1,12,0:0:0:0:
256,160,44188,1,0,0:0:0:0:
256,160,44295,1,0,0:0:0:0:
256,160,44402,1,12,0:0:0:0:
256,160,44616,1,0,0:0:0:0:
256,160,44723,1,0,0:0:0:0:
250,166,44777,1,0,0:0:0:0:
256,160,44831,1,8,0:0:0:0:
256,160,44938,1,8,0:0:0:0:
256,160,45152,1,8,0:0:0:0:
256,160,45259,1,8,0:0:0:0:
256,160,45366,1,0,0:0:0:0:
256,160,45473,1,8,0:0:0:0:
256,160,45581,1,8,0:0:0:0:
256,160,45688,1,0,0:0:0:0:
256,160,45902,1,8,0:0:0:0:
256,160,46009,1,0,0:0:0:0:
256,160,46116,1,8,0:0:0:0:
250,147,46170,1,8,0:0:0:0:
256,160,46223,1,0,0:0:0:0:
256,160,46331,1,8,0:0:0:0:
256,160,46438,1,8,0:0:0:0:
256,160,46545,1,0,0:0:0:0:
256,160,46759,1,0,0:0:0:0:
256,160,46813,1,0,0:0:0:0:
256,160,46866,1,0,0:0:0:0:
256,160,46973,1,8,0:0:0:0:
256,160,47027,1,8,0:0:0:0:
256,160,47081,1,8,0:0:0:0:
256,160,47188,1,4,0:0:0:0:
256,160,47402,1,4,0:0:0:0:
256,160,47616,1,4,0:0:0:0:
256,160,47831,1,8,0:0:0:0:
256,160,48045,1,0,0:0:0:0:
256,160,48152,1,0,0:0:0:0:
256,160,48259,1,8,0:0:0:0:
256,160,48366,1,8,0:0:0:0:
256,160,48473,1,0,0:0:0:0:
256,128,48795,1,8,0:0:0:0:
256,128,48902,1,8,0:0:0:0:
256,128,49009,1,8,0:0:0:0:
256,128,49116,1,8,0:0:0:0:
256,128,49331,1,8,0:0:0:0:
256,128,49438,1,8,0:0:0:0:
256,160,49652,1,0,0:0:0:0:
256,128,49759,1,8,0:0:0:0:
256,128,49920,1,8,0:0:0:0:
256,128,50081,1,8,0:0:0:0:
256,128,50188,1,4,0:0:0:0:
256,128,50616,1,12,0:0:0:0:
256,160,51045,1,4,0:0:0:0:
256,160,51259,1,0,0:0:0:0:
256,160,51473,1,8,0:0:0:0:
256,160,51581,1,0,0:0:0:0:
256,160,51688,1,8,0:0:0:0:
250,159,51741,1,8,0:0:0:0:
256,160,51795,1,8,0:0:0:0:
256,160,51902,1,0,0:0:0:0:
256,160,52116,1,8,0:0:0:0:
256,160,52223,1,0,0:0:0:0:
256,160,52438,1,8,0:0:0:0:
256,160,52545,1,8,0:0:0:0:
256,160,52759,1,8,0:0:0:0:
256,160,52866,1,0,0:0:0:0:
256,160,52973,1,8,0:0:0:0:
244,154,53027,1,8,0:0:0:0:
256,160,53081,1,8,0:0:0:0:
256,160,53188,1,0,0:0:0:0:
256,160,53295,1,0,0:0:0:0:
256,160,53402,1,8,0:0:0:0:
243,147,53509,1,0,0:0:0:0:
248,154,53563,1,0,0:0:0:0:
256,160,53616,1,0,0:0:0:0:
249,156,53723,1,0,0:0:0:0:
256,160,53831,1,8,0:0:0:0:
256,160,54045,1,12,0:0:0:0:
256,160,54473,1,12,0:0:0:0:
256,160,54688,1,0,0:0:0:0:
265,151,54741,1,0,0:0:0:0:
264,152,54795,1,0,0:0:0:0:
256,160,54902,1,8,0:0:0:0:
256,160,55009,1,8,0:0:0:0:
256,160,55223,1,8,0:0:0:0:
256,160,55331,1,0,0:0:0:0:
239,166,55384,1,8,0:0:0:0:
256,160,55438,1,8,0:0:0:0:
256,160,55545,1,0,0:0:0:0:
256,160,55652,1,8,0:0:0:0:
224,161,55759,1,8,0:0:0:0:
251,155,55866,1,0,0:0:0:0:
256,160,55973,1,8,0:0:0:0:
239,148,56081,1,8,0:0:0:0:
256,160,56188,1,0,0:0:0:0:
256,160,56295,1,12,0:0:0:0:
256,160,56509,1,8,0:0:0:0:
256,160,56616,1,4,0:0:0:0:
256,160,56938,1,4,0:0:0:0:
256,160,57259,1,12,0:0:0:0:
256,160,57473,1,12,0:0:0:0:
256,160,57902,1,0,0:0:0:0:
256,160,58009,1,0,0:0:0:0:
256,160,58116,1,8,0:0:0:0:
256,160,58331,1,0,0:0:0:0:
256,160,58438,1,0,0:0:0:0:
250,166,58491,1,0,0:0:0:0:
256,160,58545,1,8,0:0:0:0:
256,160,58652,1,8,0:0:0:0:
245,143,58759,1,0,0:0:0:0:
256,160,58866,1,8,0:0:0:0:
256,160,58973,1,8,0:0:0:0:
256,160,59188,1,8,0:0:0:0:
256,160,59295,1,8,0:0:0:0:
256,160,59402,1,0,0:0:0:0:
256,160,59616,1,8,0:0:0:0:
256,160,59723,1,0,0:0:0:0:
256,160,59831,1,8,0:0:0:0:
250,147,59884,1,8,0:0:0:0:
256,160,59938,1,0,0:0:0:0:
256,160,60045,1,8,0:0:0:0:
256,160,60259,1,8,0:0:0:0:
256,160,60473,1,0,0:0:0:0:
256,160,60581,1,12,0:0:0:0:
256,160,60795,1,8,0:0:0:0:
256,160,60902,1,4,0:0:0:0:
256,160,61116,1,4,0:0:0:0:
256,160,61331,1,12,0:0:0:0:
256,160,61545,1,12,0:0:0:0:
263,155,61652,1,8,0:0:0:0:
256,160,61759,1,0,0:0:0:0:
256,160,61866,1,0,0:0:0:0:
256,160,61973,1,8,0:0:0:0:
255,125,62027,1,8,0:0:0:0:
256,160,62081,1,8,0:0:0:0:
256,160,62188,1,0,0:0:0:0:
256,128,62509,1,8,0:0:0:0:
256,128,62616,1,8,0:0:0:0:
256,128,62831,1,8,0:0:0:0:
256,128,63045,1,8,0:0:0:0:
256,128,63152,1,8,0:0:0:0:
256,160,63366,1,0,0:0:0:0:
256,128,63473,1,8,0:0:0:0:
256,128,63634,1,8,0:0:0:0:
256,128,63795,1,8,0:0:0:0:
256,128,63902,1,4,0:0:0:0:
256,128,64331,1,12,0:0:0:0:
256,128,64759,1,0,0:0:0:0:
256,160,64866,1,8,0:0:0:0:
256,160,64973,1,8,0:0:0:0:
256,160,65188,1,8,0:0:0:0:
256,160,65402,1,0,0:0:0:0:
256,160,65509,1,8,0:0:0:0:
256,160,65616,1,0,0:0:0:0:
246,141,65670,1,0,0:0:0:0:
256,160,65723,1,0,0:0:0:0:
256,128,65831,1,8,0:0:0:0:
256,128,65938,1,0,0:0:0:0:
256,128,66045,1,8,0:0:0:0:
265,136,66098,1,8,0:0:0:0:
256,128,66152,1,8,0:0:0:0:
256,128,66259,1,0,0:0:0:0:
256,128,66366,1,0,0:0:0:0:
256,128,66473,1,8,0:0:0:0:
256,128,66527,1,8,0:0:0:0:
256,128,66581,1,0,0:0:0:0:
263,135,66688,1,8,0:0:0:0:
256,128,66795,1,8,0:0:0:0:
256,128,66902,1,0,0:0:0:0:
261,135,66956,1,0,0:0:0:0:
256,128,67009,1,0,0:0:0:0:
256,128,67116,1,8,0:0:0:0:
256,128,67223,1,8,0:0:0:0:
256,160,67438,1,4,0:0:0:0:
256,160,67545,1,12,0:0:0:0:
256,128,67759,1,12,0:0:0:0:
256,128,67973,1,12,0:0:0:0:
256,160,68188,1,4,0:0:0:0:
256,160,68402,1,8,0:0:0:0:
256,160,68616,1,8,0:0:0:0:
256,160,68831,1,8,0:0:0:0:
256,160,69045,1,0,0:0:0:0:
256,160,69902,1,8,0:0:0:0:
256,160,70116,1,0,0:0:0:0:
256,160,70331,1,0,0:0:0:0:
256,160,70759,1,8,0:0:0:0:
256,160,70973,1,8,0:0:0:0:
256,160,71081,1,8,0:0:0:0:
256,160,71188,1,0,0:0:0:0:
256,160,71616,1,8,0:0:0:0:
253,172,71831,1,0,0:0:0:0:
256,160,72045,1,8,0:0:0:0:
252,172,72259,1,0,0:0:0:0:
239,150,72366,1,0,0:0:0:0:
256,160,72473,1,8,0:0:0:0:
256,160,73116,1,0,0:0:0:0:
256,160,73223,1,8,0:0:0:0:
256,160,73331,1,8,0:0:0:0:
256,160,73545,1,0,0:0:0:0:
256,160,73759,1,8,0:0:0:0:
256,160,73866,1,0,0:0:0:0:
256,160,73973,1,8,0:0:0:0:
256,160,74081,1,8,0:0:0:0:
256,160,74188,1,4,0:0:0:0:
256,160,74402,1,12,0:0:0:0:
256,160,74616,1,4,0:0:0:0:
256,160,75045,1,8,0:0:0:0:
256,160,75259,1,0,0:0:0:0:
256,160,75473,1,0,0:0:0:0:
256,160,75688,1,8,0:0:0:0:
256,160,75902,1,0,0:0:0:0:
256,160,76116,1,8,0:0:0:0:
256,160,76188,1,8,0:0:0:0:
230,169,76259,1,8,0:0:0:0:
256,160,76331,1,0,0:0:0:0:
256,160,76545,1,8,0:0:0:0:
256,160,76759,1,4,0:0:0:0:
256,160,76973,1,4,0:0:0:0:
256,160,77188,1,12,0:0:0:0:
256,160,77402,1,4,0:0:0:0:
256,160,77616,1,12,0:0:0:0:
256,160,78045,1,4,0:0:0:0:
256,160,78473,1,8,0:0:0:0:
256,160,78688,1,8,0:0:0:0:
256,160,78902,1,8,0:0:0:0:
256,160,79116,1,8,0:0:0:0:
256,160,79331,1,0,0:0:0:0:
256,160,79545,1,0,0:0:0:0:
256,160,79759,1,0,0:0:0:0:
256,160,79973,1,0,0:0:0:0:
256,160,80188,1,12,0:0:0:0:
256,160,80402,1,4,0:0:0:0:
256,160,80616,1,12,0:0:0:0:
256,160,80831,1,12,0:0:0:0:
256,160,81045,1,4,0:0:0:0:
256,160,81473,1,4,0:0:0:0:
256,160,81688,1,8,0:0:0:0:
256,160,81741,1,8,0:0:0:0:
256,160,81795,1,8,0:0:0:0:
256,160,81902,1,0,0:0:0:0:
256,160,82009,1,0,0:0:0:0:
256,160,82116,1,8,0:0:0:0:
256,160,82223,1,8,0:0:0:0:
256,160,82331,1,0,0:0:0:0:
288,160,82438,1,8,0:0:0:0:
256,160,82545,1,0,0:0:0:0:
256,160,82759,1,4,0:0:0:0:
256,160,82973,1,8,0:0:0:0:
256,160,83081,1,0,0:0:0:0:
256,160,83295,1,8,0:0:0:0:
256,160,83402,1,0,0:0:0:0:
256,160,83509,1,0,0:0:0:0:
256,160,83616,1,8,0:0:0:0:
261,159,83670,1,8,0:0:0:0:
256,160,83723,1,8,0:0:0:0:
256,160,83831,1,8,0:0:0:0:
256,160,83938,1,0,0:0:0:0:
256,160,84152,1,0,0:0:0:0:
256,160,84259,1,8,0:0:0:0:
256,160,84366,1,8,0:0:0:0:
256,160,84473,1,0,0:0:0:0:
256,160,84688,1,0,0:0:0:0:
256,160,84795,1,0,0:0:0:0:
256,160,84902,1,8,0:0:0:0:
256,160,85009,1,0,0:0:0:0:
256,160,85223,1,8,0:0:0:0:
256,160,85331,1,4,0:0:0:0:
256,160,85759,1,12,0:0:0:0:
256,160,86188,1,4,0:0:0:0:
256,160,86402,1,8,0:0:0:0:
256,160,86509,1,0,0:0:0:0:
256,160,86723,1,8,0:0:0:0:
256,160,86831,1,0,0:0:0:0:
256,160,86938,1,0,0:0:0:0:
256,160,87045,1,8,0:0:0:0:
250,158,87098,1,8,0:0:0:0:
256,160,87152,1,8,0:0:0:0:
256,160,87259,1,8,0:0:0:0:
256,160,87366,1,0,0:0:0:0:
256,160,87581,1,0,0:0:0:0:
256,160,87688,1,8,0:0:0:0:
256,160,87795,1,8,0:0:0:0:
256,160,87902,1,0,0:0:0:0:
256,160,88116,1,0,0:0:0:0:
256,160,88331,1,8,0:0:0:0:
256,160,88438,1,0,0:0:0:0:
256,160,88652,1,0,0:0:0:0:
256,160,88759,1,12,0:0:0:0:
256,160,89188,1,12,0:0:0:0:
256,160,89616,1,4,0:0:0:0:
256,160,89831,1,8,0:0:0:0:
256,160,89938,1,0,0:0:0:0:
256,160,90152,1,8,0:0:0:0:
256,160,90259,1,0,0:0:0:0:
256,160,90366,1,0,0:0:0:0:
256,160,90473,1,8,0:0:0:0:
261,159,90527,1,8,0:0:0:0:
256,160,90581,1,8,0:0:0:0:
256,160,90688,1,8,0:0:0:0:
256,160,90795,1,0,0:0:0:0:
256,160,91009,1,0,0:0:0:0:
256,160,91116,1,8,0:0:0:0:
256,160,91223,1,8,0:0:0:0:
256,160,91331,1,0,0:0:0:0:
256,160,91545,1,0,0:0:0:0:
256,160,91652,1,0,0:0:0:0:
256,160,91759,1,8,0:0:0:0:
256,160,91866,1,0,0:0:0:0:
256,160,92081,1,8,0:0:0:0:
256,160,92188,1,4,0:0:0:0:
256,160,92616,1,12,0:0:0:0:
256,160,93045,1,4,0:0:0:0:
256,160,93259,1,8,0:0:0:0:
256,160,93366,1,0,0:0:0:0:
256,160,93581,1,8,0:0:0:0:
256,160,93688,1,0,0:0:0:0:
256,160,93795,1,0,0:0:0:0:
256,160,93902,1,8,0:0:0:0:
250,158,93956,1,8,0:0:0:0:
256,160,94009,1,8,0:0:0:0:
256,160,94116,1,8,0:0:0:0:
256,160,94223,1,0,0:0:0:0:
256,160,94438,1,0,0:0:0:0:
256,160,94545,1,8,0:0:0:0:
256,160,94652,1,8,0:0:0:0:
256,160,94759,1,0,0:0:0:0:
256,160,94973,1,0,0:0:0:0:
256,160,95081,1,0,0:0:0:0:
256,160,95188,1,8,0:0:0:0:
256,160,95295,1,0,0:0:0:0:
256,160,95509,1,8,0:0:0:0:
256,160,95616,1,4,0:0:0:0:
256,192,95831,8,0,99902,0:0:0:0:
209,165,100116,5,8,0:0:0:0:
209,165,100223,1,8,0:0:0:0:
209,165,100331,1,8,0:0:0:0:
209,165,100545,1,8,0:0:0:0:
256,160,100759,1,4,0:0:0:0:
256,160,101188,1,8,0:0:0:0:
256,160,101402,1,8,0:0:0:0:
256,160,101616,1,0,0:0:0:0:
256,160,101831,1,8,0:0:0:0:
256,160,101938,1,0,0:0:0:0:
256,160,102045,1,8,0:0:0:0:
256,160,102259,1,0,0:0:0:0:
256,160,102473,1,8,0:0:0:0:
256,160,102688,1,0,0:0:0:0:
263,155,102795,1,0,0:0:0:0:
256,160,102902,1,8,0:0:0:0:
256,160,103116,1,0,0:0:0:0:
256,160,103223,1,8,0:0:0:0:
256,160,103331,1,8,0:0:0:0:
256,160,103545,1,8,0:0:0:0:
256,160,103652,1,8,0:0:0:0:
256,160,103759,1,0,0:0:0:0:
256,160,103973,1,0,0:0:0:0:
256,160,104081,1,0,0:0:0:0:
256,160,104188,1,8,0:0:0:0:
256,160,104509,1,0,0:0:0:0:
256,160,104616,1,8,0:0:0:0:
256,160,104831,1,0,0:0:0:0:
256,160,105152,1,0,0:0:0:0:
256,160,105259,1,0,0:0:0:0:
256,160,105473,1,8,0:0:0:0:
256,160,105688,1,0,0:0:0:0:
256,160,105795,1,8,0:0:0:0:
256,160,105902,1,0,0:0:0:0:
256,160,106223,1,8,0:0:0:0:
256,160,106545,1,0,0:0:0:0:
256,160,106759,1,8,0:0:0:0:
256,160,106866,1,8,0:0:0:0:
256,160,107081,1,8,0:0:0:0:
256,160,107188,1,0,0:0:0:0:
256,160,107616,1,0,0:0:0:0:
256,160,107831,1,8,0:0:0:0:
256,160,107938,1,0,0:0:0:0:
256,160,108152,1,0,0:0:0:0:
256,160,108259,1,8,0:0:0:0:
256,160,108473,1,0,0:0:0:0:
256,160,108688,1,8,0:0:0:0:
256,160,108759,1,8,0:0:0:0:
256,160,108831,1,8,0:0:0:0:
256,160,108902,1,0,0:0:0:0:
253,165,109116,1,8,0:0:0:0:
250,162,109331,1,0,0:0:0:0:
266,152,109652,1,0,0:0:0:0:
267,152,109759,1,8,0:0:0:0:
267,153,109973,1,8,0:0:0:0:
266,156,110188,1,0,0:0:0:0:
261,162,110509,1,8,0:0:0:0:
266,152,110616,1,0,0:0:0:0:
261,162,111045,1,8,0:0:0:0:
261,165,111259,1,0,0:0:0:0:
261,165,111473,1,8,0:0:0:0:
261,162,111688,1,8,0:0:0:0:
261,162,111902,1,0,0:0:0:0:
261,165,112116,1,8,0:0:0:0:
261,165,112223,1,0,0:0:0:0:
261,165,112331,1,8,0:0:0:0:
261,162,112545,1,8,0:0:0:0:
261,162,112759,1,0,0:0:0:0:
261,165,113188,1,0,0:0:0:0:
261,162,113616,1,0,0:0:0:0:
261,165,113938,1,0,0:0:0:0:
261,165,114045,1,0,0:0:0:0:
249,162,114259,1,0,0:0:0:0:
249,162,114473,1,8,0:0:0:0:
242,167,114688,1,0,0:0:0:0:
236,169,114902,1,8,0:0:0:0:
236,169,115116,1,8,0:0:0:0:
236,169,115223,1,8,0:0:0:0:
236,169,115331,1,0,0:0:0:0:
236,169,115545,1,8,0:0:0:0:
236,169,115759,1,0,0:0:0:0:
236,169,115973,1,8,0:0:0:0:
236,169,116081,1,0,0:0:0:0:
236,169,116188,1,8,0:0:0:0:
236,169,117902,1,4,0:0:0:0:
236,169,118116,1,0,0:0:0:0:
236,169,118331,1,8,0:0:0:0:
236,169,118545,1,8,0:0:0:0:
236,169,118759,1,0,0:0:0:0:
236,169,118973,1,8,0:0:0:0:
236,169,119045,1,8,0:0:0:0:
271,167,119116,1,8,0:0:0:0:
240,165,119188,1,0,0:0:0:0:
236,169,119402,1,8,0:0:0:0:
236,169,119616,1,0,0:0:0:0:
236,169,119831,1,0,0:0:0:0:
236,169,120045,1,8,0:0:0:0:
236,169,120259,1,8,0:0:0:0:
236,169,120473,1,0,0:0:0:0:
236,169,120902,1,8,0:0:0:0:
233,161,121331,1,12,0:0:0:0:
234,162,121545,1,4,0:0:0:0:
240,166,121759,1,8,0:0:0:0:
236,160,121866,1,0,0:0:0:0:
236,160,121973,1,8,0:0:0:0:
237,163,122081,1,0,0:0:0:0:
239,163,122188,1,8,0:0:0:0:
239,162,122295,1,0,0:0:0:0:
240,166,122402,1,8,0:0:0:0:
240,166,122616,1,8,0:0:0:0:
236,160,122723,1,8,0:0:0:0:
240,166,122831,1,8,0:0:0:0:
240,166,123045,1,0,0:0:0:0:
239,163,123152,1,8,0:0:0:0:
239,162,123259,1,8,0:0:0:0:
240,166,123366,1,0,0:0:0:0:
240,166,123473,1,8,0:0:0:0:
240,166,123688,1,8,0:0:0:0:
240,166,123795,1,0,0:0:0:0:
240,166,123902,1,8,0:0:0:0:
240,166,124009,1,0,0:0:0:0:
239,162,124223,1,12,0:0:0:0:
240,166,124545,1,12,0:0:0:0:
224,142,126473,1,4,0:0:0:0:
233,147,126688,1,8,0:0:0:0:
235,147,126795,1,8,0:0:0:0:
235,147,126902,1,8,0:0:0:0:
237,147,127116,1,8,0:0:0:0:
236,147,127331,1,4,0:0:0:0:
235,147,127759,1,8,0:0:0:0:
233,151,127973,1,0,0:0:0:0:
211,152,128188,1,8,0:0:0:0:
211,152,128402,1,8,0:0:0:0:
211,152,128509,1,0,0:0:0:0:
211,152,128616,1,8,0:0:0:0:
211,152,128831,1,0,0:0:0:0:
211,152,129045,1,8,0:0:0:0:
211,152,129259,1,0,0:0:0:0:
220,151,129366,1,0,0:0:0:0:
211,152,129473,1,8,0:0:0:0:
211,152,129688,1,8,0:0:0:0:
211,152,129795,1,8,0:0:0:0:
211,152,129902,1,0,0:0:0:0:
211,152,130116,1,8,0:0:0:0:
211,152,130223,1,8,0:0:0:0:
211,152,130331,1,8,0:0:0:0:
211,152,130545,1,0,0:0:0:0:
211,152,130652,1,8,0:0:0:0:
211,152,130759,1,0,0:0:0:0:
211,152,131188,1,8,0:0:0:0:
211,152,131402,1,8,0:0:0:0:
211,152,131509,1,8,0:0:0:0:
211,152,131616,1,0,0:0:0:0:
200,151,131723,1,0,0:0:0:0:
211,152,131831,1,0,0:0:0:0:
211,152,132045,1,8,0:0:0:0:
211,152,132259,1,0,0:0:0:0:
211,152,132366,1,0,0:0:0:0:
211,152,132473,1,8,0:0:0:0:
211,152,132688,1,0,0:0:0:0:
204,129,132795,1,0,0:0:0:0:
211,152,132902,1,8,0:0:0:0:
211,152,133009,1,8,0:0:0:0:
211,152,133223,1,0,0:0:0:0:
211,152,133331,1,8,0:0:0:0:
211,152,133545,1,0,0:0:0:0:
172,140,133652,1,0,0:0:0:0:
211,152,133759,1,8,0:0:0:0:
211,152,134188,1,12,0:0:0:0:
211,152,134402,1,0,0:0:0:0:
211,152,134616,1,8,0:0:0:0:
211,152,134831,1,8,0:0:0:0:
211,152,135045,1,0,0:0:0:0:
211,152,135259,1,8,0:0:0:0:
211,152,135331,1,8,0:0:0:0:
211,143,135402,1,8,0:0:0:0:
211,152,135473,1,0,0:0:0:0:
211,152,135688,1,8,0:0:0:0:
211,152,135902,1,0,0:0:0:0:
211,152,136116,1,0,0:0:0:0:
211,152,136331,1,8,0:0:0:0:
211,152,136545,1,0,0:0:0:0:
211,152,136759,1,8,0:0:0:0:
211,152,136973,1,8,0:0:0:0:
211,152,137081,1,8,0:0:0:0:
211,152,137188,1,0,0:0:0:0:
211,152,137616,1,12,0:0:0:0:
211,152,137831,1,0,0:0:0:0:
204,142,137938,1,8,0:0:0:0:
211,152,138045,1,0,0:0:0:0:
211,152,138259,1,8,0:0:0:0:
211,152,138473,1,0,0:0:0:0:
211,152,138688,1,8,0:0:0:0:
211,152,138795,1,0,0:0:0:0:
211,152,138902,1,8,0:0:0:0:
211,152,139116,1,0,0:0:0:0:
211,152,139331,1,0,0:0:0:0:
199,146,139438,1,8,0:0:0:0:
211,152,139545,1,0,0:0:0:0:
211,152,139759,1,8,0:0:0:0:
211,152,139973,1,0,0:0:0:0:
211,152,140081,1,8,0:0:0:0:
211,152,140188,1,8,0:0:0:0:
211,152,140402,1,8,0:0:0:0:
211,152,140509,1,8,0:0:0:0:
211,152,140616,1,0,0:0:0:0:
211,152,140831,1,0,0:0:0:0:
211,152,140938,1,8,0:0:0:0:
211,152,141045,1,0,0:0:0:0:
211,152,141473,1,8,0:0:0:0:
211,152,141688,1,8,0:0:0:0:
211,152,141795,1,0,0:0:0:0:
211,152,141902,1,0,0:0:0:0:
211,152,142116,1,8,0:0:0:0:
227,151,142223,1,8,0:0:0:0:
211,152,142331,1,0,0:0:0:0:
211,152,142545,1,0,0:0:0:0:
211,152,142652,1,8,0:0:0:0:
211,152,142759,1,0,0:0:0:0:
211,152,142973,1,0,0:0:0:0:
211,152,143081,1,8,0:0:0:0:
211,152,143295,1,0,0:0:0:0:
211,152,143402,1,8,0:0:0:0:
211,152,143509,1,8,0:0:0:0:
211,152,143616,1,0,0:0:0:0:
211,152,143831,1,8,0:0:0:0:
211,152,144045,1,0,0:0:0:0:
211,152,144366,1,0,0:0:0:0:
211,152,144473,1,8,0:0:0:0:
211,152,144688,1,8,0:0:0:0:
211,152,144795,1,8,0:0:0:0:
211,152,144902,1,0,0:0:0:0:
211,152,145009,1,0,0:0:0:0:
211,152,145116,1,8,0:0:0:0:
211,152,145331,1,0,0:0:0:0:
211,152,145545,1,8,0:0:0:0:
200,148,145616,1,8,0:0:0:0:
235,159,145688,1,8,0:0:0:0:
211,152,145759,1,0,0:0:0:0:
201,149,146081,1,8,0:0:0:0:
211,152,146188,1,0,0:0:0:0:
211,152,146402,1,0,0:0:0:0:
211,152,146509,1,0,0:0:0:0:
211,152,146616,1,8,0:0:0:0:
211,152,146831,1,8,0:0:0:0:
211,152,147045,1,4,0:0:0:0:
211,152,147259,1,8,0:0:0:0:
211,152,147366,1,8,0:0:0:0:
211,152,147473,1,8,0:0:0:0:
211,152,147688,1,8,0:0:0:0:
211,152,147902,1,4,0:0:0:0:
211,152,148331,1,8,0:0:0:0:
211,152,148545,1,8,0:0:0:0:
211,152,148759,1,0,0:0:0:0:
211,152,148973,1,8,0:0:0:0:
211,152,149081,1,0,0:0:0:0:
211,152,149188,1,8,0:0:0:0:
211,152,149402,1,0,0:0:0:0:
211,152,149616,1,8,0:0:0:0:
211,152,149831,1,0,0:0:0:0:
211,152,150045,1,8,0:0:0:0:
211,152,150259,1,0,0:0:0:0:
211,152,150366,1,0,0:0:0:0:
211,152,150473,1,8,0:0:0:0:
211,152,150688,1,8,0:0:0:0:
211,152,150795,1,8,0:0:0:0:
211,152,150902,1,0,0:0:0:0:
211,152,151116,1,0,0:0:0:0:
211,152,151223,1,8,0:0:0:0:
211,152,151331,1,8,0:0:0:0:
211,152,151545,1,0,0:0:0:0:
211,152,151759,1,8,0:0:0:0:
211,152,151973,1,8,0:0:0:0:
211,152,152081,1,8,0:0:0:0:
211,152,152188,1,0,0:0:0:0:
211,152,152402,1,8,0:0:0:0:
211,152,152616,1,0,0:0:0:0:
256,160,153045,1,8,0:0:0:0:
256,160,153259,1,0,0:0:0:0:
256,160,153366,1,8,0:0:0:0:
256,160,153545,1,8,0:0:0:0:
256,160,153616,1,8,0:0:0:0:
256,160,153688,1,0,0:0:0:0:
256,160,153759,1,0,0:0:0:0:
256,160,153831,1,8,0:0:0:0:
256,160,153902,1,8,0:0:0:0:
256,160,154045,1,0,0:0:0:0:
256,160,154116,1,8,0:0:0:0:
256,160,154331,1,8,0:0:0:0:
256,160,154545,1,8,0:0:0:0:
271,174,154598,1,8,0:0:0:0:
256,160,154652,1,8,0:0:0:0:
256,160,154759,1,0,0:0:0:0:
256,192,154973,1,8,0:0:0:0:
256,192,155081,1,0,0:0:0:0:
256,192,155188,1,8,0:0:0:0:
256,192,155295,1,0,0:0:0:0:
256,192,155402,1,8,0:0:0:0:
250,185,155509,1,8,0:0:0:0:
256,192,155616,1,0,0:0:0:0:
256,192,155831,1,0,0:0:0:0:
256,192,155938,1,0,0:0:0:0:
256,192,156045,1,8,0:0:0:0:
256,192,156259,1,0,0:0:0:0:
256,192,156473,1,12,0:0:0:0:
256,192,156688,1,0,0:0:0:0:
256,192,156795,1,0,0:0:0:0:
256,192,156902,1,8,0:0:0:0:
256,192,157009,1,8,0:0:0:0:
249,157,157063,1,8,0:0:0:0:
256,192,157116,1,8,0:0:0:0:
256,192,157223,1,0,0:0:0:0:
256,192,157331,1,8,0:0:0:0:
256,192,157491,1,8,0:0:0:0:
256,192,157652,1,0,0:0:0:0:
256,192,157759,1,0,0:0:0:0:
256,192,157866,1,0,0:0:0:0:
256,192,157973,1,8,0:0:0:0:
256,192,158081,1,8,0:0:0:0:
256,192,158188,1,0,0:0:0:0:
256,192,158402,1,8,0:0:0:0:
256,192,158509,1,0,0:0:0:0:
256,192,158616,1,8,0:0:0:0:
256,192,158831,1,0,0:0:0:0:
256,192,158938,1,8,0:0:0:0:
256,192,159045,1,0,0:0:0:0:
246,174,159152,1,0,0:0:0:0:
256,192,159259,1,8,0:0:0:0:
256,192,159473,1,8,0:0:0:0:
256,192,159527,1,8,0:0:0:0:
256,192,159581,1,8,0:0:0:0:
256,192,159688,1,0,0:0:0:0:
256,192,159741,1,0,0:0:0:0:
256,192,159795,1,0,0:0:0:0:
256,192,159902,1,8,0:0:0:0:
256,192,160116,1,0,0:0:0:0:
236,188,160223,1,8,0:0:0:0:
256,192,160331,1,0,0:0:0:0:
256,192,160438,1,0,0:0:0:0:
256,192,160545,1,8,0:0:0:0:
256,192,160652,1,0,0:0:0:0:
256,192,160759,1,12,0:0:0:0:
256,192,160973,1,12,0:0:0:0:
256,192,161188,1,4,0:0:0:0:
275,180,161616,1,4,0:0:0:0:
268,171,161831,1,8,0:0:0:0:
268,172,162045,1,8,0:0:0:0:
268,172,162259,1,8,0:0:0:0:
268,172,162473,1,8,0:0:0:0:
256,160,162581,1,0,0:0:0:0:
256,160,162688,1,8,0:0:0:0:
256,160,162795,1,0,0:0:0:0:
256,160,162902,1,8,0:0:0:0:
256,160,163009,1,0,0:0:0:0:
256,160,163116,1,8,0:0:0:0:
245,144,163331,1,8,0:0:0:0:
245,144,163438,1,8,0:0:0:0:
256,192,163545,1,0,0:0:0:0:
256,192,163759,1,8,0:0:0:0:
256,192,163866,1,8,0:0:0:0:
256,192,163973,1,0,0:0:0:0:
256,192,164188,1,0,0:0:0:0:
256,192,164295,1,0,0:0:0:0:
256,192,164402,1,8,0:0:0:0:
256,192,164509,1,8,0:0:0:0:
256,192,164616,1,4,0:0:0:0:
256,160,165045,1,0,0:0:0:0:
247,159,165098,1,0,0:0:0:0:
256,160,165152,1,0,0:0:0:0:
256,160,165259,1,8,0:0:0:0:
256,160,165366,1,0,0:0:0:0:
256,160,165473,1,8,0:0:0:0:
250,155,165527,1,8,0:0:0:0:
256,160,165581,1,8,0:0:0:0:
256,160,165688,1,0,0:0:0:0:
256,160,165795,1,8,0:0:0:0:
256,160,165902,1,0,0:0:0:0:
249,154,166009,1,0,0:0:0:0:
240,162,166063,1,0,0:0:0:0:
251,152,166116,1,8,0:0:0:0:
251,152,166223,1,0,0:0:0:0:
254,177,166331,1,8,0:0:0:0:
255,177,166384,1,8,0:0:0:0:
255,177,166438,1,0,0:0:0:0:
255,177,166545,1,8,0:0:0:0:
254,177,166652,1,8,0:0:0:0:
254,177,166759,1,4,0:0:0:0:
261,161,166973,1,8,0:0:0:0:
261,161,167188,1,8,0:0:0:0:
261,161,167402,1,8,0:0:0:0:
261,161,167616,1,0,0:0:0:0:
261,161,167831,1,8,0:0:0:0:
261,161,167938,1,0,0:0:0:0:
261,161,168045,1,8,0:0:0:0:
261,161,168259,1,0,0:0:0:0:
261,161,168473,1,8,0:0:0:0:
261,161,168688,1,0,0:0:0:0:
261,161,168902,1,8,0:0:0:0:
261,161,169116,1,0,0:0:0:0:
261,161,169223,1,0,0:0:0:0:
261,161,169331,1,8,0:0:0:0:
261,161,169545,1,8,0:0:0:0:
261,161,169652,1,8,0:0:0:0:
261,161,169759,1,0,0:0:0:0:
261,161,169973,1,0,0:0:0:0:
261,161,170081,1,8,0:0:0:0:
261,161,170188,1,8,0:0:0:0:
261,161,170402,1,0,0:0:0:0:
261,161,170616,1,8,0:0:0:0:
261,161,170831,1,8,0:0:0:0:
261,161,170938,1,8,0:0:0:0:
261,161,171045,1,0,0:0:0:0:
261,161,171259,1,8,0:0:0:0:
261,161,171473,1,0,0:0:0:0:
261,161,171688,1,0,0:0:0:0:
261,161,171795,1,8,0:0:0:0:
261,161,171902,1,8,0:0:0:0:
261,161,172116,1,0,0:0:0:0:
261,161,172331,1,8,0:0:0:0:
261,161,172438,1,8,0:0:0:0:
261,161,172545,1,0,0:0:0:0:
261,161,172652,1,0,0:0:0:0:
261,161,172759,1,8,0:0:0:0:
261,161,172973,1,8,0:0:0:0:
261,161,173188,1,0,0:0:0:0:
261,161,173616,1,8,0:0:0:0:
261,161,173831,1,0,0:0:0:0:
261,161,174045,1,8,0:0:0:0:
261,161,174259,1,8,0:0:0:0:
261,161,174473,1,0,0:0:0:0:
261,161,174688,1,8,0:0:0:0:
266,159,174759,1,8,0:0:0:0:
232,149,174831,1,8,0:0:0:0:
261,161,174902,1,0,0:0:0:0:
261,161,175116,1,0,0:0:0:0:
261,161,175331,1,8,0:0:0:0:
268,159,175545,1,0,0:0:0:0:
268,159,175759,1,8,0:0:0:0:
268,159,175973,1,0,0:0:0:0:
268,159,176188,1,8,0:0:0:0:
268,159,176616,1,0,0:0:0:0:
235,156,177045,1,12,0:0:0:0:
235,156,177259,1,0,0:0:0:0:
235,156,177473,1,8,0:0:0:0:
235,156,177581,1,0,0:0:0:0:
235,156,177688,1,8,0:0:0:0:
235,156,177795,1,0,0:0:0:0:
235,156,177902,1,8,0:0:0:0:
235,156,178009,1,8,0:0:0:0:
224,160,178116,1,0,0:0:0:0:
223,154,178223,1,8,0:0:0:0:
235,156,178438,1,0,0:0:0:0:
235,156,178545,1,8,0:0:0:0:
192,128,178759,1,0,0:0:0:0:
192,128,178866,1,0,0:0:0:0:
192,128,179081,1,0,0:0:0:0:
192,128,179295,1,8,0:0:0:0:
192,128,179509,1,0,0:0:0:0:
192,128,179723,1,0,0:0:0:0:
192,128,179831,1,0,0:0:0:0:
192,128,179938,1,0,0:0:0:0:
192,128,180045,1,0,0:0:0:0:
192,128,180259,1,12,0:0:0:0:
192,128,180473,1,12,0:0:0:0:
192,128,180688,1,0,0:0:0:0:
192,128,180795,1,0,0:0:0:0:
192,128,181009,1,0,0:0:0:0:
192,128,181223,1,0,0:0:0:0:
192,128,181438,1,0,0:0:0:0:
192,128,181545,1,0,0:0:0:0:
192,128,181652,1,0,0:0:0:0:
192,128,181759,1,0,0:0:0:0:
228,156,182188,1,4,0:0:0:0:
256,160,182402,1,8,0:0:0:0:
256,160,182616,1,0,0:0:0:0:
256,160,182723,1,0,0:0:0:0:
256,160,182831,1,8,0:0:0:0:
256,160,183045,1,0,0:0:0:0:
256,160,183152,1,0,0:0:0:0:
256,160,183259,1,8,0:0:0:0:
256,160,183366,1,8,0:0:0:0:
256,160,183473,1,0,0:0:0:0:
256,160,183688,1,8,0:0:0:0:
224,128,183902,1,0,0:0:0:0:
224,128,184116,1,8,0:0:0:0:
230,136,184223,1,8,0:0:0:0:
224,128,184331,1,0,0:0:0:0:
256,128,184438,1,0,0:0:0:0:
224,128,184545,1,8,0:0:0:0:
256,160,184759,1,0,0:0:0:0:
256,128,184973,1,8,0:0:0:0:
256,128,185081,1,8,0:0:0:0:
256,128,185188,1,0,0:0:0:0:
256,128,185402,1,8,0:0:0:0:
256,160,185616,1,0,0:0:0:0:
256,160,185831,1,8,0:0:0:0:
256,160,186045,1,0,0:0:0:0:
256,160,186152,1,0,0:0:0:0:
256,160,186259,1,8,0:0:0:0:
256,160,186473,1,0,0:0:0:0:
256,160,186581,1,0,0:0:0:0:
256,160,186688,1,8,0:0:0:0:
256,160,186795,1,8,0:0:0:0:
256,160,186902,1,0,0:0:0:0:
256,160,187116,1,8,0:0:0:0:
224,128,187331,1,0,0:0:0:0:
252,152,187438,1,8,0:0:0:0:
224,128,187545,1,8,0:0:0:0:
224,128,187759,1,0,0:0:0:0:
224,128,187973,1,8,0:0:0:0:
247,148,188081,1,8,0:0:0:0:
256,160,188188,1,0,0:0:0:0:
256,160,188295,1,8,0:0:0:0:
256,128,188402,1,8,0:0:0:0:
256,128,188616,1,0,0:0:0:0:
256,128,188831,1,8,0:0:0:0:
256,160,189045,1,4,0:0:0:0:
256,160,189259,1,8,0:0:0:0:
256,160,189473,1,0,0:0:0:0:
256,160,189581,1,0,0:0:0:0:
256,160,189688,1,8,0:0:0:0:
256,160,189902,1,0,0:0:0:0:
256,160,190116,1,8,0:0:0:0:
256,160,190331,1,0,0:0:0:0:
256,160,190438,1,0,0:0:0:0:
256,160,190545,1,8,0:0:0:0:
245,142,190652,1,8,0:0:0:0:
224,128,190759,1,0,0:0:0:0:
224,128,190973,1,8,0:0:0:0:
249,157,191081,1,0,0:0:0:0:
224,128,191188,1,10,0:0:0:0:
224,128,191402,1,8,0:0:0:0:
256,160,191616,1,0,0:0:0:0:
256,160,191723,1,8,0:0:0:0:
256,128,191831,1,8,0:0:0:0:
256,128,191938,1,8,0:0:0:0:
256,128,192045,1,0,0:0:0:0:
256,128,192259,1,8,0:0:0:0:
256,160,192473,1,0,0:0:0:0:
256,160,192688,1,8,0:0:0:0:
256,160,192902,1,0,0:0:0:0:
256,160,193009,1,0,0:0:0:0:
256,160,193116,1,8,0:0:0:0:
256,160,193331,1,0,0:0:0:0:
256,160,193545,1,8,0:0:0:0:
256,160,193759,1,0,0:0:0:0:
239,151,193866,1,0,0:0:0:0:
256,160,193973,1,8,0:0:0:0:
240,138,194081,1,8,0:0:0:0:
224,128,194188,1,0,0:0:0:0:
224,128,194402,1,8,0:0:0:0:
256,128,194509,1,0,0:0:0:0:
224,128,194616,1,8,0:0:0:0:
224,128,194831,1,8,0:0:0:0:
256,160,195045,1,0,0:0:0:0:
256,160,195152,1,0,0:0:0:0:
256,128,195259,1,8,0:0:0:0:
250,140,195313,1,8,0:0:0:0:
256,128,195366,1,8,0:0:0:0:
256,128,195473,1,0,0:0:0:0:
251,147,195581,1,0,0:0:0:0:
256,128,195688,1,8,0:0:0:0:
250,140,195741,1,8,0:0:0:0:
250,140,195795,1,8,0:0:0:0:
228,156,195902,1,4,0:0:0:0:
256,160,196116,1,8,0:0:0:0:
256,160,196331,1,0,0:0:0:0:
256,160,196438,1,0,0:0:0:0:
256,160,196545,1,8,0:0:0:0:
256,160,196759,1,8,0:0:0:0:
256,160,196866,1,0,0:0:0:0:
256,160,196973,1,8,0:0:0:0:
256,160,197081,1,8,0:0:0:0:
256,160,197188,1,0,0:0:0:0:
256,160,197402,1,8,0:0:0:0:
224,128,197616,1,0,0:0:0:0:
224,128,197831,1,8,0:0:0:0:
256,128,197938,1,8,0:0:0:0:
224,128,198045,1,0,0:0:0:0:
224,128,198259,1,8,0:0:0:0:
256,160,198473,1,8,0:0:0:0:
256,160,198581,1,0,0:0:0:0:
256,128,198688,1,8,0:0:0:0:
256,128,198795,1,8,0:0:0:0:
256,128,198902,1,0,0:0:0:0:
256,128,199116,1,8,0:0:0:0:
256,160,199331,1,0,0:0:0:0:
256,160,199545,1,8,0:0:0:0:
256,160,199759,1,0,0:0:0:0:
256,160,199866,1,0,0:0:0:0:
256,160,199973,1,8,0:0:0:0:
256,160,200188,1,8,0:0:0:0:
256,160,200295,1,0,0:0:0:0:
256,160,200402,1,8,0:0:0:0:
256,160,200509,1,8,0:0:0:0:
256,160,200616,1,0,0:0:0:0:
256,160,200831,1,8,0:0:0:0:
224,128,201045,1,0,0:0:0:0:
252,152,201152,1,8,0:0:0:0:
224,128,201259,1,8,0:0:0:0:
224,128,201473,1,0,0:0:0:0:
224,128,201688,1,8,0:0:0:0:
256,160,201902,1,0,0:0:0:0:
256,160,202009,1,8,0:0:0:0:
256,128,202116,1,0,0:0:0:0:
256,128,202223,1,8,0:0:0:0:
256,128,202331,1,0,0:0:0:0:
256,128,202545,1,8,0:0:0:0:
256,160,202759,1,4,0:0:0:0:
256,160,202973,1,8,0:0:0:0:
256,160,203188,1,0,0:0:0:0:
256,160,203402,1,8,0:0:0:0:
256,160,203616,1,0,0:0:0:0:
256,160,203831,1,0,0:0:0:0:
256,160,204045,1,8,0:0:0:0:
256,160,204259,1,8,0:0:0:0:
249,157,204366,1,8,0:0:0:0:
224,128,204473,1,0,0:0:0:0:
241,152,204581,1,0,0:0:0:0:
224,128,204688,1,8,0:0:0:0:
224,128,204902,1,0,0:0:0:0:
224,128,205116,1,8,0:0:0:0:
256,160,205331,1,0,0:0:0:0:
256,128,205545,1,0,0:0:0:0:
256,128,205759,1,8,0:0:0:0:
256,128,205973,1,8,0:0:0:0:
256,160,206188,1,0,0:0:0:0:
256,160,206402,1,8,0:0:0:0:
256,160,206616,1,8,0:0:0:0:
256,160,206831,1,8,0:0:0:0:
256,160,207045,1,8,0:0:0:0:
256,160,207259,1,8,0:0:0:0:
256,160,207473,1,8,0:0:0:0:
256,160,207688,1,8,0:0:0:0:
224,128,207795,1,0,0:0:0:0:
251,149,208009,1,0,0:0:0:0:
224,128,208116,1,8,0:0:0:0:
224,128,208331,1,8,0:0:0:0:
224,128,208545,1,8,0:0:0:0:
256,160,208759,1,8,0:0:0:0:
256,128,208973,1,0,0:0:0:0:
256,128,209188,1,8,0:0:0:0:
256,128,209402,1,8,0:0:0:0:
250,140,209616,1,4,0:0:0:0:
250,131,209831,1,0,0:0:0:0:
250,131,209884,1,0,0:0:0:0:
250,131,209938,1,0,0:0:0:0:
250,131,210045,1,8,0:0:0:0:
250,131,210152,1,0,0:0:0:0:
250,131,210259,1,8,0:0:0:0:
250,131,210313,1,8,0:0:0:0:
250,131,210366,1,8,0:0:0:0:
250,131,210473,1,0,0:0:0:0:
241,134,210581,1,0,0:0:0:0:
241,134,210688,1,8,0:0:0:0:
241,134,210741,1,8,0:0:0:0:
241,134,210795,1,8,0:0:0:0:
241,134,210902,1,0,0:0:0:0:
241,134,210956,1,0,0:0:0:0:
241,134,211009,1,0,0:0:0:0:
241,135,211116,1,8,0:0:0:0:
241,135,211223,1,0,0:0:0:0:
248,138,211331,1,8,0:0:0:0:
244,133,211384,1,8,0:0:0:0:
248,138,211438,1,8,0:0:0:0:
234,133,211545,1,0,0:0:0:0:
248,138,211652,1,8,0:0:0:0:
234,131,211706,1,8,0:0:0:0:
248,138,211759,1,8,0:0:0:0:
234,131,211866,1,0,0:0:0:0:
248,138,211973,1,8,0:0:0:0:
237,130,212081,1,0,0:0:0:0:
256,192,212188,1,12,0:0:0:0:
256,192,212616,1,0,0:0:0:0:
256,192,212723,1,0,0:0:0:0:
256,192,212831,1,0,0:0:0:0:
256,192,212938,1,8,0:0:0:0:
251,180,213152,1,8,0:0:0:0:
256,192,213259,1,0,0:0:0:0:
256,192,213473,1,0,0:0:0:0:
256,192,213581,1,0,0:0:0:0:
256,192,213688,1,8,0:0:0:0:
256,192,213795,1,8,0:0:0:0:
256,192,213902,1,0,0:0:0:0:
249,190,213973,1,0,0:0:0:0:
256,192,214045,1,0,0:0:0:0:
256,192,214116,1,0,0:0:0:0:
256,192,214331,1,8,0:0:0:0:
256,192,214438,1,8,0:0:0:0:
256,192,214545,1,8,0:0:0:0:
256,192,214652,1,8,0:0:0:0:
256,192,214973,1,12,0:0:0:0:
256,192,215295,1,12,0:0:0:0:
256,192,215616,1,0,0:0:0:0:
256,192,215723,1,8,0:0:0:0:
256,192,215831,1,8,0:0:0:0:
256,192,215938,1,0,0:0:0:0:
256,192,216152,1,0,0:0:0:0:
256,192,216259,1,0,0:0:0:0:
256,192,216366,1,12,0:0:0:0:
256,192,216688,1,12,0:0:0:0:
256,192,217009,1,4,0:0:0:0:
256,192,217331,1,0,0:0:0:0:
256,192,217438,1,8,0:0:0:0:
256,192,217545,1,0,0:0:0:0:
256,192,217652,1,0,0:0:0:0:
256,192,217759,1,8,0:0:0:0:
256,192,217813,1,8,0:0:0:0:
256,192,217866,1,8,0:0:0:0:
256,192,217973,1,0,0:0:0:0:
256,192,218081,1,8,0:0:0:0:
256,192,218188,1,8,0:0:0:0:
256,192,218402,1,0,0:0:0:0:
256,192,218723,1,8,0:0:0:0:
256,192,218831,1,0,0:0:0:0:
256,192,218938,1,0,0:0:0:0:
256,192,219045,1,8,0:0:0:0:
256,192,219259,1,0,0:0:0:0:
256,192,219366,1,8,0:0:0:0:
256,192,219581,1,8,0:0:0:0:
256,192,219688,1,8,0:0:0:0:
239,190,219795,1,0,0:0:0:0:
256,192,219902,1,8,0:0:0:0:
256,192,220009,1,8,0:0:0:0:
256,192,220116,1,0,0:0:0:0:
256,192,220331,1,0,0:0:0:0:
256,192,220438,1,8,0:0:0:0:
256,192,220759,1,12,0:0:0:0:
256,192,220973,1,8,0:0:0:0:
256,192,221081,1,0,0:0:0:0:
248,186,221188,1,8,0:0:0:0:
256,192,221295,1,0,0:0:0:0:
256,192,221509,1,12,0:0:0:0:
256,192,221831,1,12,0:0:0:0:
256,192,222152,1,0,0:0:0:0:
256,192,222259,1,12,0:0:0:0:
256,192,222473,1,4,0:0:0:0:
256,192,222688,1,8,0:0:0:0:
256,192,222795,1,8,0:0:0:0:
256,192,222902,1,0,0:0:0:0:
256,192,223009,1,8,0:0:0:0:
256,192,223116,1,0,0:0:0:0:
256,192,223331,1,8,0:0:0:0:
256,192,223402,1,8,0:0:0:0:
256,192,223473,1,8,0:0:0:0:
256,192,223545,1,8,0:0:0:0:
256,191,223616,1,0,0:0:0:0:
256,192,223688,1,0,0:0:0:0:
256,192,223759,1,8,0:0:0:0:
256,192,223866,1,8,0:0:0:0:
256,192,223973,1,8,0:0:0:0:
256,192,224188,1,0,0:0:0:0:
256,192,224241,1,0,0:0:0:0:
256,192,224295,1,0,0:0:0:0:
256,192,224402,1,8,0:0:0:0:
261,188,224456,1,8,0:0:0:0:
256,192,224509,1,8,0:0:0:0:
256,192,224616,1,0,0:0:0:0:
256,192,224723,1,8,0:0:0:0:
256,192,224831,1,0,0:0:0:0:
256,192,225259,1,12,0:0:0:0:
256,192,225581,1,12,0:0:0:0:
256,192,225902,1,4,0:0:0:0:
256,192,226116,1,0,0:0:0:0:
256,192,226223,1,8,0:0:0:0:
256,192,226545,1,8,0:0:0:0:
256,192,226759,1,4,0:0:0:0:
256,192,227081,1,8,0:0:0:0:
256,192,227402,1,8,0:0:0:0:
210,192,227831,2,0,L|244:143,4,59.5000011348725
224,192,228473,1,4,0:0:0:0:
224,192,228902,1,0,0:0:0:0:
256,192,229331,1,8,0:0:0:0:
256,192,229973,1,0,0:0:0:0:
256,192,230188,1,0,0:0:0:0:
256,192,230616,1,0,0:0:0:0:
256,192,231045,1,8,0:0:0:0:
256,192,231473,1,0,0:0:0:0:
256,192,231902,1,0,0:0:0:0:
256,192,232331,1,0,0:0:0:0:
256,192,232759,1,8,0:0:0:0:
256,192,233402,1,0,0:0:0:0:
256,192,233616,1,0,0:0:0:0:
256,192,234045,1,0,0:0:0:0:
256,192,234473,1,8,0:0:0:0:
256,192,234902,1,0,0:0:0:0:
256,160,235545,1,8,0:0:0:0:
256,160,235652,1,8,0:0:0:0:
256,160,235759,1,8,0:0:0:0:
256,160,235973,1,8,0:0:0:0:
256,160,236188,1,0,0:0:0:0:
256,160,236402,1,8,0:0:0:0:
256,160,236616,1,8,0:0:0:0:
256,160,236831,1,8,0:0:0:0:
256,160,237045,1,0,0:0:0:0:
256,160,237259,1,8,0:0:0:0:
256,160,237366,1,0,0:0:0:0:
256,160,237473,1,8,0:0:0:0:
256,160,237688,1,0,0:0:0:0:
256,160,237902,1,8,0:0:0:0:
256,160,238116,1,0,0:0:0:0:
256,160,238331,1,8,0:0:0:0:
256,160,238545,1,0,0:0:0:0:
256,160,238652,1,0,0:0:0:0:
256,160,238759,1,8,0:0:0:0:
256,160,238973,1,8,0:0:0:0:
256,160,239081,1,8,0:0:0:0:
256,160,239188,1,0,0:0:0:0:
256,160,239402,1,0,0:0:0:0:
256,160,239509,1,8,0:0:0:0:
256,160,239616,1,8,0:0:0:0:
256,160,239831,1,0,0:0:0:0:
256,160,240045,1,8,0:0:0:0:
256,160,240259,1,8,0:0:0:0:
256,160,240366,1,8,0:0:0:0:
256,160,240473,1,0,0:0:0:0:
256,160,240688,1,8,0:0:0:0:
256,160,240902,1,0,0:0:0:0:
256,160,241331,1,12,0:0:0:0:
160,160,241545,1,4,0:0:0:0:
160,160,241688,1,8,0:0:0:0:
160,160,241759,1,0,0:0:0:0:
136,160,241831,1,0,0:0:0:0:
160,160,241902,1,0,0:0:0:0:
160,160,241973,1,8,0:0:0:0:
143,154,242116,1,0,0:0:0:0:
160,160,242188,1,0,0:0:0:0:
160,160,242331,1,0,0:0:0:0:
160,160,242402,1,0,0:0:0:0:
160,160,242545,1,0,0:0:0:0:
160,160,242616,1,8,0:0:0:0:
160,160,243045,1,4,0:0:0:0:
192,192,243259,1,8,0:0:0:0:
192,192,243366,1,0,0:0:0:0:
192,192,243473,1,8,0:0:0:0:
192,192,243581,1,8,0:0:0:0:
192,192,243688,1,0,0:0:0:0:
192,192,243795,1,0,0:0:0:0:
192,192,243902,1,8,0:0:0:0:
192,192,244009,1,8,0:0:0:0:
192,192,244116,1,0,0:0:0:0:
192,192,244223,1,0,0:0:0:0:
192,192,244331,1,8,0:0:0:0:
160,192,244545,1,0,0:0:0:0:
160,192,244759,1,8,0:0:0:0:
192,192,244866,1,8,0:0:0:0:
160,192,244973,1,0,0:0:0:0:
192,192,245081,1,0,0:0:0:0:
160,192,245188,1,8,0:0:0:0:
160,192,245295,1,0,0:0:0:0:
160,192,245402,1,8,0:0:0:0:
160,192,245509,1,8,0:0:0:0:
160,192,245616,1,8,0:0:0:0:
160,192,245723,1,0,0:0:0:0:
160,192,245831,1,8,0:0:0:0:
160,192,245938,1,8,0:0:0:0:
160,192,246045,1,0,0:0:0:0:
160,192,246259,1,8,0:0:0:0:
160,192,246366,1,0,0:0:0:0:
160,192,246473,1,8,0:0:0:0:
160,192,246688,1,0,0:0:0:0:
156,192,246795,1,0,0:0:0:0:
160,192,246902,1,8,0:0:0:0:
160,192,247009,1,0,0:0:0:0:
160,192,247116,1,8,0:0:0:0:
160,192,247223,1,8,0:0:0:0:
160,192,247331,1,0,0:0:0:0:
160,192,247438,1,0,0:0:0:0:
160,192,247545,1,8,0:0:0:0:
160,192,247652,1,8,0:0:0:0:
160,192,247759,1,0,0:0:0:0:
160,192,247973,1,8,0:0:0:0:
160,192,248081,1,8,0:0:0:0:
160,192,248188,1,8,0:0:0:0:
160,192,248402,1,0,0:0:0:0:
146,176,248509,1,0,0:0:0:0:
128,192,248616,1,8,0:0:0:0:
128,192,248723,1,0,0:0:0:0:
160,192,248831,1,8,0:0:0:0:
128,192,248938,1,8,0:0:0:0:
128,192,249045,1,0,0:0:0:0:
141,185,249152,1,0,0:0:0:0:
128,192,249259,1,8,0:0:0:0:
147,181,249313,1,8,0:0:0:0:
128,192,249366,1,8,0:0:0:0:
128,192,249473,1,0,0:0:0:0:
147,182,249581,1,8,0:0:0:0:
128,192,249688,1,0,0:0:0:0:
128,192,249741,1,0,0:0:0:0:
128,192,249795,1,0,0:0:0:0:
128,192,249902,1,8,0:0:0:0:
160,192,250116,1,0,0:0:0:0:
160,192,250223,1,0,0:0:0:0:
160,192,250331,1,8,0:0:0:0:
160,192,250438,1,0,0:0:0:0:
160,192,250545,1,8,0:0:0:0:
160,192,250652,1,8,0:0:0:0:
146,178,250759,1,0,0:0:0:0:
160,192,250973,1,8,0:0:0:0:
160,192,251045,1,8,0:0:0:0:
160,192,251116,1,8,0:0:0:0:
160,192,251188,1,0,0:0:0:0:
155,186,251295,1,8,0:0:0:0:
160,192,251402,1,0,0:0:0:0:
160,192,251616,1,8,0:0:0:0:
160,192,251723,1,8,0:0:0:0:
160,192,251831,1,0,0:0:0:0:
160,192,251938,1,0,0:0:0:0:
160,192,252045,1,8,0:0:0:0:
160,192,252152,1,0,0:0:0:0:
160,192,252259,1,8,0:0:0:0:
160,192,252473,1,0,0:0:0:0:
160,192,252527,1,0,0:0:0:0:
160,192,252581,1,0,0:0:0:0:
160,192,252688,1,8,0:0:0:0:
160,192,252902,1,0,0:0:0:0:
160,192,252956,1,0,0:0:0:0:
160,192,253009,1,0,0:0:0:0:
160,192,253116,1,8,0:0:0:0:
160,192,253331,1,4,0:0:0:0:
160,192,253545,1,8,0:0:0:0:
160,192,253759,1,0,0:0:0:0:
160,192,253813,1,0,0:0:0:0:
160,192,253866,1,0,0:0:0:0:
180,189,253920,1,0,0:0:0:0:
160,192,253973,1,8,0:0:0:0:
160,192,254188,1,4,0:0:0:0:
160,192,254402,1,8,0:0:0:0:
172,181,254509,1,8,0:0:0:0:
160,192,254616,1,0,0:0:0:0:
160,192,254670,1,0,0:0:0:0:
160,192,254723,1,0,0:0:0:0:
160,192,254777,1,0,0:0:0:0:
160,192,254831,1,8,0:0:0:0:
160,192,255045,1,4,0:0:0:0:
160,192,255259,1,8,0:0:0:0:
160,192,255473,1,8,0:0:0:0:
160,192,255527,1,8,0:0:0:0:
160,192,255581,1,0,0:0:0:0:
158,202,255634,1,0,0:0:0:0:
160,192,255688,1,8,0:0:0:0:
160,192,255902,1,4,0:0:0:0:
160,192,256116,1,8,0:0:0:0:
150,188,256223,1,0,0:0:0:0:
160,192,256331,1,8,0:0:0:0:
160,192,256384,1,8,0:0:0:0:
160,192,256438,1,0,0:0:0:0:
153,188,256491,1,0,0:0:0:0:
160,192,256545,1,8,0:0:0:0:
160,192,256759,1,0,0:0:0:0:
160,192,256813,1,0,0:0:0:0:
160,192,256866,1,0,0:0:0:0:
165,184,256920,1,0,0:0:0:0:
160,192,256973,1,8,0:0:0:0:
160,192,257188,1,8,0:0:0:0:
160,192,257241,1,0,0:0:0:0:
160,192,257295,1,0,0:0:0:0:
160,192,257348,1,0,0:0:0:0:
160,192,257402,1,8,0:0:0:0:
160,192,257616,1,0,0:0:0:0:
160,192,257723,1,0,0:0:0:0:
160,192,257831,1,8,0:0:0:0:
158,187,257938,1,8,0:0:0:0:
160,192,258045,1,0,0:0:0:0:
160,192,258098,1,0,0:0:0:0:
160,192,258152,1,0,0:0:0:0:
160,192,258259,1,8,0:0:0:0:
160,192,258313,1,8,0:0:0:0:
160,192,258366,1,8,0:0:0:0:
160,192,258420,1,8,0:0:0:0:
160,192,258473,1,0,0:0:0:0:
256,192,258581,8,0,259973,0:0:0:0:
160,160,260616,5,4,0:0:0:0:
256,192,260723,8,0,263402,0:0:0:0:
224,160,263616,5,12,0:0:0:0:
