osu file format v14

[General]
AudioFilename: audio.mp3
AudioLeadIn: 0
PreviewTime: 178706
Countdown: 0
SampleSet: Normal
StackLeniency: 0.7
Mode: 1
LetterboxInBreaks: 0
WidescreenStoryboard: 0

[Editor]
DistanceSpacing: 2.1
BeatDivisor: 4
GridSize: 32
TimelineZoom: 2.25

[Metadata]
Title:Doppelganger (extended ver.)
TitleUnicode:Doppelganger (extended ver.)
Artist:LeaF
ArtistUnicode:LeaF
Creator:Midnaait
Version:Inner Oni
Source:osu!
Tags:tasuke912 BMS Featured Artist FA Electronic Instrumental EINSAMKEIT
BeatmapID:1745096
BeatmapSetID:833092

[Difficulty]
HPDrainRate:5
CircleSize:5
OverallDifficulty:7
ApproachRate:9.4
SliderMultiplier:1.4
SliderTickRate:1

[Events]
//Background and Video events
0,0,"rip other bg.jpg",0,105
//Break Periods
//Storyboard Layer 0 (Background)
//Storyboard Layer 1 (Fail)
//Storyboard Layer 2 (Pass)
//Storyboard Layer 3 (Foreground)
//Storyboard Layer 4 (Overlay)
//Storyboard Sound Samples

[TimingPoints]
474,214.285714285714,4,1,0,90,1,0
17614,-100,4,1,0,90,0,0
17668,-100.785319207263,4,1,0,90,0,0
17721,-101.583070571791,4,1,0,90,0,0
17775,-102.393656508192,4,1,0,90,0,0
17829,-103.217176163851,4,1,0,90,0,0
17936,-104.904604997446,4,1,0,90,0,0
18043,-106.648237851166,4,1,0,90,0,0
18096,-107.541914461161,4,1,0,90,0,0
18150,-108.450695060505,4,1,0,90,0,0
18204,-109.374965820323,4,1,0,90,0,0
18257,-110.315126189473,4,1,0,90,0,0
18364,-112.244909412746,4,1,0,90,0,0
18471,-114.243281067032,4,1,0,90,0,0
18686,-118.46151659172,4,1,0,90,0,0
18793,-120.68971759813,4,1,0,90,0,0
18900,-123.003196853086,4,1,0,90,0,0
19114,-127.907006490002,4,1,0,90,0,0
19329,-133.218055309472,4,1,0,90,0,0
29186,-114.942528735632,4,1,0,90,0,0
29614,-100,4,1,0,90,0,0
31329,-86.9565217391304,4,1,0,90,0,0
35614,-86.9565217391304,4,1,0,90,0,0
35721,-87.6693882167082,4,1,0,90,0,0
35829,-88.3939612781413,4,1,0,90,0,0
35882,-88.760836588637,4,1,0,90,0,0
35936,-89.1306905489381,4,1,0,90,0,0
36043,-89.8798037384606,4,1,0,90,0,0
36150,-90.641533582235,4,1,0,90,0,0
36204,-91.0273437037752,4,1,0,90,0,0
36257,-91.4163686493049,4,1,0,90,0,0
36311,-91.8087330303033,4,1,0,90,0,0
36364,-92.2045650480155,4,1,0,90,0,0
36471,-93.0063848883226,4,1,0,90,0,0
36579,-93.8223604955322,4,1,0,90,0,0
36632,-94.2356966703701,4,1,0,90,0,0
36686,-94.6526908813491,4,1,0,90,0,0
36793,-95.4979405869113,4,1,0,90,0,0
36900,-96.3584224969936,4,1,0,90,0,0
36954,-96.7944579365164,4,1,0,90,0,0
37007,-97.2344575581316,4,1,0,90,0,0
37061,-97.6785710797194,4,1,0,90,0,0
37114,-98.1266638602441,4,1,0,90,0,0
37168,-98.5788867683475,4,1,0,90,0,0
37221,-99.0353952502624,4,1,0,90,0,0
37329,-99.9610152040704,4,1,0,90,0,0
65614,-100,4,1,0,90,0,0
65668,-99.5024875621891,4,1,0,90,0,0
65721,-99.009900990099,4,1,0,90,0,0
65829,-98.0392156862745,4,1,0,90,0,0
65936,-97.0873786407767,4,1,0,90,0,0
66043,-96.1538461538461,4,1,0,90,0,0
66096,-95.6937799043062,4,1,0,90,0,0
66150,-95.2380952380952,4,1,0,90,0,0
66204,-94.7867298578199,4,1,0,90,0,0
66257,-94.3396226415094,4,1,0,90,0,0
66364,-93.4579439252336,4,1,0,90,0,0
66418,-93.0232558139535,4,1,0,90,0,0
66471,-92.5925925925926,4,1,0,90,0,0
66579,-91.743119266055,4,1,0,90,0,0
66632,-91.324200913242,4,1,0,90,0,0
66686,-90.9090909090909,4,1,0,90,0,0
66793,-90.0900900900901,4,1,0,90,0,0
66900,-89.2857142857143,4,1,0,90,0,0
66954,-88.8888888888889,4,1,0,90,0,0
67007,-88.495575221239,4,1,0,90,0,0
67114,-87.719298245614,4,1,0,90,0,0
67221,-86.9565217391304,4,1,0,90,0,0
67436,-86.9565217391304,4,1,0,90,0,0
67543,-91.5032799350693,4,1,0,90,0,0
67757,-102.189825776566,4,1,0,90,0,0
67971,-115.702441090102,4,1,0,90,0,0
68186,-133.333333333333,4,1,0,90,0,0
75043,-161.290322580645,4,1,0,90,0,0
76757,-100,4,1,0,90,0,0
95668,-50,4,1,0,25,0,0
96043,-52.6315789473684,4,1,0,25,0,0
97114,-57.1428571428571,4,1,0,25,0,0
98079,-66.6666666666667,4,1,0,25,0,0
98882,-80,4,1,0,25,0,0
99686,-133.333333333333,4,1,0,25,0,0
100061,-133.333333333333,4,1,0,90,0,0
102471,-111.111111111111,4,1,0,90,0,0
103971,-113.636363636364,4,1,0,90,0,0
104079,-115.606936416185,4,1,0,90,0,0
104186,-117.647058823529,4,1,0,90,0,0
105686,-113.636363636364,4,1,0,90,0,0
105793,-109.89010989011,4,1,0,90,0,0
105900,-106.382978723404,4,1,0,90,0,0
107400,-103.092783505155,4,1,0,90,0,0
107614,-100,4,1,0,90,0,0
109114,-105.263157894737,4,1,0,90,0,0
109329,-111.111111111111,4,1,0,90,0,0
109543,-112.676056338028,4,1,0,90,0,0
109614,-113.207589889657,4,1,0,90,0,0
109686,-113.744032703684,4,1,0,90,0,0
109757,-114.285714285714,4,1,0,90,0,0
109829,-114.832579840222,4,1,0,90,0,0
109900,-115.384571005934,4,1,0,90,0,0
109971,-115.942028985507,4,1,0,90,0,0
110186,-117.647058823529,4,1,0,90,0,0
110507,-120.300751879699,4,1,0,90,0,0
110614,-121.212121212121,4,1,0,90,0,0
110829,-123.076923076923,4,1,0,90,0,0
110882,-123.552123552124,4,1,0,90,0,0
110936,-124.031007751938,4,1,0,90,0,0
110989,-124.513618677043,4,1,0,90,0,0
111043,-125,4,1,0,90,0,0
112543,-127.388535031847,4,1,0,90,0,0
112757,-129.87012987013,4,1,0,90,0,0
114257,-131.578947368421,4,1,0,90,0,0
114471,-133.333333333333,4,1,0,90,0,0
114686,-136.742973804149,4,1,0,90,0,0
114900,-140.331772376252,4,1,0,90,0,0
115114,-144.113815326792,4,1,0,90,0,0
115221,-146.082434317685,4,1,0,90,0,0
115329,-148.105362154637,4,1,0,90,0,0
115543,-152.324316749277,4,1,0,90,0,0
115650,-154.525352201909,4,1,0,90,0,0
115757,-156.790928704029,4,1,0,90,0,0
115971,-161.527142213342,4,1,0,90,0,0
116079,-164.004329714304,4,1,0,90,0,0
116186,-166.558403704259,4,1,0,90,0,0
117043,-181.818181818182,4,1,0,90,0,0
117900,-133.333333333333,4,1,0,90,0,0
120471,-133.333333333333,4,1,0,90,0,0
120579,-128.026547584907,4,1,0,90,0,0
120686,-123.126021945982,4,1,0,90,0,0
120900,-114.370413746409,4,1,0,90,0,0
121007,-110.443541261707,4,1,0,90,0,0
121114,-106.777373447457,4,1,0,90,0,0
121329,-100,4,1,0,90,0,0
121543,-99.5024875621891,4,1,0,90,0,0
121757,-99.009900990099,4,1,0,90,0,0
121864,-98.7654320987654,4,1,0,90,0,0
121971,-98.5221674876847,4,1,0,90,0,0
122079,-98.2800982800983,4,1,0,90,0,0
122186,-98.0392156862745,4,1,0,90,0,0
122293,-97.799511002445,4,1,0,90,0,0
122400,-97.5609756097561,4,1,0,90,0,0
122507,-97.323600973236,4,1,0,90,0,0
122614,-97.0873786407767,4,1,0,90,0,0
122721,-96.8523002421308,4,1,0,90,0,0
122829,-96.6183574879227,4,1,0,90,0,0
123043,-96.1538461538461,4,1,0,90,0,0
123150,-95.9232613908873,4,1,0,90,0,0
123257,-95.6937799043062,4,1,0,90,0,0
123364,-95.4653937947494,4,1,0,90,0,0
123471,-95.2380952380952,4,1,0,90,0,0
123579,-95.0118764845606,4,1,0,90,0,0
123686,-94.7867298578199,4,1,0,90,0,0
123793,-94.5626477541371,4,1,0,90,0,0
123900,-94.3396226415094,4,1,0,90,0,0
124007,-94.1176470588235,4,1,0,90,0,0
124221,-93.6768149882904,4,1,0,90,0,0
124436,-93.2400932400932,4,1,0,90,0,0
124543,-93.0232558139535,4,1,0,90,0,0
126471,-71.4285714285714,4,1,0,90,0,0
126686,-83.3333333333333,4,1,0,90,0,0
126793,-86.9565217391304,4,1,0,90,0,0
126900,-90.9090909090909,4,1,0,90,0,0
127114,-100,4,1,0,90,0,0
127329,-110.633420586224,4,1,0,90,0,0
127543,-109.89010989011,4,1,0,90,0,0
127757,-108.695652173913,4,1,0,90,0,0
127864,-107.52688172043,4,1,0,90,0,0
127971,-106.382978723404,4,1,0,90,0,0
128186,-105.263157894737,4,1,0,90,0,0
128293,-106.382978723404,4,1,0,90,0,0
128400,-107.52688172043,4,1,0,90,0,0
128507,-108.695652173913,4,1,0,90,0,0
128614,-109.89010989011,4,1,0,90,0,0
128829,-111.111111111111,4,1,0,90,0,0
129043,-105.263157894737,4,1,0,90,0,0
129257,-107.38255033557,4,1,0,90,0,0
129329,-108.108108108108,4,1,0,90,0,0
129400,-108.843537414966,4,1,0,90,0,0
129471,-109.58904109589,4,1,0,90,0,0
129686,-111.888111888112,4,1,0,90,0,0
129793,-113.074204946996,4,1,0,90,0,0
129900,-114.285714285714,4,1,0,90,0,0
130114,-116.788321167883,4,1,0,90,0,0
130221,-118.081180811808,4,1,0,90,0,0
130329,-119.402985074627,4,1,0,90,0,0
130543,-122.137404580153,4,1,0,90,0,0
130650,-123.552123552124,4,1,0,90,0,0
130757,-125,4,1,0,90,0,0
130971,-129.032258064516,4,1,0,90,0,0
131186,-111.111111111111,4,1,0,90,0,0
131400,-113.636363636364,4,1,0,90,0,0
131507,-114.942528735632,4,1,0,90,0,0
131614,-116.279069767442,4,1,0,90,0,0
131721,-117.647058823529,4,1,0,90,0,0
131829,-119.047619047619,4,1,0,90,0,0
131936,-120.481927710843,4,1,0,90,0,0
132043,-121.951219512195,4,1,0,90,0,0
132257,-125,4,1,0,90,0,0
132364,-122.699386503067,4,1,0,90,0,0
132471,-120.481927710843,4,1,0,90,0,0
132686,-125,4,1,0,90,0,0
132793,-122.699386503067,4,1,0,90,0,0
132900,-120.481927710843,4,1,0,90,0,0
133007,-118.343195266272,4,1,0,90,0,0
133221,-125,4,1,0,90,0,0
133328,-122.699386503067,4,1,0,90,0,0
133435,-120.481927710843,4,1,0,90,0,0
133543,-118.343195266272,4,1,0,90,0,0
133650,-116.279069767442,4,1,0,90,0,0
133757,-114.285714285714,4,1,0,90,0,0
134186,-100,4,1,0,90,0,0
134400,-101.449304767914,4,1,0,90,0,0
134614,-102.941131055383,4,1,0,90,0,0
134829,-104.477596346627,4,1,0,90,0,0
135043,-106.060622130397,4,1,0,90,0,0
135257,-107.692357396473,4,1,0,90,0,0
135329,-108.247366882801,4,1,0,90,0,0
135400,-108.808245053577,4,1,0,90,0,0
135471,-109.374965820323,4,1,0,90,0,0
135579,-110.236203112409,4,1,0,90,0,0
135686,-111.111111111111,4,1,0,90,0,0
135900,-112.903262226859,4,1,0,90,0,0
136114,-114.754041924242,4,1,0,90,0,0
136221,-115.702441090102,4,1,0,90,0,0
136329,-116.666647222225,4,1,0,90,0,0
136543,-118.644087905778,4,1,0,90,0,0
136757,-120.68971759813,4,1,0,90,0,0
136864,-121.739066918748,4,1,0,90,0,0
136971,-122.806974453693,4,1,0,90,0,0
137079,-123.893783381631,4,1,0,90,0,0
137186,-125,4,1,0,90,0,0
137614,-111.111111111111,4,1,0,90,0,0
137721,-109.89010989011,4,1,0,90,0,0
137829,-108.695652173913,4,1,0,90,0,0
137936,-107.52688172043,4,1,0,90,0,0
138043,-106.382978723404,4,1,0,90,0,0
138257,-105.263157894737,4,1,0,90,0,0
138471,-111.111111111111,4,1,0,90,0,0
138686,-108.695652173913,4,1,0,90,0,0
138793,-107.52688172043,4,1,0,90,0,0
138900,-106.382978723404,4,1,0,90,0,0
139114,-105.820105820106,4,1,0,90,0,0
139329,-105.263157894737,4,1,0,90,0,0
139436,-106.382978723404,4,1,0,90,0,0
139543,-107.52688172043,4,1,0,90,0,0
139614,-108.695652173913,4,1,0,90,0,0
139686,-109.89010989011,4,1,0,90,0,0
139757,-111.111111111111,4,1,0,90,0,0
139971,-117.647058823529,4,1,0,90,0,0
140079,-116.279069767442,4,1,0,90,0,0
140186,-114.942528735632,4,1,0,90,0,0
140400,-113.636363636364,4,1,0,90,0,0
140508,-114.942528735632,4,1,0,90,0,0
140615,-116.279069767442,4,1,0,90,0,0
140829,-113.636363636364,4,1,0,90,0,0
140936,-114.942528735632,4,1,0,90,0,0
141044,-116.279069767442,4,1,0,90,0,0
141257,-120.481927710843,4,1,0,90,0,0
141471,-111.111111111111,4,1,0,90,0,0
141686,-114.942528735632,4,1,0,90,0,0
141793,-116.279069767442,4,1,0,90,0,0
141900,-117.647058823529,4,1,0,90,0,0
142088,-114.942528735632,4,1,0,90,0,0
142195,-116.279069767442,4,1,0,90,0,0
142302,-117.647058823529,4,1,0,90,0,0
142516,-114.942528735632,4,1,0,90,0,0
142623,-116.279069767442,4,1,0,90,0,0
142730,-117.647058823529,4,1,0,90,0,0
142945,-114.942528735632,4,1,0,90,0,0
143052,-116.279069767442,4,1,0,90,0,0
143159,-117.647058823529,4,1,0,90,0,0
143266,-119.047619047619,4,1,0,90,0,0
143373,-120.481927710843,4,1,0,90,0,0
143480,-121.951219512195,4,1,0,90,0,0
143588,-123.456790123457,4,1,0,90,0,0
143802,-114.942528735632,4,1,0,90,0,0
143909,-116.279069767442,4,1,0,90,0,0
144016,-117.647058823529,4,1,0,90,0,0
144364,-120.481927710843,4,1,0,90,0,0
144471,-119.636114793245,4,1,0,90,0,0
144686,-117.979622559592,4,1,0,90,0,0
144793,-117.16846012523,4,1,0,90,0,0
144900,-116.368375730212,4,1,0,90,0,0
145007,-115.579143974628,4,1,0,90,0,0
145114,-114.800545532192,4,1,0,90,0,0
145329,-113.274400438598,4,1,0,90,0,0
145543,-111.788299789391,4,1,0,90,0,0
145614,-111.301560447877,4,1,0,90,0,0
145686,-110.819041370965,4,1,0,90,0,0
145757,-110.340687907985,4,1,0,90,0,0
145971,-108.930088669092,4,1,0,90,0,0
146079,-108.238228010322,4,1,0,90,0,0
146186,-107.555100477975,4,1,0,90,0,0
146400,-106.382978723404,4,1,0,90,0,0
146507,-105.263157894737,4,1,0,90,0,0
146614,-104.166666666667,4,1,0,90,0,0
146721,-103.092783505155,4,1,0,90,0,0
146829,-102.040816326531,4,1,0,90,0,0
146936,-101.010101010101,4,1,0,90,0,0
147043,-100,4,1,0,90,0,0
147257,-106.666666666667,4,1,0,90,0,0
147364,-110.344827586207,4,1,0,90,0,0
147471,-114.285714285714,4,1,0,90,0,0
147686,-123.076923076923,4,1,0,90,0,0
147900,-133.333333333333,4,1,0,90,0,0
152829,-111.111111111111,4,1,0,90,0,0
152936,-105.263157894737,4,1,0,90,0,0
153043,-100,4,1,0,90,0,0
165043,-100,4,1,0,90,0,0
165096,-100.787350784327,4,1,0,90,0,0
165150,-101.587301587302,4,1,0,90,0,0
165204,-102.400052428827,4,1,0,90,0,0
165257,-103.225806451613,4,1,0,90,0,0
165364,-104.918032786885,4,1,0,90,0,0
165471,-106.666666666667,4,1,0,90,0,0
165525,-107.562967361093,4,1,0,90,0,0
165579,-108.474576271186,4,1,0,90,0,0
165632,-109.401769245412,4,1,0,90,0,0
165686,-110.344827586207,4,1,0,90,0,0
165793,-112.280701754386,4,1,0,90,0,0
165900,-114.285714285714,4,1,0,90,0,0
165954,-115.315248827244,4,1,0,90,0,0
166007,-116.363636363636,4,1,0,90,0,0
166061,-117.431261611016,4,1,0,90,0,0
166114,-118.518518518519,4,1,0,90,0,0
166168,-119.626096672241,4,1,0,90,0,0
166221,-120.754716981132,4,1,0,90,0,0
166275,-121.904836208662,4,1,0,90,0,0
166329,-123.076923076923,4,1,0,90,0,0
166436,-125.490196078431,4,1,0,90,0,0
166489,-126.73275357323,4,1,0,90,0,0
166543,-128,4,1,0,90,0,0
166596,-129.292845709676,4,1,0,90,0,0
166650,-130.612244897959,4,1,0,90,0,0
166757,-133.333333333333,4,1,0,90,0,0
166971,-134.306608556674,4,1,0,90,0,0
167186,-135.294197231881,4,1,0,90,0,0
167400,-136.296231681786,4,1,0,90,0,0
167614,-137.313408242375,4,1,0,90,0,0
167829,-138.345881304768,4,1,0,90,0,0
167936,-138.867865836977,4,1,0,90,0,0
168043,-139.393998530787,4,1,0,90,0,0
168257,-140.457920913763,4,1,0,90,0,0
168471,-141.538409278126,4,1,0,90,0,0
168686,-142.635650069107,4,1,0,90,0,0
168900,-143.750035937509,4,1,0,90,0,0
169114,-144.88197190159,4,1,0,90,0,0
169221,-145.454545454545,4,1,0,90,0,0
169329,-146.031662585082,4,1,0,90,0,0
169543,-147.19996231681,4,1,0,90,0,0
169650,-147.791259624906,4,1,0,90,0,0
169757,-148.387106347555,4,1,0,90,0,0
169971,-149.593554312932,4,1,0,90,0,0
170079,-150.20405220492,4,1,0,90,0,0
170186,-150.819780919186,4,1,0,90,0,0
170400,-152.066045324805,4,1,0,90,0,0
170614,-153.333312888892,4,1,0,90,0,0
170829,-154.62187992374,4,1,0,90,0,0
170936,-155.274198707498,4,1,0,90,0,0
171043,-155.932287963275,4,1,0,90,0,0
171257,-157.264849733436,4,1,0,90,0,0
171471,-158.620634958402,4,1,0,90,0,0
171686,-160,4,1,0,90,0,0
171793,-160.698588905691,4,1,0,90,0,0
171900,-161.40356540476,4,1,0,90,0,0
172114,-162.831973686353,4,1,0,90,0,0
172329,-164.285620408217,4,1,0,90,0,0
172436,-165.022492565737,4,1,0,90,0,0
172543,-165.765729924527,4,1,0,90,0,0
172650,-166.515969714075,4,1,0,90,0,0
172757,-167.272751603309,4,1,0,90,0,0
172971,-168.807426176292,4,1,0,90,0,0
173186,-170.370231550182,4,1,0,90,0,0
173614,-173.584892559631,4,1,0,90,0,0
173829,-175.238148644007,4,1,0,90,0,0
174043,-176.923199408369,4,1,0,90,0,0
174257,-178.64065182401,4,1,0,90,0,0
174471,-180.392100269145,4,1,0,90,0,0
174686,-182.178232251741,4,1,0,90,0,0
174757,-182.781607052446,4,1,0,90,0,0
174829,-183.388655577766,4,1,0,90,0,0
174900,-184.000088320042,4,1,0,90,0,0
175114,-185.858751066365,4,1,0,90,0,0
175329,-187.754994752248,4,1,0,90,0,0
175543,-189.690690360298,4,1,0,90,0,0
175757,-191.666714583345,4,1,0,90,0,0
175971,-193.684341008398,4,1,0,90,0,0
176186,-195.744514259988,4,1,0,90,0,0
176614,-200,4,1,0,90,0,0
177043,-111.111111111111,4,1,0,90,0,0
178757,-100,4,1,0,90,0,0
202757,-105.263157894737,4,1,0,90,0,0
202971,-105.711597619375,4,1,0,90,0,0
203186,-106.163761849203,4,1,0,90,0,0
203293,-106.391354212991,4,1,0,90,0,0
203400,-106.619924491769,4,1,0,90,0,0
203614,-107.079909453229,4,1,0,90,0,0
203721,-107.311451097635,4,1,0,90,0,0
203829,-107.543996248865,4,1,0,90,0,0
203936,-107.77755144492,4,1,0,90,0,0
204043,-108.012006614655,4,1,0,90,0,0
204257,-108.48422585114,4,1,0,90,0,0
204364,-108.721887238007,4,1,0,90,0,0
204471,-108.960473498634,4,1,0,90,0,0
204579,-109.200228446878,4,1,0,90,0,0
204686,-109.441040828075,4,1,0,90,0,0
204900,-109.925865995972,4,1,0,90,0,0
205114,-110.414883926353,4,1,0,90,0,0
205329,-110.908395210975,4,1,0,90,0,0
205436,-111.156685352105,4,1,0,90,0,0
205543,-111.406213792981,4,1,0,90,0,0
205650,-111.656865054863,4,1,0,90,0,0
205757,-111.908646733499,4,1,0,90,0,0
205971,-112.415505695532,4,1,0,90,0,0
206186,-112.927104424823,4,1,0,90,0,0
206400,-113.443252281911,4,1,0,90,0,0
206614,-113.964269922094,4,1,0,90,0,0
206829,-114.489964382172,4,1,0,90,0,0
207043,-115.020663462191,4,1,0,90,0,0
207257,-115.556305387582,4,1,0,90,0,0
207471,-116.096824751843,4,1,0,90,0,0
207686,-116.642560537489,4,1,0,90,0,0
207793,-116.917220269705,4,1,0,90,0,0
208007,-117.470714550862,4,1,0,90,0,0
208114,-117.749431564619,4,1,0,90,0,0
208329,-118.310712325137,4,1,0,90,0,0
208543,-118.877510990226,4,1,0,90,0,0
208757,-119.449623912859,4,1,0,90,0,0
208971,-120.027414261417,4,1,0,90,0,0
209186,-120.610821444122,4,1,0,90,0,0
209400,-121.199780870796,4,1,0,90,0,0
209614,-100,4,1,0,90,0,0
209829,-100,4,1,0,90,0,0
209882,-99.6168735045017,4,1,0,90,0,0
209936,-99.2366715226478,4,1,0,90,0,0
209989,-98.8593606962862,4,1,0,90,0,0
210043,-98.4848111799958,4,1,0,90,0,0
210150,-97.7443535530561,4,1,0,90,0,0
210257,-97.0149470928986,4,1,0,90,0,0
210311,-96.6543110239074,4,1,0,90,0,0
210364,-96.2962534979614,4,1,0,90,0,0
210418,-95.940931087548,4,1,0,90,0,0
210471,-95.5882212370263,4,1,0,90,0,0
210579,-94.8905248015365,4,1,0,90,0,0
210632,-94.5454820495948,4,1,0,90,0,0
210686,-94.2029395085244,4,1,0,90,0,0
210793,-93.5251596708288,4,1,0,90,0,0
210900,-92.8571494897964,4,1,0,90,0,0
210954,-92.526710148052,4,1,0,90,0,0
211007,-92.1986142548277,4,1,0,90,0,0
211061,-91.8727525627904,4,1,0,90,0,0
211114,-91.5492699861211,4,1,0,90,0,0
211168,-91.2280573715007,4,1,0,90,0,0
211221,-90.9090909090909,4,1,0,90,0,0
211329,-90.9090909090909,4,1,0,90,0,0
211436,-91.9540229885058,4,1,0,90,0,0
211489,-92.485549132948,4,1,0,90,0,0
211543,-93.0232558139535,4,1,0,90,0,0
211650,-94.1176470588235,4,1,0,90,0,0
211704,-94.6745562130178,4,1,0,90,0,0
211757,-95.2380952380952,4,1,0,90,0,0
211811,-95.8083832335329,4,1,0,90,0,0
211864,-96.3855421686747,4,1,0,90,0,0
211918,-96.969696969697,4,1,0,90,0,0
211971,-97.5609756097561,4,1,0,90,0,0
212025,-98.159509202454,4,1,0,90,0,0
212079,-98.7654320987654,4,1,0,90,0,0
212186,-100,4,1,0,90,0,0
227829,-100,4,1,0,90,0,0
227882,-101.05266561774,4,1,0,90,0,0
227936,-102.127624807617,4,1,0,90,0,0
227989,-103.225806451613,4,1,0,90,0,0
228043,-104.347862381865,4,1,0,90,0,0
228096,-105.49446839755,4,1,0,90,0,0
228150,-106.666666666667,4,1,0,90,0,0
228204,-107.865207322322,4,1,0,90,0,0
228257,-109.090869421502,4,1,0,90,0,0
228311,-110.344827586207,4,1,0,90,0,0
228364,-111.627948512725,4,1,0,90,0,0
228471,-114.285714285714,4,1,0,90,0,0
228900,-133.333333333333,4,1,0,90,0,0
235329,-133.333333333333,4,1,0,90,0,0
241329,-100,4,1,0,90,0,0
243045,-100,4,1,0,90,0,1
253329,-100,4,1,0,90,0,1
253436,-99.4709142073312,4,1,0,90,0,1
253489,-99.2084160483502,4,1,0,90,0,1
253543,-98.9473975844961,4,1,0,90,0,1
253650,-98.4293626600338,4,1,0,90,0,1
253757,-97.9166279080015,4,1,0,90,0,1
253811,-97.6623538971186,4,1,0,90,0,1
253864,-97.4093021987228,4,1,0,90,0,1
253918,-97.1576528654221,4,1,0,90,0,1
253971,-96.9072065044117,4,1,0,90,0,1
254186,-95.9183849646013,4,1,0,90,0,1
254293,-95.4315030843462,4,1,0,90,0,1
254346,-95.1898657061375,4,1,0,90,0,1
254400,-94.9495390674626,4,1,0,90,0,1
254507,-94.4723295270432,4,1,0,90,0,1
254561,-94.2356078667886,4,1,0,90,0,1
254614,-93.9999812000038,4,1,0,90,0,1
254668,-93.7656178357208,4,1,0,90,0,1
254721,-93.5323327244379,4,1,0,90,0,1
254775,-93.3002055403528,4,1,0,90,0,1
254829,-93.0693143025199,4,1,0,90,0,1
254882,-92.8394768309802,4,1,0,90,0,1
254936,-92.610857511713,4,1,0,90,0,1
255043,-92.1568952710611,4,1,0,90,0,1
255150,-91.7072777061442,4,1,0,90,0,1
255204,-91.484193818413,4,1,0,90,0,1
255257,-91.2621093411332,4,1,0,90,0,1
255364,-90.8212419986486,4,1,0,90,0,1
255418,-90.6024428230634,4,1,0,90,0,1
255471,-90.3846136464498,4,1,0,90,0,1
255525,-90.1678293808265,4,1,0,90,0,1
255579,-89.9521634394829,4,1,0,90,0,1
255632,-89.7374461799667,4,1,0,90,0,1
255686,-89.5238316916155,4,1,0,90,0,1
255900,-88.6792118191653,4,1,0,90,0,1
256007,-88.2628892503745,4,1,0,90,0,1
256061,-88.0562291857088,4,1,0,90,0,1
256114,-87.8504574373319,4,1,0,90,0,1
256221,-87.4418620919416,4,1,0,90,0,1
256275,-87.2389483519254,4,1,0,90,0,1
256329,-87.0370499314148,4,1,0,90,0,1
256382,-86.8360084613007,4,1,0,90,0,1
256436,-86.6359686551065,4,1,0,90,0,1
256489,-86.4367736609863,4,1,0,90,0,1
256543,-86.2385669219903,4,1,0,90,0,1
256596,-86.0411930815997,4,1,0,90,0,1
256650,-85.8447206355256,4,1,0,90,0,1
256757,-85.4545283636398,4,1,0,90,0,1
256811,-85.2607957219543,4,1,0,90,0,1
256864,-85.0678671444078,4,1,0,90,0,1
256918,-84.8758817543166,4,1,0,90,0,1
256971,-84.6846892622355,4,1,0,90,0,1
257186,-83.9285969068955,4,1,0,90,0,1
257239,-83.7416436307362,4,1,0,90,0,1
257293,-83.5555213906313,4,1,0,90,0,1
257346,-83.3702941637459,4,1,0,90,0,1
257400,-83.185817150919,4,1,0,90,0,1
257614,-82.4561374576794,4,1,0,90,0,1
257668,-82.2756794736989,4,1,0,90,0,1
257721,-82.0960770389587,4,1,0,90,0,1
257829,-81.7391474933873,4,1,0,90,0,1
257936,-81.3853081614001,4,1,0,90,0,1
257989,-81.2095018365529,4,1,0,90,0,1
258043,-81.03445341856,4,1,0,90,0,1
258096,-80.8602234006252,4,1,0,90,0,1
258150,-80.6866758864642,4,1,0,90,0,1
258204,-80.5139365598488,4,1,0,90,0,1
258257,-80.3418707283232,4,1,0,90,0,1
258311,-80.2275896262518,4,1,0,90,0,1
258364,-80.1136331772987,4,1,0,90,0,1
258418,-80,4,1,0,90,0,1
258525,-80,4,1,0,40,0,1
260188,-74.0740740740741,4,1,0,90,0,0
260668,-74.0740740740741,4,1,0,25,0,0
260971,-62.5,4,1,0,25,0,0
261829,-51.2820512820513,4,1,0,25,0,0
262686,-43.4782608695652,4,1,0,25,0,0
263561,-36.3636363636364,4,1,0,100,0,0

[HitObjects]
192,128,474,5,0,0:0:0:0:
192,128,581,1,0,0:0:0:0:
192,128,795,1,0,0:0:0:0:
192,128,1009,1,8,0:0:0:0:
192,128,1223,1,0,0:0:0:0:
192,128,1438,1,0,0:0:0:0:
192,128,1545,1,0,0:0:0:0:
192,128,1652,1,0,0:0:0:0:
192,128,1759,1,0,0:0:0:0:
192,128,1973,1,12,0:0:0:0:
192,128,2188,1,12,0:0:0:0:
192,128,2402,1,0,0:0:0:0:
192,128,2509,1,0,0:0:0:0:
192,128,2723,1,0,0:0:0:0:
192,128,2938,1,0,0:0:0:0:
192,128,3152,1,0,0:0:0:0:
192,128,3259,1,0,0:0:0:0:
192,128,3366,1,0,0:0:0:0:
192,128,3473,1,0,0:0:0:0:
192,128,3688,1,8,0:0:0:0:
213,147,3741,1,8,0:0:0:0:
213,147,3795,1,8,0:0:0:0:
213,147,3848,1,8,0:0:0:0:
228,156,3902,1,0,0:0:0:0:
228,156,4116,1,8,0:0:0:0:
228,156,4331,1,0,0:0:0:0:
228,156,4438,1,0,0:0:0:0:
228,156,4545,1,8,0:0:0:0:
228,156,4652,1,0,0:0:0:0:
228,156,4866,1,0,0:0:0:0:
228,156,4973,1,8,0:0:0:0:
228,156,5081,1,8,0:0:0:0:
228,156,5188,1,0,0:0:0:0:
228,156,5402,1,8,0:0:0:0:
228,156,5616,1,0,0:0:0:0:
228,156,5723,1,0,0:0:0:0:
228,156,5831,1,8,0:0:0:0:
228,156,5938,1,8,0:0:0:0:
228,156,6045,1,0,0:0:0:0:
226,146,6152,1,8,0:0:0:0:
228,156,6366,1,0,0:0:0:0:
224,160,6581,1,0,0:0:0:0:
228,156,6688,1,8,0:0:0:0:
228,156,6902,1,0,0:0:0:0:
228,156,7116,1,0,0:0:0:0:
221,157,7170,1,0,0:0:0:0:
228,156,7223,1,0,0:0:0:0:
228,152,7277,1,0,0:0:0:0:
228,156,7331,1,0,0:0:0:0:
228,148,7545,1,8,0:0:0:0:
228,148,7759,1,0,0:0:0:0:
228,148,7866,1,8,0:0:0:0:
220,154,7973,1,8,0:0:0:0:
228,148,8081,1,0,0:0:0:0:
228,144,8295,1,8,0:0:0:0:
228,148,8402,1,0,0:0:0:0:
212,151,8509,1,8,0:0:0:0:
228,148,8616,1,8,0:0:0:0:
224,144,8831,1,8,0:0:0:0:
228,148,8938,1,8,0:0:0:0:
224,128,9045,1,0,0:0:0:0:
230,140,9152,1,0,0:0:0:0:
224,160,9259,1,0,0:0:0:0:
224,160,9366,1,8,0:0:0:0:
224,160,9581,1,8,0:0:0:0:
224,128,9688,1,0,0:0:0:0:
224,128,9902,1,8,0:0:0:0:
232,151,9956,1,8,0:0:0:0:
224,128,10009,1,8,0:0:0:0:
256,160,10116,1,0,0:0:0:0:
256,160,10223,1,0,0:0:0:0:
256,160,10331,1,8,0:0:0:0:
232,150,10384,1,8,0:0:0:0:
256,128,10438,1,0,0:0:0:0:
232,150,10491,1,0,0:0:0:0:
256,128,10545,1,8,0:0:0:0:
256,128,10652,1,8,0:0:0:0:
256,160,10759,1,4,0:0:0:0:
256,160,10973,1,8,0:0:0:0:
256,160,11188,1,0,0:0:0:0:
256,160,11295,1,0,0:0:0:0:
256,160,11402,1,8,0:0:0:0:
256,160,11616,1,0,0:0:0:0:
235,152,11670,1,0,0:0:0:0:
256,160,11723,1,0,0:0:0:0:
256,160,11831,1,8,0:0:0:0:
256,160,11938,1,8,0:0:0:0:
256,160,12045,1,0,0:0:0:0:
239,151,12152,1,0,0:0:0:0:
256,160,12259,1,8,0:0:0:0:
224,128,12473,1,0,0:0:0:0:
224,128,12688,1,8,0:0:0:0:
224,128,12902,1,0,0:0:0:0:
256,128,13009,1,0,0:0:0:0:
224,128,13116,1,8,0:0:0:0:
256,160,13331,1,0,0:0:0:0:
256,160,13438,1,0,0:0:0:0:
256,128,13545,1,8,0:0:0:0:
251,148,13598,1,8,0:0:0:0:
256,128,13652,1,8,0:0:0:0:
256,128,13759,1,0,0:0:0:0:
251,147,13866,1,8,0:0:0:0:
256,128,13973,1,0,0:0:0:0:
256,160,14188,1,0,0:0:0:0:
256,160,14402,1,0,0:0:0:0:
256,160,14456,1,0,0:0:0:0:
256,160,14509,1,0,0:0:0:0:
254,167,14563,1,0,0:0:0:0:
256,160,14616,1,8,0:0:0:0:
256,160,14831,1,0,0:0:0:0:
256,160,14938,1,8,0:0:0:0:
245,149,14991,1,0,0:0:0:0:
256,160,15045,1,8,0:0:0:0:
244,147,15098,1,8,0:0:0:0:
244,147,15152,1,0,0:0:0:0:
256,160,15259,1,0,0:0:0:0:
249,153,15313,1,8,0:0:0:0:
256,160,15366,1,0,0:0:0:0:
249,153,15420,1,0,0:0:0:0:
256,160,15473,1,8,0:0:0:0:
256,146,15527,1,8,0:0:0:0:
249,153,15581,1,0,0:0:0:0:
256,160,15688,1,12,0:0:0:0:
256,160,15902,1,12,0:0:0:0:
256,160,16223,1,4,0:0:0:0:
256,160,16545,1,12,0:0:0:0:
256,160,16866,1,12,0:0:0:0:
256,160,17188,1,4,0:0:0:0:
256,160,17616,1,0,0:0:0:0:
247,159,17670,1,8,0:0:0:0:
256,160,17723,1,0,0:0:0:0:
256,160,17777,1,0,0:0:0:0:
256,160,17831,1,8,0:0:0:0:
256,160,17938,1,0,0:0:0:0:
256,160,18045,1,8,0:0:0:0:
250,155,18098,1,0,0:0:0:0:
256,160,18152,1,8,0:0:0:0:
250,155,18206,1,8,0:0:0:0:
256,160,18259,1,0,0:0:0:0:
256,160,18366,1,8,0:0:0:0:
256,160,18473,1,0,0:0:0:0:
256,160,18688,1,0,0:0:0:0:
256,160,18795,1,0,0:0:0:0:
256,160,18902,1,8,0:0:0:0:
256,160,19116,1,8,0:0:0:0:
256,160,19331,1,4,0:0:0:0:
256,160,19545,1,8,0:0:0:0:
256,160,19759,1,8,0:0:0:0:
256,160,19973,1,8,0:0:0:0:
256,160,20188,1,0,0:0:0:0:
256,160,20402,1,8,0:0:0:0:
256,160,20509,1,0,0:0:0:0:
256,160,20616,1,8,0:0:0:0:
256,160,20831,1,0,0:0:0:0:
256,154,20884,1,0,0:0:0:0:
256,154,20938,1,0,0:0:0:0:
256,154,20991,1,0,0:0:0:0:
256,160,21045,1,8,0:0:0:0:
256,160,21259,1,0,0:0:0:0:
256,160,21473,1,8,0:0:0:0:
256,160,21688,1,0,0:0:0:0:
256,160,21795,1,0,0:0:0:0:
256,160,21902,1,8,0:0:0:0:
256,160,22116,1,8,0:0:0:0:
256,160,22223,1,8,0:0:0:0:
256,160,22331,1,0,0:0:0:0:
256,160,22545,1,0,0:0:0:0:
256,160,22652,1,0,0:0:0:0:
256,160,22759,1,8,0:0:0:0:
256,160,22973,1,0,0:0:0:0:
256,160,23188,1,8,0:0:0:0:
256,160,23402,1,8,0:0:0:0:
256,160,23509,1,8,0:0:0:0:
256,160,23616,1,0,0:0:0:0:
256,160,23831,1,8,0:0:0:0:
256,160,24045,1,0,0:0:0:0:
256,160,24259,1,0,0:0:0:0:
256,160,24366,1,0,0:0:0:0:
256,160,24473,1,8,0:0:0:0:
256,160,24688,1,0,0:0:0:0:
256,160,24902,1,8,0:0:0:0:
256,160,25009,1,0,0:0:0:0:
256,160,25116,1,8,0:0:0:0:
256,160,25223,1,8,0:0:0:0:
256,160,25331,1,0,0:0:0:0:
256,160,25545,1,8,0:0:0:0:
256,160,25759,1,8,0:0:0:0:
256,160,25973,1,0,0:0:0:0:
256,160,26188,1,8,0:0:0:0:
256,160,26402,1,0,0:0:0:0:
256,160,26616,1,8,0:0:0:0:
256,160,26831,1,8,0:0:0:0:
256,160,27045,1,0,0:0:0:0:
256,160,27259,1,8,0:0:0:0:
256,160,27331,1,8,0:0:0:0:
256,160,27402,1,8,0:0:0:0:
256,160,27473,1,0,0:0:0:0:
256,160,27688,1,0,0:0:0:0:
256,160,27902,1,8,0:0:0:0:
256,160,28116,1,0,0:0:0:0:
256,160,28331,1,8,0:0:0:0:
256,160,28545,1,0,0:0:0:0:
256,160,28759,1,12,0:0:0:0:
256,160,29188,1,4,0:0:0:0:
256,160,29616,1,12,0:0:0:0:
256,160,29831,1,0,0:0:0:0:
256,160,30045,1,8,0:0:0:0:
256,160,30152,1,0,0:0:0:0:
256,160,30259,1,8,0:0:0:0:
256,160,30366,1,0,0:0:0:0:
256,160,30473,1,8,0:0:0:0:
256,160,30581,1,8,0:0:0:0:
256,160,30688,1,0,0:0:0:0:
256,160,30795,1,8,0:0:0:0:
256,160,31009,1,0,0:0:0:0:
256,160,31116,1,8,0:0:0:0:
256,160,31331,1,4,0:0:0:0:
256,160,31652,1,4,0:0:0:0:
256,160,31973,1,12,0:0:0:0:
256,160,32295,1,12,0:0:0:0:
256,160,32616,1,4,0:0:0:0:
256,160,33259,1,12,0:0:0:0:
256,160,33473,1,12,0:0:0:0:
256,160,33688,1,12,0:0:0:0:
256,160,33902,1,4,0:0:0:0:
256,160,34223,1,12,0:0:0:0:
256,160,34545,1,12,0:0:0:0:
256,160,34866,1,12,0:0:0:0:
256,160,35188,1,4,0:0:0:0:
257,149,35616,1,0,0:0:0:0:
243,146,35723,1,0,0:0:0:0:
242,146,35831,1,8,0:0:0:0:
238,151,35884,1,8,0:0:0:0:
242,147,35938,1,0,0:0:0:0:
240,151,36045,1,0,0:0:0:0:
240,151,36152,1,8,0:0:0:0:
240,154,36206,1,0,0:0:0:0:
239,158,36259,1,8,0:0:0:0:
239,160,36313,1,8,0:0:0:0:
239,159,36366,1,0,0:0:0:0:
239,159,36473,1,0,0:0:0:0:
239,160,36581,1,8,0:0:0:0:
233,154,36634,1,8,0:0:0:0:
239,160,36688,1,0,0:0:0:0:
239,160,36795,1,0,0:0:0:0:
239,160,36902,1,8,0:0:0:0:
243,153,36956,1,0,0:0:0:0:
237,160,37009,1,8,0:0:0:0:
240,151,37063,1,8,0:0:0:0:
237,160,37116,1,0,0:0:0:0:
240,151,37170,1,0,0:0:0:0:
237,160,37223,1,8,0:0:0:0:
256,160,37331,1,4,0:0:0:0:
256,160,37545,1,0,0:0:0:0:
256,160,37759,1,8,0:0:0:0:
256,160,37866,1,0,0:0:0:0:
256,160,37973,1,8,0:0:0:0:
256,160,38081,1,8,0:0:0:0:
256,160,38188,1,0,0:0:0:0:
256,160,38295,1,0,0:0:0:0:
250,159,38348,1,0,0:0:0:0:
256,160,38402,1,8,0:0:0:0:
256,160,38509,1,8,0:0:0:0:
256,160,38723,1,8,0:0:0:0:
256,160,38831,1,0,0:0:0:0:
256,160,38884,1,0,0:0:0:0:
256,160,38938,1,0,0:0:0:0:
256,160,39045,1,8,0:0:0:0:
256,160,39098,1,0,0:0:0:0:
256,160,39152,1,0,0:0:0:0:
244,154,39206,1,0,0:0:0:0:
256,160,39259,1,8,0:0:0:0:
256,160,39366,1,8,0:0:0:0:
256,160,39473,1,0,0:0:0:0:
256,160,39581,1,0,0:0:0:0:
243,147,39634,1,0,0:0:0:0:
256,160,39688,1,8,0:0:0:0:
243,147,39795,1,8,0:0:0:0:
256,160,39902,1,0,0:0:0:0:
248,154,39956,1,0,0:0:0:0:
249,156,40009,1,0,0:0:0:0:
256,160,40116,1,8,0:0:0:0:
256,160,40331,1,12,0:0:0:0:
256,160,40545,1,0,0:0:0:0:
256,160,40759,1,12,0:0:0:0:
256,160,40973,1,0,0:0:0:0:
256,160,41188,1,0,0:0:0:0:
256,160,41295,1,0,0:0:0:0:
256,160,41348,1,0,0:0:0:0:
256,160,41402,1,8,0:0:0:0:
256,160,41509,1,8,0:0:0:0:
256,160,41616,1,0,0:0:0:0:
256,160,41723,1,8,0:0:0:0:
256,160,41831,1,8,0:0:0:0:
251,156,41884,1,8,0:0:0:0:
256,160,41938,1,0,0:0:0:0:
256,160,42045,1,0,0:0:0:0:
251,155,42152,1,0,0:0:0:0:
256,160,42259,1,8,0:0:0:0:
256,160,42473,1,0,0:0:0:0:
256,160,42527,1,0,0:0:0:0:
256,160,42581,1,0,0:0:0:0:
256,160,42634,1,0,0:0:0:0:
256,160,42688,1,8,0:0:0:0:
256,160,42795,1,0,0:0:0:0:
256,160,42902,1,8,0:0:0:0:
256,160,43009,1,8,0:0:0:0:
256,160,43116,1,8,0:0:0:0:
256,160,43223,1,0,0:0:0:0:
256,160,43438,1,4,0:0:0:0:
256,160,43545,1,12,0:0:0:0:
256,160,43759,1,12,0:0:0:0:
256,160,43973,1,12,0:0:0:0:
256,160,44188,1,0,0:0:0:0:
256,160,44241,1,0,0:0:0:0:
256,160,44295,1,0,0:0:0:0:
256,160,44402,1,12,0:0:0:0:
256,160,44616,1,0,0:0:0:0:
256,160,44723,1,0,0:0:0:0:
250,166,44777,1,0,0:0:0:0:
256,160,44831,1,8,0:0:0:0:
256,160,44938,1,8,0:0:0:0:
245,143,44991,1,8,0:0:0:0:
245,143,45045,1,0,0:0:0:0:
256,160,45152,1,8,0:0:0:0:
256,160,45259,1,8,0:0:0:0:
256,160,45366,1,0,0:0:0:0:
256,160,45473,1,8,0:0:0:0:
256,160,45581,1,8,0:0:0:0:
256,160,45688,1,0,0:0:0:0:
256,160,45902,1,8,0:0:0:0:
256,160,46009,1,0,0:0:0:0:
257,159,46063,1,0,0:0:0:0:
256,160,46116,1,8,0:0:0:0:
250,147,46170,1,8,0:0:0:0:
256,160,46223,1,0,0:0:0:0:
256,160,46331,1,8,0:0:0:0:
256,160,46438,1,8,0:0:0:0:
261,156,46491,1,8,0:0:0:0:
256,160,46545,1,0,0:0:0:0:
256,160,46759,1,0,0:0:0:0:
256,160,46813,1,0,0:0:0:0:
256,160,46866,1,0,0:0:0:0:
256,160,46920,1,0,0:0:0:0:
256,160,46973,1,8,0:0:0:0:
256,160,47027,1,8,0:0:0:0:
256,160,47081,1,8,0:0:0:0:
256,160,47188,1,4,0:0:0:0:
256,160,47402,1,4,0:0:0:0:
256,160,47616,1,4,0:0:0:0:
256,160,47831,1,8,0:0:0:0:
256,160,48045,1,0,0:0:0:0:
256,160,48152,1,0,0:0:0:0:
256,160,48259,1,8,0:0:0:0:
256,160,48366,1,8,0:0:0:0:
256,160,48473,1,0,0:0:0:0:
256,128,48795,1,8,0:0:0:0:
256,128,48902,1,8,0:0:0:0:
256,128,49009,1,8,0:0:0:0:
256,128,49116,1,8,0:0:0:0:
256,128,49331,1,8,0:0:0:0:
256,128,49438,1,8,0:0:0:0:
256,160,49652,1,0,0:0:0:0:
257,144,49706,1,0,0:0:0:0:
256,128,49759,1,8,0:0:0:0:
256,128,49920,1,8,0:0:0:0:
256,128,50081,1,8,0:0:0:0:
256,128,50188,1,4,0:0:0:0:
256,128,50616,1,12,0:0:0:0:
256,160,51045,1,4,0:0:0:0:
256,160,51259,1,0,0:0:0:0:
256,160,51473,1,8,0:0:0:0:
256,160,51581,1,0,0:0:0:0:
256,160,51688,1,8,0:0:0:0:
250,159,51741,1,8,0:0:0:0:
256,160,51795,1,8,0:0:0:0:
256,160,51902,1,0,0:0:0:0:
256,160,52009,1,0,0:0:0:0:
256,160,52116,1,8,0:0:0:0:
256,160,52223,1,0,0:0:0:0:
256,160,52438,1,8,0:0:0:0:
256,160,52545,1,8,0:0:0:0:
256,160,52759,1,8,0:0:0:0:
256,160,52813,1,0,0:0:0:0:
256,160,52866,1,0,0:0:0:0:
244,154,52920,1,0,0:0:0:0:
256,160,52973,1,8,0:0:0:0:
256,160,53081,1,8,0:0:0:0:
256,160,53188,1,0,0:0:0:0:
256,160,53295,1,0,0:0:0:0:
243,147,53348,1,0,0:0:0:0:
256,160,53402,1,8,0:0:0:0:
243,147,53509,1,8,0:0:0:0:
248,154,53563,1,8,0:0:0:0:
256,160,53616,1,0,0:0:0:0:
249,156,53723,1,0,0:0:0:0:
256,160,53831,1,8,0:0:0:0:
253,149,53884,1,8,0:0:0:0:
253,149,53938,1,8,0:0:0:0:
256,160,54045,1,12,0:0:0:0:
256,160,54259,1,0,0:0:0:0:
256,160,54473,1,12,0:0:0:0:
256,160,54688,1,0,0:0:0:0:
265,151,54741,1,0,0:0:0:0:
264,152,54795,1,0,0:0:0:0:
264,152,54848,1,0,0:0:0:0:
256,160,54902,1,8,0:0:0:0:
246,149,54956,1,0,0:0:0:0:
256,160,55009,1,8,0:0:0:0:
256,160,55063,1,8,0:0:0:0:
256,160,55116,1,0,0:0:0:0:
256,160,55223,1,8,0:0:0:0:
256,160,55331,1,0,0:0:0:0:
239,166,55384,1,8,0:0:0:0:
256,160,55438,1,8,0:0:0:0:
247,156,55491,1,8,0:0:0:0:
256,160,55545,1,0,0:0:0:0:
251,156,55598,1,0,0:0:0:0:
256,160,55652,1,8,0:0:0:0:
256,160,55759,1,8,0:0:0:0:
251,155,55866,1,0,0:0:0:0:
256,160,55973,1,8,0:0:0:0:
239,148,56081,1,8,0:0:0:0:
256,160,56188,1,0,0:0:0:0:
256,160,56295,1,12,0:0:0:0:
256,160,56509,1,8,0:0:0:0:
256,160,56616,1,4,0:0:0:0:
256,160,56831,1,8,0:0:0:0:
256,160,56938,1,4,0:0:0:0:
256,160,57152,1,0,0:0:0:0:
256,160,57259,1,12,0:0:0:0:
256,160,57473,1,12,0:0:0:0:
256,160,57902,1,0,0:0:0:0:
256,160,57973,1,0,0:0:0:0:
240,158,58045,1,0,0:0:0:0:
256,160,58116,1,8,0:0:0:0:
256,160,58331,1,0,0:0:0:0:
256,160,58438,1,0,0:0:0:0:
250,166,58491,1,0,0:0:0:0:
256,160,58545,1,8,0:0:0:0:
256,160,58652,1,8,0:0:0:0:
245,143,58706,1,8,0:0:0:0:
245,143,58759,1,0,0:0:0:0:
256,160,58866,1,8,0:0:0:0:
256,160,58973,1,8,0:0:0:0:
256,160,59081,1,0,0:0:0:0:
256,160,59188,1,8,0:0:0:0:
256,160,59295,1,8,0:0:0:0:
256,160,59402,1,0,0:0:0:0:
256,160,59616,1,8,0:0:0:0:
256,160,59723,1,0,0:0:0:0:
257,159,59777,1,0,0:0:0:0:
256,160,59831,1,8,0:0:0:0:
250,147,59884,1,8,0:0:0:0:
256,160,59938,1,0,0:0:0:0:
256,160,60045,1,0,0:0:0:0:
261,156,60098,1,8,0:0:0:0:
256,160,60152,1,8,0:0:0:0:
256,160,60259,1,0,0:0:0:0:
256,160,60313,1,8,0:0:0:0:
256,160,60366,1,8,0:0:0:0:
256,160,60473,1,0,0:0:0:0:
256,160,60581,1,12,0:0:0:0:
256,160,60795,1,8,0:0:0:0:
256,160,60902,1,4,0:0:0:0:
256,160,61116,1,4,0:0:0:0:
256,160,61331,1,12,0:0:0:0:
256,160,61545,1,8,0:0:0:0:
232,155,61598,1,8,0:0:0:0:
239,152,61652,1,8,0:0:0:0:
256,160,61759,1,0,0:0:0:0:
256,160,61866,1,0,0:0:0:0:
255,125,61920,1,0,0:0:0:0:
256,160,61973,1,8,0:0:0:0:
256,160,62081,1,8,0:0:0:0:
256,160,62188,1,0,0:0:0:0:
270,141,62295,1,0,0:0:0:0:
270,141,62402,1,0,0:0:0:0:
256,128,62509,1,8,0:0:0:0:
256,128,62616,1,8,0:0:0:0:
256,128,62723,1,0,0:0:0:0:
256,128,62831,1,8,0:0:0:0:
256,128,63045,1,8,0:0:0:0:
256,128,63152,1,8,0:0:0:0:
256,160,63366,1,0,0:0:0:0:
257,144,63420,1,0,0:0:0:0:
256,128,63473,1,8,0:0:0:0:
256,128,63634,1,8,0:0:0:0:
256,128,63795,1,8,0:0:0:0:
256,128,63902,1,4,0:0:0:0:
256,128,64331,1,12,0:0:0:0:
256,128,64759,1,0,0:0:0:0:
256,160,64866,1,8,0:0:0:0:
256,160,64973,1,8,0:0:0:0:
256,160,65188,1,8,0:0:0:0:
256,160,65402,1,0,0:0:0:0:
256,160,65509,1,8,0:0:0:0:
256,160,65616,1,0,0:0:0:0:
246,141,65670,1,0,0:0:0:0:
256,160,65723,1,0,0:0:0:0:
256,128,65831,1,8,0:0:0:0:
256,128,65938,1,0,0:0:0:0:
256,128,66045,1,8,0:0:0:0:
265,136,66098,1,8,0:0:0:0:
256,128,66152,1,8,0:0:0:0:
255,133,66206,1,8,0:0:0:0:
256,128,66259,1,0,0:0:0:0:
256,128,66366,1,0,0:0:0:0:
265,136,66420,1,0,0:0:0:0:
256,128,66473,1,8,0:0:0:0:
256,128,66581,1,8,0:0:0:0:
263,135,66634,1,8,0:0:0:0:
256,128,66688,1,0,0:0:0:0:
256,128,66795,1,0,0:0:0:0:
256,128,66902,1,8,0:0:0:0:
261,135,66956,1,8,0:0:0:0:
256,128,67009,1,0,0:0:0:0:
256,128,67116,1,8,0:0:0:0:
261,138,67170,1,0,0:0:0:0:
256,128,67223,1,8,0:0:0:0:
256,160,67438,1,4,0:0:0:0:
256,160,67545,1,12,0:0:0:0:
256,128,67759,1,12,0:0:0:0:
256,128,67973,1,12,0:0:0:0:
256,160,68188,1,4,0:0:0:0:
256,160,68402,1,8,0:0:0:0:
256,160,68616,1,8,0:0:0:0:
256,160,68831,1,8,0:0:0:0:
256,160,69045,1,0,0:0:0:0:
256,160,69259,1,0,0:0:0:0:
256,160,69366,1,0,0:0:0:0:
256,160,69473,1,0,0:0:0:0:
256,160,69688,1,0,0:0:0:0:
256,160,69902,1,8,0:0:0:0:
256,160,70116,1,8,0:0:0:0:
256,160,70331,1,0,0:0:0:0:
256,160,70545,1,0,0:0:0:0:
256,160,70652,1,0,0:0:0:0:
256,160,70759,1,8,0:0:0:0:
256,160,70973,1,8,0:0:0:0:
256,160,71081,1,8,0:0:0:0:
256,160,71188,1,0,0:0:0:0:
256,160,71402,1,0,0:0:0:0:
256,160,71509,1,0,0:0:0:0:
256,160,71616,1,8,0:0:0:0:
256,160,71831,1,0,0:0:0:0:
256,160,72045,1,8,0:0:0:0:
256,160,72259,1,0,0:0:0:0:
256,160,72366,1,0,0:0:0:0:
256,160,72473,1,8,0:0:0:0:
256,160,72688,1,0,0:0:0:0:
256,160,72902,1,0,0:0:0:0:
256,160,73116,1,0,0:0:0:0:
256,160,73223,1,8,0:0:0:0:
256,160,73331,1,8,0:0:0:0:
256,160,73545,1,0,0:0:0:0:
256,160,73759,1,8,0:0:0:0:
256,160,73866,1,0,0:0:0:0:
256,160,73973,1,8,0:0:0:0:
256,160,74081,1,8,0:0:0:0:
256,160,74188,1,4,0:0:0:0:
256,160,74402,1,12,0:0:0:0:
256,160,74616,1,4,0:0:0:0:
256,160,75045,1,8,0:0:0:0:
256,160,75259,1,0,0:0:0:0:
256,160,75473,1,0,0:0:0:0:
256,160,75688,1,8,0:0:0:0:
256,160,75902,1,0,0:0:0:0:
256,160,76116,1,8,0:0:0:0:
256,160,76188,1,8,0:0:0:0:
256,160,76259,1,8,0:0:0:0:
256,160,76331,1,0,0:0:0:0:
256,160,76545,1,8,0:0:0:0:
256,160,76759,1,4,0:0:0:0:
256,160,76973,1,4,0:0:0:0:
256,160,77188,1,12,0:0:0:0:
256,160,77402,1,4,0:0:0:0:
256,160,77616,1,12,0:0:0:0:
256,160,78045,1,4,0:0:0:0:
256,160,78259,1,0,0:0:0:0:
256,160,78331,1,0,0:0:0:0:
256,160,78402,1,8,0:0:0:0:
256,160,78473,1,8,0:0:0:0:
247,160,78616,1,0,0:0:0:0:
256,160,78688,1,8,0:0:0:0:
247,160,78831,1,8,0:0:0:0:
256,160,78902,1,8,0:0:0:0:
247,160,79045,1,8,0:0:0:0:
256,160,79116,1,0,0:0:0:0:
245,161,79259,1,8,0:0:0:0:
256,160,79331,1,0,0:0:0:0:
245,161,79473,1,8,0:0:0:0:
256,160,79545,1,8,0:0:0:0:
245,161,79688,1,0,0:0:0:0:
256,160,79759,1,8,0:0:0:0:
245,161,79902,1,8,0:0:0:0:
256,160,79973,1,8,0:0:0:0:
250,157,80116,1,8,0:0:0:0:
256,160,80188,1,4,0:0:0:0:
256,160,80402,1,4,0:0:0:0:
256,160,80616,1,12,0:0:0:0:
256,160,80831,1,12,0:0:0:0:
256,160,81045,1,4,0:0:0:0:
256,160,81473,1,4,0:0:0:0:
256,160,81688,1,8,0:0:0:0:
256,160,81741,1,8,0:0:0:0:
256,160,81795,1,8,0:0:0:0:
249,163,81848,1,8,0:0:0:0:
256,160,81902,1,0,0:0:0:0:
256,160,82009,1,0,0:0:0:0:
256,160,82116,1,8,0:0:0:0:
256,160,82223,1,8,0:0:0:0:
256,160,82331,1,0,0:0:0:0:
288,160,82438,1,8,0:0:0:0:
256,160,82545,1,0,0:0:0:0:
256,160,82759,1,4,0:0:0:0:
256,160,82973,1,8,0:0:0:0:
256,160,83081,1,0,0:0:0:0:
256,160,83295,1,8,0:0:0:0:
256,160,83402,1,0,0:0:0:0:
261,160,83456,1,0,0:0:0:0:
256,160,83509,1,0,0:0:0:0:
256,160,83616,1,8,0:0:0:0:
261,159,83670,1,8,0:0:0:0:
256,160,83723,1,8,0:0:0:0:
261,159,83777,1,8,0:0:0:0:
256,160,83831,1,8,0:0:0:0:
256,160,83938,1,0,0:0:0:0:
256,160,84152,1,0,0:0:0:0:
256,160,84206,1,0,0:0:0:0:
256,160,84259,1,8,0:0:0:0:
256,160,84313,1,8,0:0:0:0:
256,160,84366,1,8,0:0:0:0:
256,160,84473,1,0,0:0:0:0:
256,160,84688,1,0,0:0:0:0:
256,160,84795,1,0,0:0:0:0:
256,160,84902,1,8,0:0:0:0:
256,160,84956,1,8,0:0:0:0:
256,160,85009,1,0,0:0:0:0:
256,160,85223,1,8,0:0:0:0:
256,160,85277,1,8,0:0:0:0:
256,160,85331,1,0,0:0:0:0:
256,160,85491,1,8,0:0:0:0:
256,160,85598,1,8,0:0:0:0:
256,160,85759,1,0,0:0:0:0:
256,160,85866,1,8,0:0:0:0:
256,160,85973,1,0,0:0:0:0:
256,160,86188,1,4,0:0:0:0:
256,160,86402,1,8,0:0:0:0:
256,160,86509,1,0,0:0:0:0:
256,160,86723,1,8,0:0:0:0:
256,160,86831,1,0,0:0:0:0:
250,158,86884,1,0,0:0:0:0:
256,160,86938,1,0,0:0:0:0:
256,160,87045,1,8,0:0:0:0:
250,158,87098,1,8,0:0:0:0:
256,160,87152,1,8,0:0:0:0:
267,157,87206,1,8,0:0:0:0:
256,160,87259,1,8,0:0:0:0:
256,160,87366,1,0,0:0:0:0:
256,160,87581,1,0,0:0:0:0:
250,158,87634,1,0,0:0:0:0:
256,160,87688,1,8,0:0:0:0:
250,158,87741,1,8,0:0:0:0:
256,160,87795,1,0,0:0:0:0:
256,160,87902,1,0,0:0:0:0:
256,160,88116,1,0,0:0:0:0:
256,160,88223,1,0,0:0:0:0:
256,160,88331,1,8,0:0:0:0:
256,160,88384,1,8,0:0:0:0:
256,160,88438,1,0,0:0:0:0:
256,160,88652,1,8,0:0:0:0:
256,160,88759,1,0,0:0:0:0:
262,158,88866,1,8,0:0:0:0:
262,158,88920,1,8,0:0:0:0:
256,160,88973,1,8,0:0:0:0:
256,160,89081,1,8,0:0:0:0:
256,160,89188,1,0,0:0:0:0:
249,161,89295,1,8,0:0:0:0:
246,171,89348,1,8,0:0:0:0:
250,158,89402,1,0,0:0:0:0:
250,157,89509,1,8,0:0:0:0:
256,160,89616,1,4,0:0:0:0:
256,160,89831,1,8,0:0:0:0:
256,160,89938,1,0,0:0:0:0:
256,160,90152,1,8,0:0:0:0:
256,160,90259,1,0,0:0:0:0:
261,160,90313,1,0,0:0:0:0:
256,160,90366,1,0,0:0:0:0:
256,160,90473,1,8,0:0:0:0:
261,159,90527,1,8,0:0:0:0:
256,160,90581,1,8,0:0:0:0:
261,159,90634,1,8,0:0:0:0:
256,160,90688,1,8,0:0:0:0:
256,160,90795,1,0,0:0:0:0:
256,160,91009,1,0,0:0:0:0:
256,160,91063,1,0,0:0:0:0:
256,160,91116,1,8,0:0:0:0:
256,160,91170,1,8,0:0:0:0:
256,160,91223,1,8,0:0:0:0:
256,160,91331,1,0,0:0:0:0:
256,160,91545,1,0,0:0:0:0:
256,160,91652,1,0,0:0:0:0:
256,160,91759,1,8,0:0:0:0:
256,160,91813,1,8,0:0:0:0:
256,160,91866,1,0,0:0:0:0:
256,160,92081,1,8,0:0:0:0:
256,160,92134,1,8,0:0:0:0:
256,160,92188,1,0,0:0:0:0:
256,160,92348,1,8,0:0:0:0:
256,160,92456,1,8,0:0:0:0:
256,160,92616,1,0,0:0:0:0:
256,160,92723,1,8,0:0:0:0:
256,160,92831,1,0,0:0:0:0:
256,160,93045,1,4,0:0:0:0:
256,160,93259,1,8,0:0:0:0:
256,160,93366,1,0,0:0:0:0:
256,160,93581,1,8,0:0:0:0:
256,160,93688,1,0,0:0:0:0:
250,158,93741,1,0,0:0:0:0:
256,160,93795,1,0,0:0:0:0:
256,160,93902,1,8,0:0:0:0:
250,158,93956,1,8,0:0:0:0:
256,160,94009,1,8,0:0:0:0:
264,155,94063,1,8,0:0:0:0:
256,160,94116,1,8,0:0:0:0:
256,160,94223,1,0,0:0:0:0:
256,160,94438,1,0,0:0:0:0:
250,158,94491,1,0,0:0:0:0:
256,160,94545,1,8,0:0:0:0:
250,158,94598,1,8,0:0:0:0:
256,160,94652,1,0,0:0:0:0:
256,160,94759,1,0,0:0:0:0:
256,160,94973,1,0,0:0:0:0:
256,160,95081,1,0,0:0:0:0:
256,160,95188,1,8,0:0:0:0:
251,151,95241,1,8,0:0:0:0:
256,160,95295,1,0,0:0:0:0:
256,160,95509,1,8,0:0:0:0:
256,160,95616,1,4,0:0:0:0:
256,192,95723,8,0,99902,0:0:0:0:
209,165,100116,5,8,0:0:0:0:
209,165,100223,1,8,0:0:0:0:
209,165,100331,1,8,0:0:0:0:
209,165,100545,1,8,0:0:0:0:
256,160,100759,1,4,0:0:0:0:
256,160,100973,1,8,0:0:0:0:
256,160,101188,1,8,0:0:0:0:
256,160,101402,1,8,0:0:0:0:
256,160,101616,1,0,0:0:0:0:
256,160,101831,1,8,0:0:0:0:
256,160,101938,1,0,0:0:0:0:
256,160,102045,1,8,0:0:0:0:
256,160,102259,1,0,0:0:0:0:
256,160,102473,1,8,0:0:0:0:
261,157,102581,1,0,0:0:0:0:
256,160,102688,1,0,0:0:0:0:
263,155,102795,1,0,0:0:0:0:
256,160,102902,1,8,0:0:0:0:
256,160,103116,1,0,0:0:0:0:
256,160,103223,1,0,0:0:0:0:
256,160,103331,1,8,0:0:0:0:
261,157,103438,1,0,0:0:0:0:
260,155,103491,1,8,0:0:0:0:
256,160,103545,1,8,0:0:0:0:
256,160,103652,1,8,0:0:0:0:
256,160,103759,1,0,0:0:0:0:
256,160,103973,1,0,0:0:0:0:
256,160,104081,1,0,0:0:0:0:
256,160,104188,1,8,0:0:0:0:
256,160,104509,1,0,0:0:0:0:
256,160,104616,1,8,0:0:0:0:
256,160,104831,1,8,0:0:0:0:
256,160,104938,1,8,0:0:0:0:
256,160,105045,1,0,0:0:0:0:
256,160,105152,1,0,0:0:0:0:
256,160,105259,1,0,0:0:0:0:
256,160,105473,1,8,0:0:0:0:
256,160,105688,1,0,0:0:0:0:
256,160,105795,1,8,0:0:0:0:
256,160,105902,1,0,0:0:0:0:
256,160,106116,1,0,0:0:0:0:
256,160,106223,1,8,0:0:0:0:
256,160,106545,1,0,0:0:0:0:
256,160,106759,1,8,0:0:0:0:
256,160,106866,1,8,0:0:0:0:
256,160,107081,1,8,0:0:0:0:
256,160,107188,1,0,0:0:0:0:
256,160,107402,1,8,0:0:0:0:
256,160,107616,1,0,0:0:0:0:
256,160,107831,1,8,0:0:0:0:
256,160,107938,1,0,0:0:0:0:
256,160,108152,1,0,0:0:0:0:
256,160,108259,1,8,0:0:0:0:
256,160,108473,1,0,0:0:0:0:
256,160,108688,1,8,0:0:0:0:
256,160,108759,1,8,0:0:0:0:
256,160,108831,1,8,0:0:0:0:
256,160,108902,1,0,0:0:0:0:
253,165,109116,1,8,0:0:0:0:
250,162,109331,1,0,0:0:0:0:
256,160,109545,1,0,0:0:0:0:
260,155,109616,1,0,0:0:0:0:
266,152,109688,1,0,0:0:0:0:
267,152,109759,1,8,0:0:0:0:
267,153,109831,1,0,0:0:0:0:
267,153,109902,1,0,0:0:0:0:
267,153,109973,1,8,0:0:0:0:
266,156,110188,1,8,0:0:0:0:
285,152,110509,1,8,0:0:0:0:
266,152,110616,1,0,0:0:0:0:
261,162,110831,1,0,0:0:0:0:
262,137,110884,1,0,0:0:0:0:
261,162,110938,1,0,0:0:0:0:
262,153,110991,1,0,0:0:0:0:
261,162,111045,1,8,0:0:0:0:
261,165,111259,1,0,0:0:0:0:
261,165,111473,1,8,0:0:0:0:
261,162,111688,1,8,0:0:0:0:
261,162,111902,1,0,0:0:0:0:
261,165,112116,1,8,0:0:0:0:
261,165,112223,1,0,0:0:0:0:
261,165,112331,1,8,0:0:0:0:
261,162,112545,1,8,0:0:0:0:
261,162,112759,1,0,0:0:0:0:
261,165,113188,1,0,0:0:0:0:
261,162,113402,1,8,0:0:0:0:
261,162,113509,1,8,0:0:0:0:
261,162,113616,1,0,0:0:0:0:
245,158,113831,1,8,0:0:0:0:
261,165,113938,1,0,0:0:0:0:
261,165,114045,1,0,0:0:0:0:
249,162,114259,1,0,0:0:0:0:
249,162,114473,1,8,0:0:0:0:
242,167,114688,1,0,0:0:0:0:
236,169,114902,1,8,0:0:0:0:
236,169,115116,1,8,0:0:0:0:
236,169,115223,1,8,0:0:0:0:
236,169,115331,1,0,0:0:0:0:
236,169,115545,1,8,0:0:0:0:
236,169,115652,1,8,0:0:0:0:
236,169,115759,1,0,0:0:0:0:
236,169,115973,1,8,0:0:0:0:
236,169,116081,1,0,0:0:0:0:
236,169,116188,1,8,0:0:0:0:
236,169,117045,1,8,0:0:0:0:
236,169,117902,1,4,0:0:0:0:
236,169,118116,1,0,0:0:0:0:
236,169,118331,1,8,0:0:0:0:
236,169,118545,1,8,0:0:0:0:
236,169,118759,1,0,0:0:0:0:
236,169,118973,1,8,0:0:0:0:
236,169,119045,1,8,0:0:0:0:
236,169,119116,1,8,0:0:0:0:
240,165,119188,1,0,0:0:0:0:
236,169,119402,1,8,0:0:0:0:
236,169,119616,1,0,0:0:0:0:
236,169,119831,1,0,0:0:0:0:
236,169,120045,1,8,0:0:0:0:
236,169,120259,1,8,0:0:0:0:
236,169,120473,1,0,0:0:0:0:
236,169,120581,1,8,0:0:0:0:
236,169,120688,1,0,0:0:0:0:
236,169,120902,1,0,0:0:0:0:
236,169,121009,1,8,0:0:0:0:
236,169,121116,1,0,0:0:0:0:
233,161,121331,1,12,0:0:0:0:
234,162,121545,1,4,0:0:0:0:
240,166,121759,1,8,0:0:0:0:
236,160,121866,1,0,0:0:0:0:
236,160,121973,1,8,0:0:0:0:
237,163,122081,1,0,0:0:0:0:
239,163,122188,1,8,0:0:0:0:
239,162,122295,1,0,0:0:0:0:
240,166,122402,1,8,0:0:0:0:
240,166,122509,1,0,0:0:0:0:
240,166,122616,1,8,0:0:0:0:
236,160,122723,1,8,0:0:0:0:
240,166,122831,1,8,0:0:0:0:
240,166,123045,1,0,0:0:0:0:
239,163,123152,1,8,0:0:0:0:
239,162,123259,1,8,0:0:0:0:
240,166,123366,1,0,0:0:0:0:
240,166,123473,1,8,0:0:0:0:
240,166,123581,1,8,0:0:0:0:
240,166,123688,1,8,0:0:0:0:
240,166,123795,1,0,0:0:0:0:
240,166,123902,1,8,0:0:0:0:
240,166,124009,1,0,0:0:0:0:
239,162,124223,1,12,0:0:0:0:
240,166,124438,1,0,0:0:0:0:
240,166,124545,1,12,0:0:0:0:
224,142,126473,1,4,0:0:0:0:
233,147,126688,1,8,0:0:0:0:
235,147,126795,1,8,0:0:0:0:
235,147,126902,1,8,0:0:0:0:
237,147,127116,1,0,0:0:0:0:
236,147,127331,1,12,0:0:0:0:
233,147,127545,1,0,0:0:0:0:
235,147,127759,1,8,0:0:0:0:
235,147,127866,1,8,0:0:0:0:
233,151,127973,1,0,0:0:0:0:
211,152,128188,1,8,0:0:0:0:
211,152,128295,1,0,0:0:0:0:
211,152,128402,1,8,0:0:0:0:
211,152,128509,1,0,0:0:0:0:
211,152,128616,1,8,0:0:0:0:
211,152,128831,1,0,0:0:0:0:
211,152,129045,1,8,0:0:0:0:
211,152,129259,1,0,0:0:0:0:
233,156,129331,1,0,0:0:0:0:
220,151,129402,1,0,0:0:0:0:
211,152,129473,1,8,0:0:0:0:
211,152,129688,1,8,0:0:0:0:
211,152,129795,1,8,0:0:0:0:
211,152,129902,1,0,0:0:0:0:
211,152,130116,1,8,0:0:0:0:
211,152,130223,1,8,0:0:0:0:
211,152,130331,1,8,0:0:0:0:
211,152,130545,1,0,0:0:0:0:
211,152,130652,1,8,0:0:0:0:
211,152,130759,1,0,0:0:0:0:
211,152,130973,1,0,0:0:0:0:
211,152,131188,1,8,0:0:0:0:
211,152,131402,1,8,0:0:0:0:
211,152,131509,1,8,0:0:0:0:
211,152,131616,1,0,0:0:0:0:
200,151,131723,1,8,0:0:0:0:
211,152,131831,1,0,0:0:0:0:
202,146,131938,1,0,0:0:0:0:
211,152,132045,1,8,0:0:0:0:
211,152,132259,1,0,0:0:0:0:
211,152,132366,1,0,0:0:0:0:
211,152,132473,1,8,0:0:0:0:
211,152,132688,1,0,0:0:0:0:
204,129,132795,1,0,0:0:0:0:
211,152,132902,1,8,0:0:0:0:
211,152,133009,1,8,0:0:0:0:
211,152,133223,1,0,0:0:0:0:
211,152,133331,1,8,0:0:0:0:
211,152,133438,1,8,0:0:0:0:
211,152,133545,1,0,0:0:0:0:
172,140,133652,1,0,0:0:0:0:
211,152,133759,1,8,0:0:0:0:
211,152,134188,1,12,0:0:0:0:
211,152,134402,1,0,0:0:0:0:
211,152,134616,1,8,0:0:0:0:
211,152,134831,1,8,0:0:0:0:
211,152,135045,1,0,0:0:0:0:
211,152,135259,1,8,0:0:0:0:
211,152,135331,1,8,0:0:0:0:
211,152,135402,1,8,0:0:0:0:
211,152,135473,1,0,0:0:0:0:
194,145,135581,1,0,0:0:0:0:
211,152,135688,1,8,0:0:0:0:
211,152,135902,1,0,0:0:0:0:
211,152,136116,1,0,0:0:0:0:
218,148,136223,1,8,0:0:0:0:
211,152,136331,1,8,0:0:0:0:
211,152,136545,1,0,0:0:0:0:
211,152,136759,1,8,0:0:0:0:
208,147,136866,1,0,0:0:0:0:
211,152,136973,1,8,0:0:0:0:
211,152,137081,1,8,0:0:0:0:
211,152,137188,1,0,0:0:0:0:
211,152,137616,1,8,0:0:0:0:
196,152,137723,1,0,0:0:0:0:
211,152,137831,1,0,0:0:0:0:
204,142,137938,1,8,0:0:0:0:
211,152,138045,1,0,0:0:0:0:
211,152,138259,1,8,0:0:0:0:
211,152,138473,1,0,0:0:0:0:
211,152,138688,1,8,0:0:0:0:
211,152,138795,1,0,0:0:0:0:
211,152,138902,1,8,0:0:0:0:
211,152,139116,1,0,0:0:0:0:
211,152,139331,1,0,0:0:0:0:
199,146,139438,1,8,0:0:0:0:
211,152,139545,1,0,0:0:0:0:
224,147,139616,1,0,0:0:0:0:
224,147,139688,1,0,0:0:0:0:
211,152,139759,1,8,0:0:0:0:
211,152,139973,1,0,0:0:0:0:
211,152,140081,1,0,0:0:0:0:
211,152,140188,1,8,0:0:0:0:
211,152,140402,1,8,0:0:0:0:
211,152,140509,1,8,0:0:0:0:
211,152,140616,1,0,0:0:0:0:
211,152,140831,1,0,0:0:0:0:
211,152,140938,1,8,0:0:0:0:
211,152,141045,1,0,0:0:0:0:
211,152,141259,1,8,0:0:0:0:
211,152,141473,1,8,0:0:0:0:
211,152,141688,1,8,0:0:0:0:
211,152,141795,1,0,0:0:0:0:
211,152,141902,1,0,0:0:0:0:
211,152,142116,1,8,0:0:0:0:
227,151,142223,1,8,0:0:0:0:
211,152,142331,1,0,0:0:0:0:
211,152,142545,1,0,0:0:0:0:
211,152,142652,1,8,0:0:0:0:
211,152,142759,1,0,0:0:0:0:
211,152,142973,1,8,0:0:0:0:
211,152,143081,1,0,0:0:0:0:
211,152,143188,1,8,0:0:0:0:
211,152,143295,1,8,0:0:0:0:
211,152,143402,1,0,0:0:0:0:
211,152,143509,1,0,0:0:0:0:
211,152,143616,1,8,0:0:0:0:
211,152,143831,1,0,0:0:0:0:
209,160,143938,1,8,0:0:0:0:
211,152,144045,1,0,0:0:0:0:
211,152,144366,1,0,0:0:0:0:
211,152,144473,1,8,0:0:0:0:
211,152,144688,1,8,0:0:0:0:
211,152,144795,1,8,0:0:0:0:
211,152,144902,1,0,0:0:0:0:
211,152,145009,1,0,0:0:0:0:
211,152,145116,1,8,0:0:0:0:
211,152,145331,1,0,0:0:0:0:
211,152,145545,1,8,0:0:0:0:
211,152,145616,1,8,0:0:0:0:
200,148,145688,1,8,0:0:0:0:
211,152,145759,1,0,0:0:0:0:
211,152,145973,1,0,0:0:0:0:
201,149,146081,1,8,0:0:0:0:
211,152,146188,1,0,0:0:0:0:
211,152,146402,1,0,0:0:0:0:
211,152,146509,1,0,0:0:0:0:
211,152,146616,1,8,0:0:0:0:
211,152,146723,1,0,0:0:0:0:
211,152,146831,1,8,0:0:0:0:
211,152,146938,1,8,0:0:0:0:
211,152,147045,1,4,0:0:0:0:
211,152,147259,1,8,0:0:0:0:
211,152,147366,1,8,0:0:0:0:
211,152,147473,1,8,0:0:0:0:
211,152,147688,1,8,0:0:0:0:
211,152,147902,1,4,0:0:0:0:
211,152,148116,1,8,0:0:0:0:
211,152,148331,1,8,0:0:0:0:
211,152,148545,1,8,0:0:0:0:
211,152,148759,1,0,0:0:0:0:
211,152,148973,1,8,0:0:0:0:
211,152,149081,1,0,0:0:0:0:
211,152,149188,1,8,0:0:0:0:
211,152,149402,1,0,0:0:0:0:
211,152,149616,1,8,0:0:0:0:
211,152,149831,1,0,0:0:0:0:
211,152,150045,1,8,0:0:0:0:
211,152,150259,1,0,0:0:0:0:
211,152,150366,1,0,0:0:0:0:
211,152,150473,1,8,0:0:0:0:
211,152,150688,1,8,0:0:0:0:
211,152,150795,1,8,0:0:0:0:
211,152,150902,1,0,0:0:0:0:
211,152,151116,1,0,0:0:0:0:
211,152,151223,1,8,0:0:0:0:
211,152,151331,1,8,0:0:0:0:
211,152,151545,1,0,0:0:0:0:
211,152,151759,1,8,0:0:0:0:
211,152,151973,1,8,0:0:0:0:
211,152,152081,1,8,0:0:0:0:
211,152,152188,1,0,0:0:0:0:
211,152,152402,1,8,0:0:0:0:
211,152,152616,1,0,0:0:0:0:
211,152,152831,1,0,0:0:0:0:
211,152,152938,1,0,0:0:0:0:
256,160,153045,1,8,0:0:0:0:
256,160,153259,1,0,0:0:0:0:
256,160,153366,1,8,0:0:0:0:
256,160,153545,1,8,0:0:0:0:
256,160,153616,1,8,0:0:0:0:
256,160,153688,1,0,0:0:0:0:
256,160,153759,1,0,0:0:0:0:
256,160,153831,1,8,0:0:0:0:
256,160,153902,1,0,0:0:0:0:
256,160,154045,1,0,0:0:0:0:
256,160,154116,1,8,0:0:0:0:
256,160,154223,1,0,0:0:0:0:
256,160,154331,1,8,0:0:0:0:
256,160,154545,1,8,0:0:0:0:
256,160,154598,1,8,0:0:0:0:
256,160,154652,1,8,0:0:0:0:
271,174,154706,1,8,0:0:0:0:
256,160,154759,1,0,0:0:0:0:
256,160,154866,1,0,0:0:0:0:
256,192,154973,1,8,0:0:0:0:
256,192,155081,1,0,0:0:0:0:
256,192,155188,1,8,0:0:0:0:
256,192,155295,1,0,0:0:0:0:
256,192,155402,1,8,0:0:0:0:
250,185,155509,1,8,0:0:0:0:
256,192,155616,1,0,0:0:0:0:
256,192,155831,1,0,0:0:0:0:
256,192,155938,1,0,0:0:0:0:
256,192,156045,1,8,0:0:0:0:
256,192,156259,1,0,0:0:0:0:
256,192,156473,1,8,0:0:0:0:
249,157,156527,1,8,0:0:0:0:
256,192,156581,1,8,0:0:0:0:
256,192,156688,1,0,0:0:0:0:
256,192,156795,1,0,0:0:0:0:
256,192,156902,1,8,0:0:0:0:
256,192,157009,1,0,0:0:0:0:
249,157,157063,1,8,0:0:0:0:
256,192,157116,1,8,0:0:0:0:
256,192,157223,1,0,0:0:0:0:
243,163,157277,1,0,0:0:0:0:
256,192,157331,1,8,0:0:0:0:
256,192,157491,1,8,0:0:0:0:
256,192,157652,1,0,0:0:0:0:
256,192,157759,1,0,0:0:0:0:
256,192,157866,1,0,0:0:0:0:
256,192,157973,1,8,0:0:0:0:
250,170,158027,1,8,0:0:0:0:
256,192,158081,1,8,0:0:0:0:
252,171,158134,1,8,0:0:0:0:
256,192,158188,1,0,0:0:0:0:
256,192,158402,1,8,0:0:0:0:
256,192,158509,1,0,0:0:0:0:
256,192,158616,1,8,0:0:0:0:
256,192,158831,1,0,0:0:0:0:
256,192,158938,1,8,0:0:0:0:
256,192,159045,1,0,0:0:0:0:
246,174,159152,1,0,0:0:0:0:
246,174,159206,1,0,0:0:0:0:
256,192,159259,1,8,0:0:0:0:
256,192,159473,1,8,0:0:0:0:
256,192,159527,1,8,0:0:0:0:
256,192,159581,1,8,0:0:0:0:
256,192,159634,1,8,0:0:0:0:
256,192,159688,1,0,0:0:0:0:
256,192,159741,1,0,0:0:0:0:
256,192,159795,1,0,0:0:0:0:
256,192,159902,1,8,0:0:0:0:
256,192,160009,1,8,0:0:0:0:
256,192,160116,1,0,0:0:0:0:
236,188,160223,1,8,0:0:0:0:
256,192,160331,1,0,0:0:0:0:
256,192,160438,1,0,0:0:0:0:
256,192,160545,1,8,0:0:0:0:
256,192,160652,1,0,0:0:0:0:
256,192,160759,1,12,0:0:0:0:
256,192,160973,1,12,0:0:0:0:
256,192,161188,1,4,0:0:0:0:
202,164,161295,1,0,0:0:0:0:
218,173,161348,1,0,0:0:0:0:
219,172,161402,1,8,0:0:0:0:
218,172,161456,1,8,0:0:0:0:
216,157,161509,1,8,0:0:0:0:
235,164,161616,1,4,0:0:0:0:
235,164,161831,1,8,0:0:0:0:
218,159,161938,1,0,0:0:0:0:
235,164,162045,1,8,0:0:0:0:
217,159,162152,1,0,0:0:0:0:
235,164,162259,1,8,0:0:0:0:
256,192,162473,1,8,0:0:0:0:
256,192,162581,1,0,0:0:0:0:
256,192,162688,1,8,0:0:0:0:
256,192,162795,1,0,0:0:0:0:
288,192,162902,1,8,0:0:0:0:
256,192,163009,1,0,0:0:0:0:
256,192,163116,1,8,0:0:0:0:
288,192,163223,1,0,0:0:0:0:
256,192,163331,1,8,0:0:0:0:
256,192,163438,1,8,0:0:0:0:
256,192,163545,1,0,0:0:0:0:
256,192,163759,1,8,0:0:0:0:
256,192,163866,1,8,0:0:0:0:
256,192,163973,1,0,0:0:0:0:
256,192,164188,1,8,0:0:0:0:
256,192,164295,1,0,0:0:0:0:
256,192,164402,1,8,0:0:0:0:
256,192,164509,1,8,0:0:0:0:
256,192,164616,1,4,0:0:0:0:
256,160,165045,1,0,0:0:0:0:
247,159,165098,1,0,0:0:0:0:
256,160,165152,1,0,0:0:0:0:
256,160,165206,1,0,0:0:0:0:
256,160,165259,1,8,0:0:0:0:
256,160,165366,1,0,0:0:0:0:
256,160,165473,1,8,0:0:0:0:
250,155,165527,1,8,0:0:0:0:
256,160,165581,1,8,0:0:0:0:
250,155,165634,1,8,0:0:0:0:
256,160,165688,1,0,0:0:0:0:
256,160,165795,1,8,0:0:0:0:
256,160,165902,1,0,0:0:0:0:
238,151,165956,1,0,0:0:0:0:
249,154,166009,1,8,0:0:0:0:
240,162,166063,1,0,0:0:0:0:
251,152,166116,1,8,0:0:0:0:
251,152,166170,1,8,0:0:0:0:
251,152,166223,1,0,0:0:0:0:
251,152,166277,1,0,0:0:0:0:
254,177,166331,1,8,0:0:0:0:
255,177,166438,1,8,0:0:0:0:
255,177,166491,1,0,0:0:0:0:
255,177,166545,1,8,0:0:0:0:
254,177,166598,1,0,0:0:0:0:
254,177,166652,1,8,0:0:0:0:
254,177,166759,1,4,0:0:0:0:
261,161,166973,1,8,0:0:0:0:
261,161,167188,1,8,0:0:0:0:
261,161,167402,1,8,0:0:0:0:
261,161,167616,1,0,0:0:0:0:
261,161,167831,1,8,0:0:0:0:
261,161,167938,1,0,0:0:0:0:
261,161,168045,1,8,0:0:0:0:
261,161,168259,1,0,0:0:0:0:
261,161,168473,1,8,0:0:0:0:
261,161,168688,1,0,0:0:0:0:
261,161,168902,1,8,0:0:0:0:
261,161,169116,1,0,0:0:0:0:
261,161,169223,1,0,0:0:0:0:
261,161,169331,1,8,0:0:0:0:
261,161,169545,1,8,0:0:0:0:
261,161,169652,1,8,0:0:0:0:
261,161,169759,1,0,0:0:0:0:
261,161,169973,1,0,0:0:0:0:
261,161,170081,1,8,0:0:0:0:
261,161,170188,1,8,0:0:0:0:
261,161,170402,1,0,0:0:0:0:
261,161,170616,1,8,0:0:0:0:
261,161,170831,1,8,0:0:0:0:
261,161,170938,1,8,0:0:0:0:
261,161,171045,1,0,0:0:0:0:
261,161,171259,1,8,0:0:0:0:
261,161,171473,1,0,0:0:0:0:
261,161,171688,1,0,0:0:0:0:
261,161,171795,1,8,0:0:0:0:
261,161,171902,1,8,0:0:0:0:
261,161,172116,1,0,0:0:0:0:
261,161,172331,1,8,0:0:0:0:
261,161,172438,1,0,0:0:0:0:
261,161,172545,1,8,0:0:0:0:
261,161,172652,1,8,0:0:0:0:
261,161,172759,1,0,0:0:0:0:
261,161,172973,1,8,0:0:0:0:
261,161,173188,1,0,0:0:0:0:
261,161,173616,1,8,0:0:0:0:
261,161,173831,1,0,0:0:0:0:
261,161,174045,1,8,0:0:0:0:
261,161,174259,1,8,0:0:0:0:
261,161,174473,1,0,0:0:0:0:
261,161,174688,1,8,0:0:0:0:
261,161,174759,1,8,0:0:0:0:
266,159,174831,1,8,0:0:0:0:
261,161,174902,1,0,0:0:0:0:
261,161,175116,1,0,0:0:0:0:
261,161,175331,1,8,0:0:0:0:
268,159,175545,1,0,0:0:0:0:
268,159,175759,1,8,0:0:0:0:
268,159,175973,1,0,0:0:0:0:
268,159,176188,1,8,0:0:0:0:
268,159,176616,1,0,0:0:0:0:
235,156,177045,1,12,0:0:0:0:
235,156,177259,1,0,0:0:0:0:
235,156,177473,1,8,0:0:0:0:
235,156,177581,1,0,0:0:0:0:
235,156,177688,1,8,0:0:0:0:
235,156,177795,1,0,0:0:0:0:
235,156,177902,1,8,0:0:0:0:
235,156,178009,1,8,0:0:0:0:
235,156,178116,1,0,0:0:0:0:
223,154,178223,1,8,0:0:0:0:
235,156,178438,1,0,0:0:0:0:
235,156,178545,1,8,0:0:0:0:
192,128,178759,1,0,0:0:0:0:
192,128,178866,1,0,0:0:0:0:
192,128,179081,1,0,0:0:0:0:
192,128,179295,1,8,0:0:0:0:
192,128,179509,1,0,0:0:0:0:
192,128,179723,1,0,0:0:0:0:
192,128,179831,1,0,0:0:0:0:
192,128,179938,1,0,0:0:0:0:
192,128,180045,1,0,0:0:0:0:
192,128,180259,1,12,0:0:0:0:
192,128,180473,1,12,0:0:0:0:
192,128,180688,1,0,0:0:0:0:
192,128,180795,1,0,0:0:0:0:
192,128,181009,1,0,0:0:0:0:
192,128,181223,1,0,0:0:0:0:
192,128,181438,1,0,0:0:0:0:
192,128,181545,1,0,0:0:0:0:
192,128,181652,1,0,0:0:0:0:
192,128,181759,1,0,0:0:0:0:
192,128,181973,1,8,0:0:0:0:
213,147,182027,1,8,0:0:0:0:
213,147,182081,1,8,0:0:0:0:
228,156,182188,1,4,0:0:0:0:
256,160,182402,1,8,0:0:0:0:
273,152,182509,1,0,0:0:0:0:
256,160,182616,1,8,0:0:0:0:
256,160,182723,1,8,0:0:0:0:
256,160,182831,1,0,0:0:0:0:
220,161,182938,1,8,0:0:0:0:
256,160,183045,1,0,0:0:0:0:
235,152,183098,1,0,0:0:0:0:
256,160,183152,1,0,0:0:0:0:
256,160,183259,1,8,0:0:0:0:
210,147,183313,1,8,0:0:0:0:
256,160,183366,1,8,0:0:0:0:
256,160,183473,1,0,0:0:0:0:
239,151,183581,1,0,0:0:0:0:
256,160,183688,1,8,0:0:0:0:
224,128,183902,1,0,0:0:0:0:
229,136,184009,1,8,0:0:0:0:
224,128,184116,1,8,0:0:0:0:
230,136,184223,1,0,0:0:0:0:
224,128,184331,1,8,0:0:0:0:
256,128,184438,1,8,0:0:0:0:
224,128,184545,1,0,0:0:0:0:
244,141,184652,1,8,0:0:0:0:
256,160,184759,1,0,0:0:0:0:
241,137,184813,1,8,0:0:0:0:
256,160,184866,1,0,0:0:0:0:
256,128,184973,1,8,0:0:0:0:
251,148,185027,1,0,0:0:0:0:
256,128,185081,1,8,0:0:0:0:
256,128,185188,1,0,0:0:0:0:
251,147,185295,1,8,0:0:0:0:
256,128,185402,1,0,0:0:0:0:
256,160,185616,1,0,0:0:0:0:
256,160,185831,1,8,0:0:0:0:
256,155,185938,1,0,0:0:0:0:
256,160,186045,1,0,0:0:0:0:
256,160,186152,1,0,0:0:0:0:
256,160,186259,1,8,0:0:0:0:
251,147,186366,1,8,0:0:0:0:
256,160,186473,1,0,0:0:0:0:
256,160,186581,1,0,0:0:0:0:
235,152,186634,1,0,0:0:0:0:
256,160,186688,1,8,0:0:0:0:
256,160,186795,1,8,0:0:0:0:
252,152,186848,1,8,0:0:0:0:
256,160,186902,1,0,0:0:0:0:
239,151,187009,1,0,0:0:0:0:
256,160,187116,1,8,0:0:0:0:
224,128,187331,1,0,0:0:0:0:
252,152,187438,1,8,0:0:0:0:
224,128,187545,1,8,0:0:0:0:
247,148,187652,1,8,0:0:0:0:
224,128,187759,1,0,0:0:0:0:
256,128,187866,1,0,0:0:0:0:
224,128,187973,1,8,0:0:0:0:
247,148,188081,1,8,0:0:0:0:
256,160,188188,1,0,0:0:0:0:
256,160,188295,1,8,0:0:0:0:
251,148,188348,1,8,0:0:0:0:
256,128,188402,1,0,0:0:0:0:
256,128,188509,1,8,0:0:0:0:
256,128,188616,1,0,0:0:0:0:
247,148,188670,1,0,0:0:0:0:
251,147,188723,1,8,0:0:0:0:
256,128,188831,1,0,0:0:0:0:
256,160,189045,1,4,0:0:0:0:
256,160,189259,1,8,0:0:0:0:
253,159,189366,1,0,0:0:0:0:
256,160,189473,1,0,0:0:0:0:
256,160,189581,1,0,0:0:0:0:
256,160,189688,1,8,0:0:0:0:
256,160,189795,1,8,0:0:0:0:
256,160,189902,1,0,0:0:0:0:
235,152,189956,1,0,0:0:0:0:
256,160,190009,1,0,0:0:0:0:
256,160,190116,1,8,0:0:0:0:
256,160,190223,1,8,0:0:0:0:
256,160,190331,1,0,0:0:0:0:
253,159,190384,1,0,0:0:0:0:
239,151,190438,1,0,0:0:0:0:
254,153,190491,1,0,0:0:0:0:
256,160,190545,1,8,0:0:0:0:
224,128,190759,1,0,0:0:0:0:
249,157,190866,1,0,0:0:0:0:
224,128,190973,1,8,0:0:0:0:
249,157,191081,1,0,0:0:0:0:
224,128,191188,1,8,0:0:0:0:
256,128,191295,1,8,0:0:0:0:
224,128,191402,1,0,0:0:0:0:
249,157,191509,1,0,0:0:0:0:
256,160,191616,1,8,0:0:0:0:
252,145,191670,1,8,0:0:0:0:
256,160,191723,1,8,0:0:0:0:
256,128,191831,1,0,0:0:0:0:
256,128,191938,1,0,0:0:0:0:
256,128,192045,1,8,0:0:0:0:
251,148,192098,1,8,0:0:0:0:
251,147,192152,1,8,0:0:0:0:
238,137,192206,1,8,0:0:0:0:
256,128,192259,1,0,0:0:0:0:
256,160,192473,1,0,0:0:0:0:
256,160,192688,1,8,0:0:0:0:
262,157,192795,1,8,0:0:0:0:
256,160,192902,1,0,0:0:0:0:
256,160,193009,1,0,0:0:0:0:
256,160,193116,1,8,0:0:0:0:
253,157,193223,1,0,0:0:0:0:
256,160,193331,1,8,0:0:0:0:
256,160,193438,1,0,0:0:0:0:
235,152,193491,1,0,0:0:0:0:
256,160,193545,1,8,0:0:0:0:
256,160,193652,1,8,0:0:0:0:
256,160,193759,1,0,0:0:0:0:
243,155,193813,1,8,0:0:0:0:
239,151,193866,1,0,0:0:0:0:
249,157,193920,1,0,0:0:0:0:
256,160,193973,1,8,0:0:0:0:
224,128,194188,1,0,0:0:0:0:
251,149,194295,1,0,0:0:0:0:
224,128,194402,1,8,0:0:0:0:
251,149,194509,1,0,0:0:0:0:
224,128,194616,1,8,0:0:0:0:
256,128,194723,1,8,0:0:0:0:
224,128,194831,1,0,0:0:0:0:
241,139,194938,1,8,0:0:0:0:
256,160,195045,1,0,0:0:0:0:
256,160,195152,1,0,0:0:0:0:
256,128,195259,1,8,0:0:0:0:
251,148,195313,1,8,0:0:0:0:
256,128,195366,1,8,0:0:0:0:
257,140,195420,1,8,0:0:0:0:
256,128,195473,1,0,0:0:0:0:
251,147,195581,1,0,0:0:0:0:
256,128,195688,1,8,0:0:0:0:
250,140,195741,1,8,0:0:0:0:
250,140,195795,1,8,0:0:0:0:
250,140,195848,1,8,0:0:0:0:
228,156,195902,1,0,0:0:0:0:
256,160,196116,1,8,0:0:0:0:
273,152,196223,1,0,0:0:0:0:
256,160,196331,1,8,0:0:0:0:
256,160,196438,1,8,0:0:0:0:
256,160,196545,1,0,0:0:0:0:
220,161,196652,1,0,0:0:0:0:
256,160,196759,1,8,0:0:0:0:
235,152,196813,1,8,0:0:0:0:
256,160,196866,1,8,0:0:0:0:
256,160,196973,1,0,0:0:0:0:
256,160,197081,1,8,0:0:0:0:
256,160,197188,1,0,0:0:0:0:
231,156,197241,1,0,0:0:0:0:
239,151,197295,1,0,0:0:0:0:
240,154,197348,1,0,0:0:0:0:
256,160,197402,1,8,0:0:0:0:
224,128,197616,1,0,0:0:0:0:
229,136,197723,1,8,0:0:0:0:
224,128,197831,1,8,0:0:0:0:
230,136,197938,1,0,0:0:0:0:
224,128,198045,1,8,0:0:0:0:
256,128,198152,1,8,0:0:0:0:
224,128,198259,1,0,0:0:0:0:
244,141,198366,1,0,0:0:0:0:
256,160,198473,1,8,0:0:0:0:
256,160,198581,1,8,0:0:0:0:
241,137,198634,1,8,0:0:0:0:
256,128,198688,1,0,0:0:0:0:
256,128,198795,1,8,0:0:0:0:
256,128,198902,1,0,0:0:0:0:
251,148,198956,1,0,0:0:0:0:
251,147,199009,1,8,0:0:0:0:
263,147,199063,1,8,0:0:0:0:
256,128,199116,1,0,0:0:0:0:
256,160,199331,1,0,0:0:0:0:
256,160,199545,1,8,0:0:0:0:
256,155,199652,1,0,0:0:0:0:
256,160,199759,1,0,0:0:0:0:
256,160,199866,1,0,0:0:0:0:
256,160,199973,1,8,0:0:0:0:
251,147,200081,1,8,0:0:0:0:
256,160,200188,1,0,0:0:0:0:
256,160,200295,1,0,0:0:0:0:
235,152,200348,1,0,0:0:0:0:
256,160,200402,1,8,0:0:0:0:
256,160,200509,1,8,0:0:0:0:
252,152,200563,1,8,0:0:0:0:
256,160,200616,1,0,0:0:0:0:
239,151,200723,1,0,0:0:0:0:
256,160,200831,1,8,0:0:0:0:
224,128,201045,1,0,0:0:0:0:
252,152,201152,1,8,0:0:0:0:
224,128,201259,1,8,0:0:0:0:
247,148,201366,1,8,0:0:0:0:
224,128,201473,1,0,0:0:0:0:
256,128,201581,1,0,0:0:0:0:
224,128,201688,1,8,0:0:0:0:
247,148,201795,1,8,0:0:0:0:
256,160,201902,1,0,0:0:0:0:
253,145,201956,1,0,0:0:0:0:
256,160,202009,1,8,0:0:0:0:
251,148,202063,1,8,0:0:0:0:
256,128,202116,1,0,0:0:0:0:
256,128,202223,1,8,0:0:0:0:
256,128,202331,1,0,0:0:0:0:
251,147,202438,1,8,0:0:0:0:
247,148,202491,1,8,0:0:0:0:
256,128,202545,1,0,0:0:0:0:
256,160,202759,1,4,0:0:0:0:
256,160,202973,1,8,0:0:0:0:
256,160,203188,1,0,0:0:0:0:
256,160,203295,1,0,0:0:0:0:
256,160,203402,1,8,0:0:0:0:
256,160,203616,1,0,0:0:0:0:
256,160,203723,1,0,0:0:0:0:
256,160,203831,1,8,0:0:0:0:
256,160,203938,1,8,0:0:0:0:
256,160,204045,1,0,0:0:0:0:
256,160,204259,1,8,0:0:0:0:
250,129,204366,1,0,0:0:0:0:
224,128,204473,1,0,0:0:0:0:
249,157,204581,1,0,0:0:0:0:
224,128,204688,1,8,0:0:0:0:
224,128,204902,1,8,0:0:0:0:
224,128,205116,1,8,0:0:0:0:
256,160,205331,1,8,0:0:0:0:
256,160,205438,1,0,0:0:0:0:
256,128,205545,1,8,0:0:0:0:
256,128,205652,1,8,0:0:0:0:
256,128,205759,1,0,0:0:0:0:
256,128,205973,1,8,0:0:0:0:
256,160,206188,1,0,0:0:0:0:
256,160,206402,1,8,0:0:0:0:
256,160,206616,1,8,0:0:0:0:
256,160,206831,1,8,0:0:0:0:
256,160,207045,1,0,0:0:0:0:
256,160,207259,1,8,0:0:0:0:
256,160,207473,1,0,0:0:0:0:
256,160,207688,1,8,0:0:0:0:
224,128,207795,1,0,0:0:0:0:
251,149,208009,1,0,0:0:0:0:
224,128,208116,1,8,0:0:0:0:
224,128,208331,1,8,0:0:0:0:
224,128,208545,1,8,0:0:0:0:
256,160,208759,1,8,0:0:0:0:
256,128,208973,1,0,0:0:0:0:
256,128,209188,1,8,0:0:0:0:
256,128,209402,1,8,0:0:0:0:
250,140,209616,1,4,0:0:0:0:
250,131,209831,1,0,0:0:0:0:
250,131,209884,1,0,0:0:0:0:
250,131,209938,1,0,0:0:0:0:
250,131,209991,1,0,0:0:0:0:
250,131,210045,1,8,0:0:0:0:
250,131,210152,1,0,0:0:0:0:
250,131,210259,1,8,0:0:0:0:
250,131,210313,1,8,0:0:0:0:
250,131,210366,1,8,0:0:0:0:
250,131,210420,1,8,0:0:0:0:
250,131,210473,1,0,0:0:0:0:
241,134,210581,1,8,0:0:0:0:
241,134,210634,1,0,0:0:0:0:
241,134,210688,1,8,0:0:0:0:
241,134,210795,1,0,0:0:0:0:
241,134,210902,1,8,0:0:0:0:
241,134,210956,1,0,0:0:0:0:
241,134,211009,1,8,0:0:0:0:
241,135,211063,1,8,0:0:0:0:
241,135,211116,1,0,0:0:0:0:
241,135,211170,1,0,0:0:0:0:
241,135,211223,1,8,0:0:0:0:
248,138,211331,1,8,0:0:0:0:
248,138,211438,1,8,0:0:0:0:
244,133,211491,1,8,0:0:0:0:
234,133,211545,1,0,0:0:0:0:
248,138,211652,1,8,0:0:0:0:
234,131,211706,1,8,0:0:0:0:
248,138,211759,1,0,0:0:0:0:
234,131,211813,1,0,0:0:0:0:
234,131,211866,1,8,0:0:0:0:
234,131,211920,1,0,0:0:0:0:
248,138,211973,1,8,0:0:0:0:
235,130,212027,1,8,0:0:0:0:
237,130,212081,1,0,0:0:0:0:
256,192,212188,1,12,0:0:0:0:
256,192,212616,1,0,0:0:0:0:
256,192,212723,1,0,0:0:0:0:
249,181,212777,1,0,0:0:0:0:
256,192,212831,1,0,0:0:0:0:
256,192,212938,1,8,0:0:0:0:
251,180,213152,1,8,0:0:0:0:
256,192,213259,1,0,0:0:0:0:
256,192,213473,1,0,0:0:0:0:
256,192,213581,1,0,0:0:0:0:
256,192,213688,1,8,0:0:0:0:
256,192,213795,1,8,0:0:0:0:
256,192,213902,1,0,0:0:0:0:
256,192,213973,1,0,0:0:0:0:
249,190,214045,1,0,0:0:0:0:
256,192,214116,1,0,0:0:0:0:
256,192,214223,1,0,0:0:0:0:
256,192,214331,1,8,0:0:0:0:
256,192,214438,1,8,0:0:0:0:
256,192,214545,1,8,0:0:0:0:
256,192,214652,1,8,0:0:0:0:
256,192,214973,1,12,0:0:0:0:
256,192,215295,1,12,0:0:0:0:
256,192,215616,1,8,0:0:0:0:
261,188,215670,1,0,0:0:0:0:
256,192,215723,1,0,0:0:0:0:
260,191,215777,1,0,0:0:0:0:
256,192,215831,1,8,0:0:0:0:
256,192,215938,1,0,0:0:0:0:
256,192,216152,1,0,0:0:0:0:
256,192,216259,1,0,0:0:0:0:
256,192,216366,1,12,0:0:0:0:
256,192,216688,1,12,0:0:0:0:
256,192,217009,1,4,0:0:0:0:
256,192,217331,1,0,0:0:0:0:
256,192,217384,1,0,0:0:0:0:
256,192,217438,1,8,0:0:0:0:
256,192,217545,1,0,0:0:0:0:
256,192,217652,1,0,0:0:0:0:
256,192,217759,1,8,0:0:0:0:
256,192,217813,1,0,0:0:0:0:
256,192,217866,1,8,0:0:0:0:
258,199,217920,1,8,0:0:0:0:
256,192,217973,1,0,0:0:0:0:
256,192,218027,1,0,0:0:0:0:
256,192,218081,1,8,0:0:0:0:
256,192,218188,1,8,0:0:0:0:
256,192,218402,1,0,0:0:0:0:
256,192,218723,1,8,0:0:0:0:
256,192,218831,1,0,0:0:0:0:
256,192,218938,1,0,0:0:0:0:
256,192,219045,1,8,0:0:0:0:
243,191,219152,1,0,0:0:0:0:
246,191,219206,1,0,0:0:0:0:
256,192,219259,1,0,0:0:0:0:
256,192,219366,1,8,0:0:0:0:
256,192,219581,1,8,0:0:0:0:
256,192,219688,1,8,0:0:0:0:
239,190,219795,1,0,0:0:0:0:
256,192,219902,1,8,0:0:0:0:
256,192,220009,1,8,0:0:0:0:
243,179,220063,1,8,0:0:0:0:
256,192,220116,1,0,0:0:0:0:
256,192,220223,1,0,0:0:0:0:
256,192,220331,1,0,0:0:0:0:
256,192,220438,1,8,0:0:0:0:
256,192,220759,1,12,0:0:0:0:
256,192,220973,1,8,0:0:0:0:
256,192,221081,1,0,0:0:0:0:
248,186,221188,1,8,0:0:0:0:
256,192,221295,1,0,0:0:0:0:
248,186,221402,1,0,0:0:0:0:
256,192,221509,1,12,0:0:0:0:
256,192,221831,1,12,0:0:0:0:
256,192,222152,1,0,0:0:0:0:
256,192,222259,1,12,0:0:0:0:
256,192,222473,1,4,0:0:0:0:
250,183,222634,1,0,0:0:0:0:
256,192,222688,1,8,0:0:0:0:
256,192,222795,1,8,0:0:0:0:
250,183,222848,1,8,0:0:0:0:
256,192,222902,1,0,0:0:0:0:
256,192,223009,1,8,0:0:0:0:
256,192,223116,1,0,0:0:0:0:
246,184,223223,1,8,0:0:0:0:
256,192,223331,1,8,0:0:0:0:
256,192,223402,1,8,0:0:0:0:
256,192,223473,1,0,0:0:0:0:
256,192,223545,1,8,0:0:0:0:
256,191,223616,1,0,0:0:0:0:
256,192,223688,1,0,0:0:0:0:
256,192,223759,1,8,0:0:0:0:
256,192,223866,1,8,0:0:0:0:
256,192,223973,1,8,0:0:0:0:
256,192,224081,1,8,0:0:0:0:
256,192,224188,1,0,0:0:0:0:
256,192,224241,1,0,0:0:0:0:
256,192,224295,1,0,0:0:0:0:
263,188,224348,1,0,0:0:0:0:
256,192,224402,1,8,0:0:0:0:
261,188,224456,1,8,0:0:0:0:
256,192,224509,1,8,0:0:0:0:
256,192,224616,1,0,0:0:0:0:
256,192,224723,1,8,0:0:0:0:
256,192,224831,1,0,0:0:0:0:
256,192,225259,1,12,0:0:0:0:
256,192,225581,1,12,0:0:0:0:
256,192,225902,1,4,0:0:0:0:
256,192,226116,1,0,0:0:0:0:
256,192,226223,1,8,0:0:0:0:
256,192,226545,1,8,0:0:0:0:
256,192,226759,1,4,0:0:0:0:
256,192,227081,1,8,0:0:0:0:
256,192,227402,1,8,0:0:0:0:
251,144,227831,1,8,0:0:0:0:
251,160,227884,1,0,0:0:0:0:
251,160,227938,1,8,0:0:0:0:
251,160,227991,1,8,0:0:0:0:
251,160,228045,1,0,0:0:0:0:
251,160,228098,1,0,0:0:0:0:
251,160,228152,1,8,0:0:0:0:
251,160,228206,1,0,0:0:0:0:
251,160,228259,1,8,0:0:0:0:
251,160,228313,1,8,0:0:0:0:
251,160,228366,1,0,0:0:0:0:
224,192,228473,1,4,0:0:0:0:
224,192,228902,1,0,0:0:0:0:
256,192,229331,1,8,0:0:0:0:
256,192,229973,1,8,0:0:0:0:
256,192,230188,1,0,0:0:0:0:
256,192,230616,1,0,0:0:0:0:
256,192,231045,1,8,0:0:0:0:
256,192,231473,1,0,0:0:0:0:
256,192,231902,1,0,0:0:0:0:
256,192,232331,1,0,0:0:0:0:
256,192,232759,1,8,0:0:0:0:
256,192,233402,1,8,0:0:0:0:
256,192,233616,1,0,0:0:0:0:
256,192,234045,1,0,0:0:0:0:
256,192,234473,1,8,0:0:0:0:
256,192,234902,1,0,0:0:0:0:
256,192,235116,1,0,0:0:0:0:
256,160,235545,1,8,0:0:0:0:
256,160,235652,1,8,0:0:0:0:
256,160,235759,1,8,0:0:0:0:
256,160,235973,1,8,0:0:0:0:
256,160,236188,1,0,0:0:0:0:
256,160,236402,1,8,0:0:0:0:
256,160,236616,1,8,0:0:0:0:
256,160,236831,1,8,0:0:0:0:
256,160,237045,1,0,0:0:0:0:
256,160,237259,1,8,0:0:0:0:
256,160,237366,1,0,0:0:0:0:
256,160,237473,1,8,0:0:0:0:
256,160,237688,1,0,0:0:0:0:
256,160,237902,1,8,0:0:0:0:
256,160,238116,1,0,0:0:0:0:
256,160,238331,1,8,0:0:0:0:
256,160,238545,1,0,0:0:0:0:
256,160,238652,1,0,0:0:0:0:
256,160,238759,1,8,0:0:0:0:
256,160,238973,1,8,0:0:0:0:
256,160,239081,1,8,0:0:0:0:
256,160,239188,1,0,0:0:0:0:
256,160,239402,1,0,0:0:0:0:
256,160,239509,1,8,0:0:0:0:
256,160,239616,1,8,0:0:0:0:
256,160,239831,1,0,0:0:0:0:
256,160,240045,1,8,0:0:0:0:
256,160,240259,1,8,0:0:0:0:
256,160,240366,1,8,0:0:0:0:
256,160,240473,1,0,0:0:0:0:
256,160,240688,1,8,0:0:0:0:
256,160,240902,1,0,0:0:0:0:
256,160,241116,1,8,0:0:0:0:
256,160,241331,1,12,0:0:0:0:
160,160,241545,1,4,0:0:0:0:
160,160,241688,1,8,0:0:0:0:
160,160,241759,1,0,0:0:0:0:
160,160,241831,1,0,0:0:0:0:
160,160,241902,1,8,0:0:0:0:
160,160,241973,1,8,0:0:0:0:
160,160,242116,1,8,0:0:0:0:
160,160,242188,1,0,0:0:0:0:
160,160,242331,1,0,0:0:0:0:
160,160,242402,1,0,0:0:0:0:
160,160,242545,1,0,0:0:0:0:
160,160,242616,1,8,0:0:0:0:
160,160,242831,1,8,0:0:0:0:
160,160,243045,1,4,0:0:0:0:
192,192,243259,1,8,0:0:0:0:
192,192,243366,1,0,0:0:0:0:
192,192,243473,1,8,0:0:0:0:
192,192,243581,1,0,0:0:0:0:
193,173,243634,1,8,0:0:0:0:
192,192,243688,1,8,0:0:0:0:
192,192,243795,1,0,0:0:0:0:
192,192,243902,1,8,0:0:0:0:
192,192,244009,1,0,0:0:0:0:
193,173,244063,1,8,0:0:0:0:
192,192,244116,1,8,0:0:0:0:
198,185,244170,1,8,0:0:0:0:
192,192,244223,1,0,0:0:0:0:
192,192,244331,1,8,0:0:0:0:
160,192,244545,1,0,0:0:0:0:
160,192,244759,1,8,0:0:0:0:
192,192,244866,1,0,0:0:0:0:
160,192,244973,1,8,0:0:0:0:
192,192,245081,1,0,0:0:0:0:
172,192,245134,1,8,0:0:0:0:
160,192,245188,1,8,0:0:0:0:
160,192,245295,1,0,0:0:0:0:
160,192,245402,1,8,0:0:0:0:
174,184,245456,1,8,0:0:0:0:
160,192,245509,1,8,0:0:0:0:
174,184,245563,1,8,0:0:0:0:
160,192,245616,1,0,0:0:0:0:
160,192,245723,1,0,0:0:0:0:
154,203,245777,1,0,0:0:0:0:
160,192,245831,1,8,0:0:0:0:
160,192,245938,1,8,0:0:0:0:
163,183,245991,1,0,0:0:0:0:
160,192,246045,1,8,0:0:0:0:
163,183,246098,1,8,0:0:0:0:
163,183,246152,1,0,0:0:0:0:
167,181,246206,1,0,0:0:0:0:
160,192,246259,1,8,0:0:0:0:
160,192,246366,1,0,0:0:0:0:
160,192,246473,1,8,0:0:0:0:
160,192,246688,1,0,0:0:0:0:
156,192,246795,1,0,0:0:0:0:
160,192,246902,1,8,0:0:0:0:
160,192,247009,1,0,0:0:0:0:
160,192,247063,1,0,0:0:0:0:
160,192,247116,1,8,0:0:0:0:
160,192,247223,1,8,0:0:0:0:
160,192,247331,1,0,0:0:0:0:
160,192,247438,1,0,0:0:0:0:
160,192,247491,1,0,0:0:0:0:
160,192,247545,1,8,0:0:0:0:
162,184,247598,1,8,0:0:0:0:
160,192,247652,1,8,0:0:0:0:
162,179,247706,1,8,0:0:0:0:
160,192,247759,1,0,0:0:0:0:
160,192,247866,1,0,0:0:0:0:
160,192,247973,1,8,0:0:0:0:
150,188,248027,1,0,0:0:0:0:
160,192,248081,1,8,0:0:0:0:
160,192,248134,1,8,0:0:0:0:
160,192,248188,1,0,0:0:0:0:
160,192,248295,1,8,0:0:0:0:
160,192,248402,1,0,0:0:0:0:
160,192,248456,1,0,0:0:0:0:
146,176,248509,1,0,0:0:0:0:
128,192,248616,1,8,0:0:0:0:
128,192,248723,1,0,0:0:0:0:
160,192,248831,1,8,0:0:0:0:
141,185,248884,1,8,0:0:0:0:
128,192,248938,1,0,0:0:0:0:
128,192,249045,1,8,0:0:0:0:
160,192,249152,1,8,0:0:0:0:
128,192,249259,1,0,0:0:0:0:
147,181,249313,1,0,0:0:0:0:
128,192,249366,1,0,0:0:0:0:
128,192,249473,1,8,0:0:0:0:
147,182,249581,1,8,0:0:0:0:
128,192,249688,1,0,0:0:0:0:
128,192,249741,1,0,0:0:0:0:
128,192,249795,1,0,0:0:0:0:
133,190,249848,1,0,0:0:0:0:
128,192,249902,1,8,0:0:0:0:
160,192,250116,1,0,0:0:0:0:
160,192,250223,1,0,0:0:0:0:
146,178,250277,1,0,0:0:0:0:
160,192,250331,1,8,0:0:0:0:
160,192,250438,1,0,0:0:0:0:
160,192,250545,1,8,0:0:0:0:
160,192,250652,1,8,0:0:0:0:
160,192,250706,1,8,0:0:0:0:
146,178,250759,1,0,0:0:0:0:
146,178,250866,1,0,0:0:0:0:
160,192,250973,1,8,0:0:0:0:
160,192,251045,1,8,0:0:0:0:
160,192,251116,1,8,0:0:0:0:
160,192,251188,1,0,0:0:0:0:
155,186,251295,1,8,0:0:0:0:
155,186,251348,1,8,0:0:0:0:
160,192,251402,1,0,0:0:0:0:
155,186,251509,1,0,0:0:0:0:
160,192,251616,1,8,0:0:0:0:
160,192,251723,1,0,0:0:0:0:
160,192,251777,1,8,0:0:0:0:
160,192,251831,1,0,0:0:0:0:
161,184,251884,1,8,0:0:0:0:
160,192,251938,1,0,0:0:0:0:
160,192,252045,1,8,0:0:0:0:
162,195,252098,1,8,0:0:0:0:
160,192,252152,1,0,0:0:0:0:
160,192,252206,1,0,0:0:0:0:
160,192,252259,1,8,0:0:0:0:
160,192,252473,1,0,0:0:0:0:
160,192,252527,1,0,0:0:0:0:
160,192,252581,1,0,0:0:0:0:
164,196,252634,1,0,0:0:0:0:
160,192,252688,1,8,0:0:0:0:
160,192,252902,1,0,0:0:0:0:
160,192,252956,1,0,0:0:0:0:
160,192,253009,1,0,0:0:0:0:
163,201,253063,1,0,0:0:0:0:
160,192,253116,1,8,0:0:0:0:
160,192,253331,1,4,0:0:0:0:
146,182,253438,1,0,0:0:0:0:
172,192,253491,1,8,0:0:0:0:
160,192,253545,1,0,0:0:0:0:
174,194,253652,1,8,0:0:0:0:
160,192,253759,1,0,0:0:0:0:
160,192,253813,1,0,0:0:0:0:
160,192,253866,1,0,0:0:0:0:
180,189,253920,1,0,0:0:0:0:
160,192,253973,1,8,0:0:0:0:
160,192,254188,1,4,0:0:0:0:
126,172,254295,1,8,0:0:0:0:
169,185,254348,1,8,0:0:0:0:
160,192,254402,1,0,0:0:0:0:
172,181,254509,1,8,0:0:0:0:
157,177,254563,1,8,0:0:0:0:
160,192,254616,1,0,0:0:0:0:
160,192,254670,1,0,0:0:0:0:
160,192,254723,1,0,0:0:0:0:
160,192,254777,1,0,0:0:0:0:
160,192,254831,1,8,0:0:0:0:
159,178,254884,1,8,0:0:0:0:
159,178,254938,1,0,0:0:0:0:
160,192,255045,1,4,0:0:0:0:
160,192,255152,1,0,0:0:0:0:
155,189,255206,1,0,0:0:0:0:
160,192,255259,1,8,0:0:0:0:
157,188,255366,1,0,0:0:0:0:
160,192,255420,1,8,0:0:0:0:
160,192,255473,1,0,0:0:0:0:
160,192,255527,1,0,0:0:0:0:
160,192,255581,1,0,0:0:0:0:
158,202,255634,1,0,0:0:0:0:
160,192,255688,1,8,0:0:0:0:
160,192,255902,1,4,0:0:0:0:
160,192,256009,1,8,0:0:0:0:
160,192,256063,1,8,0:0:0:0:
160,192,256116,1,8,0:0:0:0:
150,188,256223,1,8,0:0:0:0:
155,194,256277,1,8,0:0:0:0:
160,192,256331,1,0,0:0:0:0:
160,192,256384,1,0,0:0:0:0:
160,192,256438,1,0,0:0:0:0:
153,188,256491,1,0,0:0:0:0:
160,192,256545,1,8,0:0:0:0:
159,178,256598,1,8,0:0:0:0:
159,178,256652,1,8,0:0:0:0:
160,192,256759,1,0,0:0:0:0:
160,192,256813,1,0,0:0:0:0:
160,192,256866,1,0,0:0:0:0:
165,184,256920,1,0,0:0:0:0:
160,192,256973,1,8,0:0:0:0:
160,192,257188,1,8,0:0:0:0:
160,192,257241,1,0,0:0:0:0:
160,192,257295,1,0,0:0:0:0:
160,192,257348,1,0,0:0:0:0:
160,192,257402,1,8,0:0:0:0:
160,192,257616,1,0,0:0:0:0:
136,181,257670,1,0,0:0:0:0:
160,192,257723,1,0,0:0:0:0:
160,192,257831,1,8,0:0:0:0:
158,187,257938,1,8,0:0:0:0:
160,192,257991,1,0,0:0:0:0:
160,192,258045,1,8,0:0:0:0:
160,192,258098,1,8,0:0:0:0:
160,192,258152,1,0,0:0:0:0:
160,192,258206,1,0,0:0:0:0:
160,192,258259,1,8,0:0:0:0:
160,192,258313,1,8,0:0:0:0:
160,192,258366,1,8,0:0:0:0:
160,192,258420,1,8,0:0:0:0:
160,192,258473,1,0,0:0:0:0:
256,192,258581,8,0,259973,0:0:0:0:
160,160,260616,5,4,0:0:0:0:
256,192,260723,8,0,263402,0:0:0:0:
224,160,263616,5,12,0:0:0:0:
