osu file format v14

[General]
AudioFilename: audio.mp3
AudioLeadIn: 0
PreviewTime: -1
Countdown: 1
SampleSet: Normal
StackLeniency: 0.7
Mode: 1
LetterboxInBreaks: 0
WidescreenStoryboard: 1

[Editor]
DistanceSpacing: 2
BeatDivisor: 6
GridSize: 32
TimelineZoom: 2.699999

[Metadata]
Title:Doppelganger
TitleUnicode:Doppelganger
Artist:LeaF
ArtistUnicode:LeaF
Creator:driodx
Version:Reflection of Your Sin
Source:SOUND VOLTEX IV HEAVENLY HAVEN
Tags:doppelganger LeaF sound voltex iv heavenly haven
BeatmapID:1852373
BeatmapSetID:886081

[Difficulty]
HPDrainRate:5.5
CircleSize:2
OverallDifficulty:6
ApproachRate:6
SliderMultiplier:1.4
SliderTickRate:1

[Events]
//Background and Video events
0,0,"Doppelganger.png",0,0
//Break Periods
//Storyboard Layer 0 (Background)
//Storyboard Layer 1 (Fail)
//Storyboard Layer 2 (Pass)
//Storyboard Layer 3 (Foreground)
//Storyboard Sound Samples

[TimingPoints]
791,214.285714285714,4,1,0,100,1,0
791,-100,4,1,0,100,0,1
844,-100,4,1,0,100,0,0
898,-100,4,1,0,100,0,1
951,-100,4,1,0,100,0,0
1112,-100,4,1,0,100,0,1
1165,-100,4,1,0,100,0,0
1326,-100,4,1,0,100,0,1
1380,-100,4,1,0,100,0,0
1540,-100,4,1,0,100,0,1
1594,-100,4,1,0,100,0,0
5880,-125,4,1,0,100,0,0
7648,-100,4,1,0,100,0,0
9362,-125,4,1,0,100,0,0
10219,-100,4,1,0,100,0,0
11290,-100,4,1,0,100,0,1
14505,-57.1428571428571,4,1,0,100,0,0
14612,-100,4,1,0,100,0,0
19648,-133.333333333333,4,1,0,100,0,0
29076,-111.731843575419,4,1,0,100,0,0
29505,-100,4,1,0,100,0,0
40648,-83.3333333333333,4,1,0,100,0,0
41505,-100,4,1,0,100,0,0
47506,-83.3333333333333,4,1,0,100,0,1
47732,-100,4,1,0,100,0,0
50075,-83.3333333333333,4,1,0,100,0,1
50411,-100,4,1,0,100,0,0
50933,-83.3333333333333,4,1,0,100,0,0
51362,-100,4,1,0,100,0,0
54790,-125,4,1,0,100,0,1
55487,-83.3333333333333,4,1,0,100,0,0
56505,-125,4,1,0,100,0,1
56933,-83.3333333333333,4,1,0,100,0,0
57362,-125,4,1,0,100,0,1
57790,-83.3333333333333,4,1,0,100,0,0
58219,-125,4,1,0,100,0,1
58433,-83.3333333333333,4,1,0,100,0,0
58648,-125,4,1,0,100,0,1
58862,-83.3333333333333,4,1,0,100,0,0
59076,-125,4,1,0,100,0,1
59290,-83.3333333333333,4,1,0,100,0,0
59719,-125,4,1,0,100,0,1
60148,-83.3333333333333,4,1,0,100,0,0
60362,-125,4,1,0,100,0,1
60790,-100,4,1,0,100,0,0
61005,-90.9090909090909,4,1,0,100,0,1
61219,-83.3333333333333,4,1,0,100,0,0
61648,-100,4,1,0,100,0,0
65219,-98.0392156862745,4,1,0,100,0,0
65433,-96.1538461538461,4,1,0,100,0,0
65648,-94.3396226415094,4,1,0,100,0,0
65862,-92.5925925925926,4,1,0,100,0,0
66076,-90.9090909090909,4,1,0,100,0,0
66290,-89.2857142857143,4,1,0,100,0,0
66505,-86.2068965517241,4,1,0,100,0,0
66719,-84.7457627118644,4,1,0,100,0,0
67005,-83.3333333333333,4,1,0,100,0,0
67219,-80,4,1,0,100,0,0
67433,-76.9230769230769,4,1,0,100,0,0
67648,-66.6666666666667,4,1,0,100,0,0
68076,-68.9655172413793,4,1,0,100,0,0
68130,-71.4285714285714,4,1,0,100,0,0
68183,-74.0740740740741,4,1,0,100,0,0
68237,-76.9230769230769,4,1,0,100,0,0
68290,-80,4,1,0,100,0,0
68344,-83.3333333333333,4,1,0,100,0,0
68398,-86.9565217391304,4,1,0,100,0,0
68451,-90.9090909090909,4,1,0,100,0,0
68505,-100,4,1,0,100,0,0
75576,-117.647058823529,4,1,0,100,0,0
81362,-90.9090909090909,4,1,0,100,0,1
82433,-90.9090909090909,4,1,0,100,0,0
83076,-100,4,1,0,100,0,1
83933,-111.111111111111,4,1,0,100,0,0
84362,-100,4,1,0,100,0,1
84576,-90.9090909090909,4,1,0,100,0,0
84790,-100,4,1,0,100,0,1
85219,-100,4,1,0,100,0,0
85648,-100,4,1,0,100,0,1
85790,-95.2380952380952,4,1,0,100,0,1
85969,-90.9090909090909,4,1,0,100,0,1
86076,-83.3333333333333,4,1,0,100,0,1
86290,-81.9672131147541,4,1,0,100,0,1
86344,-80.6451612903226,4,1,0,100,0,1
86398,-79.3650793650794,4,1,0,100,0,1
86451,-78.125,4,1,0,100,0,1
86505,-76.9230769230769,4,1,0,100,0,1
86719,-100,4,1,0,100,0,0
87362,-100,4,1,0,100,0,1
87576,-100,4,1,0,100,0,0
88219,-100,4,1,0,100,0,1
88648,-125,4,1,0,100,0,0
89076,-100,4,1,0,100,0,1
89933,-105.263157894737,4,1,0,100,0,0
90790,-104.166666666667,4,1,0,100,0,0
90898,-103.092783505155,4,1,0,100,0,0
91005,-102.040816326531,4,1,0,100,0,0
91112,-101.010101010101,4,1,0,100,0,0
91219,-100,4,1,0,100,0,0
91326,-99.009900990099,4,1,0,100,0,0
91433,-98.0392156862745,4,1,0,100,0,0
91540,-97.0873786407767,4,1,0,100,0,0
91648,-100,4,1,0,100,0,0
96148,-90.9090909090909,4,1,0,100,0,1
96469,-83.3333333333333,4,1,0,100,0,1
96790,-100,4,1,0,100,0,0
117362,-111.111111111111,4,1,0,100,0,0
117790,-125,4,1,0,100,0,0
118219,-142.857142857143,4,1,0,100,0,0
122505,-76.9230769230769,4,1,0,100,0,0
124219,-100,4,1,0,100,0,1
134505,-95.2380952380952,4,1,0,100,0,1
135363,-90.9090909090909,4,1,0,100,0,1
136220,-86.9565217391304,4,1,0,100,0,1
137077,-83.3333333333333,4,1,0,100,0,1
137934,-80,4,1,0,100,0,1
138791,-76.9230769230769,4,1,0,100,0,1
139649,-80,4,1,0,100,0,1
139862,-83.3333333333333,4,1,0,100,0,1
140076,-86.9565217391304,4,1,0,100,0,1
140290,-90.9090909090909,4,1,0,100,0,1
140505,-95.2380952380952,4,1,0,100,0,1
140719,-100,4,1,0,100,0,1
140933,-105.263157894737,4,1,0,100,0,1
141148,-111.111111111111,4,1,0,100,0,1
141362,-100,4,1,0,100,0,0
144790,-66.6666666666667,4,1,0,100,0,1
144898,-66.6666666666667,4,1,0,100,0,0

[HitObjects]
320,128,791,5,6,0:0:0:0:
320,128,898,1,6,0:0:0:0:
320,128,1112,1,6,0:0:0:0:
320,128,1326,1,6,0:0:0:0:
320,128,1540,1,6,0:0:0:0:
320,128,1755,1,6,0:0:0:0:
320,128,1862,1,6,0:0:0:0:
320,128,1969,1,6,0:0:0:0:
320,128,2076,1,6,0:0:0:0:
192,256,2183,1,0,0:0:0:0:
192,128,2290,1,4,0:0:0:0:
192,256,2398,1,0,0:0:0:0:
320,128,2505,5,6,0:0:0:0:
192,256,2612,1,0,0:0:0:0:
320,128,2719,1,6,0:0:0:0:
320,128,2826,1,6,0:0:0:0:
192,256,2933,1,0,0:0:0:0:
320,128,3040,1,6,0:0:0:0:
192,256,3148,1,0,0:0:0:0:
320,128,3255,1,6,0:0:0:0:
192,256,3362,1,0,0:0:0:0:
320,128,3469,1,6,0:0:0:0:
320,128,3576,1,6,0:0:0:0:
320,128,3683,1,6,0:0:0:0:
192,256,3790,1,0,0:0:0:0:
192,256,3844,1,0,0:0:0:0:
320,256,3898,1,2,0:0:0:0:
192,256,3951,1,0,0:0:0:0:
320,256,4005,1,2,0:0:0:0:
192,256,4058,1,0,0:0:0:0:
192,256,4112,1,0,0:0:0:0:
320,256,4165,1,2,0:0:0:0:
320,256,4326,5,8,0:0:0:0:
320,256,4433,1,2,0:0:0:0:
320,256,4540,1,8,0:0:0:0:
192,256,4648,1,0,0:0:0:0:
192,256,4755,1,0,0:0:0:0:
192,256,4862,1,0,0:0:0:0:
192,256,4969,1,0,0:0:0:0:
192,256,5076,1,0,0:0:0:0:
192,256,5183,1,0,0:0:0:0:
320,256,5290,1,2,0:0:0:0:
320,256,5398,1,8,0:0:0:0:
320,256,5505,1,2,0:0:0:0:
320,256,5612,1,8,0:0:0:0:
192,256,5719,1,0,0:0:0:0:
320,256,5826,1,8,0:0:0:0:
320,256,5933,5,2,0:0:0:0:
320,256,5960,1,2,0:0:0:0:
320,256,6040,1,2,0:0:0:0:
320,256,6067,1,2,0:0:0:0:
320,256,6148,1,2,0:0:0:0:
320,256,6174,1,2,0:0:0:0:
320,256,6255,1,2,0:0:0:0:
320,256,6282,1,2,0:0:0:0:
320,256,6362,1,2,0:0:0:0:
192,256,6389,1,2,0:0:0:0:
320,256,6469,1,2,0:0:0:0:
192,256,6496,1,2,0:0:0:0:
320,256,6576,1,2,0:0:0:0:
192,256,6603,1,2,0:0:0:0:
320,256,6683,1,2,0:0:0:0:
192,256,6710,1,2,0:0:0:0:
192,256,6790,1,0,0:0:0:0:
320,256,6817,1,0,0:0:0:0:
192,256,6898,1,0,0:0:0:0:
320,256,6924,1,0,0:0:0:0:
192,256,7005,1,0,0:0:0:0:
320,256,7032,1,0,0:0:0:0:
192,256,7112,1,0,0:0:0:0:
320,256,7139,1,0,0:0:0:0:
192,256,7219,1,0,0:0:0:0:
192,256,7246,1,0,0:0:0:0:
192,256,7326,1,0,0:0:0:0:
192,256,7353,1,0,0:0:0:0:
192,128,7433,1,0,0:0:0:0:
192,128,7487,1,0,0:0:0:0:
192,128,7540,1,0,0:0:0:0:
192,128,7594,1,0,0:0:0:0:
320,256,7755,5,8,0:0:0:0:
320,256,7862,1,2,0:0:0:0:
320,256,7969,1,8,0:0:0:0:
192,256,8077,1,0,0:0:0:0:
192,256,8184,1,0,0:0:0:0:
192,256,8291,1,0,0:0:0:0:
192,256,8398,1,0,0:0:0:0:
192,256,8505,1,0,0:0:0:0:
192,256,8612,1,0,0:0:0:0:
320,256,8719,1,2,0:0:0:0:
320,256,8827,1,8,0:0:0:0:
320,256,8934,1,2,0:0:0:0:
320,256,9041,1,8,0:0:0:0:
192,256,9148,1,0,0:0:0:0:
320,256,9255,1,8,0:0:0:0:
320,256,9362,5,2,0:0:0:0:
320,256,9389,1,2,0:0:0:0:
320,256,9469,1,2,0:0:0:0:
320,256,9496,1,2,0:0:0:0:
320,256,9576,1,2,0:0:0:0:
320,256,9603,1,2,0:0:0:0:
320,256,9683,1,2,0:0:0:0:
320,256,9710,1,2,0:0:0:0:
192,256,9790,1,0,0:0:0:0:
192,256,9817,1,0,0:0:0:0:
192,256,9898,1,0,0:0:0:0:
192,256,9924,1,0,0:0:0:0:
192,256,10005,1,0,0:0:0:0:
192,256,10032,1,0,0:0:0:0:
192,256,10112,1,0,0:0:0:0:
192,256,10139,1,0,0:0:0:0:
192,256,10219,1,0,0:0:0:0:
320,256,10273,1,2,0:0:0:0:
320,256,10326,1,2,0:0:0:0:
192,256,10380,1,0,0:0:0:0:
192,256,10433,1,0,0:0:0:0:
320,256,10487,1,2,0:0:0:0:
320,256,10540,1,2,0:0:0:0:
192,256,10594,1,0,0:0:0:0:
192,256,10648,1,0,0:0:0:0:
192,256,10701,1,0,0:0:0:0:
320,256,10755,1,2,0:0:0:0:
320,256,10808,1,2,0:0:0:0:
192,256,10862,1,0,0:0:0:0:
320,256,10915,1,2,0:0:0:0:
320,256,10969,1,2,0:0:0:0:
320,128,11023,1,2,0:0:0:0:
320,256,11183,5,2,0:0:0:0:
192,128,11290,1,4,0:0:0:0:
320,256,11398,1,2,0:0:0:0:
192,128,11505,1,4,0:0:0:0:
320,256,11612,1,2,0:0:0:0:
320,128,11719,1,6,0:0:0:0:
320,256,11826,1,2,0:0:0:0:
320,128,11933,1,6,0:0:0:0:
320,256,12040,1,2,0:0:0:0:
320,128,12148,1,6,0:0:0:0:
320,256,12255,1,2,0:0:0:0:
192,128,12362,1,4,0:0:0:0:
320,256,12469,1,2,0:0:0:0:
192,128,12576,1,4,0:0:0:0:
320,256,12683,1,2,0:0:0:0:
192,256,12790,1,0,0:0:0:0:
320,256,12898,1,2,0:0:0:0:
192,128,13005,1,4,0:0:0:0:
320,256,13113,1,2,0:0:0:0:
192,128,13220,1,4,0:0:0:0:
320,256,13327,1,2,0:0:0:0:
320,128,13434,1,6,0:0:0:0:
320,256,13541,1,2,0:0:0:0:
320,128,13648,1,6,0:0:0:0:
320,256,13755,1,2,0:0:0:0:
320,128,13863,1,6,0:0:0:0:
320,256,13970,1,2,0:0:0:0:
192,128,14077,1,4,0:0:0:0:
320,256,14184,1,2,0:0:0:0:
192,128,14291,1,4,0:0:0:0:
320,256,14398,1,2,0:0:0:0:
192,128,14505,1,4,0:0:0:0:
192,256,14719,5,0,0:0:0:0:
192,256,14755,1,0,0:0:0:0:
192,256,14790,1,0,0:0:0:0:
192,256,14826,1,0,0:0:0:0:
192,256,14862,1,0,0:0:0:0:
192,256,14898,1,0,0:0:0:0:
192,256,15040,1,0,0:0:0:0:
320,256,15112,1,2,0:0:0:0:
192,256,15290,1,0,0:0:0:0:
320,256,15398,1,2,0:0:0:0:
192,256,15576,1,0,0:0:0:0:
320,256,15683,1,2,0:0:0:0:
320,128,15898,1,2,0:0:0:0:
320,128,15933,1,2,0:0:0:0:
320,128,15969,1,2,0:0:0:0:
192,128,16005,1,0,0:0:0:0:
320,128,16219,5,6,0:0:0:0:
192,128,16540,1,4,0:0:0:0:
192,128,16862,1,4,0:0:0:0:
320,128,17183,1,6,0:0:0:0:
256,192,17505,12,6,17719,0:0:0:0:
192,256,17933,5,0,0:0:0:0:
192,256,17987,1,0,0:0:0:0:
320,256,18040,1,2,0:0:0:0:
192,256,18094,1,0,0:0:0:0:
192,256,18148,1,0,0:0:0:0:
192,256,18201,1,0,0:0:0:0:
320,256,18255,1,2,0:0:0:0:
320,256,18308,1,2,0:0:0:0:
320,256,18362,1,2,0:0:0:0:
320,256,18415,1,2,0:0:0:0:
192,256,18469,1,0,0:0:0:0:
192,256,18523,1,0,0:0:0:0:
320,256,18576,1,2,0:0:0:0:
192,256,18630,1,0,0:0:0:0:
320,256,18683,1,2,0:0:0:0:
192,256,18737,1,0,0:0:0:0:
320,256,18790,1,2,0:0:0:0:
192,256,18844,1,0,0:0:0:0:
320,256,18898,1,2,0:0:0:0:
192,256,18951,1,0,0:0:0:0:
192,256,19005,1,0,0:0:0:0:
192,256,19112,1,0,0:0:0:0:
320,256,19219,1,2,0:0:0:0:
192,256,19433,1,0,0:0:0:0:
192,128,19648,5,4,0:0:0:0:
320,128,19862,1,6,0:0:0:0:
320,128,20076,1,6,0:0:0:0:
192,128,20290,1,4,0:0:0:0:
320,128,20505,1,6,0:0:0:0:
320,128,20719,1,6,0:0:0:0:
192,256,20826,1,0,0:0:0:0:
320,128,20933,1,6,0:0:0:0:
192,128,21148,1,4,0:0:0:0:
320,128,21362,1,6,0:0:0:0:
192,128,21576,1,4,0:0:0:0:
320,128,21790,1,6,0:0:0:0:
192,128,22005,1,4,0:0:0:0:
320,256,22112,1,2,0:0:0:0:
320,128,22219,1,6,0:0:0:0:
320,128,22433,1,6,0:0:0:0:
192,256,22540,1,0,0:0:0:0:
192,128,22648,1,4,0:0:0:0:
192,128,22862,1,4,0:0:0:0:
320,256,22969,1,2,0:0:0:0:
320,128,23076,1,6,0:0:0:0:
192,128,23290,1,4,0:0:0:0:
320,128,23505,1,6,0:0:0:0:
320,128,23719,1,6,0:0:0:0:
320,256,23826,1,2,0:0:0:0:
192,128,23933,1,4,0:0:0:0:
320,128,24148,1,6,0:0:0:0:
192,128,24362,1,4,0:0:0:0:
192,128,24576,1,4,0:0:0:0:
320,256,24683,1,2,0:0:0:0:
320,128,24790,1,6,0:0:0:0:
192,128,25005,1,4,0:0:0:0:
320,128,25219,1,6,0:0:0:0:
192,128,25326,1,0,0:0:0:0:
320,128,25433,1,6,0:0:0:0:
192,128,25540,1,0,0:0:0:0:
192,128,25648,1,4,0:0:0:0:
320,128,25862,1,6,0:0:0:0:
192,128,26076,1,4,0:0:0:0:
192,128,26290,1,4,0:0:0:0:
320,128,26505,1,6,0:0:0:0:
192,128,26719,1,4,0:0:0:0:
192,128,26933,1,4,0:0:0:0:
320,128,27148,1,6,0:0:0:0:
192,128,27362,1,4,0:0:0:0:
192,256,27576,1,0,0:0:0:0:
320,256,27648,1,2,0:0:0:0:
320,256,27719,1,2,0:0:0:0:
192,256,27790,1,0,0:0:0:0:
192,128,28005,1,4,0:0:0:0:
320,128,28219,1,6,0:0:0:0:
192,128,28433,1,4,0:0:0:0:
192,128,28648,1,4,0:0:0:0:
320,128,28862,1,6,0:0:0:0:
192,128,29076,1,0,0:0:0:0:
192,256,29130,1,0,0:0:0:0:
192,256,29183,1,0,0:0:0:0:
192,256,29237,1,0,0:0:0:0:
192,128,29505,1,0,0:0:0:0:
192,256,29558,1,0,0:0:0:0:
192,256,29612,1,0,0:0:0:0:
192,256,29665,1,0,0:0:0:0:
320,128,29933,5,6,0:0:0:0:
192,128,30148,1,4,0:0:0:0:
320,128,30362,1,2,0:0:0:0:
192,128,30469,1,0,0:0:0:0:
320,128,30576,1,2,0:0:0:0:
192,128,30683,1,0,0:0:0:0:
320,128,30790,1,2,0:0:0:0:
320,128,30898,1,2,0:0:0:0:
192,128,31005,1,0,0:0:0:0:
320,128,31112,1,2,0:0:0:0:
192,256,31326,1,0,0:0:0:0:
320,256,31433,1,2,0:0:0:0:
192,128,31648,1,4,0:0:0:0:
192,128,31969,1,4,0:0:0:0:
192,128,32290,1,4,0:0:0:0:
320,128,32612,1,6,0:0:0:0:
192,128,32933,1,4,0:0:0:0:
320,128,33576,1,6,0:0:0:0:
320,128,33790,1,6,0:0:0:0:
192,128,34005,1,4,0:0:0:0:
192,128,34219,5,4,0:0:0:0:
192,128,34540,1,4,0:0:0:0:
192,128,34862,1,4,0:0:0:0:
320,128,35183,1,6,0:0:0:0:
192,128,35505,1,4,0:0:0:0:
192,256,35933,1,0,0:0:0:0:
192,256,35987,1,0,0:0:0:0:
192,256,36040,1,0,0:0:0:0:
320,256,36094,1,2,0:0:0:0:
192,256,36148,1,0,0:0:0:0:
192,256,36201,1,0,0:0:0:0:
320,256,36255,1,2,0:0:0:0:
192,256,36308,1,0,0:0:0:0:
192,256,36362,1,0,0:0:0:0:
192,256,36415,1,0,0:0:0:0:
320,256,36469,1,2,0:0:0:0:
320,256,36523,1,2,0:0:0:0:
320,256,36576,1,2,0:0:0:0:
320,256,36630,1,2,0:0:0:0:
192,256,36683,1,0,0:0:0:0:
192,256,36737,1,0,0:0:0:0:
192,256,36790,1,0,0:0:0:0:
192,256,36844,1,0,0:0:0:0:
192,256,36898,1,0,0:0:0:0:
320,256,36951,1,2,0:0:0:0:
320,256,37005,1,2,0:0:0:0:
192,256,37058,1,0,0:0:0:0:
192,256,37112,1,0,0:0:0:0:
320,256,37165,1,2,0:0:0:0:
320,256,37219,1,2,0:0:0:0:
192,256,37273,1,0,0:0:0:0:
320,256,37326,1,2,0:0:0:0:
192,256,37380,1,0,0:0:0:0:
320,256,37433,1,2,0:0:0:0:
192,256,37487,1,0,0:0:0:0:
320,256,37540,1,2,0:0:0:0:
192,256,37594,1,0,0:0:0:0:
320,256,37648,5,2,0:0:0:0:
320,256,37683,1,2,0:0:0:0:
320,256,37719,1,2,0:0:0:0:
192,256,37862,1,0,0:0:0:0:
320,256,38076,1,2,0:0:0:0:
192,256,38103,1,0,0:0:0:0:
192,256,38183,1,0,0:0:0:0:
320,256,38210,1,2,0:0:0:0:
320,256,38290,1,2,0:0:0:0:
192,256,38317,1,0,0:0:0:0:
192,256,38398,1,0,0:0:0:0:
320,256,38424,1,2,0:0:0:0:
320,256,38505,1,2,0:0:0:0:
320,256,38540,1,2,0:0:0:0:
320,256,38576,1,2,0:0:0:0:
192,256,38719,1,0,0:0:0:0:
192,256,38826,1,0,0:0:0:0:
192,256,39040,1,0,0:0:0:0:
192,256,39148,1,0,0:0:0:0:
192,256,39201,1,0,0:0:0:0:
320,256,39255,1,2,0:0:0:0:
192,256,39308,1,0,0:0:0:0:
192,256,39362,1,0,0:0:0:0:
192,256,39415,1,0,0:0:0:0:
320,256,39469,1,2,0:0:0:0:
320,256,39523,1,2,0:0:0:0:
192,256,39576,1,0,0:0:0:0:
320,256,39630,1,2,0:0:0:0:
192,256,39683,1,0,0:0:0:0:
320,256,39737,1,2,0:0:0:0:
192,256,39790,5,0,0:0:0:0:
320,256,39898,1,2,0:0:0:0:
192,256,39951,1,0,0:0:0:0:
192,256,40112,1,0,0:0:0:0:
192,256,40219,1,0,0:0:0:0:
192,256,40433,1,0,0:0:0:0:
320,256,40540,1,2,0:0:0:0:
320,128,40648,5,6,0:0:0:0:
192,128,40862,1,4,0:0:0:0:
320,128,41076,1,6,0:0:0:0:
192,128,41290,1,4,0:0:0:0:
192,128,41505,5,4,0:0:0:0:
320,256,41612,1,2,2:0:0:0:
192,256,41719,1,0,0:0:0:0:
320,128,41826,1,6,0:0:0:0:
192,256,41933,1,0,0:0:0:0:
320,256,42040,1,2,0:0:0:0:
320,256,42148,1,2,0:0:0:0:
192,256,42255,1,0,0:0:0:0:
192,128,42362,1,4,0:0:0:0:
192,256,42469,1,0,0:0:0:0:
320,256,42576,1,2,0:0:0:0:
320,256,42683,1,2,2:0:0:0:
192,256,42790,1,0,0:0:0:0:
192,256,42844,1,0,0:0:0:0:
192,256,42898,1,0,0:0:0:0:
320,256,42951,1,2,0:0:0:0:
320,256,43005,1,2,0:0:0:0:
192,256,43058,1,0,0:0:0:0:
320,256,43112,1,2,0:0:0:0:
320,256,43165,1,2,0:0:0:0:
320,256,43219,1,2,0:0:0:0:
192,128,43326,1,4,0:0:0:0:
320,128,43433,1,6,0:0:0:0:
192,128,43540,1,4,0:0:0:0:
192,128,43755,1,4,0:0:0:0:
320,128,43862,1,6,0:0:0:0:
192,128,44076,1,4,0:0:0:0:
192,128,44290,1,4,0:0:0:0:
192,256,44505,1,0,0:0:0:0:
192,256,44540,1,0,0:0:0:0:
192,256,44576,1,0,0:0:0:0:
192,256,44719,1,0,0:0:0:0:
320,256,44933,1,2,0:0:0:0:
192,256,44987,1,0,0:0:0:0:
320,256,45040,1,2,0:0:0:0:
192,256,45094,1,0,0:0:0:0:
320,256,45148,1,2,0:0:0:0:
192,256,45255,1,0,0:0:0:0:
192,256,45290,1,0,0:0:0:0:
192,256,45326,1,0,0:0:0:0:
192,256,45469,1,0,0:0:0:0:
320,256,45576,1,2,0:0:0:0:
192,256,45683,1,0,0:0:0:0:
192,256,45790,1,0,0:0:0:0:
320,256,45898,1,2,0:0:0:0:
192,128,46005,1,4,0:0:0:0:
192,256,46219,5,0,0:0:0:0:
192,256,46273,1,0,0:0:0:0:
320,256,46326,1,2,0:0:0:0:
192,256,46433,1,0,0:0:0:0:
192,256,46487,1,0,0:0:0:0:
320,256,46540,1,2,0:0:0:0:
320,256,46648,1,2,0:0:0:0:
192,256,46755,1,0,0:0:0:0:
192,256,46790,1,0,0:0:0:0:
192,256,46826,1,0,0:0:0:0:
192,256,46862,1,0,0:0:0:0:
192,256,47076,1,0,0:0:0:0:
192,256,47130,1,0,0:0:0:0:
192,256,47183,1,0,0:0:0:0:
320,256,47237,1,2,0:0:0:0:
192,256,47290,1,0,0:0:0:0:
192,256,47344,1,0,0:0:0:0:
320,256,47398,1,2,0:0:0:0:
320,256,47451,1,2,0:0:0:0:
320,256,47505,1,2,0:0:0:0:
192,128,47719,1,4,0:0:0:0:
192,128,47933,5,4,0:0:0:0:
320,256,48040,1,2,0:0:0:0:
320,256,48148,1,2,0:0:0:0:
320,256,48255,1,2,0:0:0:0:
192,256,48362,1,0,0:0:0:0:
320,256,48469,1,2,0:0:0:0:
192,256,48576,1,0,0:0:0:0:
320,256,48683,1,2,0:0:0:0:
320,256,48790,1,2,0:0:0:0:
320,256,48826,1,2,0:0:0:0:
320,256,48862,1,2,0:0:0:0:
320,256,48898,1,2,0:0:0:0:
320,256,48933,1,2,0:0:0:0:
320,256,48969,1,2,0:0:0:0:
192,256,49112,1,0,0:0:0:0:
192,256,49219,1,0,0:0:0:0:
192,256,49326,1,0,0:0:0:0:
192,128,49433,5,4,0:0:0:0:
192,256,49648,1,0,0:0:0:0:
192,128,49755,1,4,0:0:0:0:
192,256,49969,1,0,0:0:0:0:
320,128,50076,1,6,0:0:0:0:
320,128,50237,1,6,0:0:0:0:
192,128,50398,1,4,0:0:0:0:
320,256,50505,1,2,0:0:0:0:
192,256,50612,1,0,0:0:0:0:
192,256,50719,1,0,0:0:0:0:
320,128,50933,5,6,0:0:0:0:
192,256,51362,5,0,0:0:0:0:
192,256,51415,1,0,0:0:0:0:
320,256,51469,1,2,0:0:0:0:
192,256,51523,1,0,0:0:0:0:
192,256,51576,1,0,0:0:0:0:
192,256,51630,1,0,0:0:0:0:
320,256,51683,1,2,0:0:0:0:
192,256,51737,1,0,0:0:0:0:
192,256,51790,1,0,0:0:0:0:
192,256,51844,1,0,0:0:0:0:
320,256,51898,1,2,0:0:0:0:
192,256,51951,1,0,0:0:0:0:
192,256,52005,1,0,0:0:0:0:
192,256,52058,1,0,0:0:0:0:
320,256,52112,1,2,0:0:0:0:
320,256,52219,1,2,0:0:0:0:
320,256,52255,1,2,0:0:0:0:
320,256,52290,1,2,0:0:0:0:
320,256,52433,1,2,0:0:0:0:
192,256,52540,1,0,0:0:0:0:
320,256,52648,1,2,0:0:0:0:
320,256,52683,1,2,0:0:0:0:
320,256,52719,1,2,0:0:0:0:
320,256,52755,1,2,0:0:0:0:
320,256,52790,1,2,0:0:0:0:
320,256,52826,1,2,0:0:0:0:
320,256,52862,1,2,0:0:0:0:
192,256,52969,1,0,0:0:0:0:
192,256,53076,1,0,0:0:0:0:
320,256,53112,1,2,0:0:0:0:
320,256,53183,1,2,0:0:0:0:
320,256,53219,1,2,0:0:0:0:
320,256,53290,1,2,0:0:0:0:
192,256,53398,1,0,0:0:0:0:
320,256,53433,1,2,0:0:0:0:
320,256,53505,1,2,0:0:0:0:
320,256,53540,1,2,0:0:0:0:
320,256,53576,1,2,0:0:0:0:
320,256,53719,1,2,0:0:0:0:
192,256,53773,1,0,0:0:0:0:
192,256,53826,1,0,0:0:0:0:
192,128,54040,5,4,0:0:0:0:
320,128,54148,1,6,0:0:0:0:
192,128,54362,1,4,0:0:0:0:
192,128,54576,1,4,0:0:0:0:
192,128,54790,5,4,0:0:0:0:
320,128,55005,1,6,0:0:0:0:
320,128,55219,1,6,0:0:0:0:
192,128,55433,1,4,0:0:0:0:
192,128,55648,5,4,0:0:0:0:
192,128,55862,1,4,0:0:0:0:
320,256,55969,1,2,0:0:0:0:
192,128,56076,1,4,0:0:0:0:
192,128,56290,1,4,0:0:0:0:
320,128,56505,5,6,0:0:0:0:
192,128,56719,1,4,0:0:0:0:
320,128,56933,5,6,0:0:0:0:
192,128,57148,1,4,0:0:0:0:
192,256,57255,1,0,0:0:0:0:
320,128,57362,5,6,0:0:0:0:
320,128,57576,1,6,0:0:0:0:
192,256,57683,1,0,0:0:0:0:
192,128,57790,5,4,0:0:0:0:
192,128,58005,1,4,0:0:0:0:
320,256,58112,1,2,0:0:0:0:
320,128,58219,5,6,0:0:0:0:
192,128,58433,5,4,0:0:0:0:
320,128,58648,5,6,0:0:0:0:
320,128,58862,5,6,0:0:0:0:
320,256,58969,1,2,0:0:0:0:
320,128,59076,5,6,0:0:0:0:
320,128,59290,5,6,0:0:0:0:
192,128,59505,1,4,0:0:0:0:
320,128,59719,5,6,0:0:0:0:
320,256,59826,1,2,0:0:0:0:
320,128,59933,1,6,0:0:0:0:
192,128,60148,5,4,0:0:0:0:
320,128,60362,5,6,0:0:0:0:
192,256,60469,1,0,0:0:0:0:
320,128,60576,1,6,0:0:0:0:
192,256,60683,1,0,0:0:0:0:
192,128,60790,5,4,0:0:0:0:
320,128,61005,5,6,0:0:0:0:
192,128,61219,5,4,0:0:0:0:
320,128,61648,5,6,0:0:0:0:
192,128,61862,1,4,0:0:0:0:
192,128,62076,1,4,0:0:0:0:
320,128,62290,1,6,0:0:0:0:
192,128,62505,1,4,0:0:0:0:
192,256,62719,1,0,0:0:0:0:
320,256,62790,1,2,0:0:0:0:
320,256,62862,1,2,0:0:0:0:
192,256,62933,1,0,0:0:0:0:
192,256,63148,1,0,0:0:0:0:
320,128,63362,5,6,0:0:0:0:
320,256,63469,1,2,0:0:0:0:
192,128,63576,1,4,0:0:0:0:
320,256,63683,1,2,0:0:0:0:
192,128,63790,1,4,0:0:0:0:
320,256,63898,1,2,0:0:0:0:
320,128,64005,1,6,0:0:0:0:
320,256,64112,1,2,0:0:0:0:
320,128,64219,1,6,0:0:0:0:
320,256,64326,1,2,0:0:0:0:
320,256,64380,1,2,0:0:0:0:
320,256,64433,1,2,0:0:0:0:
192,128,64648,1,4,0:0:0:0:
320,256,64755,1,2,0:0:0:0:
320,256,64808,1,2,0:0:0:0:
192,256,64862,1,0,0:0:0:0:
192,256,64915,1,0,0:0:0:0:
320,256,64969,1,2,0:0:0:0:
320,256,65023,1,2,0:0:0:0:
320,256,65076,5,2,0:0:0:0:
320,256,65219,1,2,0:0:0:0:
192,128,65290,1,4,0:0:0:0:
320,256,65433,1,2,0:0:0:0:
192,128,65505,1,4,0:0:0:0:
320,256,65648,1,2,0:0:0:0:
192,128,65719,1,4,0:0:0:0:
320,256,65862,1,2,0:0:0:0:
192,128,65933,1,4,0:0:0:0:
192,256,66076,1,0,0:0:0:0:
192,128,66148,1,4,0:0:0:0:
192,256,66290,1,0,0:0:0:0:
192,128,66362,1,4,0:0:0:0:
192,256,66505,1,0,0:0:0:0:
192,128,66576,1,4,0:0:0:0:
192,256,66719,1,0,0:0:0:0:
192,128,66790,1,4,0:0:0:0:
192,128,67005,1,4,0:0:0:0:
320,128,67219,1,6,0:0:0:0:
192,128,67433,1,4,0:0:0:0:
256,192,67648,12,4,67862,0:0:0:0:
192,256,68076,5,0,0:0:0:0:
320,256,68130,1,2,0:0:0:0:
192,256,68183,1,0,0:0:0:0:
320,256,68237,1,2,0:0:0:0:
192,256,68290,1,0,0:0:0:0:
320,256,68344,1,2,0:0:0:0:
192,256,68398,1,0,0:0:0:0:
320,256,68451,1,2,0:0:0:0:
192,256,68505,5,0,0:0:0:0:
192,256,68612,1,0,0:0:0:0:
192,256,68719,1,0,0:0:0:0:
192,256,68773,1,0,0:0:0:0:
320,256,68826,1,2,0:0:0:0:
320,256,68880,1,2,0:0:0:0:
192,256,68933,1,0,0:0:0:0:
320,256,69040,1,2,0:0:0:0:
192,256,69148,1,0,0:0:0:0:
320,256,69201,1,2,0:0:0:0:
320,256,69255,1,2,0:0:0:0:
320,256,69308,1,2,0:0:0:0:
192,256,69362,1,0,0:0:0:0:
192,256,69433,1,0,0:0:0:0:
192,256,69505,1,0,0:0:0:0:
320,256,69576,1,2,0:0:0:0:
192,128,69683,1,4,0:0:0:0:
192,256,69898,1,0,0:0:0:0:
320,256,70005,1,2,0:0:0:0:
320,256,70040,1,2,0:0:0:0:
320,256,70076,1,2,0:0:0:0:
192,256,70112,1,0,0:0:0:0:
192,128,70219,1,4,0:0:0:0:
320,256,70326,1,2,0:0:0:0:
320,256,70380,1,2,0:0:0:0:
320,256,70433,1,2,0:0:0:0:
192,256,70540,1,0,0:0:0:0:
192,256,70755,1,0,0:0:0:0:
320,256,70862,1,2,0:0:0:0:
320,256,70898,1,2,0:0:0:0:
320,256,70933,1,2,0:0:0:0:
320,256,70969,1,2,0:0:0:0:
320,256,71005,1,2,0:0:0:0:
320,256,71040,1,2,0:0:0:0:
192,256,71076,1,0,0:0:0:0:
192,256,71183,1,0,0:0:0:0:
320,128,71290,1,6,0:0:0:0:
192,256,71398,1,0,0:0:0:0:
320,256,71505,1,2,0:0:0:0:
320,256,71558,1,2,0:0:0:0:
320,256,71612,1,2,0:0:0:0:
320,256,71826,1,2,0:0:0:0:
320,256,71880,1,2,0:0:0:0:
192,256,71933,1,0,0:0:0:0:
320,256,72094,1,2,0:0:0:0:
320,256,72201,1,2,0:0:0:0:
192,128,72362,1,4,0:0:0:0:
320,256,72469,1,2,0:0:0:0:
320,256,72523,1,2,0:0:0:0:
192,128,72790,1,4,0:0:0:0:
320,256,73005,1,2,0:0:0:0:
192,128,73112,1,4,0:0:0:0:
192,256,73326,1,0,0:0:0:0:
320,256,73433,1,2,0:0:0:0:
320,256,73469,1,2,0:0:0:0:
320,256,73505,1,2,0:0:0:0:
192,256,73540,1,0,0:0:0:0:
320,256,73648,1,2,0:0:0:0:
320,256,73683,1,2,0:0:0:0:
320,256,73719,1,2,0:0:0:0:
320,256,73755,1,2,0:0:0:0:
320,256,73808,1,2,0:0:0:0:
320,256,73862,1,2,0:0:0:0:
192,128,73969,1,4,0:0:0:0:
192,256,74183,1,0,0:0:0:0:
320,256,74290,1,2,0:0:0:0:
320,256,74326,1,2,0:0:0:0:
320,256,74362,1,2,0:0:0:0:
320,256,74398,1,2,0:0:0:0:
192,128,74505,1,4,0:0:0:0:
192,256,74612,1,0,0:0:0:0:
192,128,74719,1,4,0:0:0:0:
192,256,74826,1,0,0:0:0:0:
320,256,74933,1,2,0:0:0:0:
320,256,74987,1,2,0:0:0:0:
192,128,75040,1,0,0:0:0:0:
192,256,75148,1,0,0:0:0:0:
320,256,75255,1,2,0:0:0:0:
192,128,75362,1,0,0:0:0:0:
192,256,75469,1,0,0:0:0:0:
192,256,75576,5,0,0:0:0:0:
320,256,75683,1,2,0:0:0:0:
320,256,75790,1,2,0:0:0:0:
192,256,76005,1,0,0:0:0:0:
192,256,76219,1,0,0:0:0:0:
320,256,76290,1,2,0:0:0:0:
320,256,76362,1,2,0:0:0:0:
192,256,76433,1,0,0:0:0:0:
320,256,76505,1,2,0:0:0:0:
320,256,76576,1,2,0:0:0:0:
192,256,76648,1,0,0:0:0:0:
192,256,76862,1,0,0:0:0:0:
192,256,77076,1,0,0:0:0:0:
320,256,77148,1,2,0:0:0:0:
320,256,77219,1,2,0:0:0:0:
192,256,77290,1,0,0:0:0:0:
320,256,77362,1,2,0:0:0:0:
320,256,77433,1,2,0:0:0:0:
192,256,77505,1,0,0:0:0:0:
320,256,77576,1,2,0:0:0:0:
320,256,77648,1,2,0:0:0:0:
192,256,77719,1,0,0:0:0:0:
192,256,77933,1,0,0:0:0:0:
320,256,78005,1,2,0:0:0:0:
320,256,78076,1,2,0:0:0:0:
320,128,78362,1,6,0:0:0:0:
192,256,78576,1,0,0:0:0:0:
192,256,78683,1,0,0:0:0:0:
192,256,78790,1,0,0:0:0:0:
320,256,78862,1,2,0:0:0:0:
320,256,78933,1,2,0:0:0:0:
192,256,79005,1,0,0:0:0:0:
192,256,79112,1,0,0:0:0:0:
320,128,79219,1,6,0:0:0:0:
192,256,79433,1,0,0:0:0:0:
192,256,79540,1,0,0:0:0:0:
320,128,79648,1,6,0:0:0:0:
192,256,79862,1,0,0:0:0:0:
320,128,80076,1,6,0:0:0:0:
192,256,80290,1,0,0:0:0:0:
192,256,80398,1,0,0:0:0:0:
320,128,80505,1,6,0:0:0:0:
192,256,80719,1,0,0:0:0:0:
320,128,80933,1,6,0:0:0:0:
192,256,81148,1,0,0:0:0:0:
192,256,81255,1,0,0:0:0:0:
192,128,81362,5,4,0:0:0:0:
192,256,81576,1,0,0:0:0:0:
192,128,81683,1,4,0:0:0:0:
192,256,81862,1,0,0:0:0:0:
192,256,81933,1,0,0:0:0:0:
320,256,82005,1,2,0:0:0:0:
320,256,82076,1,2,0:0:0:0:
320,256,82148,1,2,0:0:0:0:
192,256,82219,1,0,0:0:0:0:
320,256,82362,1,2,0:0:0:0:
192,128,82433,1,4,0:0:0:0:
192,256,82540,1,0,0:0:0:0:
320,256,82648,1,2,0:0:0:0:
192,128,82862,1,4,0:0:0:0:
192,128,83076,5,4,0:0:0:0:
320,256,83183,1,2,0:0:0:0:
320,128,83290,1,6,0:0:0:0:
320,256,83398,1,2,0:0:0:0:
320,128,83505,1,6,0:0:0:0:
320,256,83612,1,2,0:0:0:0:
192,128,83719,1,4,0:0:0:0:
320,256,83826,1,2,0:0:0:0:
192,128,83933,5,4,0:0:0:0:
320,256,84148,1,2,0:0:0:0:
192,256,84255,1,0,0:0:0:0:
320,128,84362,5,6,0:0:0:0:
192,128,84576,5,4,0:0:0:0:
320,256,84790,5,2,0:0:0:0:
320,256,84826,1,2,0:0:0:0:
320,256,84862,1,2,0:0:0:0:
192,128,85005,1,4,0:0:0:0:
320,256,85112,1,2,0:0:0:0:
192,128,85219,5,4,0:0:0:0:
192,256,85326,1,0,0:0:0:0:
192,256,85380,1,0,0:0:0:0:
320,256,85433,1,2,0:0:0:0:
192,256,85540,1,0,0:0:0:0:
320,256,85594,1,2,0:0:0:0:
320,128,85648,5,6,0:0:0:0:
320,128,85790,5,6,0:0:0:0:
320,128,85969,5,6,0:0:0:0:
320,128,86076,5,6,0:0:0:0:
320,128,86183,5,6,0:0:0:0:
192,128,86290,5,4,0:0:0:0:
192,128,86344,1,4,0:0:0:0:
320,128,86398,1,6,0:0:0:0:
320,128,86451,1,6,0:0:0:0:
320,128,86505,5,2,0:0:0:0:
192,128,86719,5,4,0:0:0:0:
320,256,86826,1,2,0:0:0:0:
320,128,86933,1,2,0:0:0:0:
192,128,87148,1,4,0:0:0:0:
320,128,87362,1,6,0:0:0:0:
320,256,87469,1,2,0:0:0:0:
192,256,87523,1,0,0:0:0:0:
320,128,87576,5,2,0:0:0:0:
192,256,87790,1,0,0:0:0:0:
320,256,87826,1,2,0:0:0:0:
320,256,87862,1,2,0:0:0:0:
320,256,87898,1,2,0:0:0:0:
192,256,88005,1,0,0:0:0:0:
192,256,88058,1,0,0:0:0:0:
192,256,88112,1,0,0:0:0:0:
192,256,88165,1,0,0:0:0:0:
320,256,88219,1,2,0:0:0:0:
320,256,88326,1,2,0:0:0:0:
192,128,88433,1,4,0:0:0:0:
320,256,88540,1,2,0:0:0:0:
192,256,88648,5,0,0:0:0:0:
192,256,88755,1,0,0:0:0:0:
320,256,88862,1,2,0:0:0:0:
320,256,88969,1,2,0:0:0:0:
320,128,89076,5,6,0:0:0:0:
320,128,89290,1,6,0:0:0:0:
320,256,89505,1,2,0:0:0:0:
192,256,89558,1,0,0:0:0:0:
192,256,89612,1,0,0:0:0:0:
192,256,89665,1,0,0:0:0:0:
192,256,89719,1,0,0:0:0:0:
320,256,89773,1,2,0:0:0:0:
320,256,89826,1,2,0:0:0:0:
320,256,89880,1,2,0:0:0:0:
192,256,89933,1,0,0:0:0:0:
320,256,90040,1,2,0:0:0:0:
192,256,90148,1,0,0:0:0:0:
320,256,90255,1,2,0:0:0:0:
192,256,90362,1,0,0:0:0:0:
320,256,90469,1,2,0:0:0:0:
192,256,90576,1,0,0:0:0:0:
320,256,90683,1,2,0:0:0:0:
320,256,90790,1,2,0:0:0:0:
192,256,90817,1,0,0:0:0:0:
192,256,90898,1,0,0:0:0:0:
320,256,90924,1,2,0:0:0:0:
320,256,91005,1,2,0:0:0:0:
192,256,91032,1,0,0:0:0:0:
192,256,91112,1,0,0:0:0:0:
320,256,91139,1,2,0:0:0:0:
320,256,91219,1,2,0:0:0:0:
192,256,91246,1,0,0:0:0:0:
192,256,91326,1,0,0:0:0:0:
320,256,91353,1,2,0:0:0:0:
320,256,91433,1,2,0:0:0:0:
192,256,91460,1,0,0:0:0:0:
192,256,91540,1,0,0:0:0:0:
320,256,91567,1,2,0:0:0:0:
320,128,91648,5,6,0:0:0:0:
320,256,91755,1,2,0:0:0:0:
192,128,91862,1,4,0:0:0:0:
320,128,92076,1,6,0:0:0:0:
320,256,92183,1,2,0:0:0:0:
192,128,92290,1,4,0:0:0:0:
192,256,92505,1,0,0:0:0:0:
192,256,92612,1,0,0:0:0:0:
320,256,92719,1,2,0:0:0:0:
320,256,92826,1,2,0:0:0:0:
256,192,92933,12,2,93255,0:0:0:0:
192,128,93362,5,4,0:0:0:0:
256,192,93790,12,4,94112,0:0:0:0:
192,128,94433,5,4,0:0:0:0:
192,256,94648,1,0,0:0:0:0:
192,256,94755,1,0,0:0:0:0:
320,256,94862,1,2,0:0:0:0:
320,256,94969,1,2,0:0:0:0:
320,256,95076,1,2,0:0:0:0:
320,256,95112,1,2,0:0:0:0:
320,256,95148,1,2,0:0:0:0:
320,256,95219,1,2,0:0:0:0:
192,128,95290,1,4,0:0:0:0:
192,256,95398,1,0,0:0:0:0:
320,128,95505,1,6,0:0:0:0:
192,256,95612,1,0,0:0:0:0:
320,128,95719,1,6,0:0:0:0:
192,256,95826,1,0,0:0:0:0:
320,128,96148,5,6,0:0:0:0:
320,128,96469,1,6,0:0:0:0:
320,256,96790,1,2,0:0:0:0:
192,256,96826,1,0,0:0:0:0:
192,256,96862,1,0,0:0:0:0:
192,256,96951,1,0,0:0:0:0:
320,256,97005,1,2,0:0:0:0:
192,256,97112,1,0,0:0:0:0:
320,128,97219,1,6,0:0:0:0:
192,256,97326,1,0,0:0:0:0:
320,128,97433,1,6,0:0:0:0:
192,128,97540,5,0,0:0:0:0:
192,128,97862,1,4,0:0:0:0:
192,128,98183,1,4,0:0:0:0:
192,256,98505,1,0,0:0:0:0:
192,256,98558,1,0,0:0:0:0:
192,256,98612,1,0,0:0:0:0:
192,256,98665,1,0,0:0:0:0:
320,256,98719,1,2,0:0:0:0:
320,256,98773,1,2,0:0:0:0:
320,256,98826,1,2,0:0:0:0:
192,256,98880,1,0,0:0:0:0:
192,256,98987,1,0,0:0:0:0:
320,256,99040,1,2,0:0:0:0:
320,256,99094,1,2,0:0:0:0:
320,256,99148,1,2,0:0:0:0:
192,256,99201,1,0,0:0:0:0:
320,128,99255,1,2,0:0:0:0:
320,128,99362,1,6,0:0:0:0:
192,128,99576,1,4,0:0:0:0:
320,128,99898,1,6,0:0:0:0:
320,128,100005,1,6,0:0:0:0:
192,128,100219,1,4,0:0:0:0:
192,256,100326,1,0,0:0:0:0:
192,256,100380,1,0,0:0:0:0:
192,128,100433,1,0,0:0:0:0:
192,256,100540,1,0,0:0:0:0:
192,256,100755,1,0,0:0:0:0:
320,256,100862,1,2,0:0:0:0:
192,256,100969,1,0,0:0:0:0:
192,128,101076,1,4,0:0:0:0:
192,128,101290,1,4,0:0:0:0:
320,256,101505,1,2,0:0:0:0:
192,128,101612,1,4,0:0:0:0:
320,256,101719,1,2,0:0:0:0:
192,256,101933,1,0,0:0:0:0:
192,256,101987,1,0,0:0:0:0:
320,256,102040,1,2,0:0:0:0:
320,256,102094,1,2,0:0:0:0:
320,256,102148,1,2,0:0:0:0:
192,128,102255,1,4,0:0:0:0:
320,128,102362,1,6,0:0:0:0:
192,128,102469,1,4,0:0:0:0:
320,128,102576,1,6,0:0:0:0:
192,128,102683,1,4,0:0:0:0:
192,128,103005,1,4,0:0:0:0:
192,128,103326,1,4,0:0:0:0:
320,128,103433,1,6,0:0:0:0:
192,256,103648,1,0,0:0:0:0:
192,256,103701,1,0,0:0:0:0:
192,256,103755,1,0,0:0:0:0:
192,256,103808,1,0,0:0:0:0:
320,256,103862,1,2,0:0:0:0:
192,256,103915,1,0,0:0:0:0:
192,256,103969,1,0,0:0:0:0:
320,256,104023,1,2,0:0:0:0:
192,256,104130,1,0,0:0:0:0:
192,256,104183,1,0,0:0:0:0:
192,256,104237,1,0,0:0:0:0:
192,256,104290,1,0,0:0:0:0:
192,256,104344,1,0,0:0:0:0:
320,256,104398,1,2,0:0:0:0:
320,256,104451,1,2,0:0:0:0:
320,256,104505,1,2,0:0:0:0:
320,256,104576,1,2,0:0:0:0:
320,256,104648,1,2,0:0:0:0:
192,256,104719,1,0,0:0:0:0:
192,256,104790,1,0,0:0:0:0:
192,256,104862,1,0,0:0:0:0:
192,128,104933,1,4,0:0:0:0:
192,128,105040,1,4,0:0:0:0:
192,128,105148,1,4,0:0:0:0:
192,128,105255,1,4,0:0:0:0:
192,256,105362,1,0,0:0:0:0:
192,256,105415,1,0,0:0:0:0:
320,256,105469,1,2,0:0:0:0:
320,256,105523,1,2,0:0:0:0:
192,256,105576,1,0,0:0:0:0:
320,256,105630,1,2,0:0:0:0:
320,256,105683,1,2,0:0:0:0:
320,256,105737,1,2,0:0:0:0:
192,128,105790,5,4,0:0:0:0:
192,128,106005,1,4,0:0:0:0:
192,128,106433,1,4,0:0:0:0:
192,128,106755,1,4,0:0:0:0:
192,128,107076,1,4,0:0:0:0:
192,128,107290,1,4,0:0:0:0:
320,256,107398,1,2,0:0:0:0:
320,256,107719,1,2,0:0:0:0:
192,256,107933,1,0,0:0:0:0:
192,256,107987,1,0,0:0:0:0:
192,256,108040,1,0,0:0:0:0:
192,256,108094,1,0,0:0:0:0:
320,256,108148,1,2,0:0:0:0:
320,256,108201,1,2,0:0:0:0:
320,256,108255,1,2,0:0:0:0:
320,256,108308,1,2,0:0:0:0:
320,256,108362,1,2,0:0:0:0:
320,256,108415,1,2,0:0:0:0:
320,256,108469,1,2,0:0:0:0:
320,256,108523,1,2,0:0:0:0:
320,256,108576,1,2,0:0:0:0:
192,256,108683,1,0,0:0:0:0:
320,256,109005,5,2,0:0:0:0:
192,256,109058,1,0,0:0:0:0:
192,256,109112,1,0,0:0:0:0:
192,256,109165,1,0,0:0:0:0:
320,256,109219,1,2,0:0:0:0:
192,256,109273,1,0,0:0:0:0:
192,256,109326,1,0,0:0:0:0:
192,256,109380,1,0,0:0:0:0:
320,256,109433,1,2,0:0:0:0:
192,256,109487,1,0,0:0:0:0:
192,256,109540,1,0,0:0:0:0:
192,256,109594,1,0,0:0:0:0:
192,128,109648,5,4,0:0:0:0:
192,128,110076,1,4,0:0:0:0:
320,256,110290,1,2,0:0:0:0:
320,128,110505,1,6,0:0:0:0:
192,128,111148,1,4,0:0:0:0:
192,128,111362,1,4,0:0:0:0:
192,128,111790,1,4,0:0:0:0:
320,256,112005,1,2,0:0:0:0:
320,128,112219,1,6,0:0:0:0:
192,128,112648,1,4,0:0:0:0:
192,128,113076,1,4,0:0:0:0:
192,128,113505,1,4,0:0:0:0:
320,256,113719,1,2,0:0:0:0:
320,128,113933,1,6,0:0:0:0:
192,128,114362,1,4,0:0:0:0:
192,128,114576,1,4,0:0:0:0:
192,128,114790,1,4,0:0:0:0:
192,128,115219,1,4,0:0:0:0:
320,256,115433,1,2,0:0:0:0:
320,128,115648,1,6,0:0:0:0:
192,128,116076,1,4,0:0:0:0:
192,256,116719,5,0,0:0:0:0:
320,256,116826,1,2,0:0:0:0:
320,256,116933,1,2,0:0:0:0:
192,256,117148,1,0,0:0:0:0:
320,128,117362,5,6,0:0:0:0:
192,256,117576,1,0,0:0:0:0:
320,256,117790,1,2,0:0:0:0:
192,256,118005,1,0,0:0:0:0:
320,256,118219,1,2,0:0:0:0:
192,256,118433,1,0,0:0:0:0:
192,256,118540,1,0,0:0:0:0:
320,256,118648,1,2,0:0:0:0:
192,256,118862,1,0,0:0:0:0:
320,256,119076,1,2,0:0:0:0:
192,256,119290,1,0,0:0:0:0:
320,256,119505,1,2,0:0:0:0:
192,256,119719,1,0,0:0:0:0:
192,256,119826,1,0,0:0:0:0:
320,256,119933,1,2,0:0:0:0:
320,256,120148,1,2,0:0:0:0:
192,256,120255,1,0,0:0:0:0:
192,256,120362,1,0,0:0:0:0:
192,256,120576,1,0,0:0:0:0:
320,256,120683,1,2,0:0:0:0:
320,256,120790,1,2,0:0:0:0:
192,256,121005,1,0,0:0:0:0:
320,256,121219,1,2,0:0:0:0:
320,256,121433,1,2,0:0:0:0:
320,256,121540,1,2,0:0:0:0:
192,256,121648,1,0,0:0:0:0:
320,256,121862,1,2,0:0:0:0:
192,256,122076,1,0,0:0:0:0:
192,256,122290,1,0,0:0:0:0:
320,256,122398,1,2,0:0:0:0:
320,128,122505,5,6,0:0:0:0:
192,128,122719,1,4,0:0:0:0:
320,128,122862,1,6,0:0:0:0:
320,128,122933,1,6,0:0:0:0:
192,128,123005,1,4,0:0:0:0:
192,128,123076,1,4,0:0:0:0:
320,128,123148,1,6,0:0:0:0:
192,128,123290,1,4,0:0:0:0:
192,128,123362,1,4,0:0:0:0:
192,128,123505,1,4,0:0:0:0:
320,128,123576,1,6,0:0:0:0:
320,256,123683,1,2,0:0:0:0:
320,128,123790,1,6,0:0:0:0:
192,128,124005,1,4,0:0:0:0:
192,128,124219,5,4,0:0:0:0:
192,256,124326,1,0,0:0:0:0:
320,256,124433,1,2,0:0:0:0:
320,256,124487,1,2,0:0:0:0:
192,256,124540,1,0,0:0:0:0:
320,256,124648,1,2,0:0:0:0:
320,256,124701,1,2,0:0:0:0:
192,256,124755,1,0,0:0:0:0:
192,256,124862,1,0,0:0:0:0:
320,256,124915,1,2,0:0:0:0:
192,256,124969,1,0,0:0:0:0:
192,128,125076,1,4,0:0:0:0:
192,256,125183,1,0,0:0:0:0:
320,256,125237,1,2,0:0:0:0:
192,128,125290,1,0,0:0:0:0:
192,128,125398,1,4,0:0:0:0:
320,128,125505,1,6,0:0:0:0:
192,256,125612,1,0,0:0:0:0:
192,128,125719,1,4,0:0:0:0:
192,256,125826,1,0,0:0:0:0:
192,128,125933,1,4,0:0:0:0:
192,256,126040,1,0,0:0:0:0:
192,128,126148,1,4,0:0:0:0:
320,256,126290,1,2,0:0:0:0:
320,256,126326,1,2,0:0:0:0:
192,256,126362,1,0,0:0:0:0:
192,256,126469,1,0,0:0:0:0:
192,128,126576,1,4,0:0:0:0:
192,128,126683,1,4,0:0:0:0:
320,256,126790,1,2,0:0:0:0:
320,256,126844,1,2,0:0:0:0:
192,256,126898,1,0,0:0:0:0:
320,256,126951,1,2,0:0:0:0:
320,256,127005,1,2,0:0:0:0:
192,256,127112,1,0,0:0:0:0:
320,256,127219,1,2,0:0:0:0:
320,256,127273,1,2,0:0:0:0:
192,256,127326,1,0,0:0:0:0:
320,256,127380,1,2,0:0:0:0:
320,256,127433,1,2,0:0:0:0:
320,256,127460,1,2,0:0:0:0:
320,256,127540,1,2,0:0:0:0:
320,256,127567,1,2,0:0:0:0:
320,128,127648,1,6,0:0:0:0:
192,256,127755,1,0,0:0:0:0:
320,256,127862,1,2,0:0:0:0:
320,256,127889,1,2,0:0:0:0:
192,256,127969,1,0,0:0:0:0:
320,128,128076,1,6,0:0:0:0:
192,256,128183,1,0,0:0:0:0:
320,256,128290,1,2,0:0:0:0:
320,256,128317,1,2,0:0:0:0:
192,256,128398,1,0,0:0:0:0:
320,128,128505,1,6,0:0:0:0:
192,256,128612,1,0,0:0:0:0:
320,256,128719,1,2,0:0:0:0:
320,256,128746,1,2,0:0:0:0:
320,256,128826,1,2,0:0:0:0:
320,256,128853,1,2,0:0:0:0:
192,128,128933,1,4,0:0:0:0:
192,256,129040,1,0,0:0:0:0:
320,128,129148,1,6,0:0:0:0:
192,128,129255,1,4,0:0:0:0:
320,128,129362,1,6,0:0:0:0:
192,256,129469,1,0,0:0:0:0:
192,128,129576,1,4,0:0:0:0:
192,256,129683,1,0,0:0:0:0:
320,128,129790,1,6,0:0:0:0:
192,256,129898,1,0,0:0:0:0:
320,128,130005,1,6,0:0:0:0:
320,256,130112,1,2,0:0:0:0:
192,128,130219,1,4,0:0:0:0:
320,256,130433,1,2,0:0:0:0:
320,256,130469,1,2,0:0:0:0:
320,256,130505,1,2,0:0:0:0:
192,256,130648,1,0,0:0:0:0:
192,256,130683,1,0,0:0:0:0:
192,256,130719,1,0,0:0:0:0:
192,256,130862,1,0,0:0:0:0:
192,256,130915,1,0,0:0:0:0:
192,256,130969,1,0,0:0:0:0:
192,256,131023,1,0,0:0:0:0:
320,256,131076,1,2,0:0:0:0:
192,256,131183,1,0,0:0:0:0:
192,128,131290,1,4,0:0:0:0:
192,256,131398,1,0,0:0:0:0:
320,128,131505,1,6,0:0:0:0:
192,256,131612,1,0,0:0:0:0:
320,128,131719,1,6,0:0:0:0:
192,256,131826,1,0,0:0:0:0:
192,128,131933,1,4,0:0:0:0:
192,256,132040,1,0,0:0:0:0:
192,128,132148,1,0,0:0:0:0:
320,128,132219,1,2,0:0:0:0:
320,128,132290,1,2,0:0:0:0:
192,128,132362,1,0,0:0:0:0:
320,256,132469,1,2,0:0:0:0:
192,128,132576,1,4,0:0:0:0:
192,256,132683,1,0,0:0:0:0:
320,128,132790,1,6,0:0:0:0:
192,256,132898,1,0,0:0:0:0:
320,256,132951,1,2,0:0:0:0:
192,256,133005,1,0,0:0:0:0:
320,256,133058,1,2,0:0:0:0:
192,256,133112,1,0,0:0:0:0:
320,256,133219,1,2,0:0:0:0:
320,256,133273,1,2,0:0:0:0:
192,256,133326,1,0,0:0:0:0:
192,256,133380,1,0,0:0:0:0:
320,256,133433,1,2,0:0:0:0:
192,256,133540,1,0,0:0:0:0:
320,256,133648,1,2,0:0:0:0:
320,256,133701,1,2,0:0:0:0:
320,256,133755,1,2,0:0:0:0:
320,256,133808,1,2,0:0:0:0:
192,256,133862,1,0,0:0:0:0:
192,128,133969,1,4,0:0:0:0:
320,256,134076,1,2,0:0:0:0:
320,256,134130,1,2,0:0:0:0:
320,256,134183,1,2,0:0:0:0:
320,256,134237,1,2,0:0:0:0:
192,256,134290,1,0,0:0:0:0:
320,128,134505,1,6,0:0:0:0:
192,256,134612,1,0,0:0:0:0:
192,128,134719,1,4,0:0:0:0:
192,256,134826,1,0,0:0:0:0:
192,256,134933,1,0,0:0:0:0:
192,256,134987,1,0,0:0:0:0:
192,256,135040,1,0,0:0:0:0:
192,256,135094,1,0,0:0:0:0:
320,256,135148,1,2,0:0:0:0:
192,256,135255,1,0,0:0:0:0:
320,128,135362,1,6,0:0:0:0:
192,256,135469,1,0,0:0:0:0:
192,128,135576,1,4,0:0:0:0:
192,256,135683,1,0,0:0:0:0:
192,256,135737,1,0,0:0:0:0:
320,256,135790,1,2,0:0:0:0:
320,256,135844,1,2,0:0:0:0:
320,256,135898,1,2,0:0:0:0:
320,256,135951,1,2,0:0:0:0:
320,256,136005,1,2,0:0:0:0:
320,256,136040,1,2,0:0:0:0:
320,256,136076,1,2,0:0:0:0:
320,256,136112,1,2,0:0:0:0:
320,256,136148,1,2,0:0:0:0:
320,256,136183,1,2,0:0:0:0:
320,256,136219,1,2,0:0:0:0:
192,256,136326,1,0,0:0:0:0:
192,128,136433,1,4,0:0:0:0:
192,256,136540,1,0,0:0:0:0:
192,256,136648,1,0,0:0:0:0:
192,256,136701,1,0,0:0:0:0:
192,256,136755,1,0,0:0:0:0:
192,256,136808,1,0,0:0:0:0:
320,256,136862,1,2,0:0:0:0:
192,256,136969,1,0,0:0:0:0:
320,128,137076,1,6,0:0:0:0:
320,256,137183,1,2,0:0:0:0:
320,256,137237,1,2,0:0:0:0:
192,256,137290,1,0,0:0:0:0:
320,256,137398,1,2,0:0:0:0:
320,256,137451,1,2,0:0:0:0:
192,256,137505,1,0,0:0:0:0:
192,256,137558,1,0,0:0:0:0:
320,256,137612,1,2,0:0:0:0:
320,256,137665,1,2,0:0:0:0:
192,256,137719,1,0,0:0:0:0:
192,256,137755,1,0,0:0:0:0:
192,256,137790,1,0,0:0:0:0:
192,256,137826,1,0,0:0:0:0:
192,256,137862,1,0,0:0:0:0:
192,256,137898,1,0,0:0:0:0:
320,256,137933,1,2,0:0:0:0:
320,256,137987,1,2,0:0:0:0:
320,256,138040,1,2,0:0:0:0:
320,256,138094,1,2,0:0:0:0:
192,256,138148,1,0,0:0:0:0:
192,256,138183,1,0,0:0:0:0:
192,256,138219,1,0,0:0:0:0:
192,256,138255,1,0,0:0:0:0:
192,256,138290,1,0,0:0:0:0:
192,256,138326,1,0,0:0:0:0:
320,256,138362,1,2,0:0:0:0:
320,256,138415,1,2,0:0:0:0:
320,256,138469,1,2,0:0:0:0:
320,256,138523,1,2,0:0:0:0:
320,256,138576,1,2,0:0:0:0:
320,256,138612,1,2,0:0:0:0:
320,256,138648,1,2,0:0:0:0:
320,256,138683,1,2,0:0:0:0:
320,256,138719,1,2,0:0:0:0:
320,256,138755,1,2,0:0:0:0:
320,256,138790,1,2,0:0:0:0:
192,256,138898,1,0,0:0:0:0:
320,256,139005,1,2,0:0:0:0:
320,256,139040,1,2,0:0:0:0:
320,256,139076,1,2,0:0:0:0:
320,256,139112,1,2,0:0:0:0:
320,256,139148,1,2,0:0:0:0:
320,256,139183,1,2,0:0:0:0:
192,256,139219,1,0,0:0:0:0:
192,256,139326,1,0,0:0:0:0:
320,256,139433,1,2,0:0:0:0:
192,256,139469,1,0,0:0:0:0:
192,256,139505,1,0,0:0:0:0:
320,256,139540,1,2,0:0:0:0:
192,256,139576,1,0,0:0:0:0:
192,256,139612,1,0,0:0:0:0:
320,256,139648,1,2,0:0:0:0:
320,128,139862,1,6,0:0:0:0:
320,256,139969,1,2,0:0:0:0:
320,256,140023,1,2,0:0:0:0:
192,128,140076,1,4,0:0:0:0:
192,128,140290,1,4,0:0:0:0:
192,128,140505,1,4,0:0:0:0:
192,128,140719,1,4,0:0:0:0:
192,128,140933,1,4,0:0:0:0:
192,128,141148,1,4,0:0:0:0:
320,128,141790,5,6,0:0:0:0:
320,256,142219,1,2,0:0:0:0:
320,256,142648,1,2,0:0:0:0:
320,256,143076,1,2,0:0:0:0:
256,192,143505,12,2,144362,0:0:0:0:
320,128,144790,5,6,0:0:0:0:
320,128,144826,1,6,0:0:0:0:
320,128,144862,1,6,0:0:0:0:
320,128,144898,1,6,0:0:0:0:
