osu file format v14

[General]
AudioFilename: audio.mp3
AudioLeadIn: 0
PreviewTime: -1
Countdown: 1
SampleSet: None
StackLeniency: 0.7
Mode: 1
LetterboxInBreaks: 0
WidescreenStoryboard: 1

[Editor]
DistanceSpacing: 2
BeatDivisor: 2
GridSize: 32
TimelineZoom: 2.399999

[Metadata]
Title:Doppelganger
TitleUnicode:Doppelganger
Artist:LeaF
ArtistUnicode:LeaF
Creator:driodx
Version:A Mere Reflection
Source:SOUND VOLTEX IV HEAVENLY HAVEN
Tags:doppelganger LeaF sound voltex iv heavenly haven
BeatmapID:1855544
BeatmapSetID:886081

[Difficulty]
HPDrainRate:8
CircleSize:2
OverallDifficulty:3
ApproachRate:6
SliderMultiplier:1.2
SliderTickRate:1

[Events]
//Background and Video events
0,0,"Doppelganger.png",0,0
//Break Periods
2,75562,80312
2,109848,116312
//Storyboard Layer 0 (Background)
//Storyboard Layer 1 (Fail)
//Storyboard Layer 2 (Pass)
//Storyboard Layer 3 (Foreground)
//Storyboard Sound Samples

[TimingPoints]
791,214.285714285714,4,1,0,100,1,0
124219,-100,4,1,0,100,0,1
141362,-100,4,1,0,100,0,0

[HitObjects]
320,256,791,5,2,0:0:0:0:
320,256,1112,1,2,0:0:0:0:
320,256,1540,1,2,0:0:0:0:
320,256,2505,1,2,0:0:0:0:
320,256,3790,1,2,0:0:0:0:
192,256,4219,1,0,0:0:0:0:
192,256,4648,1,0,0:0:0:0:
192,256,5076,1,0,0:0:0:0:
192,224,5933,1,0,0:0:0:0:
192,224,6790,1,0,0:0:0:0:
160,224,7648,1,0,0:0:0:0:
192,256,8505,1,0,0:0:0:0:
320,256,9362,1,2,0:0:0:0:
192,256,9790,1,0,0:0:0:0:
192,256,10219,1,0,0:0:0:0:
192,256,11076,5,0,0:0:0:0:
192,256,11933,1,0,0:0:0:0:
192,256,13005,1,0,0:0:0:0:
192,256,14505,1,0,0:0:0:0:
320,256,14933,1,2,0:0:0:0:
192,256,16005,1,0,0:0:0:0:
192,256,16219,1,0,0:0:0:0:
192,256,16862,1,0,0:0:0:0:
192,128,17933,1,4,0:0:0:0:
192,256,19648,5,0,0:0:0:0:
320,256,23076,1,2,0:0:0:0:
320,256,23933,1,2,0:0:0:0:
192,256,24790,1,0,0:0:0:0:
320,256,25648,1,2,0:0:0:0:
192,256,29933,1,0,0:0:0:0:
192,256,31648,1,0,0:0:0:0:
192,256,31969,1,0,0:0:0:0:
192,256,34219,1,0,0:0:0:0:
192,256,34862,1,0,0:0:0:0:
192,256,35505,1,0,0:0:0:0:
192,256,37648,1,0,0:0:0:0:
192,256,38505,1,0,0:0:0:0:
192,256,39790,1,0,0:0:0:0:
192,256,40648,1,0,0:0:0:0:
192,256,41076,1,0,0:0:0:0:
192,256,41505,1,0,0:0:0:0:
192,256,44505,1,0,0:0:0:0:
192,128,47933,1,4,0:0:0:0:
320,128,48790,1,6,0:0:0:0:
320,128,50505,1,6,0:0:0:0:
320,128,50933,1,6,0:0:0:0:
320,128,51362,1,6,0:0:0:0:
320,128,54790,1,6,0:0:0:0:
320,128,56505,1,6,0:0:0:0:
320,128,57362,1,6,0:0:0:0:
320,128,58219,1,6,0:0:0:0:
320,128,59933,1,6,0:0:0:0:
192,256,61648,1,0,0:0:0:0:
192,128,63362,1,4,0:0:0:0:
192,128,64219,1,4,0:0:0:0:
192,128,65076,1,4,0:0:0:0:
192,128,65505,1,0,0:0:0:0:
192,128,65933,1,0,0:0:0:0:
192,128,66362,1,0,0:0:0:0:
192,128,66790,1,0,0:0:0:0:
192,128,67219,1,0,0:0:0:0:
192,128,67648,1,4,0:0:0:0:
320,128,68505,1,6,0:0:0:0:
192,128,69362,1,4,0:0:0:0:
192,128,69683,1,4,0:0:0:0:
192,256,71933,1,0,0:0:0:0:
352,256,72362,1,2,0:0:0:0:
192,256,73648,1,0,0:0:0:0:
192,128,75362,1,4,0:0:0:0:
192,128,81362,5,4,0:0:0:0:
192,256,83076,1,0,0:0:0:0:
320,256,84362,1,2,0:0:0:0:
192,256,84576,1,0,0:0:0:0:
320,256,85648,1,2,0:0:0:0:
320,256,86505,1,2,0:0:0:0:
320,256,87362,1,2,0:0:0:0:
320,256,88219,1,2,0:0:0:0:
192,256,89076,1,0,0:0:0:0:
320,256,89290,1,2,0:0:0:0:
192,256,89505,1,0,0:0:0:0:
320,256,89933,1,2,0:0:0:0:
192,256,90790,1,0,0:0:0:0:
320,256,91648,1,2,0:0:0:0:
320,256,92076,1,2,0:0:0:0:
256,256,92505,1,0,0:0:0:0:
352,256,92933,1,2,0:0:0:0:
352,128,93362,1,6,0:0:0:0:
320,256,96148,1,2,0:0:0:0:
320,256,96469,1,2,0:0:0:0:
192,256,96790,1,0,0:0:0:0:
320,256,97540,1,2,0:0:0:0:
192,256,97862,1,0,0:0:0:0:
192,256,98183,1,0,0:0:0:0:
320,256,99362,1,2,0:0:0:0:
192,256,99576,1,0,0:0:0:0:
320,256,100219,1,2,0:0:0:0:
192,256,101076,1,0,0:0:0:0:
192,256,101933,1,0,0:0:0:0:
192,256,103648,1,0,0:0:0:0:
192,256,105362,1,0,0:0:0:0:
320,256,106433,1,2,0:0:0:0:
320,256,106755,1,2,0:0:0:0:
192,256,107076,1,0,0:0:0:0:
256,192,109005,12,0,109648,0:0:0:0:
320,128,117362,5,6,0:0:0:0:
320,256,117790,1,2,0:0:0:0:
320,256,118219,1,2,0:0:0:0:
320,256,118648,1,2,0:0:0:0:
320,256,119076,1,2,0:0:0:0:
192,128,122505,1,4,0:0:0:0:
192,128,122933,1,4,0:0:0:0:
192,128,123362,1,4,0:0:0:0:
192,128,124219,1,4,0:0:0:0:
320,256,125076,1,2,0:0:0:0:
192,256,125933,1,0,0:0:0:0:
320,256,126790,1,2,0:0:0:0:
192,256,127219,1,0,0:0:0:0:
320,256,127648,1,2,0:0:0:0:
320,256,128505,1,2,0:0:0:0:
320,256,129362,1,2,0:0:0:0:
320,256,131076,1,2,0:0:0:0:
192,256,131933,1,0,0:0:0:0:
192,256,132790,1,0,0:0:0:0:
192,256,133219,1,0,0:0:0:0:
192,256,133648,1,0,0:0:0:0:
192,256,134505,1,0,0:0:0:0:
320,256,135362,1,2,0:0:0:0:
192,256,136219,1,0,0:0:0:0:
320,256,137076,1,2,0:0:0:0:
320,256,137933,1,2,0:0:0:0:
320,256,138362,1,2,0:0:0:0:
320,256,138790,1,2,0:0:0:0:
320,256,139648,1,2,0:0:0:0:
192,256,140505,1,0,0:0:0:0:
320,128,141790,1,6,0:0:0:0:
