osu file format v14

[General]
AudioFilename: audio.mp3
AudioLeadIn: 0
PreviewTime: -1
Countdown: 0
SampleSet: None
StackLeniency: 0.7
Mode: 0
LetterboxInBreaks: 0
WidescreenStoryboard: 1

[Editor]
DistanceSpacing: 1.7
BeatDivisor: 2
GridSize: 8
TimelineZoom: 1.8

[Metadata]
Title:Doppelganger
TitleUnicode:Doppelganger
Artist:LeaF
ArtistUnicode:LeaF
Creator:Namo
Version:|
Source:
Tags:
BeatmapID:1573112
BeatmapSetID:746379

[Difficulty]
HPDrainRate:4
CircleSize:4
OverallDifficulty:6
ApproachRate:9
SliderMultiplier:1.1
SliderTickRate:1

[Events]
//Background and Video events
0,0,"無題.jpg",0,0
//Break Periods
//Storyboard Layer 0 (Background)
//Storyboard Layer 1 (Fail)
//Storyboard Layer 2 (Pass)
//Storyboard Layer 3 (Foreground)
//Storyboard Sound Samples

[TimingPoints]
410,300,4,1,0,50,1,0

[Colours]
Combo1 : 250,65,240
Combo2 : 255,21,21
Combo3 : 248,125,24
Combo4 : 249,244,60
Combo5 : 32,255,54
Combo6 : 86,237,250
Combo7 : 36,36,255
Combo8 : 155,49,242

[HitObjects]
256,44,410,5,0,0:0:0:0:
256,339,710,1,8,0:0:0:0:
256,44,1010,5,0,0:0:0:0:
256,339,1310,1,8,0:0:0:0:
256,44,1610,5,0,0:0:0:0:
256,339,1910,2,0,L|256:276,1,55,8|8,0:0|0:0,0:0:0:0:
256,44,2210,5,0,0:0:0:0:
256,339,2510,1,8,0:0:0:0:
256,44,2810,5,0,0:0:0:0:
256,339,3110,1,8,0:0:0:0:
256,44,3410,5,0,0:0:0:0:
256,339,3710,2,0,L|256:282,1,55,8|0,0:0|0:0,0:0:0:0:
256,44,4010,5,0,0:0:0:0:
256,339,4310,2,0,L|256:282,1,55,8|8,0:0|0:0,0:0:0:0:
256,44,4610,5,8,0:0:0:0:
256,339,4910,2,0,L|256:282,1,55,8|0,0:0|0:0,0:0:0:0:
256,44,5210,5,0,0:0:0:0:
256,339,5510,1,8,0:0:0:0:
256,44,5810,5,0,0:0:0:0:
256,339,6110,2,0,L|256:282,1,55,8|0,0:0|0:0,0:0:0:0:
256,44,6410,5,0,0:0:0:0:
256,339,6710,2,0,L|256:282,1,55,8|8,0:0|0:0,0:0:0:0:
256,44,7010,5,0,0:0:0:0:
256,339,7310,2,0,L|256:282,1,55,8|0,0:0|0:0,0:0:0:0:
256,44,7610,5,0,0:0:0:0:
256,339,7910,1,8,0:0:0:0:
256,44,8210,6,0,L|256:101,1,55
256,339,8510,2,0,L|256:282,1,55,8|0,0:0|0:0,0:0:0:0:
256,44,8810,6,0,L|256:101,1,55,0|8,0:0|0:0,0:0:0:0:
256,339,9110,2,0,L|256:282,1,55,8|8,0:0|0:0,0:0:0:0:
256,44,9410,5,8,0:0:0:0:
256,339,9710,2,0,L|256:282,1,55,8|8,0:0|0:0,0:0:0:0:
256,44,10010,5,0,0:0:0:0:
256,339,10310,2,0,L|256:282,1,55,8|0,0:0|0:0,0:0:0:0:
256,44,10610,5,0,0:0:0:0:
256,339,10910,1,8,0:0:0:0:
256,44,11210,5,0,0:0:0:0:
256,339,11510,2,8,L|256:276,1,55
256,44,11810,5,0,0:0:0:0:
256,339,12110,1,8,0:0:0:0:
256,44,12410,5,0,0:0:0:0:
256,339,12710,1,8,0:0:0:0:
256,44,13010,5,0,0:0:0:0:
256,339,13310,2,0,L|256:282,1,55,8|0,0:0|0:0,0:0:0:0:
256,44,13610,5,0,0:0:0:0:
256,339,13910,2,0,L|256:282,1,55,8|8,0:0|0:0,0:0:0:0:
256,44,14210,5,8,0:0:0:0:
256,339,14510,2,0,L|256:282,1,55,8|0,0:0|0:0,0:0:0:0:
256,44,14810,5,0,0:0:0:0:
256,339,15110,1,8,0:0:0:0:
256,44,15410,5,0,0:0:0:0:
256,339,15710,2,0,L|256:282,1,55,8|0,0:0|0:0,0:0:0:0:
256,44,16010,5,0,0:0:0:0:
256,339,16310,2,0,L|256:282,1,55,8|8,0:0|0:0,0:0:0:0:
256,44,16610,5,0,0:0:0:0:
256,339,16910,2,0,L|256:282,1,55,8|0,0:0|0:0,0:0:0:0:
256,44,17210,5,0,0:0:0:0:
256,339,17510,1,8,0:0:0:0:
256,44,17810,6,0,L|256:101,1,55
256,339,18110,2,0,L|256:282,1,55,8|0,0:0|0:0,0:0:0:0:
256,44,18410,5,0,0:0:0:0:
256,339,18710,2,0,L|256:282,1,55,8|8,0:0|0:0,0:0:0:0:
256,44,19010,5,8,0:0:0:0:
256,339,19310,1,8,0:0:0:0:
256,44,19610,5,0,0:0:0:0:
256,339,19910,1,8,0:0:0:0:
256,44,20210,5,0,0:0:0:0:
256,339,20510,1,8,0:0:0:0:
256,44,20810,5,0,0:0:0:0:
256,339,21110,2,0,L|256:282,1,55,8|8,0:0|0:0,0:0:0:0:
256,44,21410,5,0,0:0:0:0:
256,339,21710,1,8,0:0:0:0:
256,44,22010,5,0,0:0:0:0:
256,339,22310,1,8,0:0:0:0:
256,44,22610,5,0,0:0:0:0:
256,339,22910,2,0,L|256:282,1,55,8|0,0:0|0:0,0:0:0:0:
256,44,23210,5,0,0:0:0:0:
256,339,23510,2,0,L|256:282,1,55,8|8,0:0|0:0,0:0:0:0:
256,44,23810,5,8,0:0:0:0:
256,339,24110,2,0,L|256:282,1,55,8|0,0:0|0:0,0:0:0:0:
256,44,24410,5,0,0:0:0:0:
256,339,24710,1,8,0:0:0:0:
256,44,25010,5,0,0:0:0:0:
256,339,25310,1,8,0:0:0:0:
256,44,25610,5,0,0:0:0:0:
256,339,25910,2,0,L|256:282,1,55,8|8,0:0|0:0,0:0:0:0:
256,44,26210,5,0,0:0:0:0:
256,339,26510,2,0,L|256:282,1,55,8|0,0:0|0:0,0:0:0:0:
256,44,26810,5,0,0:0:0:0:
256,339,27110,1,8,0:0:0:0:
256,44,27410,5,0,0:0:0:0:
256,339,27710,2,0,L|256:282,1,55,8|0,0:0|0:0,0:0:0:0:
256,44,28010,6,0,L|256:101,1,55,0|8,0:0|0:0,0:0:0:0:
256,339,28310,2,0,L|256:282,1,55,8|8,0:0|0:0,0:0:0:0:
256,44,28610,5,8,0:0:0:0:
256,339,28910,2,0,L|256:282,1,55,8|8,0:0|0:0,0:0:0:0:
256,44,29210,5,0,0:0:0:0:
256,339,29510,1,8,0:0:0:0:
256,44,29810,5,0,0:0:0:0:
256,339,30110,1,8,0:0:0:0:
256,44,30410,5,0,0:0:0:0:
256,339,30710,2,0,L|256:282,1,55,8|8,0:0|0:0,0:0:0:0:
256,44,31010,5,0,0:0:0:0:
256,339,31310,1,8,0:0:0:0:
256,44,31610,5,0,0:0:0:0:
256,339,31910,1,8,0:0:0:0:
256,44,32210,5,0,0:0:0:0:
256,339,32510,1,8,0:0:0:0:
256,44,32810,5,0,0:0:0:0:
256,339,33110,2,0,L|256:282,1,55,8|8,0:0|0:0,0:0:0:0:
256,44,33410,5,8,0:0:0:0:
256,339,33710,2,0,L|256:282,1,55,8|0,0:0|0:0,0:0:0:0:
256,44,34010,5,0,0:0:0:0:
256,339,34310,1,8,0:0:0:0:
256,44,34610,5,0,0:0:0:0:
256,339,34910,2,0,L|256:282,1,55,8|0,0:0|0:0,0:0:0:0:
256,44,35210,5,0,0:0:0:0:
256,339,35510,2,0,L|256:282,1,55,8|8,0:0|0:0,0:0:0:0:
256,44,35810,5,0,0:0:0:0:
256,339,36110,2,0,L|256:282,1,55,8|0,0:0|0:0,0:0:0:0:
256,44,36410,5,0,0:0:0:0:
256,339,36710,1,8,0:0:0:0:
256,44,37010,5,0,0:0:0:0:
256,339,37310,2,0,L|256:282,1,55,8|0,0:0|0:0,0:0:0:0:
256,44,37610,5,0,0:0:0:0:
256,339,37910,2,0,L|256:282,1,55,8|8,0:0|0:0,0:0:0:0:
256,44,38210,5,8,0:0:0:0:
256,339,38510,1,8,0:0:0:0:
