osu file format v14

[General]
AudioFilename: Doppelganger.mp3
AudioLeadIn: 0
PreviewTime: 11076
Countdown: 0
SampleSet: Normal
StackLeniency: 0.7
Mode: 1
LetterboxInBreaks: 0
WidescreenStoryboard: 1

[Editor]
DistanceSpacing: 2
BeatDivisor: 4
GridSize: 4
TimelineZoom: 5.999997

[Metadata]
Title:Doppelganger
TitleUnicode:Doppelganger
Artist:LeaF
ArtistUnicode:LeaF
Creator:Loctav
Version:Oni
Source:BMS
Tags:THE OF FIGHTERS 2013 BOF FRENZ Come To An End Einsamkeit Nwolf
BeatmapID:671177
BeatmapSetID:299136

[Difficulty]
HPDrainRate:5
CircleSize:4.5
OverallDifficulty:5
ApproachRate:5
SliderMultiplier:1.4
SliderTickRate:1

[Events]
//Background and Video events
0,0,"background.jpg",0,0
//Break Periods
//Storyboard Layer 0 (Background)
//Storyboard Layer 1 (Fail)
//Storyboard Layer 2 (Pass)
//Storyboard Layer 3 (Foreground)
//Storyboard Sound Samples

[TimingPoints]
791,214.285714285714,4,1,0,100,1,0
11076,-100,4,1,0,100,0,1
14505,-100,4,1,0,100,0,0
19085,-105.263157894737,4,1,0,100,0,0
19192,-111.111111111111,4,1,0,100,0,0
19407,-125,4,1,0,100,0,0
19621,-142.857142857143,4,1,0,100,0,0
29907,-100,4,1,0,100,0,0
37648,-100,4,1,0,100,0,1
53933,-100,4,1,0,100,0,0
54523,-117.647058823529,4,1,0,100,0,0
54737,-142.857142857143,4,1,0,100,0,0
60763,-100,4,1,0,100,0,0
61621,-142.857142857143,4,1,0,100,0,0
63335,-100,4,1,0,100,0,0
75201,-102.040816326531,4,1,0,100,0,0
75308,-104.166666666667,4,1,0,100,0,0
75523,-108.695652173913,4,1,0,100,0,0
75630,-111.111111111111,4,1,0,100,0,0
75737,-113.636363636364,4,1,0,100,0,0
75951,-119.047619047619,4,1,0,100,0,0
76165,-125,4,1,0,100,0,0
81362,-100,4,1,0,100,0,0
93255,-142.857142857143,4,1,0,100,0,0
93576,-100,4,1,0,100,0,0
109594,-200,4,1,0,100,0,0
116505,-142.857142857143,4,1,0,100,0,0
117308,-117.647058823529,4,1,0,100,0,0
122505,-100,4,1,0,100,0,0
124219,-100,4,1,0,100,0,1
139648,-100,4,1,0,100,0,0

[HitObjects]
256,192,791,5,0,0:0:0:0:
256,192,898,1,0,0:0:0:0:
256,192,1112,1,0,0:0:0:0:
256,192,1326,1,0,0:0:0:0:
256,192,1540,1,0,0:0:0:0:
256,192,1755,1,0,0:0:0:0:
256,192,1862,1,0,0:0:0:0:
256,192,1969,1,0,0:0:0:0:
256,192,2076,1,8,0:0:0:0:
256,192,2183,1,0,0:0:0:0:
256,192,2290,1,8,0:0:0:0:
256,192,2505,1,8,0:0:0:0:
256,192,2612,1,0,0:0:0:0:
256,192,2719,1,8,0:0:0:0:
256,192,2826,1,8,0:0:0:0:
256,192,2933,1,0,0:0:0:0:
256,192,3040,1,8,0:0:0:0:
256,192,3255,1,8,0:0:0:0:
256,192,3469,1,8,0:0:0:0:
256,192,3576,1,8,0:0:0:0:
256,192,3683,1,8,0:0:0:0:
256,192,3790,12,0,4112,0:0:0:0:
256,192,4219,5,0,0:0:0:0:
256,192,4326,1,8,0:0:0:0:
272,192,4433,1,0,0:0:0:0:
272,192,4540,1,0,0:0:0:0:
272,192,4648,1,8,0:0:0:0:
272,192,4755,1,0,0:0:0:0:
272,192,4862,1,8,0:0:0:0:
272,192,4969,1,8,0:0:0:0:
256,192,5076,1,0,0:0:0:0:
256,192,5183,1,0,0:0:0:0:
256,192,5290,1,8,0:0:0:0:
256,192,5398,1,0,0:0:0:0:
256,192,5505,1,8,0:0:0:0:
256,192,5719,1,8,0:0:0:0:
248,200,5933,1,0,0:0:0:0:
264,184,6040,1,8,0:0:0:0:
264,184,6148,1,8,0:0:0:0:
264,184,6255,1,8,0:0:0:0:
256,196,6362,1,0,0:0:0:0:
260,200,6469,1,8,0:0:0:0:
260,200,6576,1,0,0:0:0:0:
260,200,6683,1,8,0:0:0:0:
260,200,6790,1,0,0:0:0:0:
260,200,6898,1,8,0:0:0:0:
260,200,7005,1,8,0:0:0:0:
260,200,7112,1,8,0:0:0:0:
260,200,7219,1,0,0:0:0:0:
260,200,7433,1,0,0:0:0:0:
260,200,7648,1,8,0:0:0:0:
256,200,7755,1,0,0:0:0:0:
256,196,7862,1,8,0:0:0:0:
256,200,7969,1,8,0:0:0:0:
256,200,8076,1,0,0:0:0:0:
256,200,8183,1,8,0:0:0:0:
256,200,8290,1,0,0:0:0:0:
256,200,8398,1,8,0:0:0:0:
256,200,8505,1,8,0:0:0:0:
256,200,8612,1,8,0:0:0:0:
252,196,8719,1,0,0:0:0:0:
252,196,8826,1,8,0:0:0:0:
252,196,8933,1,0,0:0:0:0:
252,196,9040,1,0,0:0:0:0:
252,196,9148,1,8,0:0:0:0:
256,204,9362,1,0,0:0:0:0:
256,200,9469,1,8,0:0:0:0:
256,200,9576,1,0,0:0:0:0:
256,200,9683,1,0,0:0:0:0:
256,200,9790,1,0,0:0:0:0:
256,200,9898,1,8,0:0:0:0:
256,200,10005,1,0,0:0:0:0:
256,200,10112,1,0,0:0:0:0:
256,200,10219,1,8,0:0:0:0:
256,200,10433,1,8,0:0:0:0:
256,200,10648,1,12,0:0:0:0:
256,200,11076,1,0,0:0:0:0:
256,200,11183,1,0,0:0:0:0:
256,200,11290,1,8,0:0:0:0:
256,200,11398,1,0,0:0:0:0:
256,200,11505,1,8,0:0:0:0:
256,200,11612,1,0,0:0:0:0:
256,200,11719,1,8,0:0:0:0:
256,200,11826,1,0,0:0:0:0:
260,196,11933,1,8,0:0:0:0:
248,204,12148,1,8,0:0:0:0:
248,204,12255,1,0,0:0:0:0:
248,204,12362,1,8,0:0:0:0:
248,200,12576,1,8,0:0:0:0:
256,200,12790,1,0,0:0:0:0:
256,200,12898,1,0,0:0:0:0:
256,200,13005,1,8,0:0:0:0:
244,176,13112,1,0,0:0:0:0:
244,176,13219,1,8,0:0:0:0:
244,176,13326,1,0,0:0:0:0:
244,176,13433,1,8,0:0:0:0:
244,176,13540,1,0,0:0:0:0:
244,176,13648,1,8,0:0:0:0:
244,176,13862,1,8,0:0:0:0:
244,176,13969,1,0,0:0:0:0:
244,176,14076,1,8,0:0:0:0:
244,176,14290,1,8,0:0:0:0:
240,180,14505,1,8,0:0:0:0:
232,168,14576,1,0,0:0:0:0:
232,172,14648,1,0,0:0:0:0:
232,168,14719,1,8,0:0:0:0:
232,168,14933,1,8,0:0:0:0:
232,168,15040,1,0,0:0:0:0:
232,168,15148,1,8,0:0:0:0:
232,168,15362,1,0,0:0:0:0:
244,176,15576,1,8,0:0:0:0:
244,176,15683,1,0,0:0:0:0:
244,176,15790,1,8,0:0:0:0:
244,176,15898,1,8,0:0:0:0:
240,180,16005,1,0,0:0:0:0:
240,180,16219,1,0,0:0:0:0:
240,180,16540,1,8,0:0:0:0:
240,180,16862,1,0,0:0:0:0:
244,176,17183,1,0,0:0:0:0:
240,188,17505,1,8,0:0:0:0:
240,180,17933,2,0,L|280:204,16,35
244,196,19005,1,0,0:0:0:0:
244,200,19112,1,0,0:0:0:0:
244,200,19219,1,8,0:0:0:0:
244,200,19433,1,8,0:0:0:0:
236,200,19648,1,0,0:0:0:0:
244,196,19862,1,8,0:0:0:0:
240,196,20076,1,8,0:0:0:0:
240,196,20290,1,8,0:0:0:0:
244,200,20505,1,0,0:0:0:0:
244,200,20719,1,8,0:0:0:0:
244,200,20826,1,0,0:0:0:0:
244,200,20933,1,8,0:0:0:0:
240,196,21148,1,0,0:0:0:0:
244,196,21362,1,8,0:0:0:0:
240,200,21576,1,0,0:0:0:0:
240,200,21790,1,8,0:0:0:0:
244,200,22005,1,8,0:0:0:0:
244,200,22112,1,0,0:0:0:0:
244,200,22219,1,8,0:0:0:0:
244,200,22433,1,0,0:0:0:0:
240,200,22540,1,0,0:0:0:0:
240,200,22648,1,8,0:0:0:0:
240,200,22862,1,8,0:0:0:0:
240,200,22969,1,0,0:0:0:0:
240,200,23076,1,8,0:0:0:0:
240,200,23290,1,0,0:0:0:0:
244,200,23505,1,8,0:0:0:0:
244,200,23719,1,8,0:0:0:0:
244,200,23826,1,8,0:0:0:0:
244,200,23933,1,0,0:0:0:0:
240,200,24148,1,8,0:0:0:0:
240,200,24362,1,0,0:0:0:0:
240,200,24576,1,8,0:0:0:0:
240,200,24683,1,0,0:0:0:0:
240,200,24790,1,8,0:0:0:0:
244,200,25005,1,0,0:0:0:0:
244,200,25219,1,8,0:0:0:0:
244,200,25326,1,0,0:0:0:0:
244,200,25433,1,8,0:0:0:0:
240,200,25540,1,8,0:0:0:0:
240,200,25648,1,0,0:0:0:0:
240,200,25862,1,8,0:0:0:0:
240,200,26076,1,0,0:0:0:0:
240,200,26290,1,8,0:0:0:0:
244,200,26505,1,0,0:0:0:0:
244,200,26719,1,8,0:0:0:0:
244,200,26933,1,0,0:0:0:0:
240,200,27148,1,8,0:0:0:0:
240,200,27362,1,0,0:0:0:0:
240,200,27576,1,0,0:0:0:0:
252,200,27648,1,8,0:0:0:0:
252,200,27719,1,8,0:0:0:0:
252,200,27790,1,0,0:0:0:0:
252,200,28005,1,8,0:0:0:0:
224,216,28219,1,0,0:0:0:0:
224,216,28433,1,8,0:0:0:0:
224,216,28648,1,0,0:0:0:0:
224,216,28862,1,8,0:0:0:0:
224,216,29076,1,0,0:0:0:0:
224,216,29183,1,8,0:0:0:0:
224,216,29290,1,0,0:0:0:0:
224,216,29505,1,0,0:0:0:0:
224,216,29612,1,8,0:0:0:0:
224,216,29719,1,0,0:0:0:0:
224,216,29933,1,4,0:0:0:0:
216,216,30148,1,8,0:0:0:0:
216,216,30362,1,0,0:0:0:0:
216,216,30469,1,8,0:0:0:0:
216,216,30576,1,0,0:0:0:0:
216,216,30683,1,8,0:0:0:0:
216,216,30790,1,0,0:0:0:0:
216,216,30898,1,0,0:0:0:0:
216,216,31005,1,8,0:0:0:0:
216,216,31112,1,0,0:0:0:0:
216,216,31326,1,0,0:0:0:0:
216,216,31433,1,8,0:0:0:0:
216,216,31648,1,4,0:0:0:0:
216,216,31969,1,12,0:0:0:0:
216,216,32290,1,12,0:0:0:0:
216,216,32612,1,12,0:0:0:0:
216,216,32933,1,12,0:0:0:0:
216,216,33576,1,4,0:0:0:0:
216,216,33790,1,4,0:0:0:0:
208,216,34005,1,4,0:0:0:0:
208,216,34219,1,4,0:0:0:0:
208,216,34540,1,4,0:0:0:0:
208,216,34862,1,12,0:0:0:0:
208,216,35183,1,12,0:0:0:0:
208,216,35505,1,12,0:0:0:0:
208,216,35933,2,0,L|256:208,28,35
244,192,37648,1,4,0:0:0:0:
244,196,37862,1,0,0:0:0:0:
248,204,38076,1,8,0:0:0:0:
248,204,38183,1,0,0:0:0:0:
248,204,38290,1,8,0:0:0:0:
248,204,38398,1,8,0:0:0:0:
248,204,38505,1,0,0:0:0:0:
248,204,38612,1,8,0:0:0:0:
248,204,38719,1,8,0:0:0:0:
248,204,38826,1,8,0:0:0:0:
252,200,39040,1,8,0:0:0:0:
248,204,39148,1,8,0:0:0:0:
248,204,39255,1,0,0:0:0:0:
256,192,39362,12,0,39683,0:0:0:0:
248,200,39790,5,8,0:0:0:0:
248,200,39898,1,8,0:0:0:0:
248,200,40005,1,0,0:0:0:0:
248,200,40112,1,0,0:0:0:0:
248,200,40219,1,8,0:0:0:0:
248,200,40326,1,0,0:0:0:0:
248,200,40433,1,8,0:0:0:0:
248,196,40648,1,12,0:0:0:0:
248,200,40862,1,4,0:0:0:0:
248,196,41076,1,12,0:0:0:0:
252,196,41290,1,12,0:0:0:0:
252,196,41505,1,0,0:0:0:0:
252,196,41612,1,0,0:0:0:0:
252,196,41719,1,8,0:0:0:0:
252,196,41826,1,0,0:0:0:0:
252,196,41933,1,0,0:0:0:0:
252,196,42040,1,0,0:0:0:0:
248,196,42148,1,8,0:0:0:0:
252,196,42362,1,8,0:0:0:0:
248,196,42469,1,8,0:0:0:0:
248,196,42576,1,0,0:0:0:0:
248,192,42683,1,8,0:0:0:0:
256,192,42790,12,0,43112,0:0:0:0:
248,196,43219,5,0,0:0:0:0:
248,192,43326,5,8,0:0:0:0:
248,192,43433,1,8,0:0:0:0:
248,192,43540,1,0,0:0:0:0:
248,192,43755,1,0,0:0:0:0:
248,192,43862,1,8,0:0:0:0:
248,196,44076,1,4,0:0:0:0:
248,192,44290,1,4,0:0:0:0:
264,184,44505,1,0,0:0:0:0:
264,184,44612,1,8,0:0:0:0:
264,184,44719,1,8,0:0:0:0:
248,200,44933,1,8,0:0:0:0:
248,200,45040,1,0,0:0:0:0:
248,200,45148,1,8,0:0:0:0:
256,196,45362,1,0,0:0:0:0:
256,184,45469,1,0,0:0:0:0:
264,192,45576,1,8,0:0:0:0:
264,192,45683,1,0,0:0:0:0:
264,192,45790,1,8,0:0:0:0:
256,200,45898,1,8,0:0:0:0:
256,200,46005,1,0,0:0:0:0:
264,184,46219,1,0,0:0:0:0:
264,188,46326,1,8,0:0:0:0:
252,188,46433,1,0,0:0:0:0:
252,188,46540,1,8,0:0:0:0:
252,188,46648,1,8,0:0:0:0:
256,196,46862,1,8,0:0:0:0:
260,196,46969,1,0,0:0:0:0:
256,192,47076,12,0,47398,0:0:0:0:
256,192,47505,5,4,0:0:0:0:
256,192,47719,1,12,0:0:0:0:
252,188,47933,1,0,0:0:0:0:
252,192,48040,1,8,0:0:0:0:
256,192,48148,1,8,0:0:0:0:
256,192,48255,1,0,0:0:0:0:
260,184,48362,1,8,0:0:0:0:
256,184,48469,1,8,0:0:0:0:
264,196,48576,1,8,0:0:0:0:
264,192,48683,1,8,0:0:0:0:
264,192,48790,1,0,0:0:0:0:
260,192,48898,1,0,0:0:0:0:
260,192,49005,1,8,0:0:0:0:
260,188,49112,1,0,0:0:0:0:
244,188,49219,1,8,0:0:0:0:
248,192,49326,1,0,0:0:0:0:
248,192,49433,1,8,0:0:0:0:
248,192,49648,1,0,0:0:0:0:
248,192,49755,1,8,0:0:0:0:
248,192,49969,1,0,0:0:0:0:
248,192,50076,1,8,0:0:0:0:
256,188,50237,1,8,0:0:0:0:
260,192,50398,1,8,0:0:0:0:
244,196,50505,1,0,0:0:0:0:
268,196,50612,1,8,0:0:0:0:
264,196,50719,1,8,0:0:0:0:
264,196,50933,1,8,0:0:0:0:
264,184,51040,1,0,0:0:0:0:
264,184,51148,1,0,0:0:0:0:
264,196,51362,1,8,0:0:0:0:
264,184,51469,1,0,0:0:0:0:
264,184,51577,1,0,0:0:0:0:
244,188,51790,1,0,0:0:0:0:
244,188,51898,1,8,0:0:0:0:
244,188,52005,1,0,0:0:0:0:
248,184,52219,1,4,0:0:0:0:
256,172,52433,1,8,0:0:0:0:
256,172,52540,1,0,0:0:0:0:
256,192,52648,12,0,52862,0:0:0:0:
240,192,52969,5,0,0:0:0:0:
228,192,53076,1,8,0:0:0:0:
228,192,53183,1,8,0:0:0:0:
252,192,53290,1,0,0:0:0:0:
252,196,53398,1,8,0:0:0:0:
252,188,53505,1,8,0:0:0:0:
236,188,53612,1,0,0:0:0:0:
232,192,53719,1,0,0:0:0:0:
248,184,53826,1,8,0:0:0:0:
248,184,54040,1,0,0:0:0:0:
248,184,54148,1,8,0:0:0:0:
248,184,54362,1,8,0:0:0:0:
236,180,54576,1,0,0:0:0:0:
248,184,54790,1,12,0:0:0:0:
224,184,55005,1,8,0:0:0:0:
220,180,55219,1,8,0:0:0:0:
220,180,55433,1,8,0:0:0:0:
228,172,55648,1,0,0:0:0:0:
228,176,55862,1,0,0:0:0:0:
228,176,55969,1,0,0:0:0:0:
228,176,56076,1,0,0:0:0:0:
228,176,56290,1,0,0:0:0:0:
236,188,56505,1,8,0:0:0:0:
236,188,56719,1,8,0:0:0:0:
228,188,56933,1,0,0:0:0:0:
228,188,57148,1,0,0:0:0:0:
228,188,57255,1,0,0:0:0:0:
228,188,57362,1,8,0:0:0:0:
228,188,57576,1,8,0:0:0:0:
228,188,57683,1,8,0:0:0:0:
228,188,57790,1,0,0:0:0:0:
228,188,58005,1,0,0:0:0:0:
228,188,58112,1,0,0:0:0:0:
228,188,58219,1,8,0:0:0:0:
228,188,58433,1,0,0:0:0:0:
228,188,58648,1,8,0:0:0:0:
228,188,58862,1,0,0:0:0:0:
228,188,58969,1,0,0:0:0:0:
228,188,59076,1,8,0:0:0:0:
228,188,59290,1,0,0:0:0:0:
228,188,59505,1,0,0:0:0:0:
228,188,59719,1,8,0:0:0:0:
228,188,59826,1,8,0:0:0:0:
228,188,59933,1,8,0:0:0:0:
228,188,60148,1,0,0:0:0:0:
228,188,60255,1,0,0:0:0:0:
228,188,60362,1,8,0:0:0:0:
228,188,60469,1,0,0:0:0:0:
228,188,60576,1,8,0:0:0:0:
228,188,60683,1,8,0:0:0:0:
228,188,60790,1,4,0:0:0:0:
228,188,61005,1,4,0:0:0:0:
228,188,61219,1,4,0:0:0:0:
228,188,61648,1,8,0:0:0:0:
232,184,61862,1,0,0:0:0:0:
232,184,62076,1,0,0:0:0:0:
232,184,62290,1,8,0:0:0:0:
232,184,62505,1,0,0:0:0:0:
232,184,62719,1,0,0:0:0:0:
236,180,62790,1,8,0:0:0:0:
236,180,62862,1,8,0:0:0:0:
236,176,62933,1,0,0:0:0:0:
236,176,63148,1,8,0:0:0:0:
236,176,63362,1,4,0:0:0:0:
236,176,63576,1,12,0:0:0:0:
236,176,63790,1,12,0:0:0:0:
236,176,64005,1,12,0:0:0:0:
232,184,64219,1,0,0:0:0:0:
224,144,64326,1,8,0:0:0:0:
224,144,64433,1,8,0:0:0:0:
224,144,64540,1,0,0:0:0:0:
224,144,64648,1,8,0:0:0:0:
224,144,64862,1,0,0:0:0:0:
228,152,64933,1,8,0:0:0:0:
228,152,65005,1,8,0:0:0:0:
228,152,65076,1,8,0:0:0:0:
228,152,65290,1,8,0:0:0:0:
228,152,65505,1,0,0:0:0:0:
224,152,65719,1,8,0:0:0:0:
224,152,65933,1,0,0:0:0:0:
224,152,66148,1,8,0:0:0:0:
224,152,66362,1,0,0:0:0:0:
228,152,66576,1,8,0:0:0:0:
228,152,66790,1,0,0:0:0:0:
216,152,67005,1,12,0:0:0:0:
216,152,67219,1,12,0:0:0:0:
224,152,67433,1,4,0:0:0:0:
224,152,67648,1,12,0:0:0:0:
224,152,68076,1,0,0:0:0:0:
224,152,68183,1,8,0:0:0:0:
256,192,68290,12,0,68505,0:0:0:0:
212,156,68612,5,0,0:0:0:0:
224,152,68719,1,8,0:0:0:0:
224,152,68826,1,8,0:0:0:0:
224,152,68933,1,0,0:0:0:0:
224,152,69040,1,8,0:0:0:0:
224,152,69148,1,8,0:0:0:0:
232,148,69255,1,8,0:0:0:0:
216,160,69362,1,0,0:0:0:0:
216,160,69469,1,8,0:0:0:0:
216,160,69576,1,8,0:0:0:0:
216,156,69683,1,0,0:0:0:0:
216,156,69790,1,8,0:0:0:0:
216,156,69898,1,8,0:0:0:0:
216,152,70005,1,0,0:0:0:0:
224,152,70219,1,8,0:0:0:0:
216,164,70433,1,8,0:0:0:0:
208,160,70540,1,0,0:0:0:0:
208,164,70755,1,8,0:0:0:0:
208,164,70862,1,0,0:0:0:0:
208,164,70969,1,0,0:0:0:0:
208,164,71076,1,8,0:0:0:0:
232,160,71290,1,0,0:0:0:0:
208,160,71505,1,8,0:0:0:0:
208,160,71612,1,0,0:0:0:0:
228,160,71826,1,8,0:0:0:0:
228,160,71933,1,0,0:0:0:0:
208,164,72362,1,8,0:0:0:0:
216,168,72790,1,8,0:0:0:0:
216,168,72898,1,0,0:0:0:0:
216,168,73005,1,8,0:0:0:0:
216,168,73112,1,0,0:0:0:0:
216,168,73219,1,0,0:0:0:0:
216,168,73326,1,8,0:0:0:0:
208,168,73433,1,0,0:0:0:0:
208,160,73648,1,8,0:0:0:0:
208,164,73862,1,8,0:0:0:0:
208,168,73969,1,0,0:0:0:0:
208,176,74076,1,0,0:0:0:0:
216,176,74183,1,8,0:0:0:0:
200,168,74290,1,8,0:0:0:0:
200,160,74505,1,0,0:0:0:0:
200,160,74719,1,8,0:0:0:0:
200,160,74826,1,0,0:0:0:0:
200,160,74933,1,8,0:0:0:0:
196,164,75040,1,0,0:0:0:0:
192,176,75255,1,0,0:0:0:0:
192,176,75362,1,8,0:0:0:0:
216,176,75576,1,0,0:0:0:0:
216,176,75683,1,8,0:0:0:0:
216,176,75790,1,8,0:0:0:0:
216,176,76005,1,8,0:0:0:0:
216,176,76219,1,0,0:0:0:0:
216,176,76433,1,8,0:0:0:0:
216,176,76648,1,8,0:0:0:0:
216,176,76862,1,8,0:0:0:0:
216,176,77076,1,0,0:0:0:0:
216,176,77290,1,0,0:0:0:0:
216,176,77398,1,8,0:0:0:0:
216,176,77505,1,0,0:0:0:0:
208,180,77719,1,8,0:0:0:0:
208,176,77933,1,8,0:0:0:0:
208,176,78148,1,0,0:0:0:0:
208,176,78362,1,8,0:0:0:0:
208,176,78576,1,8,0:0:0:0:
208,176,78683,1,0,0:0:0:0:
208,176,78790,1,8,0:0:0:0:
208,176,79005,1,0,0:0:0:0:
208,180,79112,1,0,0:0:0:0:
208,180,79219,1,8,0:0:0:0:
208,176,79433,1,8,0:0:0:0:
208,176,79540,1,0,0:0:0:0:
208,176,79648,1,8,0:0:0:0:
200,180,79862,1,0,0:0:0:0:
200,180,80076,1,8,0:0:0:0:
200,180,80290,1,8,0:0:0:0:
200,180,80398,1,0,0:0:0:0:
200,180,80505,1,0,0:0:0:0:
200,180,80719,1,8,0:0:0:0:
200,180,80933,1,0,0:0:0:0:
200,180,81148,1,8,0:0:0:0:
200,180,81255,1,8,0:0:0:0:
200,180,81362,1,0,0:0:0:0:
200,180,81576,1,0,0:0:0:0:
200,180,81683,1,8,0:0:0:0:
200,180,81862,1,8,0:0:0:0:
216,200,81933,1,0,0:0:0:0:
200,180,82005,1,0,0:0:0:0:
200,180,82076,1,0,0:0:0:0:
200,180,82148,1,0,0:0:0:0:
200,180,82219,1,8,0:0:0:0:
208,184,82362,5,8,0:0:0:0:
208,184,82433,1,8,0:0:0:0:
208,184,82648,1,8,0:0:0:0:
216,188,82862,1,0,0:0:0:0:
208,188,83076,5,0,0:0:0:0:
220,196,83183,1,0,0:0:0:0:
220,196,83290,1,8,0:0:0:0:
220,196,83398,1,0,0:0:0:0:
216,200,83505,1,8,0:0:0:0:
220,196,83612,1,0,0:0:0:0:
220,196,83719,1,8,0:0:0:0:
220,196,83826,1,0,0:0:0:0:
220,196,83933,1,8,0:0:0:0:
220,196,84148,1,0,0:0:0:0:
220,196,84255,1,0,0:0:0:0:
220,196,84362,1,8,0:0:0:0:
220,200,84576,1,0,0:0:0:0:
220,196,84790,1,8,0:0:0:0:
220,196,84898,1,0,0:0:0:0:
224,196,85005,1,8,0:0:0:0:
220,196,85112,1,0,0:0:0:0:
220,196,85219,1,0,0:0:0:0:
220,196,85326,1,0,0:0:0:0:
220,196,85433,1,8,0:0:0:0:
220,196,85540,1,0,0:0:0:0:
220,196,85648,1,8,0:0:0:0:
220,196,85808,1,8,0:0:0:0:
224,192,85969,1,0,0:0:0:0:
224,192,86076,1,0,0:0:0:0:
220,196,86183,1,0,0:0:0:0:
220,196,86290,1,8,0:0:0:0:
220,196,86398,1,0,0:0:0:0:
224,196,86505,1,8,0:0:0:0:
220,196,86719,1,0,0:0:0:0:
220,196,86826,1,0,0:0:0:0:
220,196,86933,1,8,0:0:0:0:
220,196,87148,1,0,0:0:0:0:
220,196,87362,1,8,0:0:0:0:
224,192,87469,1,0,0:0:0:0:
224,192,87576,1,8,0:0:0:0:
220,196,87790,1,4,0:0:0:0:
224,192,88005,1,0,0:0:0:0:
224,192,88112,1,0,0:0:0:0:
224,188,88219,1,8,0:0:0:0:
224,188,88326,1,0,0:0:0:0:
224,188,88433,1,8,0:0:0:0:
224,188,88540,1,0,0:0:0:0:
224,188,88648,1,8,0:0:0:0:
224,188,88755,1,0,0:0:0:0:
224,188,88862,1,8,0:0:0:0:
224,192,88969,1,8,0:0:0:0:
224,192,89076,1,0,0:0:0:0:
224,188,89290,1,8,0:0:0:0:
224,192,89505,1,0,0:0:0:0:
224,188,89933,1,0,0:0:0:0:
224,188,90148,1,8,0:0:0:0:
224,188,90255,1,0,0:0:0:0:
224,188,90362,1,8,0:0:0:0:
224,192,90469,1,0,0:0:0:0:
224,192,90576,1,8,0:0:0:0:
224,188,90683,1,8,0:0:0:0:
224,188,90790,1,0,0:0:0:0:
224,192,90898,1,0,0:0:0:0:
224,192,91005,1,8,0:0:0:0:
224,192,91112,1,0,0:0:0:0:
224,192,91219,1,8,0:0:0:0:
224,204,91326,1,0,0:0:0:0:
224,204,91433,1,8,0:0:0:0:
224,188,91540,1,0,0:0:0:0:
224,204,91648,1,8,0:0:0:0:
224,204,91755,1,0,0:0:0:0:
224,204,91862,1,0,0:0:0:0:
224,204,91969,1,8,0:0:0:0:
224,204,92076,1,0,0:0:0:0:
224,204,92183,1,8,0:0:0:0:
224,204,92290,1,0,0:0:0:0:
224,204,92505,1,8,0:0:0:0:
224,204,92612,1,8,0:0:0:0:
220,204,92719,1,8,0:0:0:0:
224,204,92826,1,8,0:0:0:0:
224,204,92933,1,0,0:0:0:0:
224,204,93362,1,12,0:0:0:0:
224,204,93790,1,0,0:0:0:0:
224,204,93898,1,0,0:0:0:0:
224,204,94005,1,8,0:0:0:0:
224,204,94112,1,8,0:0:0:0:
224,204,94433,1,4,0:0:0:0:
224,204,94648,1,0,0:0:0:0:
224,204,94755,1,8,0:0:0:0:
224,204,94862,1,8,0:0:0:0:
224,204,94969,1,8,0:0:0:0:
224,204,95076,1,0,0:0:0:0:
228,192,95290,1,0,0:0:0:0:
228,192,95398,1,0,0:0:0:0:
228,192,95505,1,8,0:0:0:0:
228,192,95612,1,0,0:0:0:0:
228,192,95719,1,8,0:0:0:0:
228,192,95826,1,8,0:0:0:0:
228,192,96148,1,12,0:0:0:0:
228,192,96469,1,12,0:0:0:0:
228,192,96790,1,0,0:0:0:0:
228,192,96898,1,0,0:0:0:0:
228,192,97005,1,8,0:0:0:0:
228,192,97112,1,0,0:0:0:0:
228,192,97433,1,0,0:0:0:0:
228,192,97540,1,8,0:0:0:0:
228,192,97862,1,4,0:0:0:0:
228,192,98183,1,12,0:0:0:0:
228,192,98505,1,0,0:0:0:0:
220,192,98612,1,8,0:0:0:0:
228,192,98719,1,8,0:0:0:0:
228,192,98826,1,0,0:0:0:0:
236,200,98933,1,0,0:0:0:0:
236,200,99040,1,8,0:0:0:0:
236,200,99148,1,8,0:0:0:0:
236,200,99255,1,8,0:0:0:0:
236,200,99362,1,8,0:0:0:0:
228,192,99576,1,0,0:0:0:0:
228,192,99898,1,8,0:0:0:0:
228,192,100005,1,0,0:0:0:0:
228,192,100219,1,0,0:0:0:0:
228,192,100326,1,0,0:0:0:0:
224,192,100433,1,8,0:0:0:0:
228,192,100540,1,0,0:0:0:0:
224,192,100755,1,8,0:0:0:0:
224,192,100862,1,8,0:0:0:0:
228,192,100969,1,0,0:0:0:0:
228,192,101076,1,8,0:0:0:0:
228,192,101290,1,0,0:0:0:0:
228,192,101505,1,8,0:0:0:0:
228,192,101612,1,0,0:0:0:0:
228,192,101933,1,12,0:0:0:0:
224,192,102148,1,0,0:0:0:0:
224,192,102255,1,8,0:0:0:0:
228,192,102469,1,0,0:0:0:0:
228,192,102576,1,8,0:0:0:0:
228,192,102683,1,0,0:0:0:0:
228,192,103005,1,12,0:0:0:0:
228,192,103326,1,0,0:0:0:0:
228,192,103433,1,8,0:0:0:0:
232,196,103648,1,4,0:0:0:0:
232,196,104076,1,0,0:0:0:0:
228,192,104290,1,8,0:0:0:0:
228,192,104505,1,0,0:0:0:0:
228,192,104933,1,0,0:0:0:0:
228,192,105040,1,0,0:0:0:0:
240,196,105148,1,0,0:0:0:0:
240,196,105255,1,0,0:0:0:0:
240,196,105362,1,8,0:0:0:0:
236,192,105790,1,0,0:0:0:0:
228,200,106005,1,0,0:0:0:0:
228,200,106433,1,12,0:0:0:0:
228,200,106755,1,12,0:0:0:0:
228,200,107076,1,12,0:0:0:0:
228,200,107290,1,0,0:0:0:0:
228,200,107398,1,8,0:0:0:0:
228,200,107719,1,8,0:0:0:0:
228,200,107933,1,4,0:0:0:0:
228,200,108148,1,8,0:0:0:0:
228,200,108255,1,0,0:0:0:0:
228,200,108576,1,0,0:0:0:0:
228,200,108683,1,8,0:0:0:0:
256,192,109005,12,0,109540,0:0:0:0:
224,200,109648,5,0,0:0:0:0:
228,200,110076,1,0,0:0:0:0:
228,200,110505,1,8,0:0:0:0:
232,200,111148,1,8,0:0:0:0:
228,200,111362,1,0,0:0:0:0:
228,200,111790,1,0,0:0:0:0:
232,200,112219,1,8,0:0:0:0:
232,200,112648,1,8,0:0:0:0:
228,200,113076,1,0,0:0:0:0:
232,200,113505,1,0,0:0:0:0:
232,200,113933,1,8,0:0:0:0:
228,200,114576,1,8,0:0:0:0:
232,200,114790,1,0,0:0:0:0:
232,200,115219,1,0,0:0:0:0:
228,200,115648,1,8,0:0:0:0:
228,200,116076,1,0,0:0:0:0:
232,200,116719,1,0,0:0:0:0:
228,200,116826,1,8,0:0:0:0:
228,200,116933,1,8,0:0:0:0:
228,200,117148,1,8,0:0:0:0:
228,200,117362,1,0,0:0:0:0:
228,200,117576,1,8,0:0:0:0:
224,204,117790,1,8,0:0:0:0:
224,208,118005,1,8,0:0:0:0:
224,208,118219,1,0,0:0:0:0:
224,208,118433,1,8,0:0:0:0:
224,208,118540,1,0,0:0:0:0:
224,208,118648,1,8,0:0:0:0:
224,208,118862,1,0,0:0:0:0:
224,208,119076,1,8,0:0:0:0:
224,204,119290,1,0,0:0:0:0:
224,208,119505,1,8,0:0:0:0:
228,204,119719,1,8,0:0:0:0:
224,208,119826,1,0,0:0:0:0:
224,208,119933,1,8,0:0:0:0:
224,208,120148,1,8,0:0:0:0:
224,208,120255,1,8,0:0:0:0:
224,208,120362,1,8,0:0:0:0:
224,208,120576,1,0,0:0:0:0:
232,212,120683,1,0,0:0:0:0:
232,212,120790,1,8,0:0:0:0:
232,216,121005,1,0,0:0:0:0:
232,212,121219,1,8,0:0:0:0:
232,212,121433,1,8,0:0:0:0:
248,220,121540,1,0,0:0:0:0:
248,220,121648,1,0,0:0:0:0:
248,220,121862,1,8,0:0:0:0:
248,220,122076,1,0,0:0:0:0:
248,220,122290,1,0,0:0:0:0:
248,220,122398,1,0,0:0:0:0:
240,216,122505,1,8,0:0:0:0:
252,212,122719,1,0,0:0:0:0:
248,208,122862,1,0,0:0:0:0:
248,208,122933,1,8,0:0:0:0:
248,204,123005,1,0,0:0:0:0:
248,208,123076,1,0,0:0:0:0:
244,208,123148,1,8,0:0:0:0:
248,212,123362,1,0,0:0:0:0:
244,212,123576,1,8,0:0:0:0:
244,212,123790,1,8,0:0:0:0:
244,212,124005,1,8,0:0:0:0:
244,208,124219,1,0,0:0:0:0:
248,208,124326,1,0,0:0:0:0:
248,208,124433,1,8,0:0:0:0:
244,208,124540,1,0,0:0:0:0:
248,208,124648,1,8,0:0:0:0:
244,208,124755,1,8,0:0:0:0:
244,208,124862,1,0,0:0:0:0:
244,212,124969,1,8,0:0:0:0:
244,212,125076,1,0,0:0:0:0:
244,212,125290,1,8,0:0:0:0:
244,212,125398,1,8,0:0:0:0:
244,212,125505,1,0,0:0:0:0:
244,208,125612,1,0,0:0:0:0:
244,208,125719,1,8,0:0:0:0:
244,208,125826,1,8,0:0:0:0:
248,208,125933,1,0,0:0:0:0:
244,208,126148,1,8,0:0:0:0:
244,208,126255,1,8,0:0:0:0:
244,208,126362,1,0,0:0:0:0:
244,212,126469,1,0,0:0:0:0:
244,212,126576,1,8,0:0:0:0:
244,212,126683,1,0,0:0:0:0:
244,212,126790,1,8,0:0:0:0:
244,212,126898,1,0,0:0:0:0:
244,212,127005,1,8,0:0:0:0:
244,208,127112,1,8,0:0:0:0:
244,208,127219,1,0,0:0:0:0:
244,208,127326,1,0,0:0:0:0:
240,208,127433,1,8,0:0:0:0:
244,208,127540,1,0,0:0:0:0:
244,208,127648,1,8,0:0:0:0:
244,208,127862,1,0,0:0:0:0:
244,212,127969,1,8,0:0:0:0:
244,212,128076,1,0,0:0:0:0:
244,212,128183,1,0,0:0:0:0:
244,212,128290,1,8,0:0:0:0:
244,212,128398,1,0,0:0:0:0:
244,212,128505,1,8,0:0:0:0:
244,208,128719,1,0,0:0:0:0:
244,208,128826,1,8,0:0:0:0:
244,208,128933,1,0,0:0:0:0:
244,200,129040,1,0,0:0:0:0:
244,200,129148,1,8,0:0:0:0:
244,200,129255,1,8,0:0:0:0:
244,200,129362,1,0,0:0:0:0:
244,200,129576,1,8,0:0:0:0:
244,200,129683,1,8,0:0:0:0:
244,200,129790,1,0,0:0:0:0:
244,200,129898,1,8,0:0:0:0:
244,200,130005,1,8,0:0:0:0:
244,200,130112,1,0,0:0:0:0:
244,200,130219,1,8,0:0:0:0:
244,200,130326,1,8,0:0:0:0:
244,200,130433,1,0,0:0:0:0:
244,200,130540,1,8,0:0:0:0:
244,200,130648,1,0,0:0:0:0:
244,200,130755,1,0,0:0:0:0:
244,200,130862,1,8,0:0:0:0:
244,200,130969,1,0,0:0:0:0:
244,200,131076,1,8,0:0:0:0:
244,200,131290,1,0,0:0:0:0:
248,204,131398,1,8,0:0:0:0:
248,204,131505,1,0,0:0:0:0:
248,204,131612,1,0,0:0:0:0:
248,204,131719,1,8,0:0:0:0:
248,204,131826,1,8,0:0:0:0:
248,204,131933,1,0,0:0:0:0:
248,204,132148,1,0,0:0:0:0:
244,200,132219,1,0,0:0:0:0:
244,200,132290,1,0,0:0:0:0:
244,200,132362,1,8,0:0:0:0:
260,208,132576,1,8,0:0:0:0:
260,208,132683,1,0,0:0:0:0:
260,208,132790,1,8,0:0:0:0:
260,208,133005,1,8,0:0:0:0:
260,204,133112,1,0,0:0:0:0:
260,204,133219,1,8,0:0:0:0:
252,200,133433,1,8,0:0:0:0:
252,200,133540,1,0,0:0:0:0:
252,200,133648,1,8,0:0:0:0:
252,200,133862,1,0,0:0:0:0:
252,200,134076,1,8,0:0:0:0:
252,200,134130,1,8,0:0:0:0:
252,200,134183,1,8,0:0:0:0:
252,200,134237,1,8,0:0:0:0:
252,200,134290,1,0,0:0:0:0:
252,200,134505,1,8,0:0:0:0:
252,200,134612,1,0,0:0:0:0:
252,200,134719,1,8,0:0:0:0:
252,200,134826,1,0,0:0:0:0:
252,200,134933,1,0,0:0:0:0:
252,200,135148,1,12,0:0:0:0:
252,200,135362,1,0,0:0:0:0:
244,196,135469,1,8,0:0:0:0:
252,200,135576,1,0,0:0:0:0:
252,200,135683,1,8,0:0:0:0:
252,200,135790,1,0,0:0:0:0:
252,200,136005,1,12,0:0:0:0:
252,200,136219,1,0,0:0:0:0:
252,200,136326,1,8,0:0:0:0:
252,200,136433,1,0,0:0:0:0:
252,200,136540,1,8,0:0:0:0:
252,200,136648,1,0,0:0:0:0:
252,200,136862,1,12,0:0:0:0:
252,200,137076,1,0,0:0:0:0:
252,200,137183,1,8,0:0:0:0:
252,200,137290,1,0,0:0:0:0:
252,200,137398,1,8,0:0:0:0:
252,200,137505,1,0,0:0:0:0:
252,200,137719,1,12,0:0:0:0:
252,200,137933,1,0,0:0:0:0:
252,200,138040,1,8,0:0:0:0:
252,200,138148,1,0,0:0:0:0:
252,200,138255,1,8,0:0:0:0:
252,200,138362,1,0,0:0:0:0:
252,200,138576,1,12,0:0:0:0:
252,200,138790,1,0,0:0:0:0:
252,200,138898,1,8,0:0:0:0:
252,200,139005,1,0,0:0:0:0:
252,200,139112,1,8,0:0:0:0:
252,200,139219,1,0,0:0:0:0:
252,200,139433,1,12,0:0:0:0:
252,200,139648,1,0,0:0:0:0:
252,200,139862,1,0,0:0:0:0:
252,200,139969,1,8,0:0:0:0:
252,200,140076,1,0,0:0:0:0:
252,200,140290,1,8,0:0:0:0:
252,200,140505,1,0,0:0:0:0:
252,200,140719,1,0,0:0:0:0:
252,200,140933,1,0,0:0:0:0:
252,200,141148,1,0,0:0:0:0:
252,200,141790,1,12,0:0:0:0:
