osu file format v14

[General]
AudioFilename: Doppelganger.mp3
AudioLeadIn: 0
PreviewTime: 11076
Countdown: 0
SampleSet: Normal
StackLeniency: 0.7
Mode: 1
LetterboxInBreaks: 0
WidescreenStoryboard: 0

[Editor]
Bookmarks: 67648
DistanceSpacing: 2
BeatDivisor: 2
GridSize: 32
TimelineZoom: 3.699999

[Metadata]
Title:Doppelganger
TitleUnicode:Doppelganger
Artist:LeaF
ArtistUnicode:LeaF
Creator:Loctav
Version:Nwolf's Futsuu
Source:BMS
Tags:THE OF FIGHTERS 2013 BOF FRENZ Come To An End Einsamkeit Nwolf
BeatmapID:672862
BeatmapSetID:299136

[Difficulty]
HPDrainRate:5
CircleSize:4
OverallDifficulty:4
ApproachRate:8
SliderMultiplier:1
SliderTickRate:1

[Events]
//Background and Video events
0,0,"background.jpg",0,0
//Break Periods
//Storyboard Layer 0 (Background)
//Storyboard Layer 1 (Fail)
//Storyboard Layer 2 (Pass)
//Storyboard Layer 3 (Foreground)
//Storyboard Sound Samples

[TimingPoints]
791,214.285714285714,4,1,0,90,1,0
11076,-100,4,1,0,90,0,1
14505,-100,4,1,0,90,0,0
19594,-100,4,1,0,50,0,0
28969,-100,4,1,0,60,0,0
29398,-100,4,1,0,75,0,0
29826,-100,4,1,0,90,0,0
37648,-100,4,1,0,90,0,1
53933,-100,4,1,0,90,0,0
55219,-100,4,1,0,75,0,0
60683,-100,4,1,0,90,0,0
61433,-100,4,1,0,30,0,0
63148,-100,4,1,0,90,0,0
76112,-100,4,1,0,75,0,0
124219,-100,4,1,0,90,0,1
139648,-100,4,1,0,90,0,0

[HitObjects]
224,224,791,5,4,0:0:0:0:
224,224,1540,1,4,0:0:0:0:
224,160,2076,1,0,0:0:0:0:
224,160,2290,1,0,0:0:0:0:
288,224,2505,1,12,0:0:0:0:
288,224,3255,1,12,0:0:0:0:
288,160,3790,1,8,0:0:0:0:
224,224,4219,5,4,0:0:0:0:
224,160,4648,1,0,0:0:0:0:
224,160,5076,1,0,0:0:0:0:
288,160,5505,1,8,0:0:0:0:
288,160,5719,1,8,0:0:0:0:
288,224,7648,1,12,0:0:0:0:
288,160,8076,1,8,0:0:0:0:
288,160,8505,1,8,0:0:0:0:
224,160,8933,1,0,0:0:0:0:
224,160,9147,1,0,0:0:0:0:
288,224,10219,1,12,0:0:0:0:
288,224,10648,1,12,0:0:0:0:
224,224,11076,1,4,0:0:0:0:
288,160,11505,1,8,0:0:0:0:
288,160,11719,1,8,0:0:0:0:
288,160,11933,1,8,0:0:0:0:
288,160,12362,1,8,0:0:0:0:
224,160,12790,1,0,0:0:0:0:
288,160,13219,1,8,0:0:0:0:
288,160,13433,1,8,0:0:0:0:
288,160,13648,1,8,0:0:0:0:
288,160,14076,1,8,0:0:0:0:
224,160,14505,1,0,0:0:0:0:
288,160,14933,1,8,0:0:0:0:
224,224,16005,1,4,0:0:0:0:
224,224,16219,1,4,0:0:0:0:
224,160,16540,1,0,0:0:0:0:
224,224,16862,1,4,0:0:0:0:
224,160,17183,1,0,0:0:0:0:
288,224,17505,1,12,0:0:0:0:
256,192,17933,12,0,19219,0:0:0:0:
224,160,19648,5,0,0:0:0:0:
224,160,21362,1,0,0:0:0:0:
288,160,22219,1,8,0:0:0:0:
224,160,22648,1,0,0:0:0:0:
288,160,23076,1,8,0:0:0:0:
288,160,24790,1,8,0:0:0:0:
224,160,25219,1,0,0:0:0:0:
288,160,25648,1,8,0:0:0:0:
288,160,25862,1,8,0:0:0:0:
288,160,26076,1,8,0:0:0:0:
288,160,26505,1,8,0:0:0:0:
224,160,28219,1,0,0:0:0:0:
224,160,29076,1,0,0:0:0:0:
224,160,29505,1,0,0:0:0:0:
288,224,29933,1,12,0:0:0:0:
224,160,30362,1,0,0:0:0:0:
224,160,30576,1,0,0:0:0:0:
224,160,30790,1,0,0:0:0:0:
288,160,31112,1,8,0:0:0:0:
224,224,31648,1,4,0:0:0:0:
224,224,32290,1,4,0:0:0:0:
288,224,32933,1,12,0:0:0:0:
288,160,33576,1,8,0:0:0:0:
288,160,33790,1,8,0:0:0:0:
224,224,34219,1,4,0:0:0:0:
224,224,34862,1,4,0:0:0:0:
288,224,35505,1,12,0:0:0:0:
256,192,35719,12,0,37005,0:0:0:0:
288,224,37648,5,12,0:0:0:0:
288,160,38076,1,8,0:0:0:0:
288,160,38290,1,8,0:0:0:0:
224,160,38505,1,0,0:0:0:0:
224,160,39148,1,0,0:0:0:0:
288,160,39362,1,8,0:0:0:0:
224,224,39790,1,4,0:0:0:0:
224,224,40219,1,4,0:0:0:0:
288,160,40648,1,8,0:0:0:0:
288,160,40862,1,8,0:0:0:0:
224,160,41076,1,0,0:0:0:0:
288,160,41505,1,8,0:0:0:0:
224,160,42362,1,0,0:0:0:0:
224,160,42790,1,0,0:0:0:0:
288,160,43219,1,8,0:0:0:0:
224,160,44076,1,0,0:0:0:0:
288,160,44505,1,8,0:0:0:0:
224,160,44933,1,0,0:0:0:0:
224,160,45148,1,0,0:0:0:0:
288,160,45362,1,8,0:0:0:0:
224,160,46219,1,0,0:0:0:0:
288,160,46648,1,8,0:0:0:0:
224,160,47076,1,0,0:0:0:0:
288,160,47505,1,8,0:0:0:0:
288,160,47719,1,8,0:0:0:0:
288,160,47933,1,8,0:0:0:0:
224,160,48790,1,0,0:0:0:0:
288,160,49433,1,8,0:0:0:0:
288,160,50076,1,8,0:0:0:0:
224,224,50505,1,4,0:0:0:0:
224,224,50933,1,4,0:0:0:0:
224,224,51362,1,4,0:0:0:0:
256,192,51576,12,0,53719,0:0:0:0:
288,160,54148,5,8,0:0:0:0:
288,160,54362,1,8,0:0:0:0:
224,224,54790,1,4,0:0:0:0:
224,160,55648,1,0,0:0:0:0:
288,160,56505,1,8,0:0:0:0:
224,160,56933,1,0,0:0:0:0:
288,160,57362,1,8,0:0:0:0:
224,160,57790,1,0,0:0:0:0:
288,160,58219,1,8,0:0:0:0:
288,160,58648,1,8,0:0:0:0:
288,160,59076,1,8,0:0:0:0:
224,160,59933,1,0,0:0:0:0:
224,160,60362,1,0,0:0:0:0:
288,160,60790,1,8,0:0:0:0:
288,160,61005,1,8,0:0:0:0:
288,160,61219,1,8,0:0:0:0:
224,160,61648,1,0,0:0:0:0:
288,224,63362,1,12,0:0:0:0:
224,224,63790,1,4,0:0:0:0:
288,224,64219,1,12,0:0:0:0:
224,224,64648,1,4,0:0:0:0:
288,160,65076,1,8,0:0:0:0:
288,160,65290,1,8,0:0:0:0:
288,160,65505,1,8,0:0:0:0:
224,160,65933,1,0,0:0:0:0:
224,160,66148,1,0,0:0:0:0:
224,160,66362,1,0,0:0:0:0:
288,160,66790,1,8,0:0:0:0:
288,160,67005,1,8,0:0:0:0:
288,160,67219,1,8,0:0:0:0:
224,224,67648,1,4,0:0:0:0:
288,224,68505,1,12,0:0:0:0:
288,160,69148,1,8,0:0:0:0:
224,160,70219,1,0,0:0:0:0:
224,160,70862,1,0,0:0:0:0:
224,160,71076,1,0,0:0:0:0:
288,160,71505,1,8,0:0:0:0:
288,160,71933,1,8,0:0:0:0:
288,160,72362,1,8,0:0:0:0:
224,160,72790,1,0,0:0:0:0:
224,160,73648,1,0,0:0:0:0:
224,160,74505,1,0,0:0:0:0:
288,160,74933,1,8,0:0:0:0:
224,224,75362,1,4,0:0:0:0:
224,160,76219,5,0,0:0:0:0:
224,160,77076,1,0,0:0:0:0:
224,160,77505,1,0,0:0:0:0:
224,160,77933,1,0,0:0:0:0:
224,160,78362,1,0,0:0:0:0:
224,160,78790,1,0,0:0:0:0:
224,160,79648,1,0,0:0:0:0:
224,160,80505,1,0,0:0:0:0:
224,160,80719,1,0,0:0:0:0:
224,160,80933,1,0,0:0:0:0:
288,160,81362,1,8,0:0:0:0:
288,160,82219,1,8,0:0:0:0:
288,160,82648,1,8,0:0:0:0:
224,224,83076,5,4,0:0:0:0:
288,160,83505,1,8,0:0:0:0:
288,160,83719,1,8,0:0:0:0:
224,160,83933,1,0,0:0:0:0:
224,160,84790,1,0,0:0:0:0:
224,160,85005,1,0,0:0:0:0:
224,160,85219,1,0,0:0:0:0:
288,224,85648,1,12,0:0:0:0:
288,160,86505,1,8,0:0:0:0:
288,160,87362,1,8,0:0:0:0:
224,160,87576,1,0,0:0:0:0:
224,160,87790,1,0,0:0:0:0:
288,224,88219,1,12,0:0:0:0:
288,160,89076,1,8,0:0:0:0:
288,160,89290,1,8,0:0:0:0:
224,160,89505,1,0,0:0:0:0:
288,224,89933,1,12,0:0:0:0:
224,160,91648,1,0,0:0:0:0:
224,160,92076,1,0,0:0:0:0:
224,160,92505,1,0,0:0:0:0:
224,160,92933,1,0,0:0:0:0:
288,160,93362,1,8,0:0:0:0:
224,224,93790,1,4,0:0:0:0:
224,160,94433,1,0,0:0:0:0:
288,160,95076,1,8,0:0:0:0:
288,224,96148,1,12,0:0:0:0:
288,224,96469,1,12,0:0:0:0:
224,160,96790,1,0,0:0:0:0:
224,224,97540,1,4,0:0:0:0:
288,224,98505,1,12,0:0:0:0:
224,160,99255,1,0,0:0:0:0:
224,160,99576,1,0,0:0:0:0:
288,160,99898,1,8,0:0:0:0:
224,160,100219,1,0,0:0:0:0:
224,160,101076,1,0,0:0:0:0:
288,224,101933,1,12,0:0:0:0:
224,160,102683,1,0,0:0:0:0:
224,160,103005,1,0,0:0:0:0:
224,160,103326,1,0,0:0:0:0:
224,224,103648,1,4,0:0:0:0:
224,160,104505,1,0,0:0:0:0:
288,160,105362,1,8,0:0:0:0:
224,160,105790,1,0,0:0:0:0:
288,224,106433,1,12,0:0:0:0:
288,224,106755,1,12,0:0:0:0:
288,224,107076,1,12,0:0:0:0:
288,224,107933,1,12,0:0:0:0:
224,160,108255,1,0,0:0:0:0:
224,160,108576,1,0,0:0:0:0:
288,224,109005,1,12,0:0:0:0:
224,224,109648,5,4,0:0:0:0:
224,160,111148,1,0,0:0:0:0:
288,160,112219,1,8,0:0:0:0:
224,160,113076,1,0,0:0:0:0:
224,160,114576,1,0,0:0:0:0:
288,160,115648,1,8,0:0:0:0:
288,160,116719,1,8,0:0:0:0:
288,160,116933,1,8,0:0:0:0:
224,160,117362,1,0,0:0:0:0:
288,160,117790,1,8,0:0:0:0:
224,160,118219,1,0,0:0:0:0:
288,160,119076,1,8,0:0:0:0:
224,160,119505,1,0,0:0:0:0:
288,160,119933,1,8,0:0:0:0:
288,160,120790,1,8,0:0:0:0:
288,160,121648,1,8,0:0:0:0:
288,160,122076,1,8,0:0:0:0:
224,224,122505,1,4,0:0:0:0:
224,224,123362,1,4,0:0:0:0:
288,160,123790,1,8,0:0:0:0:
224,224,124219,5,4,0:0:0:0:
288,160,124433,1,8,0:0:0:0:
288,160,124648,1,8,0:0:0:0:
288,160,125076,1,8,0:0:0:0:
224,160,125290,1,0,0:0:0:0:
224,160,125505,1,0,0:0:0:0:
288,160,125933,1,8,0:0:0:0:
288,160,126362,1,8,0:0:0:0:
288,160,126576,1,8,0:0:0:0:
224,160,126790,1,0,0:0:0:0:
288,160,127648,1,8,0:0:0:0:
224,160,128076,1,0,0:0:0:0:
288,160,128290,1,8,0:0:0:0:
288,160,128505,1,8,0:0:0:0:
288,160,128933,1,8,0:0:0:0:
224,160,129148,1,0,0:0:0:0:
288,160,129362,1,8,0:0:0:0:
288,160,129790,1,8,0:0:0:0:
224,160,130219,1,0,0:0:0:0:
288,224,131076,1,12,0:0:0:0:
224,160,131505,1,0,0:0:0:0:
288,160,131719,1,8,0:0:0:0:
288,160,131933,1,8,0:0:0:0:
224,160,132362,1,0,0:0:0:0:
288,160,132790,1,8,0:0:0:0:
224,160,133219,1,0,0:0:0:0:
288,160,133433,1,8,0:0:0:0:
288,160,133648,1,8,0:0:0:0:
288,224,134505,1,12,0:0:0:0:
288,224,135148,1,12,0:0:0:0:
288,224,135362,1,12,0:0:0:0:
288,224,136005,1,12,0:0:0:0:
288,224,136219,1,12,0:0:0:0:
288,224,136862,1,12,0:0:0:0:
288,224,137076,1,12,0:0:0:0:
288,160,137933,1,8,0:0:0:0:
224,160,138148,1,0,0:0:0:0:
224,160,138362,1,0,0:0:0:0:
288,160,138790,1,8,0:0:0:0:
224,160,139005,1,0,0:0:0:0:
224,160,139219,1,0,0:0:0:0:
288,224,139648,1,12,0:0:0:0:
288,160,140076,1,8,0:0:0:0:
224,160,140505,1,0,0:0:0:0:
224,160,140933,1,0,0:0:0:0:
288,224,141790,1,12,0:0:0:0:
