osu file format v14

[General]
AudioFilename: Doppelganger.mp3
AudioLeadIn: 0
PreviewTime: 19648
Countdown: 0
SampleSet: None
StackLeniency: 0.7
Mode: 3
LetterboxInBreaks: 0
SpecialStyle: 0
WidescreenStoryboard: 0

[Editor]
DistanceSpacing: 2
BeatDivisor: 4
GridSize: 4
TimelineZoom: 2.2

[Metadata]
Title:Doppelganger
TitleUnicode:Doppelganger
Artist:LeaF
ArtistUnicode:LeaF
Creator:Jinjin
Version:Normal
Source:BMS
Tags:bms of fighters 2013 bof frenz come to an end einsamkeit jakads lude evening
BeatmapID:1020082
BeatmapSetID:407153

[Difficulty]
HPDrainRate:7
CircleSize:7
OverallDifficulty:7
ApproachRate:5
SliderMultiplier:1.4
SliderTickRate:1

[Events]
//Background and Video events
0,0,"doppelganger bg new.jpg",0,0
//Break Periods
//Storyboard Layer 0 (Background)
//Storyboard Layer 1 (Fail)
//Storyboard Layer 2 (Pass)
//Storyboard Layer 3 (Foreground)
//Storyboard Sound Samples

[TimingPoints]
791,214.285714285714,4,3,0,30,1,0
124219,-100,4,3,0,30,0,1
141362,-100,4,3,0,30,0,0

[HitObjects]
329,192,791,5,0,0:0:0:60:KickMid.wav
182,192,898,1,0,0:0:0:60:KickMid.wav
475,192,1112,1,0,0:0:0:60:KickMid.wav
475,192,1326,1,0,0:0:0:60:KickMid.wav
475,192,1540,1,0,0:0:0:60:KickMid.wav
36,192,1755,1,0,0:0:0:60:KickMid.wav
182,192,1862,1,0,0:0:0:60:KickMid.wav
329,192,1969,1,0,0:0:0:60:KickMid.wav
475,192,2076,1,0,0:0:0:60:KickMid.wav
182,192,2290,1,0,0:0:0:60:KickMid.wav
329,192,2505,1,0,0:0:0:60:KickMid.wav
36,192,2719,1,0,0:0:0:60:KickMid.wav
36,192,3040,1,0,0:0:0:60:KickMid.wav
36,192,3255,1,0,0:0:0:60:KickMid.wav
256,192,3790,1,0,0:0:0:60:KickMid.wav
36,192,4219,1,0,0:0:0:60:DeepBassKick.wav
475,192,4219,1,0,0:0:0:60:CymbalFSU.wav
182,192,4433,1,0,0:0:0:60:KickMid.wav
329,192,4648,1,0,0:0:0:60:KickMid.wav
182,192,4862,1,0,0:0:0:60:KickMid.wav
402,192,5076,1,0,0:0:0:60:KickMid.wav
109,192,5290,1,0,0:0:0:60:KickMid.wav
329,192,5505,1,0,0:0:0:60:KickMid.wav
182,192,5719,1,0,0:0:0:60:KickMid.wav
256,192,5933,128,4,7648:0:0:0:30:
36,192,7648,1,0,0:0:0:60:DeepBassKick.wav
475,192,7648,1,0,0:0:0:60:CymbalFSU.wav
182,192,7862,1,0,0:0:0:60:KickMid.wav
402,192,8076,1,0,0:0:0:60:KickMid.wav
109,192,8290,1,0,0:0:0:60:KickMid.wav
329,192,8505,1,0,0:0:0:60:KickMid.wav
182,192,8719,1,0,0:0:0:60:KickMid.wav
402,192,8933,1,0,0:0:0:60:KickMid.wav
109,192,9148,1,0,0:0:0:60:KickMid.wav
256,192,9362,128,4,10219:0:0:0:30:
36,192,10219,1,0,0:0:0:60:DeepBassKick.wav
475,192,10219,1,0,0:0:0:60:CymbalFSU.wav
109,192,10433,1,0,0:0:0:60:DeepBassKick.wav
402,192,10433,1,0,0:0:0:60:CymbalFSU.wav
182,192,10648,1,0,0:0:0:60:DeepBassKick.wav
329,192,10648,1,0,0:0:0:60:CymbalFSU.wav
36,192,11290,1,0,0:0:0:60:KickMid.wav
182,192,11505,1,0,0:0:0:60:KickMid.wav
329,192,11719,1,0,0:0:0:60:KickMid.wav
475,192,11933,1,0,0:0:0:60:KickMid.wav
329,192,12148,1,0,0:0:0:60:KickMid.wav
182,192,12362,1,0,0:0:0:60:KickMid.wav
36,192,12576,1,0,0:0:0:60:KickMid.wav
109,192,13005,1,0,0:0:0:60:KickMid.wav
182,192,13219,1,0,0:0:0:60:KickMid.wav
329,192,13433,1,0,0:0:0:60:KickMid.wav
402,192,13648,1,0,0:0:0:60:KickMid.wav
329,192,13862,1,0,0:0:0:60:KickMid.wav
182,192,14076,1,0,0:0:0:60:KickMid.wav
109,192,14290,1,0,0:0:0:60:KickMid.wav
329,192,14719,128,0,14933:0:0:0:30:
182,192,14933,128,2,15362:0:0:0:30:
256,192,15362,128,0,16005:0:0:0:30:
109,192,16005,1,0,0:0:0:60:DeepBassKick.wav
402,192,16005,1,0,0:0:0:60:CymbalFSU.wav
109,192,16219,1,0,0:0:0:60:DeepBassKick.wav
402,192,16219,1,0,0:0:0:60:CymbalFSU.wav
329,192,16540,1,0,0:0:0:60:DeepBassKick.wav
256,192,16862,1,0,0:0:0:60:DeepBassKick.wav
182,192,17183,1,0,0:0:0:60:DeepBassKick.wav
36,192,17505,128,0,17933:0:0:0:30:DeepBassKick.wav
329,192,17933,1,0,0:0:0:60:DeepBassKick.wav
475,192,17933,1,0,0:0:0:60:CymbalFSU.wav
329,192,19005,1,8,0:0:0:30:
402,192,19219,1,8,0:0:0:30:
329,192,19433,1,8,0:0:0:30:
36,192,19648,1,0,0:0:0:60:DeepBassKick.wav
182,192,19648,1,0,0:0:0:60:CymbalFSU.wav
475,192,19862,1,0,0:0:0:20:
475,192,20076,1,0,0:0:0:20:
402,192,20290,1,0,0:0:0:20:
329,192,20505,1,0,0:0:0:20:
182,192,20933,1,0,0:0:0:20:
36,192,21148,1,0,0:0:0:20:
329,192,21362,1,0,0:0:0:20:
36,192,21576,1,0,0:0:0:20:
109,192,21790,1,0,0:0:0:20:
182,192,22005,1,0,0:0:0:20:
402,192,22219,1,0,0:0:0:20:
109,192,22648,1,0,0:0:0:20:
329,192,23076,1,0,0:0:0:20:
36,192,23290,1,0,0:0:0:20:
182,192,23505,1,0,0:0:0:20:
475,192,23719,1,0,0:0:0:20:
329,192,23933,1,0,0:0:0:20:
109,192,24362,1,0,0:0:0:20:
182,192,24576,1,0,0:0:0:20:
329,192,24790,1,0,0:0:0:20:
109,192,25005,1,0,0:0:0:20:
329,192,25219,1,0,0:0:0:20:
475,192,25433,1,0,0:0:0:20:
182,192,25648,1,0,0:0:0:20:
329,192,25862,1,0,0:0:0:20:
109,192,26076,1,0,0:0:0:20:
329,192,26505,1,0,0:0:0:20:
109,192,26719,1,0,0:0:0:20:
182,192,26933,1,0,0:0:0:20:
402,192,27148,1,0,0:0:0:20:
329,192,27362,1,0,0:0:0:20:
256,192,27790,1,0,0:0:0:20:
182,192,28005,1,0,0:0:0:20:
182,192,28219,1,0,0:0:0:20:
36,192,28433,1,0,0:0:0:20:
182,192,28648,1,0,0:0:0:20:
475,192,28862,1,0,0:0:0:20:
329,192,29076,128,0,29505:0:0:0:20:
182,192,29505,128,0,29933:0:0:0:20:
329,192,29933,1,0,0:0:0:60:DeepBassKick.wav
475,192,29933,1,0,0:0:0:60:CymbalFSU.wav
182,192,30148,1,0,0:0:0:60:KickMid.wav
36,192,30148,1,0,0:0:0:30:
329,192,30362,1,0,0:0:0:60:KickMid.wav
329,192,30576,1,0,0:0:0:60:KickMid.wav
182,192,30790,1,0,0:0:0:60:KickMid.wav
329,192,31112,1,0,0:0:0:60:KickMid.wav
182,192,31433,1,0,0:0:0:30:
36,192,31648,1,0,0:0:0:60:DeepBassKick.wav
329,192,31648,1,0,0:0:0:60:CymbalFSU.wav
109,192,31969,1,0,0:0:0:60:DeepBassKick.wav
402,192,31969,1,0,0:0:0:60:CymbalFSU.wav
182,192,32290,1,0,0:0:0:60:DeepBassKick.wav
475,192,32290,1,0,0:0:0:60:CymbalFSU.wav
109,192,32612,1,0,0:0:0:60:DeepBassKick.wav
402,192,32612,1,0,0:0:0:60:CymbalFSU.wav
329,192,32933,1,0,0:0:0:60:DeepBassKick.wav
36,192,32933,1,0,0:0:0:60:CymbalFSU.wav
109,192,33576,1,0,0:0:0:60:DeepBassKick.wav
402,192,33576,1,0,0:0:0:60:CymbalFSU.wav
329,192,33790,1,0,0:0:0:60:DeepBassKick.wav
182,192,34005,1,0,0:0:0:60:DeepBassKick.wav
36,192,34219,1,0,0:0:0:60:DeepBassKick.wav
329,192,34219,1,0,0:0:0:60:CymbalFSU.wav
109,192,34540,1,0,0:0:0:60:DeepBassKick.wav
402,192,34540,1,0,0:0:0:60:CymbalFSU.wav
182,192,34862,1,0,0:0:0:60:DeepBassKick.wav
475,192,34862,1,0,0:0:0:60:CymbalFSU.wav
109,192,35183,1,0,0:0:0:60:DeepBassKick.wav
402,192,35183,1,0,0:0:0:60:CymbalFSU.wav
36,192,35505,128,0,37648:0:0:0:60:DeepBassKick.wav
329,192,35505,128,0,37648:0:0:0:60:CymbalFSU.wav
182,192,37648,1,0,0:0:0:60:DeepBassKick.wav
475,192,37648,1,0,0:0:0:60:CymbalFSU.wav
36,192,37862,1,0,0:0:0:60:KickMid.wav
329,192,38076,1,0,0:0:0:60:KickMid.wav
329,192,38290,1,0,0:0:0:60:KickMid.wav
182,192,38505,1,0,0:0:0:60:KickMid.wav
329,192,38719,1,0,0:0:0:60:KickMid.wav
329,192,39148,1,0,0:0:0:60:KickMid.wav
256,192,39362,128,0,39790:0:0:0:60:KickMid.wav
36,192,39790,1,0,0:0:0:60:DeepBassKick.wav
182,192,40219,1,0,0:0:0:60:DeepBassKick.wav
36,192,40433,1,0,0:0:0:30:
475,192,40648,1,0,0:0:0:60:DeepBassKick.wav
329,192,40862,1,0,0:0:0:30:
182,192,41076,1,0,0:0:0:60:DeepBassKick.wav
36,192,41290,1,0,0:0:0:60:DeepBassKick.wav
329,192,41505,1,0,0:0:0:60:CymbalFSU.wav
475,192,41719,1,0,0:0:0:60:KickMid.wav
182,192,41933,1,0,0:0:0:60:KickMid.wav
109,192,42362,1,0,0:0:0:60:KickMid.wav
329,192,42576,1,0,0:0:0:60:KickMid.wav
182,192,42790,128,0,43219:0:0:0:60:KickMid.wav
402,192,43219,1,0,0:0:0:60:KickMid.wav
329,192,43433,1,0,0:0:0:60:KickMid.wav
109,192,43862,1,0,0:0:0:60:DeepBassKick.wav
182,192,43862,1,0,0:0:0:60:CymbalFSU.wav
329,192,44076,1,0,0:0:0:60:DeepBassKick.wav
402,192,44076,1,0,0:0:0:60:CymbalFSU.wav
182,192,44290,1,0,0:0:0:60:DeepBassKick.wav
109,192,44290,1,0,0:0:0:60:CymbalFSU.wav
329,192,44505,1,0,0:0:0:30:
36,192,44719,1,0,0:0:0:60:DeepBassKick.wav
329,192,44933,1,0,0:0:0:60:KickMid.wav
182,192,45469,1,0,0:0:0:60:KickMid.wav
329,192,45790,1,0,0:0:0:30:
182,192,46005,1,0,0:0:0:30:
256,192,46219,1,0,0:0:0:60:KickMid.wav
256,192,46433,1,0,0:0:0:60:KickMid.wav
256,192,46648,1,0,0:0:0:60:KickMid.wav
256,192,47076,128,0,47505:0:0:0:30:
475,192,47505,1,0,0:0:0:60:DeepBassKick.wav
402,192,47719,1,0,0:0:0:60:DeepBassKick.wav
329,192,47933,1,0,0:0:0:60:DeepBassKick.wav
182,192,48148,1,0,0:0:0:60:DeepBassKick.wav
36,192,48362,1,0,0:0:0:60:KickMid.wav
329,192,48790,1,0,0:0:0:60:KickMid.wav
182,192,49112,1,0,0:0:0:60:KickMid.wav
329,192,49433,1,0,0:0:0:60:KickMid.wav
182,192,49648,1,0,0:0:0:60:KickMid.wav
256,192,50076,128,0,50505:0:0:0:60:DeepBassKick.wav
109,192,50505,128,0,50933:0:0:0:60:DeepBassKick.wav
402,192,50933,128,0,51362:0:0:0:60:DeepBassKick.wav
109,192,51362,1,0,0:0:0:60:DeepBassKick.wav
256,192,51362,128,0,53826:0:0:0:60:CymbalFSU.wav
329,192,54148,1,0,0:0:0:60:DeepBassKick.wav
256,192,54362,1,0,0:0:0:60:DeepBassKick.wav
182,192,54576,1,0,0:0:0:30:
36,192,54790,1,0,0:0:0:60:DeepBassKick.wav
109,192,54790,1,0,0:0:0:60:CymbalFSU.wav
402,192,55005,1,0,0:0:0:30:
402,192,55219,1,0,0:0:0:30:
329,192,55433,1,0,0:0:0:30:
182,192,55648,128,8,56505:0:0:0:30:
402,192,56505,1,0,0:0:0:30:
329,192,56719,1,0,0:0:0:30:
182,192,56933,128,8,57362:0:0:0:30:
475,192,57362,1,0,0:0:0:30:
329,192,57576,1,0,0:0:0:30:
182,192,57790,128,8,58219:0:0:0:30:
329,192,58219,1,0,0:0:0:30:
182,192,58433,1,8,0:0:0:30:
329,192,58648,1,0,0:0:0:30:
182,192,58862,1,8,0:0:0:30:
329,192,59076,1,0,0:0:0:30:
182,192,59290,128,8,59505:0:0:0:30:
36,192,59505,128,8,59719:0:0:0:30:
329,192,59719,1,0,0:0:0:30:
475,192,59933,1,0,0:0:0:60:KickMid.wav
36,192,60148,1,0,0:0:0:60:KickMid.wav
256,192,60362,1,0,0:0:0:60:KickMid.wav
475,192,60576,1,0,0:0:0:60:KickMid.wav
109,192,60790,1,0,0:0:0:60:DeepBassKick.wav
402,192,60790,1,0,0:0:0:60:CymbalFSU.wav
36,192,61005,1,0,0:0:0:60:DeepBassKick.wav
475,192,61005,1,0,0:0:0:60:CymbalFSU.wav
182,192,61219,1,0,0:0:0:60:DeepBassKick.wav
329,192,61219,1,0,0:0:0:60:CymbalFSU.wav
402,192,61648,1,0,0:0:0:30:
109,192,61862,1,0,0:0:0:30:
182,192,62076,1,0,0:0:0:30:
329,192,62290,1,0,0:0:0:30:
256,192,62505,1,0,0:0:0:30:
182,192,62933,1,0,0:0:0:30:
109,192,63148,1,0,0:0:0:30:
329,192,63362,1,0,0:0:0:60:DeepBassKick.wav
475,192,63362,1,0,0:0:0:60:CymbalFSU.wav
36,192,63576,1,0,0:0:0:60:DeepBassKick.wav
182,192,63790,1,0,0:0:0:60:DeepBassKick.wav
402,192,64005,1,0,0:0:0:60:DeepBassKick.wav
329,192,64219,1,0,0:0:0:60:DeepBassKick.wav
182,192,64648,1,0,0:0:0:60:KickMid.wav
402,192,65076,1,0,0:0:0:60:DeepBassKick.wav
256,192,65076,1,0,0:0:0:60:CymbalFSU.wav
109,192,65290,1,0,0:0:0:60:DeepBassKick.wav
329,192,65505,1,0,0:0:0:60:DeepBassKick.wav
182,192,65719,1,0,0:0:0:60:DeepBassKick.wav
402,192,65933,1,0,0:0:0:60:DeepBassKick.wav
109,192,66148,1,0,0:0:0:60:DeepBassKick.wav
329,192,66362,1,0,0:0:0:60:DeepBassKick.wav
182,192,66576,1,0,0:0:0:60:DeepBassKick.wav
475,192,66790,1,0,0:0:0:60:KickMid.wav
36,192,66790,1,0,0:0:0:30:
402,192,67005,1,0,0:0:0:60:KickMid.wav
109,192,67005,1,0,0:0:0:30:
329,192,67219,1,0,0:0:0:60:KickMid.wav
182,192,67219,1,0,0:0:0:30:
402,192,67433,1,0,0:0:0:60:KickMid.wav
109,192,67433,1,0,0:0:0:30:
36,192,67648,128,0,68505:0:0:0:60:KickMid.wav
475,192,67648,128,0,68505:0:0:0:30:
329,192,68505,1,0,0:0:0:60:DeepBassKick.wav
182,192,68505,1,0,0:0:0:60:CymbalFSU.wav
256,192,68933,1,0,0:0:0:60:KickMid.wav
329,192,69362,1,0,0:0:0:60:DeepBassKick.wav
329,192,69683,1,0,0:0:0:60:DeepBassKick.wav
402,192,70219,1,0,0:0:0:60:KickMid.wav
109,192,70540,1,0,0:0:0:60:DeepBassKick.wav
36,192,71076,1,0,0:0:0:60:DeepBassKick.wav
36,192,71290,1,0,0:0:0:60:DeepBassKick.wav
329,192,71505,1,0,0:0:0:60:KickMid.wav
109,192,71933,1,0,0:0:0:60:DeepBassKick.wav
182,192,71933,1,0,0:0:0:60:CymbalFSU.wav
329,192,72362,1,0,0:0:0:60:DeepBassKick.wav
402,192,72362,1,0,0:0:0:60:CymbalFSU.wav
182,192,72790,1,0,0:0:0:60:DeepBassKick.wav
182,192,73112,1,0,0:0:0:60:DeepBassKick.wav
329,192,73433,1,0,0:0:0:60:KickMid.wav
475,192,73648,1,0,0:0:0:30:
182,192,73969,1,0,0:0:0:60:DeepBassKick.wav
329,192,74290,1,0,0:0:0:30:
109,192,74505,1,0,0:0:0:60:DeepBassKick.wav
109,192,74719,1,0,0:0:0:60:DeepBassKick.wav
329,192,74933,1,0,0:0:0:60:KickMid.wav
109,192,75362,1,0,0:0:0:60:DeepBassKick.wav
329,192,75362,1,0,0:0:0:60:CymbalFSU.wav
329,192,76219,1,0,0:0:0:60:KickMid.wav
402,192,76219,1,8,0:0:0:50:
36,192,76648,1,4,0:0:0:50:
109,192,76648,1,0,0:0:0:30:
329,192,77076,1,8,0:0:0:50:
402,192,77076,1,0,0:0:0:30:
109,192,77505,1,4,0:0:0:50:
36,192,77505,1,0,0:0:0:30:
329,192,77933,1,8,0:0:0:50:
402,192,77933,1,0,0:0:0:30:
36,192,78362,1,4,0:0:0:50:
109,192,78362,1,0,0:0:0:30:
402,192,78790,1,8,0:0:0:50:
475,192,78790,1,0,0:0:0:30:
182,192,79219,1,4,0:0:0:50:
109,192,79219,1,0,0:0:0:30:
329,192,79648,1,8,0:0:0:50:
402,192,79648,1,0,0:0:0:30:
36,192,80076,1,4,0:0:0:50:
109,192,80076,1,0,0:0:0:30:
402,192,80505,1,8,0:0:0:50:
475,192,80505,1,0,0:0:0:30:
182,192,80933,1,4,0:0:0:50:
109,192,80933,1,0,0:0:0:30:
329,192,81362,1,0,0:0:0:60:DeepBassKick.wav
475,192,81362,1,0,0:0:0:60:CymbalFSU.wav
36,192,82219,1,0,0:0:0:60:DeepBassKick.wav
182,192,82219,1,0,0:0:0:60:CymbalFSU.wav
329,192,82648,1,0,0:0:0:60:DeepBassKick.wav
182,192,83076,1,0,0:0:0:60:DeepBassKick.wav
36,192,83076,1,0,0:0:0:60:CymbalFSU.wav
402,192,83290,1,0,0:0:0:60:KickMid.wav
402,192,83505,1,0,0:0:0:60:KickMid.wav
329,192,83719,1,0,0:0:0:60:KickMid.wav
182,192,83933,1,0,0:0:0:30:
475,192,84362,1,0,0:0:0:30:
36,192,84576,1,0,0:0:0:30:
402,192,84790,1,0,0:0:0:60:DeepBassKick.wav
109,192,85005,1,0,0:0:0:60:KickMid.wav
256,192,85219,1,0,0:0:0:60:KickMid.wav
475,192,85648,1,0,0:0:0:60:DeepBassKick.wav
36,192,86076,1,0,0:0:0:60:DeepBassKick.wav
402,192,86505,1,0,0:0:0:60:DeepBassKick.wav
329,192,86505,1,0,0:0:0:60:CymbalFSU.wav
109,192,86933,1,0,0:0:0:30:
256,192,87148,1,0,0:0:0:60:KickMid.wav
36,192,87362,1,0,0:0:0:60:KickMid.wav
329,192,87576,1,0,0:0:0:30:
182,192,87790,1,0,0:0:0:60:KickMid.wav
402,192,88219,1,0,0:0:0:60:DeepBassKick.wav
109,192,88433,1,0,0:0:0:60:DeepBassKick.wav
329,192,88648,1,0,0:0:0:60:KickMid.wav
36,192,89076,1,0,0:0:0:60:DeepBassKick.wav
475,192,89076,1,0,0:0:0:60:CymbalFSU.wav
182,192,89290,1,0,0:0:0:60:DeepBassKick.wav
329,192,89290,1,0,0:0:0:60:CymbalFSU.wav
109,192,89505,1,0,0:0:0:60:DeepBassKick.wav
402,192,89505,1,0,0:0:0:60:CymbalFSU.wav
329,192,89933,128,0,90790:0:0:0:30:
475,192,90790,128,2,91648:0:0:0:40:
36,192,91648,1,0,0:0:0:60:KickMid.wav
182,192,91648,1,0,0:0:0:30:
36,192,92076,1,0,0:0:0:60:KickMid.wav
182,192,92076,1,0,0:0:0:30:
36,192,92505,1,0,0:0:0:60:KickMid.wav
182,192,92505,1,0,0:0:0:30:
36,192,92933,128,0,93362:0:0:0:30:
475,192,93362,1,0,0:0:0:60:KickMid.wav
182,192,93790,1,0,0:0:0:60:DeepBassKick.wav
329,192,94112,1,0,0:0:0:30:
109,192,94433,1,0,0:0:0:60:KickMid.wav
182,192,94648,1,0,0:0:0:30:
329,192,95076,1,0,0:0:0:60:KickMid.wav
329,192,95290,1,0,0:0:0:60:KickMid.wav
182,192,95505,1,0,0:0:0:60:KickMid.wav
182,192,95719,1,0,0:0:0:60:KickMid.wav
402,192,96148,1,0,0:0:0:60:DeepBassKick.wav
475,192,96148,1,0,0:0:0:60:CymbalFSU.wav
182,192,96469,1,0,0:0:0:60:DeepBassKick.wav
329,192,96469,1,0,0:0:0:60:CymbalFSU.wav
36,192,96790,1,0,0:0:0:60:KickMid.wav
475,192,97540,1,0,0:0:0:60:DeepBassKick.wav
182,192,97540,1,0,0:0:0:60:CymbalFSU.wav
109,192,97862,1,0,0:0:0:60:DeepBassKick.wav
402,192,97862,1,0,0:0:0:60:CymbalFSU.wav
36,192,98183,1,0,0:0:0:60:DeepBassKick.wav
329,192,98183,1,0,0:0:0:60:CymbalFSU.wav
475,192,98505,128,0,99148:0:0:0:30:
475,192,99255,1,0,0:0:0:60:DeepBassKick.wav
182,192,99576,1,0,0:0:0:60:DeepBassKick.wav
329,192,99898,1,0,0:0:0:60:DeepBassKick.wav
36,192,100219,1,0,0:0:0:60:KickMid.wav
182,192,100433,1,0,0:0:0:60:KickMid.wav
182,192,100862,1,0,0:0:0:30:
329,192,101076,1,0,0:0:0:30:
109,192,101290,1,0,0:0:0:60:KickMid.wav
329,192,101612,1,0,0:0:0:60:KickMid.wav
402,192,101933,1,0,0:0:0:60:CymbalFSU.wav
182,192,102148,1,0,0:0:0:30:
329,192,102469,1,0,0:0:0:60:KickMid.wav
256,192,102683,1,0,0:0:0:60:KickMid.wav
256,192,103005,1,0,0:0:0:60:KickMid.wav
256,192,103326,1,0,0:0:0:60:KickMid.wav
109,192,103648,128,0,104505:0:0:0:60:DeepBassKick.wav
402,192,103648,128,0,104505:0:0:0:60:CymbalFSU.wav
329,192,104505,1,0,0:0:0:60:KickMid.wav
182,192,104933,1,0,0:0:0:30:
256,192,105362,128,0,105790:0:0:0:60:DeepBassKick.wav
36,192,105790,1,0,0:0:0:60:KickMid.wav
475,192,105790,1,0,0:0:0:30:
36,192,106005,1,0,0:0:0:60:KickMid.wav
475,192,106005,1,0,0:0:0:30:
475,192,106433,1,0,0:0:0:60:DeepBassKick.wav
182,192,106433,1,0,0:0:0:60:CymbalFSU.wav
109,192,106755,1,0,0:0:0:60:DeepBassKick.wav
402,192,106755,1,0,0:0:0:60:CymbalFSU.wav
36,192,107076,1,0,0:0:0:60:DeepBassKick.wav
329,192,107076,1,0,0:0:0:60:CymbalFSU.wav
182,192,107719,1,0,0:0:0:30:
36,192,107933,1,0,0:0:0:60:DeepBassKick.wav
329,192,107933,1,0,0:0:0:60:CymbalFSU.wav
256,192,108255,1,0,0:0:0:30:
256,192,108576,1,0,0:0:0:30:
36,192,109005,128,0,109648:0:0:0:60:DeepBassKick.wav
475,192,109005,128,0,109648:0:0:0:60:CymbalFSU.wav
182,192,109648,1,0,0:0:0:60:DeepBassKick.wav
329,192,109648,1,0,0:0:0:60:KickMid.wav
109,192,110076,1,0,0:0:0:60:DeepBassKick.wav
402,192,110505,1,8,0:0:0:50:
109,192,111362,1,0,0:0:0:60:KickMid.wav
109,192,111790,1,0,0:0:0:60:DeepBassKick.wav
402,192,112219,1,8,0:0:0:50:
109,192,112648,1,0,0:0:0:60:DeepBassKick.wav
256,192,113076,1,0,0:0:0:60:DeepBassKick.wav
109,192,113505,1,0,0:0:0:60:DeepBassKick.wav
402,192,113933,1,8,0:0:0:50:
109,192,114790,1,0,0:0:0:60:KickMid.wav
109,192,115219,1,0,0:0:0:60:DeepBassKick.wav
402,192,115648,1,8,0:0:0:50:
109,192,116076,1,0,0:0:0:60:DeepBassKick.wav
36,192,117362,128,0,122290:0:0:0:30:
109,192,118219,1,0,0:0:0:30:
182,192,119076,1,0,0:0:0:30:
256,192,119933,1,0,0:0:0:30:
329,192,120790,1,0,0:0:0:30:
402,192,121648,1,0,0:0:0:30:
36,192,122505,1,0,0:0:0:60:DeepBassKick.wav
475,192,122505,1,0,0:0:0:60:CymbalFSU.wav
182,192,122719,1,0,0:0:0:60:DeepBassKick.wav
329,192,122719,1,0,0:0:0:60:CymbalFSU.wav
36,192,122933,1,0,0:0:0:60:KickMid.wav
475,192,122933,1,0,0:0:0:30:
109,192,123362,1,0,0:0:0:60:DeepBassKick.wav
402,192,123362,1,0,0:0:0:60:CymbalFSU.wav
36,192,123790,1,0,0:0:0:60:DeepBassKick.wav
475,192,123790,1,0,0:0:0:60:CymbalFSU.wav
182,192,124219,1,0,0:0:0:60:DeepBassKick.wav
329,192,124219,1,0,0:0:0:60:CymbalFSU.wav
475,192,124433,1,0,0:0:0:60:DeepBassKick.wav
475,192,124648,1,0,0:0:0:60:DeepBassKick.wav
329,192,124862,1,0,0:0:0:60:DeepBassKick.wav
182,192,125076,1,0,0:0:0:60:DeepBassKick.wav
109,192,125290,1,0,0:0:0:60:DeepBassKick.wav
329,192,125505,1,0,0:0:0:60:DeepBassKick.wav
36,192,125719,1,0,0:0:0:60:DeepBassKick.wav
329,192,125933,1,0,0:0:0:60:DeepBassKick.wav
36,192,126148,1,0,0:0:0:60:DeepBassKick.wav
329,192,126362,1,0,0:0:0:60:DeepBassKick.wav
402,192,126576,1,0,0:0:0:60:DeepBassKick.wav
475,192,126790,1,0,0:0:0:60:DeepBassKick.wav
402,192,127005,1,0,0:0:0:60:DeepBassKick.wav
329,192,127219,1,0,0:0:0:60:DeepBassKick.wav
109,192,127433,1,0,0:0:0:60:DeepBassKick.wav
182,192,127648,1,0,0:0:0:60:DeepBassKick.wav
36,192,127862,1,0,0:0:0:60:DeepBassKick.wav
109,192,128076,1,0,0:0:0:60:DeepBassKick.wav
475,192,128290,1,0,0:0:0:60:DeepBassKick.wav
182,192,128505,1,0,0:0:0:60:DeepBassKick.wav
402,192,128719,1,0,0:0:0:60:DeepBassKick.wav
109,192,128933,1,0,0:0:0:60:DeepBassKick.wav
182,192,129148,1,0,0:0:0:60:DeepBassKick.wav
402,192,129362,1,0,0:0:0:60:DeepBassKick.wav
329,192,129576,1,0,0:0:0:60:DeepBassKick.wav
402,192,129790,1,0,0:0:0:60:DeepBassKick.wav
475,192,130005,1,0,0:0:0:60:DeepBassKick.wav
329,192,130219,1,0,0:0:0:60:DeepBassKick.wav
402,192,130433,1,0,0:0:0:60:DeepBassKick.wav
182,192,130648,1,0,0:0:0:60:DeepBassKick.wav
109,192,130862,1,0,0:0:0:60:DeepBassKick.wav
256,192,131076,1,0,0:0:0:60:DeepBassKick.wav
36,192,131290,1,0,0:0:0:60:DeepBassKick.wav
109,192,131505,1,0,0:0:0:60:DeepBassKick.wav
329,192,131719,1,0,0:0:0:60:DeepBassKick.wav
182,192,131933,1,0,0:0:0:60:DeepBassKick.wav
329,192,132148,1,0,0:0:0:60:DeepBassKick.wav
182,192,132362,1,0,0:0:0:60:DeepBassKick.wav
109,192,132576,1,0,0:0:0:60:DeepBassKick.wav
109,192,132790,1,0,0:0:0:60:DeepBassKick.wav
329,192,133005,1,0,0:0:0:60:DeepBassKick.wav
402,192,133219,1,0,0:0:0:60:DeepBassKick.wav
475,192,133433,1,0,0:0:0:60:DeepBassKick.wav
402,192,133648,1,0,0:0:0:60:DeepBassKick.wav
109,192,134076,1,0,0:0:0:60:DeepBassKick.wav
182,192,134290,1,0,0:0:0:60:DeepBassKick.wav
402,192,134505,1,0,0:0:0:60:DeepBassKick.wav
329,192,134719,1,0,0:0:0:60:DeepBassKick.wav
36,192,134933,1,0,0:0:0:60:DeepBassKick.wav
182,192,135148,1,0,0:0:0:60:DeepBassKick.wav
475,192,135362,1,0,0:0:0:60:DeepBassKick.wav
329,192,135576,1,0,0:0:0:60:DeepBassKick.wav
36,192,135790,1,0,0:0:0:60:DeepBassKick.wav
109,192,136005,1,0,0:0:0:60:DeepBassKick.wav
475,192,136219,1,0,0:0:0:60:DeepBassKick.wav
402,192,136433,1,0,0:0:0:60:DeepBassKick.wav
109,192,136648,1,0,0:0:0:60:DeepBassKick.wav
329,192,136862,1,0,0:0:0:60:DeepBassKick.wav
475,192,137076,1,0,0:0:0:60:DeepBassKick.wav
182,192,137290,1,0,0:0:0:60:DeepBassKick.wav
36,192,137505,1,0,0:0:0:60:DeepBassKick.wav
329,192,137719,1,0,0:0:0:60:DeepBassKick.wav
475,192,137933,1,0,0:0:0:60:DeepBassKick.wav
109,192,138148,1,0,0:0:0:60:DeepBassKick.wav
36,192,138362,1,0,0:0:0:60:DeepBassKick.wav
402,192,138576,1,0,0:0:0:60:DeepBassKick.wav
475,192,138790,1,0,0:0:0:60:DeepBassKick.wav
329,192,139005,1,0,0:0:0:60:DeepBassKick.wav
182,192,139219,1,0,0:0:0:60:DeepBassKick.wav
475,192,139433,1,0,0:0:0:60:DeepBassKick.wav
256,192,139648,1,0,0:0:0:60:DeepBassKick.wav
182,192,139862,1,0,0:0:0:30:
109,192,140076,1,0,0:0:0:60:DeepBassKick.wav
36,192,140290,1,0,0:0:0:30:
475,192,140505,1,0,0:0:0:30:
402,192,140719,1,0,0:0:0:30:
329,192,140933,1,0,0:0:0:30:
256,192,141148,1,0,0:0:0:30:
256,192,141790,128,0,144790:0:0:0:60:DeepBassKick.wav
36,192,144790,1,0,0:0:0:0:
475,192,144790,1,0,0:0:0:0:
