osu file format v14

[General]
AudioFilename: Doppelganger.mp3
AudioLeadIn: 0
PreviewTime: 19648
Countdown: 0
SampleSet: None
StackLeniency: 0.7
Mode: 3
LetterboxInBreaks: 0
SpecialStyle: 0
WidescreenStoryboard: 0

[Editor]
Bookmarks: 791,4219,11076,19648,29933,37648,44505,54790,61648,66790,75362,83076,89933,93362,109648,116505,124219,134505,144790
DistanceSpacing: 2
BeatDivisor: 4
GridSize: 4
TimelineZoom: 2.299999

[Metadata]
Title:Doppelganger
TitleUnicode:Doppelganger
Artist:LeaF
ArtistUnicode:LeaF
Creator:Jinjin
Version:jakads' Extra
Source:BMS
Tags:bms of fighters 2013 bof frenz come to an end einsamkeit jakads lude evening
BeatmapID:1023967
BeatmapSetID:407153

[Difficulty]
HPDrainRate:8
CircleSize:7
OverallDifficulty:8
ApproachRate:5
SliderMultiplier:1.4
SliderTickRate:1

[Events]
//Background and Video events
0,0,"doppelganger bg new.jpg",0,0
//Break Periods
//Storyboard Layer 0 (Background)
//Storyboard Layer 1 (Fail)
//Storyboard Layer 2 (Pass)
//Storyboard Layer 3 (Foreground)
//Storyboard Sound Samples

[TimingPoints]
791,214.285714285714,4,3,0,30,1,0
898,-10000,4,3,0,30,0,0
1058,-33.3333333333333,4,3,0,30,0,0
1112,-10000,4,3,0,30,0,0
1273,-33.3333333333333,4,3,0,30,0,0
1326,-10000,4,3,0,30,0,0
1487,-33.3333333333333,4,3,0,30,0,0
1540,-10000,4,3,0,30,0,0
1701,-40,4,3,0,30,0,0
1755,-250,4,3,0,30,0,0
1808,-66.6666666666667,4,3,0,30,0,0
1862,-250,4,3,0,30,0,0
1915,-66.6666666666667,4,3,0,30,0,0
1969,-250,4,3,0,30,0,0
2023,-66.6666666666667,4,3,0,30,0,0
2076,-100,4,3,0,30,0,0
2719,-66.6666666666667,4,3,0,30,0,0
2773,-250,4,3,0,30,0,0
2826,-100,4,3,0,30,0,0
3469,-62.5,4,3,0,30,0,0
3523,-250,4,3,0,30,0,0
3576,-55.5555555555556,4,3,0,30,0,0
3630,-250,4,3,0,30,0,0
3683,-50,4,3,0,30,0,0
3737,-250,4,3,0,30,0,0
3790,-90.9090909090909,4,3,0,30,0,0
4005,-89.2857142857143,4,3,0,30,0,0
4058,-87.719298245614,4,3,0,30,0,0
4112,-86.2068965517241,4,3,0,30,0,0
4165,-84.7457627118644,4,3,0,30,0,0
4219,-76.9230769230769,4,3,0,30,0,0
4246,-100,4,3,0,30,0,0
4433,-76.9230769230769,4,3,0,30,0,0
4460,-100,4,3,0,30,0,0
4648,-76.9230769230769,4,3,0,30,0,0
4674,-100,4,3,0,30,0,0
4862,-76.9230769230769,4,3,0,30,0,0
4889,-100,4,3,0,30,0,0
5076,-76.9230769230769,4,3,0,30,0,0
5103,-100,4,3,0,30,0,0
5290,-76.9230769230769,4,3,0,30,0,0
5317,-100,4,3,0,30,0,0
5505,-76.9230769230769,4,3,0,30,0,0
5532,-100,4,3,0,30,0,0
5719,-76.9230769230769,4,3,0,30,0,0
5746,-100,4,3,0,30,0,0
5933,-102.040816326531,4,3,0,30,0,0
5987,-104.166666666667,4,3,0,30,0,0
6040,-105.263157894737,4,3,0,30,0,0
6094,-106.382978723404,4,3,0,30,0,0
6148,-107.52688172043,4,3,0,30,0,0
6201,-108.695652173913,4,3,0,30,0,0
6255,-109.89010989011,4,3,0,30,0,0
6308,-111.111111111111,4,3,0,30,0,0
7005,-109.89010989011,4,3,0,30,0,0
7058,-108.695652173913,4,3,0,30,0,0
7112,-107.52688172043,4,3,0,30,0,0
7165,-106.382978723404,4,3,0,30,0,0
7219,-105.263157894737,4,3,0,30,0,0
7273,-104.166666666667,4,3,0,30,0,0
7326,-103.092783505155,4,3,0,30,0,0
7380,-102.040816326531,4,3,0,30,0,0
7433,-71.4285714285714,4,3,0,30,0,0
7460,-333.333333333333,4,3,0,30,0,0
7487,-71.4285714285714,4,3,0,30,0,0
7514,-333.333333333333,4,3,0,30,0,0
7540,-71.4285714285714,4,3,0,30,0,0
7567,-333.333333333333,4,3,0,30,0,0
7594,-71.4285714285714,4,3,0,30,0,0
7621,-333.333333333333,4,3,0,30,0,0
7648,-76.9230769230769,4,3,0,30,0,0
7674,-100,4,3,0,30,0,0
7862,-76.9230769230769,4,3,0,30,0,0
7889,-100,4,3,0,30,0,0
8076,-76.9230769230769,4,3,0,30,0,0
8103,-100,4,3,0,30,0,0
8290,-76.9230769230769,4,3,0,30,0,0
8317,-100,4,3,0,30,0,0
8505,-76.9230769230769,4,3,0,30,0,0
8532,-100,4,3,0,30,0,0
8719,-76.9230769230769,4,3,0,30,0,0
8746,-100,4,3,0,30,0,0
8933,-76.9230769230769,4,3,0,30,0,0
8960,-100,4,3,0,30,0,0
9148,-76.9230769230769,4,3,0,30,0,0
9174,-100,4,3,0,30,0,0
9362,-108.695652173913,4,3,0,30,0,0
9469,-107.52688172043,4,3,0,30,0,0
9576,-106.382978723404,4,3,0,30,0,0
9683,-105.263157894737,4,3,0,30,0,0
9790,-104.166666666667,4,3,0,30,0,0
9898,-103.092783505155,4,3,0,30,0,0
9951,-102.040816326531,4,3,0,30,0,0
10005,-101.010101010101,4,3,0,30,0,0
10058,-100,4,3,0,30,0,0
10112,-99.009900990099,4,3,0,30,0,0
10165,-98.0392156862745,4,3,0,30,0,0
10219,-86.9565217391304,4,3,0,30,0,0
10273,-97.0873786407767,4,3,0,30,0,0
10433,-84.7457627118644,4,3,0,30,0,0
10487,-96.1538461538461,4,3,0,30,0,0
10648,-81.9672131147541,4,3,0,30,0,0
10701,-95.2380952380952,4,3,0,30,0,0
10862,-93.4579439252336,4,3,0,30,0,0
10915,-91.743119266055,4,3,0,30,0,0
10969,-90.0900900900901,4,3,0,30,0,0
11023,-88.4955752212389,4,3,0,30,0,0
11076,-100,4,3,0,30,0,0
14505,-55.5555555555556,4,3,0,30,0,0
14558,-100,4,3,0,30,0,0
15576,-66.6666666666667,4,3,0,30,0,0
15603,-200,4,3,0,30,0,0
15630,-66.6666666666667,4,3,0,30,0,0
15657,-200,4,3,0,30,0,0
15683,-66.6666666666667,4,3,0,30,0,0
15710,-200,4,3,0,30,0,0
15737,-66.6666666666667,4,3,0,30,0,0
15764,-200,4,3,0,30,0,0
15790,-66.6666666666667,4,3,0,30,0,0
15817,-200,4,3,0,30,0,0
15844,-66.6666666666667,4,3,0,30,0,0
15871,-200,4,3,0,30,0,0
15898,-66.6666666666667,4,3,0,30,0,0
15924,-200,4,3,0,30,0,0
15951,-66.6666666666667,4,3,0,30,0,0
15978,-200,4,3,0,30,0,0
16005,-50,4,3,0,30,0,0
16058,-125,4,3,0,30,0,0
16219,-50,4,3,0,30,0,0
16273,-125,4,3,0,30,0,0
16540,-55.5555555555556,4,3,0,30,0,0
16594,-125,4,3,0,30,0,0
16862,-50,4,3,0,30,0,0
16915,-125,4,3,0,30,0,0
17183,-50,4,3,0,30,0,0
17237,-125,4,3,0,30,0,0
17505,-33.3333333333333,4,3,0,30,0,0
17558,-200,4,3,0,30,0,0
17933,-100,4,3,0,30,0,0
17987,-98.0392156862745,4,3,0,30,0,0
18040,-96.1538461538461,4,3,0,30,0,0
18094,-94.3396226415094,4,3,0,30,0,0
18148,-92.5925925925926,4,3,0,30,0,0
18201,-90.9090909090909,4,3,0,30,0,0
18255,-89.2857142857143,4,3,0,30,0,0
18683,-90.0900900900901,4,3,0,30,0,0
18737,-91.743119266055,4,3,0,30,0,0
18790,-93.4579439252336,4,3,0,30,0,0
18844,-95.2380952380952,4,3,0,30,0,0
18898,-97.0873786407767,4,3,0,30,0,0
18951,-100,4,3,0,30,0,0
19005,-105.263157894737,4,3,0,30,0,0
19219,-108.695652173913,4,3,0,30,0,0
19433,-111.111111111111,4,3,0,30,0,0
19648,-113.636363636364,4,3,0,30,0,0
21362,-111.111111111111,4,3,0,30,0,0
22219,-109.89010989011,4,3,0,30,0,0
23076,-108.695652173913,4,3,0,30,0,0
23933,-107.52688172043,4,3,0,30,0,0
24790,-106.382978723404,4,3,0,30,0,0
25648,-105.263157894737,4,3,0,30,0,0
26505,-104.166666666667,4,3,0,30,0,0
27362,-90.9090909090909,4,3,0,30,0,0
27415,-103.092783505155,4,3,0,30,0,0
27576,-55.5555555555556,4,3,0,30,0,0
27612,-333.333333333333,4,3,0,30,0,0
27648,-55.5555555555556,4,3,0,30,0,0
27683,-333.333333333333,4,3,0,30,0,0
27719,-55.5555555555556,4,3,0,30,0,0
27755,-333.333333333333,4,3,0,30,0,0
27790,-103.092783505155,4,3,0,30,0,0
28219,-102.040816326531,4,3,0,30,0,0
28326,-88.4955752212389,4,3,0,30,0,0
28380,-102.040816326531,4,3,0,30,0,0
28487,-88.4955752212389,4,3,0,30,0,0
28540,-102.040816326531,4,3,0,30,0,0
28648,-50,4,3,0,30,0,0
28674,-500,4,3,0,30,0,0
28701,-50,4,3,0,30,0,0
28728,-500,4,3,0,30,0,0
28755,-50,4,3,0,30,0,0
28782,-500,4,3,0,30,0,0
28808,-50,4,3,0,30,0,0
28835,-500,4,3,0,30,0,0
28862,-102.040816326531,4,3,0,30,0,0
29076,-48.780487804878,4,3,0,30,0,0
29103,-526.315789473684,4,3,0,30,0,0
29130,-48.780487804878,4,3,0,30,0,0
29157,-526.315789473684,4,3,0,30,0,0
29183,-48.780487804878,4,3,0,30,0,0
29210,-526.315789473684,4,3,0,30,0,0
29237,-48.780487804878,4,3,0,30,0,0
29264,-526.315789473684,4,3,0,30,0,0
29290,-101.010101010101,4,3,0,30,0,0
29505,-47.6190476190476,4,3,0,30,0,0
29532,-555.555555555556,4,3,0,30,0,0
29558,-47.6190476190476,4,3,0,30,0,0
29585,-555.555555555556,4,3,0,30,0,0
29612,-47.6190476190476,4,3,0,30,0,0
29639,-555.555555555556,4,3,0,30,0,0
29665,-47.6190476190476,4,3,0,30,0,0
29692,-555.555555555556,4,3,0,30,0,0
29719,-100,4,3,0,30,0,0
29933,-10,4,3,0,30,0,0
29947,-200,4,3,0,30,0,0
29987,-100,4,3,0,30,0,0
30362,-66.6666666666667,4,3,0,30,0,0
30415,-200,4,3,0,30,0,0
30469,-66.6666666666667,4,3,0,30,0,0
30523,-200,4,3,0,30,0,0
30576,-66.6666666666667,4,3,0,30,0,0
30630,-200,4,3,0,30,0,0
30683,-66.6666666666667,4,3,0,30,0,0
30737,-200,4,3,0,30,0,0
30790,-66.6666666666667,4,3,0,30,0,0
30844,-200,4,3,0,30,0,0
30898,-66.6666666666667,4,3,0,30,0,0
30951,-200,4,3,0,30,0,0
31005,-66.6666666666667,4,3,0,30,0,0
31058,-200,4,3,0,30,0,0
31112,-100,4,3,0,30,0,0
31648,-57.1428571428571,4,3,0,30,0,0
31808,-100,4,3,0,30,0,0
31969,-57.1428571428571,4,3,0,30,0,0
32130,-100,4,3,0,30,0,0
32290,-57.1428571428571,4,3,0,30,0,0
32451,-100,4,3,0,30,0,0
32612,-57.1428571428571,4,3,0,30,0,0
32773,-100,4,3,0,30,0,0
32933,-57.1428571428571,4,3,0,30,0,0
33415,-100,4,3,0,30,0,0
33576,-57.1428571428571,4,3,0,30,0,0
33630,-100,4,3,0,30,0,0
33790,-57.1428571428571,4,3,0,30,0,0
33844,-100,4,3,0,30,0,0
34005,-57.1428571428571,4,3,0,30,0,0
34058,-100,4,3,0,30,0,0
34219,-57.1428571428571,4,3,0,30,0,0
34380,-100,4,3,0,30,0,0
34540,-57.1428571428571,4,3,0,30,0,0
34701,-100,4,3,0,30,0,0
34862,-57.1428571428571,4,3,0,30,0,0
35023,-100,4,3,0,30,0,0
35183,-57.1428571428571,4,3,0,30,0,0
35344,-100,4,3,0,30,0,0
35505,-95.2380952380952,4,3,0,30,0,0
37648,-66.6666666666667,4,3,0,30,0,0
37701,-100,4,3,0,30,0,0
38076,-66.6666666666667,4,3,0,30,0,0
38130,-200,4,3,0,30,0,0
38183,-66.6666666666667,4,3,0,30,0,0
38237,-200,4,3,0,30,0,0
38290,-66.6666666666667,4,3,0,30,0,0
38344,-200,4,3,0,30,0,0
38398,-66.6666666666667,4,3,0,30,0,0
38451,-200,4,3,0,30,0,0
38505,-100,4,3,0,30,0,0
38880,-25,4,3,0,30,0,0
38907,-333.333333333333,4,3,0,30,0,0
38934,-200,4,3,0,30,0,0
38961,-133.333333333333,4,3,0,30,0,0
38987,-100,4,3,0,30,0,0
39362,-99.009900990099,4,3,0,30,0,0
39415,-98.0392156862745,4,3,0,30,0,0
39469,-97.0873786407767,4,3,0,30,0,0
39523,-96.1538461538461,4,3,0,30,0,0
39576,-95.2380952380952,4,3,0,30,0,0
39630,-94.3396226415094,4,3,0,30,0,0
39683,-93.4579439252336,4,3,0,30,0,0
39737,-92.5925925925926,4,3,0,30,0,0
39790,-90.9090909090909,4,3,0,30,0,0
39844,-100,4,3,0,30,0,0
40648,-62.5,4,3,0,30,0,0
40701,-100,4,3,0,30,0,0
41076,-66.6666666666667,4,3,0,30,0,0
41183,-200,4,3,0,30,0,0
41290,-66.6666666666667,4,3,0,30,0,0
41398,-200,4,3,0,30,0,0
41505,-100,4,3,0,30,0,0
42790,-99.009900990099,4,3,0,30,0,0
42844,-98.0392156862745,4,3,0,30,0,0
42898,-97.0873786407767,4,3,0,30,0,0
42951,-96.1538461538461,4,3,0,30,0,0
43005,-95.2380952380952,4,3,0,30,0,0
43058,-94.3396226415094,4,3,0,30,0,0
43112,-93.4579439252336,4,3,0,30,0,0
43165,-92.5925925925926,4,3,0,30,0,0
43219,-90.9090909090909,4,3,0,30,0,0
43273,-100,4,3,0,30,0,0
43540,-58.8235294117647,4,3,0,30,0,0
43594,-142.857142857143,4,3,0,30,0,0
43755,-66.6666666666667,4,3,0,30,0,0
43808,-200,4,3,0,30,0,0
43862,-71.4285714285714,4,3,0,30,0,0
43969,-200,4,3,0,30,0,0
44076,-74.0740740740741,4,3,0,30,0,0
44183,-200,4,3,0,30,0,0
44290,-76.9230769230769,4,3,0,30,0,0
44398,-200,4,3,0,30,0,0
44505,-100,4,3,0,30,0,0
44719,-76.9230769230769,4,3,0,30,0,0
44773,-100,4,3,0,30,0,0
46112,-66.6666666666667,4,3,0,30,0,0
46165,-125,4,3,0,30,0,0
46219,-100,4,3,0,30,0,0
46326,-66.6666666666667,4,3,0,30,0,0
46380,-125,4,3,0,30,0,0
46433,-100,4,3,0,30,0,0
46540,-66.6666666666667,4,3,0,30,0,0
46594,-125,4,3,0,30,0,0
46648,-100,4,3,0,30,0,0
46862,-33.3333333333333,4,3,0,30,0,0
46915,-142.857142857143,4,3,0,30,0,0
47076,-52.6315789473684,4,3,0,30,0,0
47090,-1000,4,3,0,30,0,0
47103,-52.6315789473684,4,3,0,30,0,0
47116,-1000,4,3,0,30,0,0
47130,-52.6315789473684,4,3,0,30,0,0
47143,-1000,4,3,0,30,0,0
47157,-52.6315789473684,4,3,0,30,0,0
47170,-1000,4,3,0,30,0,0
47183,-52.6315789473684,4,3,0,30,0,0
47197,-1000,4,3,0,30,0,0
47210,-52.6315789473684,4,3,0,30,0,0
47224,-1000,4,3,0,30,0,0
47237,-52.6315789473684,4,3,0,30,0,0
47250,-1000,4,3,0,30,0,0
47264,-52.6315789473684,4,3,0,30,0,0
47277,-1000,4,3,0,30,0,0
47290,-52.6315789473684,4,3,0,30,0,0
47304,-1000,4,3,0,30,0,0
47317,-52.6315789473684,4,3,0,30,0,0
47331,-1000,4,3,0,30,0,0
47344,-52.6315789473684,4,3,0,30,0,0
47357,-1000,4,3,0,30,0,0
47371,-52.6315789473684,4,3,0,30,0,0
47384,-1000,4,3,0,30,0,0
47398,-52.6315789473684,4,3,0,30,0,0
47411,-1000,4,3,0,30,0,0
47424,-52.6315789473684,4,3,0,30,0,0
47438,-1000,4,3,0,30,0,0
47451,-52.6315789473684,4,3,0,30,0,0
47465,-1000,4,3,0,30,0,0
47478,-52.6315789473684,4,3,0,30,0,0
47491,-1000,4,3,0,30,0,0
47505,-62.5,4,3,0,30,0,0
47558,-111.111111111111,4,3,0,30,0,0
47719,-62.5,4,3,0,30,0,0
47773,-111.111111111111,4,3,0,30,0,0
47933,-90.9090909090909,4,3,0,30,0,0
48362,-71.4285714285714,4,3,0,30,0,0
48415,-166.666666666667,4,3,0,30,0,0
48469,-71.4285714285714,4,3,0,30,0,0
48523,-166.666666666667,4,3,0,30,0,0
48576,-71.4285714285714,4,3,0,30,0,0
48630,-166.666666666667,4,3,0,30,0,0
48683,-71.4285714285714,4,3,0,30,0,0
48737,-166.666666666667,4,3,0,30,0,0
48790,-100,4,3,0,30,0,0
49112,-58.8235294117647,4,3,0,30,0,0
49165,-200,4,3,0,30,0,0
49219,-58.8235294117647,4,3,0,30,0,0
49273,-200,4,3,0,30,0,0
49326,-58.8235294117647,4,3,0,30,0,0
49380,-200,4,3,0,30,0,0
49433,-66.6666666666667,4,3,0,30,0,0
49487,-100,4,3,0,30,0,0
50076,-71.4285714285714,4,3,0,30,0,0
50130,-111.111111111111,4,3,0,30,0,0
50237,-71.4285714285714,4,3,0,30,0,0
50290,-111.111111111111,4,3,0,30,0,0
50398,-71.4285714285714,4,3,0,30,0,0
50451,-200,4,3,0,30,0,0
50505,-66.6666666666667,4,3,0,30,0,0
50558,-100,4,3,0,30,0,0
50933,-66.6666666666667,4,3,0,30,0,0
50987,-100,4,3,0,30,0,0
51362,-99.009900990099,4,3,0,30,0,0
51576,-98.0392156862745,4,3,0,30,0,0
51790,-97.0873786407767,4,3,0,30,0,0
52005,-96.1538461538461,4,3,0,30,0,0
52219,-95.2380952380952,4,3,0,30,0,0
52433,-94.3396226415094,4,3,0,30,0,0
53826,-33.3333333333333,4,3,0,30,0,0
53880,-125,4,3,0,30,0,0
54040,-100,4,3,0,30,0,0
55648,-117.647058823529,4,3,0,30,0,0
56505,-100,4,3,0,30,0,0
56933,-117.647058823529,4,3,0,30,0,0
57362,-100,4,3,0,30,0,0
57790,-117.647058823529,4,3,0,30,0,0
58219,-100,4,3,0,30,0,0
58433,-111.111111111111,4,3,0,30,0,0
58648,-100,4,3,0,30,0,0
58862,-111.111111111111,4,3,0,30,0,0
59076,-100,4,3,0,30,0,0
59290,-111.111111111111,4,3,0,30,0,0
59719,-100,4,3,0,30,0,0
60790,-66.6666666666667,4,3,0,30,0,0
60844,-111.111111111111,4,3,0,30,0,0
61005,-66.6666666666667,4,3,0,30,0,0
61058,-111.111111111111,4,3,0,30,0,0
61219,-66.6666666666667,4,3,0,30,0,0
61273,-119.047619047619,4,3,0,30,0,0
63362,-100,4,3,0,30,0,0
65076,-83.3333333333333,4,3,0,30,0,0
65148,-100,4,3,0,30,0,0
65290,-83.3333333333333,4,3,0,30,0,0
65362,-100,4,3,0,30,0,0
65505,-83.3333333333333,4,3,0,30,0,0
65576,-100,4,3,0,30,0,0
65719,-83.3333333333333,4,3,0,30,0,0
65790,-100,4,3,0,30,0,0
65933,-83.3333333333333,4,3,0,30,0,0
66005,-100,4,3,0,30,0,0
66148,-83.3333333333333,4,3,0,30,0,0
66219,-100,4,3,0,30,0,0
66362,-83.3333333333333,4,3,0,30,0,0
66433,-100,4,3,0,30,0,0
66576,-83.3333333333333,4,3,0,30,0,0
66648,-100,4,3,0,30,0,0
66790,-66.6666666666667,4,3,0,30,0,0
66898,-200,4,3,0,30,0,0
67005,-64.5161290322581,4,3,0,30,0,0
67112,-200,4,3,0,30,0,0
67219,-62.5,4,3,0,30,0,0
67326,-200,4,3,0,30,0,0
67433,-60.6060606060606,4,3,0,30,0,0
67540,-200,4,3,0,30,0,0
67648,-100,4,3,0,30,0,0
68290,-52.6315789473684,4,3,0,30,0,0
68304,-1000,4,3,0,30,0,0
68317,-52.0833333333333,4,3,0,30,0,0
68331,-714.285714285714,4,3,0,30,0,0
68344,-51.5463917525773,4,3,0,30,0,0
68357,-555.555555555556,4,3,0,30,0,0
68371,-51.0204081632653,4,3,0,30,0,0
68384,-454.545454545455,4,3,0,30,0,0
68398,-50.5050505050505,4,3,0,30,0,0
68411,-384.615384615385,4,3,0,30,0,0
68424,-50,4,3,0,30,0,0
68438,-333.333333333333,4,3,0,30,0,0
68451,-49.5049504950495,4,3,0,30,0,0
68465,-294.117647058824,4,3,0,30,0,0
68478,-49.0196078431373,4,3,0,30,0,0
68491,-263.157894736842,4,3,0,30,0,0
68505,-100,4,3,0,30,0,0
70540,-66.6666666666667,4,3,0,30,0,0
70594,-100,4,3,0,30,0,0
72790,-71.4285714285714,4,3,0,30,0,0
72898,-200,4,3,0,30,0,0
73005,-66.6666666666667,4,3,0,30,0,0
73058,-200,4,3,0,30,0,0
73112,-71.4285714285714,4,3,0,30,0,0
73219,-200,4,3,0,30,0,0
73326,-100,4,3,0,30,0,0
73969,-33.3333333333333,4,3,0,30,0,0
74023,-200,4,3,0,30,0,0
74183,-100,4,3,0,30,0,0
75362,-111.111111111111,4,3,0,30,0,0
76219,-66.6666666666667,4,3,0,30,0,0
76273,-111.111111111111,4,3,0,30,0,0
76648,-66.6666666666667,4,3,0,30,0,0
76701,-111.111111111111,4,3,0,30,0,0
77076,-66.6666666666667,4,3,0,30,0,0
77130,-111.111111111111,4,3,0,30,0,0
77505,-66.6666666666667,4,3,0,30,0,0
77558,-111.111111111111,4,3,0,30,0,0
77933,-66.6666666666667,4,3,0,30,0,0
77987,-111.111111111111,4,3,0,30,0,0
78362,-66.6666666666667,4,3,0,30,0,0
78415,-111.111111111111,4,3,0,30,0,0
78790,-66.6666666666667,4,3,0,30,0,0
78844,-111.111111111111,4,3,0,30,0,0
79219,-66.6666666666667,4,3,0,30,0,0
79273,-111.111111111111,4,3,0,30,0,0
79648,-66.6666666666667,4,3,0,30,0,0
79701,-111.111111111111,4,3,0,30,0,0
80076,-66.6666666666667,4,3,0,30,0,0
80130,-111.111111111111,4,3,0,30,0,0
80505,-66.6666666666667,4,3,0,30,0,0
80558,-111.111111111111,4,3,0,30,0,0
80933,-66.6666666666667,4,3,0,30,0,0
80987,-111.111111111111,4,3,0,30,0,0
81362,-66.6666666666667,4,3,0,30,0,0
81469,-200,4,3,0,30,0,0
81576,-66.6666666666667,4,3,0,30,0,0
81630,-200,4,3,0,30,0,0
81683,-71.4285714285714,4,3,0,30,0,0
81790,-166.666666666667,4,3,0,30,0,0
81862,-100,4,3,0,30,0,0
82862,-66.6666666666667,4,3,0,30,0,0
82889,-200,4,3,0,30,0,0
82915,-66.6666666666667,4,3,0,30,0,0
82942,-200,4,3,0,30,0,0
82969,-66.6666666666667,4,3,0,30,0,0
82996,-200,4,3,0,30,0,0
83023,-66.6666666666667,4,3,0,30,0,0
83049,-200,4,3,0,30,0,0
83076,-100,4,3,0,30,0,0
83933,-113.636363636364,4,3,0,30,0,0
84362,-71.4285714285714,4,3,0,30,0,0
84415,-111.111111111111,4,3,0,30,0,0
84576,-66.6666666666667,4,3,0,30,0,0
84630,-111.111111111111,4,3,0,30,0,0
84790,-100,4,3,0,30,0,0
85219,-92.5925925925926,4,3,0,30,0,0
85433,-89.2857142857143,4,3,0,30,0,0
85648,-95.2380952380952,4,3,0,30,0,0
85969,-94.3396226415094,4,3,0,30,0,0
86076,-92.5925925925926,4,3,0,30,0,0
86183,-90.9090909090909,4,3,0,30,0,0
86290,-89.2857142857143,4,3,0,30,0,0
86344,-87.719298245614,4,3,0,30,0,0
86398,-86.2068965517241,4,3,0,30,0,0
86451,-84.7457627118644,4,3,0,30,0,0
86505,-100,4,3,0,30,0,0
86933,-86.9565217391304,4,3,0,30,0,0
87040,-111.111111111111,4,3,0,30,0,0
87148,-86.9565217391304,4,3,0,30,0,0
87255,-125,4,3,0,30,0,0
87362,-111.111111111111,4,3,0,30,0,0
87576,-105.263157894737,4,3,0,30,0,0
87630,-100,4,3,0,30,0,0
87683,-95.2380952380952,4,3,0,30,0,0
87737,-90.9090909090909,4,3,0,30,0,0
87790,-100,4,3,0,30,0,0
88005,-83.3333333333333,4,3,0,30,0,0
88219,-100,4,3,0,30,0,0
88648,-108.695652173913,4,3,0,30,0,0
89076,-54.054054054054,4,3,0,30,0,0
89183,-200,4,3,0,30,0,0
89290,-54.054054054054,4,3,0,30,0,0
89398,-200,4,3,0,30,0,0
89505,-100,4,3,0,30,0,0
91755,-62.5,4,3,0,30,0,0
91862,-125,4,3,0,30,0,0
92076,-100,4,3,0,30,0,0
92183,-62.5,4,3,0,30,0,0
92290,-125,4,3,0,30,0,0
92505,-100,4,3,0,30,0,0
92933,-50,4,3,0,30,0,0
93040,-100,4,3,0,30,0,0
93255,-142.857142857143,4,3,0,30,0,0
93362,-100,4,3,0,30,0,0
93790,-76.9230769230769,4,3,0,30,0,0
93898,-100,4,3,0,30,0,0
94112,-76.9230769230769,4,3,0,30,0,0
94219,-100,4,3,0,30,0,0
95076,-52.6315789473684,4,3,0,30,0,0
95090,-1000,4,3,0,30,0,0
95103,-52.6315789473684,4,3,0,30,0,0
95116,-1000,4,3,0,30,0,0
95130,-52.6315789473684,4,3,0,30,0,0
95143,-1000,4,3,0,30,0,0
95157,-52.6315789473684,4,3,0,30,0,0
95170,-1000,4,3,0,30,0,0
95183,-52.6315789473684,4,3,0,30,0,0
95197,-1000,4,3,0,30,0,0
95210,-52.6315789473684,4,3,0,30,0,0
95224,-1000,4,3,0,30,0,0
95237,-52.6315789473684,4,3,0,30,0,0
95250,-1000,4,3,0,30,0,0
95264,-52.6315789473684,4,3,0,30,0,0
95277,-1000,4,3,0,30,0,0
95290,-100,4,3,0,30,0,0
95505,-66.6666666666667,4,3,0,30,0,0
95558,-200,4,3,0,30,0,0
95612,-66.6666666666667,4,3,0,30,0,0
95665,-200,4,3,0,30,0,0
95719,-66.6666666666667,4,3,0,30,0,0
95773,-200,4,3,0,30,0,0
95826,-20,4,3,0,30,0,0
95933,-142.857142857143,4,3,0,30,0,0
96148,-100,4,3,0,30,0,0
96790,-52.6315789473684,4,3,0,30,0,0
96804,-1000,4,3,0,30,0,0
96817,-52.6315789473684,4,3,0,30,0,0
96831,-1000,4,3,0,30,0,0
96844,-52.6315789473684,4,3,0,30,0,0
96857,-1000,4,3,0,30,0,0
96871,-52.6315789473684,4,3,0,30,0,0
96884,-1000,4,3,0,30,0,0
96898,-52.6315789473684,4,3,0,30,0,0
96911,-1000,4,3,0,30,0,0
96924,-52.6315789473684,4,3,0,30,0,0
96938,-1000,4,3,0,30,0,0
96951,-52.6315789473684,4,3,0,30,0,0
96965,-1000,4,3,0,30,0,0
96978,-52.6315789473684,4,3,0,30,0,0
96991,-1000,4,3,0,30,0,0
97005,-100,4,3,0,30,0,0
97540,-50,4,3,0,30,0,0
97701,-166.666666666667,4,3,0,30,0,0
97862,-50,4,3,0,30,0,0
98023,-166.666666666667,4,3,0,30,0,0
98183,-50,4,3,0,30,0,0
98344,-166.666666666667,4,3,0,30,0,0
98505,-100,4,3,0,30,0,0
99255,-62.5,4,3,0,30,0,0
99308,-200,4,3,0,30,0,0
99362,-62.5,4,3,0,30,0,0
99469,-166.666666666667,4,3,0,30,0,0
99576,-100,4,3,0,30,0,0
101076,-83.3333333333333,4,3,0,30,0,0
101130,-100,4,3,0,30,0,0
101290,-80,4,3,0,30,0,0
101344,-105.263157894737,4,3,0,30,0,0
101612,-76.9230769230769,4,3,0,30,0,0
101665,-100,4,3,0,30,0,0
103326,-66.6666666666667,4,3,0,30,0,0
103380,-200,4,3,0,30,0,0
103433,-100,4,3,0,30,0,0
104290,-71.4285714285714,4,3,0,30,0,0
104344,-100,4,3,0,30,0,0
104933,-71.4285714285714,4,3,0,30,0,0
104987,-166.666666666667,4,3,0,30,0,0
105040,-71.4285714285714,4,3,0,30,0,0
105094,-166.666666666667,4,3,0,30,0,0
105148,-71.4285714285714,4,3,0,30,0,0
105201,-166.666666666667,4,3,0,30,0,0
105255,-71.4285714285714,4,3,0,30,0,0
105308,-166.666666666667,4,3,0,30,0,0
105362,-100,4,3,0,30,0,0
106005,-12.5,4,3,0,30,0,0
106058,-142.857142857143,4,3,0,30,0,0
106433,-100,4,3,0,30,0,0
107398,-20,4,3,0,30,0,0
107451,-142.857142857143,4,3,0,30,0,0
107719,-100,4,3,0,30,0,0
108683,-20,4,3,0,30,0,0
108737,-142.857142857143,4,3,0,30,0,0
109005,-100,4,3,0,30,0,0
109648,-10,4,3,0,30,0,0
109674,-208.333333333333,4,3,0,30,0,0
109755,-200,4,3,0,30,0,0
109862.142857143,-195.046439628483,4,3,0,30,0,0
109969.285714286,-190.332326283988,4,3,0,30,0,0
110076.428571429,-185.840707964602,4,3,0,30,0,0
110183.571428571,-181.556195965418,4,3,0,30,0,0
110290.714285714,-177.464788732394,4,3,0,30,0,0
110397.857142857,-173.553719008264,4,3,0,30,0,0
110505,-169.811320754717,4,3,0,30,0,0
110612.142857143,-166.22691292876,4,3,0,30,0,0
110719.285714286,-162.790697674419,4,3,0,30,0,0
110826.428571429,-159.493670886076,4,3,0,30,0,0
110933.571428571,-156.327543424318,4,3,0,30,0,0
111040.714285714,-153.284671532847,4,3,0,30,0,0
111147.857142857,-150.35799522673,4,3,0,30,0,0
111255,-147.540983606557,4,3,0,30,0,0
111362.142857143,-144.827586206897,4,3,0,30,0,0
111469.285714286,-142.212189616253,4,3,0,30,0,0
111576.428571429,-139.689578713969,4,3,0,30,0,0
111683.571428571,-137.254901960784,4,3,0,30,0,0
111790.714285714,-134.903640256959,4,3,0,30,0,0
111897.857142857,-132.631578947368,4,3,0,30,0,0
112005,-130.434782608696,4,3,0,30,0,0
112112.142857143,-128.309572301426,4,3,0,30,0,0
112219.285714286,-126.25250501002,4,3,0,30,0,0
112326.428571429,-124.260355029586,4,3,0,30,0,0
112433.571428571,-122.330097087379,4,3,0,30,0,0
112540.714285714,-120.458891013384,4,3,0,30,0,0
112647.857142857,-118.64406779661,4,3,0,30,0,0
112755,-116.883116883117,4,3,0,30,0,0
112862.142857143,-115.173674588665,4,3,0,30,0,0
112969.285714286,-113.513513513514,4,3,0,30,0,0
113076.428571429,-111.90053285968,4,3,0,30,0,0
113183.571428571,-110.332749562172,4,3,0,30,0,0
113290.714285714,-108.80829015544,4,3,0,30,0,0
113397.857142857,-107.32538330494,4,3,0,30,0,0
113505,-105.882352941176,4,3,0,30,0,0
113612.142857143,-104.477611940299,4,3,0,30,0,0
113719.285714286,-103.109656301146,4,3,0,30,0,0
113826.428571429,-101.777059773829,4,3,0,30,0,0
113933.571428571,-100.478468899522,4,3,0,30,0,0
114040.714285714,-99.2125984251969,4,3,0,30,0,0
114147.857142857,-97.9782270606532,4,3,0,30,0,0
114255,-96.7741935483871,4,3,0,30,0,0
114362.142857143,-95.5993930197269,4,3,0,30,0,0
114469.285714286,-94.4527736131934,4,3,0,30,0,0
114576.428571429,-93.3333333333333,4,3,0,30,0,0
114683.571428571,-92.2401171303075,4,3,0,30,0,0
114790.714285714,-91.1722141823444,4,3,0,30,0,0
114897.857142857,-90.1287553648069,4,3,0,30,0,0
115005,-89.1089108910891,4,3,0,30,0,0
115112.142857143,-88.1118881118881,4,3,0,30,0,0
115219.285714286,-87.1369294605809,4,3,0,30,0,0
115326.428571429,-86.1833105335157,4,3,0,30,0,0
115433.571428571,-85.2503382949932,4,3,0,30,0,0
115540.714285714,-84.3373493975904,4,3,0,30,0,0
115647.857142857,-83.4437086092715,4,3,0,30,0,0
115755,-82.5688073394495,4,3,0,30,0,0
115862.142857143,-81.7120622568093,4,3,0,30,0,0
115969.285714286,-80.8729139922978,4,3,0,30,0,0
116076.428571429,-80.0508259212198,4,3,0,30,0,0
116183.571428571,-79.2452830188679,4,3,0,30,0,0
116290.714285714,-78.4557907845579,4,3,0,30,0,0
116397.857142857,-77.6818742293465,4,3,0,30,0,0
116505,-100,4,3,0,30,0,0
122505,-55.5555555555556,4,3,0,30,0,0
122612,-200,4,3,0,30,0,0
122719,-100,4,3,0,30,0,0
124005,-80,4,3,0,30,0,0
124112,-100,4,3,0,30,0,0
124219,-100,4,3,0,30,0,1
141362,-10,4,3,0,30,0,0
141389,-142.857142857143,4,3,0,30,0,0
142219,-140.845070422535,4,3,0,30,0,0
142379.6875,-139.471533642059,4,3,0,30,0,0
142486.8125,-137.094710786093,4,3,0,30,0,0
142540.375,-135.507092949397,4,3,0,30,0,0
142593.9375,-133.677584056163,4,3,0,30,0,0
142647.5,-131.627056672761,4,3,0,30,0,0
142701.0625,-129.377874361955,4,3,0,30,0,0
142754.625,-126.95334023936,4,3,0,30,0,0
142808.1875,-124.377169447698,4,3,0,30,0,0
142861.75,-121.673003802281,4,3,0,30,0,0
142915.3125,-118.863982252947,4,3,0,30,0,0
142968.875,-115.972376024322,4,3,0,30,0,0
143022.4375,-113.019292746457,4,3,0,30,0,0
143076,-110.024449877751,4,3,0,30,0,0
143129.5625,-107.006014443954,4,3,0,30,0,0
143183.125,-103.980503655565,4,3,0,30,0,0
143236.6875,-100.962739315434,4,3,0,30,0,0
143290.25,-97.9658480168719,4,3,0,30,0,0
143343.8125,-95.0012988458826,4,3,0,30,0,0
143397.375,-92.0789705059548,4,3,0,30,0,0
143450.9375,-89.2072403445939,4,3,0,30,0,0
143504.5,-86.3930885529158,4,3,0,30,0,0
143558.0625,-83.642211726609,4,3,0,30,0,0
143611.625,-80.9591409335601,4,3,0,30,0,0
143665.1875,-78.3473603672532,4,3,0,30,0,0
143718.75,-75.8094235325085,4,3,0,30,0,0
143772.3125,-73.3470646848528,4,3,0,30,0,0
143825.875,-70.9613039139594,4,3,0,30,0,0
143879.4375,-68.6525448223049,4,3,0,30,0,0
143933,-66.4206642066421,4,3,0,30,0,0
143986.5625,-64.2650935107318,4,3,0,30,0,0
144040.125,-62.1848920940978,4,3,0,30,0,0
144093.6875,-60.1788125654614,4,3,0,30,0,0
144147.25,-58.2453585729887,4,3,0,30,0,0
144200.8125,-56.3828355378272,4,3,0,30,0,0
144254.375,-54.5893948727669,4,3,0,30,0,0
144307.9375,-52.863072253082,4,3,0,30,0,0
144361.5,-51.2018205091737,4,3,0,30,0,0
144415.0625,-49.603537696751,4,3,0,30,0,0
144468.625,-48.0660908749531,4,3,0,30,0,0
144522.1875,-46.5873360900203,4,3,0,30,0,0
144575.75,-45.1651350249349,4,3,0,30,0,0
144629.3125,-43.7973687362064,4,3,0,30,0,0
144682.875,-42.4819488594039,4,3,0,30,0,0
144736.4375,-41.2168266263562,4,3,0,30,0,0
144790,-40,4,3,0,30,0,0

[HitObjects]
36,192,791,5,0,0:0:0:8:
109,192,791,1,0,0:0:0:60:KickMid.wav
256,192,791,1,4,0:0:0:30:
329,192,791,1,2,0:0:0:30:
109,192,898,1,0,0:0:0:60:KickMid.wav
36,192,898,1,0,0:0:0:8:
329,192,898,1,4,0:0:0:30:
256,192,898,1,2,0:0:0:30:
109,192,1112,1,0,0:0:0:8:
182,192,1112,1,0,0:0:0:60:KickMid.wav
329,192,1112,1,4,0:0:0:30:
402,192,1112,1,2,0:0:0:30:
475,192,1326,1,0,0:0:0:8:
402,192,1326,1,4,0:0:0:30:
256,192,1326,1,2,0:0:0:30:
182,192,1326,1,0,0:0:0:60:KickMid.wav
182,192,1540,1,0,0:0:0:8:
109,192,1540,1,0,0:0:0:60:KickMid.wav
329,192,1540,1,4,0:0:0:30:
402,192,1540,1,2,0:0:0:30:
36,192,1755,1,0,0:0:0:8:
329,192,1755,1,0,0:0:0:60:KickMid.wav
182,192,1755,1,2,0:0:0:30:
256,192,1755,1,4,0:0:0:30:
329,192,1862,1,2,0:0:0:30:
36,192,1862,1,0,0:0:0:60:KickMid.wav
182,192,1862,1,0,0:0:0:8:
256,192,1862,1,4,0:0:0:30:
36,192,1969,1,0,0:0:0:8:
182,192,1969,1,0,0:0:0:60:KickMid.wav
329,192,1969,1,2,0:0:0:30:
256,192,1969,1,4,0:0:0:8:
36,192,2076,1,0,0:0:0:8:
182,192,2076,1,0,0:0:0:60:KickMid.wav
329,192,2076,1,2,0:0:0:30:
256,192,2076,1,4,0:0:0:30:
475,192,2183,1,0,0:0:0:20:
402,192,2237,1,0,0:0:0:20:
329,192,2290,1,0,0:0:0:8:
256,192,2290,1,0,0:0:0:60:KickMid.wav
182,192,2290,1,0,0:0:0:8:
109,192,2290,1,4,0:0:0:30:
36,192,2398,1,0,0:0:0:20:
109,192,2505,1,0,0:0:0:8:
182,192,2505,1,0,0:0:0:60:KickMid.wav
475,192,2505,1,4,0:0:0:30:
402,192,2505,1,2,0:0:0:30:
329,192,2612,1,0,0:0:0:20:
256,192,2719,1,0,0:0:0:8:
109,192,2719,1,0,0:0:0:60:KickMid.wav
36,192,2719,1,4,0:0:0:30:
402,192,2719,1,2,0:0:0:30:
36,192,2826,1,0,0:0:0:8:
109,192,2826,1,0,0:0:0:60:KickMid.wav
256,192,2826,1,4,0:0:0:30:
402,192,2826,1,2,0:0:0:30:
475,192,2933,1,0,0:0:0:20:
329,192,3040,1,0,0:0:0:60:KickMid.wav
182,192,3040,1,4,0:0:0:30:
109,192,3040,1,0,0:0:0:8:
402,192,3040,1,0,0:0:0:8:
36,192,3148,1,0,0:0:0:20:
402,192,3255,1,0,0:0:0:8:
256,192,3255,1,4,0:0:0:30:
475,192,3255,1,0,0:0:0:60:KickMid.wav
109,192,3255,1,2,0:0:0:30:
182,192,3362,1,0,0:0:0:13:
329,192,3362,1,0,0:0:0:13:
36,192,3469,1,8,0:0:0:30:
256,192,3469,1,0,0:0:0:13:
475,192,3469,1,0,0:0:0:13:
475,192,3576,1,8,0:0:0:30:
256,192,3576,1,0,0:0:0:13:
36,192,3576,1,0,0:0:0:13:
36,192,3683,1,8,0:0:0:30:
256,192,3683,1,0,0:0:0:13:
475,192,3683,1,0,0:0:0:13:
475,192,3790,1,4,0:0:0:30:
109,192,3790,1,2,0:0:0:30:
402,192,3790,1,0,0:0:0:8:
36,192,3790,1,0,0:0:0:60:KickMid.wav
182,192,3844,1,0,0:0:0:0:
329,192,3898,1,0,0:0:0:20:
475,192,3951,1,0,0:0:0:20:
36,192,4005,1,0,0:0:0:20:
182,192,4058,1,0,0:0:0:20:
329,192,4112,1,0,0:0:0:20:
475,192,4165,1,0,0:0:0:20:
256,192,4219,1,0,0:0:0:60:CymbalFSU.wav
109,192,4219,1,0,0:0:0:60:KickMid.wav
36,192,4219,1,2,0:0:0:30:
182,192,4219,1,0,0:0:0:60:DeepBassKick.wav
402,192,4219,1,4,0:0:0:30:
329,192,4326,1,0,0:0:0:40:
109,192,4433,1,0,0:0:0:60:KickMid.wav
475,192,4433,1,0,0:0:0:8:
402,192,4433,1,0,0:0:0:8:
36,192,4433,1,0,0:0:0:8:
182,192,4540,1,0,0:0:0:40:
475,192,4648,1,0,0:0:0:60:KickMid.wav
256,192,4648,1,0,0:0:0:8:
402,192,4648,1,0,0:0:0:8:
329,192,4648,1,0,0:0:0:8:
109,192,4755,1,0,0:0:0:20:
36,192,4755,1,0,0:0:0:20:
329,192,4862,1,0,0:0:0:60:KickMid.wav
475,192,4862,1,0,0:0:0:13:
402,192,4862,1,0,0:0:0:13:
256,192,4969,1,0,0:0:0:20:
36,192,4969,1,0,0:0:0:20:
109,192,5076,1,0,0:0:0:60:KickMid.wav
329,192,5076,1,0,0:0:0:10:
475,192,5076,1,0,0:0:0:10:
402,192,5183,1,0,0:0:0:20:
182,192,5183,1,0,0:0:0:20:
256,192,5290,1,0,0:0:0:8:
36,192,5290,1,0,0:0:0:60:KickMid.wav
475,192,5290,1,0,0:0:0:8:
109,192,5290,1,0,0:0:0:8:
329,192,5398,1,0,0:0:0:40:
402,192,5505,1,0,0:0:0:60:KickMid.wav
256,192,5505,1,0,0:0:0:8:
182,192,5505,1,0,0:0:0:8:
475,192,5505,1,0,0:0:0:8:
36,192,5612,1,0,0:0:0:40:
109,192,5719,1,0,0:0:0:8:
329,192,5719,1,0,0:0:0:8:
182,192,5719,1,0,0:0:0:60:KickMid.wav
402,192,5719,1,0,0:0:0:8:
475,192,5826,1,0,0:0:0:40:
36,192,5933,128,0,7433:0:0:0:10:
329,192,5933,1,0,0:0:0:10:
256,192,5933,1,4,0:0:0:30:
109,192,5933,1,0,0:0:0:10:
182,192,6040,1,2,0:0:0:30:
475,192,6148,1,4,0:0:0:30:
402,192,6148,1,0,0:0:0:13:
256,192,6148,1,0,0:0:0:13:
329,192,6255,1,2,0:0:0:30:
182,192,6362,1,0,0:0:0:13:
109,192,6362,1,4,0:0:0:30:
402,192,6362,1,0,0:0:0:13:
475,192,6469,1,2,0:0:0:30:
329,192,6576,1,0,0:0:0:13:
402,192,6576,1,4,0:0:0:30:
182,192,6576,1,0,0:0:0:13:
256,192,6683,1,0,0:0:0:20:
182,192,6790,1,0,0:0:0:13:
329,192,6790,1,4,0:0:0:30:
475,192,6790,1,0,0:0:0:13:
109,192,6898,1,0,0:0:0:20:
182,192,7005,1,0,0:0:0:10:
256,192,7005,1,4,0:0:0:30:
402,192,7005,1,0,0:0:0:10:
475,192,7112,1,2,0:0:0:30:
329,192,7219,1,0,0:0:0:10:
256,192,7219,1,4,0:0:0:30:
109,192,7219,1,0,0:0:0:10:
182,192,7326,1,2,0:0:0:30:
402,192,7433,1,0,0:0:0:13:
329,192,7433,1,0,0:0:0:60:KickMid.wav
182,192,7487,1,0,0:0:0:13:
109,192,7487,1,0,0:0:0:60:KickMid.wav
329,192,7540,1,0,0:0:0:60:KickMid.wav
402,192,7540,1,0,0:0:0:13:
182,192,7594,1,0,0:0:0:13:
109,192,7594,1,0,0:0:0:60:KickMid.wav
256,192,7648,1,0,0:0:0:60:KickMid.wav
329,192,7648,1,0,0:0:0:60:DeepBassKick.wav
402,192,7648,1,4,0:0:0:30:
475,192,7648,1,0,0:0:0:60:CymbalFSU.wav
36,192,7648,1,0,0:0:0:0:
182,192,7755,1,0,0:0:0:40:
109,192,7862,1,0,0:0:0:8:
475,192,7862,1,0,0:0:0:60:KickMid.wav
36,192,7862,1,0,0:0:0:8:
329,192,7862,1,0,0:0:0:8:
256,192,7969,1,0,0:0:0:40:
109,192,8076,1,0,0:0:0:60:KickMid.wav
36,192,8076,1,0,0:0:0:8:
329,192,8076,1,0,0:0:0:8:
402,192,8076,1,0,0:0:0:8:
182,192,8183,1,0,0:0:0:20:
475,192,8183,1,0,0:0:0:20:
329,192,8290,1,0,0:0:0:60:KickMid.wav
36,192,8290,1,0,0:0:0:13:
256,192,8290,1,0,0:0:0:13:
475,192,8398,1,0,0:0:0:20:
402,192,8398,1,0,0:0:0:20:
329,192,8505,1,0,0:0:0:60:KickMid.wav
182,192,8505,1,0,0:0:0:13:
109,192,8505,1,0,0:0:0:13:
36,192,8612,1,0,0:0:0:20:
256,192,8612,1,0,0:0:0:20:
182,192,8719,1,0,0:0:0:8:
402,192,8719,1,0,0:0:0:8:
475,192,8719,1,0,0:0:0:60:KickMid.wav
329,192,8719,1,0,0:0:0:8:
109,192,8826,1,0,0:0:0:40:
256,192,8933,1,0,0:0:0:8:
475,192,8933,1,0,0:0:0:8:
36,192,8933,1,0,0:0:0:60:KickMid.wav
182,192,8933,1,0,0:0:0:8:
402,192,9040,1,0,0:0:0:40:
109,192,9148,1,0,0:0:0:8:
329,192,9148,1,0,0:0:0:8:
182,192,9148,1,0,0:0:0:60:KickMid.wav
36,192,9148,1,0,0:0:0:8:
256,192,9255,1,0,0:0:0:40:
475,192,9362,128,0,10219:0:0:0:10:
402,192,9362,1,0,0:0:0:10:
182,192,9362,1,4,0:0:0:30:
109,192,9362,1,0,0:0:0:10:
36,192,9469,1,2,0:0:0:30:
182,192,9576,1,0,0:0:0:20:
329,192,9576,1,4,0:0:0:30:
256,192,9576,1,0,0:0:0:0:
109,192,9683,1,0,0:0:0:20:
402,192,9790,1,0,0:0:0:13:
36,192,9790,1,4,0:0:0:30:
256,192,9790,1,0,0:0:0:13:
329,192,9898,1,0,0:0:0:20:
182,192,10005,1,0,0:0:0:13:
256,192,10005,1,4,0:0:0:30:
402,192,10005,1,0,0:0:0:13:
109,192,10112,1,2,0:0:0:30:
256,192,10219,1,0,0:0:0:60:KickMid.wav
36,192,10219,1,0,0:0:0:60:CymbalFSU.wav
329,192,10219,1,0,0:0:0:60:DeepBassKick.wav
402,192,10219,128,0,10433:0:0:0:8:
109,192,10273,1,0,0:0:0:40:
182,192,10326,1,0,0:0:0:20:
256,192,10380,1,0,0:0:0:40:
109,192,10433,1,0,0:0:0:60:DeepBassKick.wav
36,192,10433,1,0,0:0:0:60:KickMid.wav
329,192,10433,1,0,0:0:0:8:
475,192,10433,128,0,10648:0:0:0:60:CymbalFSU.wav
182,192,10487,1,0,0:0:0:40:
256,192,10540,1,0,0:0:0:20:
329,192,10594,1,0,0:0:0:40:
182,192,10648,1,0,0:0:0:60:KickMid.wav
402,192,10648,1,0,0:0:0:60:DeepBassKick.wav
36,192,10648,128,0,11076:0:0:0:60:CymbalFSU.wav
109,192,10648,1,0,0:0:0:8:
256,192,10701,1,0,0:0:0:40:
329,192,10755,1,0,0:0:0:40:
402,192,10808,1,0,0:0:0:40:
256,192,10862,1,0,0:0:0:20:
329,192,10915,1,0,0:0:0:20:
402,192,10969,1,0,0:0:0:20:
475,192,11023,1,0,0:0:0:20:
329,192,11076,1,0,0:0:0:8:
256,192,11076,1,0,0:0:0:8:
182,192,11076,1,0,0:0:0:60:KickMid.wav
109,192,11076,1,4,0:0:0:30:
402,192,11183,1,2,0:0:0:30:
182,192,11290,128,0,11398:0:0:0:60:KickMid.wav
109,192,11290,1,4,0:0:0:30:
36,192,11290,1,0,0:0:0:8:
475,192,11290,1,0,0:0:0:8:
329,192,11398,1,2,0:0:0:30:
256,192,11505,128,0,11612:0:0:0:60:KickMid.wav
109,192,11505,1,4,0:0:0:30:
402,192,11505,1,0,0:0:0:8:
475,192,11505,1,0,0:0:0:8:
36,192,11612,1,2,0:0:0:30:
329,192,11719,128,4,11826:0:0:0:30:
182,192,11719,1,0,0:0:0:8:
475,192,11719,1,0,0:0:0:8:
256,192,11719,1,0,0:0:0:60:KickMid.wav
109,192,11826,1,2,0:0:0:30:
402,192,11933,128,0,12040:0:0:0:8:
36,192,11933,1,0,0:0:0:60:KickMid.wav
256,192,11933,1,0,0:0:0:8:
475,192,11933,1,4,0:0:0:30:
182,192,12040,1,2,0:0:0:30:
329,192,12148,128,4,12255:0:0:0:30:
109,192,12148,1,0,0:0:0:8:
36,192,12148,1,0,0:0:0:8:
256,192,12148,1,0,0:0:0:60:KickMid.wav
475,192,12255,1,2,0:0:0:30:
256,192,12362,128,0,12469:0:0:0:8:
182,192,12362,1,4,0:0:0:30:
402,192,12362,1,0,0:0:0:60:KickMid.wav
329,192,12362,1,0,0:0:0:8:
36,192,12469,1,2,0:0:0:30:
182,192,12576,128,0,12683:0:0:0:8:
256,192,12576,1,0,0:0:0:8:
475,192,12576,1,0,0:0:0:60:KickMid.wav
402,192,12576,1,4,0:0:0:30:
109,192,12683,1,2,0:0:0:30:
402,192,12790,1,0,0:0:0:60:KickMid.wav
329,192,12790,1,0,0:0:0:8:
36,192,12790,1,0,0:0:0:8:
256,192,12790,1,4,0:0:0:30:
182,192,12898,1,2,0:0:0:30:
109,192,13005,128,0,13112:0:0:0:8:
329,192,13005,1,0,0:0:0:8:
475,192,13005,1,0,0:0:0:8:
402,192,13005,1,0,0:0:0:60:KickMid.wav
256,192,13112,1,2,0:0:0:30:
182,192,13219,128,0,13326:0:0:0:8:
36,192,13219,1,0,0:0:0:8:
475,192,13219,1,0,0:0:0:60:KickMid.wav
402,192,13219,1,4,0:0:0:30:
329,192,13326,1,2,0:0:0:30:
256,192,13433,128,0,13540:0:0:0:8:
109,192,13433,1,0,0:0:0:60:KickMid.wav
36,192,13433,1,4,0:0:0:30:
475,192,13433,1,0,0:0:0:8:
402,192,13540,1,2,0:0:0:30:
329,192,13648,128,0,13755:0:0:0:60:KickMid.wav
182,192,13648,1,4,0:0:0:30:
109,192,13648,1,0,0:0:0:8:
36,192,13648,1,0,0:0:0:8:
402,192,13755,1,2,0:0:0:30:
256,192,13862,128,0,13969:0:0:0:8:
329,192,13862,1,0,0:0:0:60:KickMid.wav
36,192,13862,1,4,0:0:0:30:
475,192,13862,1,0,0:0:0:8:
109,192,13969,1,2,0:0:0:30:
182,192,14076,128,0,14183:0:0:0:8:
256,192,14076,1,0,0:0:0:8:
36,192,14076,1,0,0:0:0:60:KickMid.wav
475,192,14076,1,4,0:0:0:30:
329,192,14183,1,2,0:0:0:30:
109,192,14290,128,0,14398:0:0:0:8:
402,192,14290,1,0,0:0:0:8:
182,192,14290,1,0,0:0:0:8:
475,192,14290,1,0,0:0:0:60:KickMid.wav
329,192,14398,1,0,0:0:0:13:
256,192,14398,1,4,0:0:0:30:
36,192,14398,1,0,0:0:0:0:
182,192,14505,1,0,0:0:0:60:KickMid.wav
109,192,14505,1,0,0:0:0:8:
402,192,14505,1,4,0:0:0:30:
475,192,14505,128,0,14719:0:0:0:8:
256,192,14719,1,0,0:0:0:40:
182,192,14746,1,0,0:0:0:40:
109,192,14773,1,0,0:0:0:20:
36,192,14799,1,0,0:0:0:40:
475,192,14826,1,0,0:0:0:40:
402,192,14853,1,0,0:0:0:40:
329,192,14880,1,0,0:0:0:20:
256,192,14907,1,0,0:0:0:40:
182,192,14933,1,2,0:0:0:30:
475,192,14987,1,2,0:0:0:30:
109,192,15040,1,0,0:0:0:13:
256,192,15040,1,0,0:0:0:13:
402,192,15094,1,0,0:0:0:20:
36,192,15148,1,0,0:0:0:20:
329,192,15201,1,0,0:0:0:20:
109,192,15255,1,0,0:0:0:20:
402,192,15308,1,0,0:0:0:20:
182,192,15362,1,0,0:0:0:20:
256,192,15415,1,0,0:0:0:20:
329,192,15469,1,0,0:0:0:20:
402,192,15523,1,0,0:0:0:20:
36,192,15576,1,0,0:0:0:13:
182,192,15576,1,4,0:0:0:30:
329,192,15630,1,0,0:0:0:20:
475,192,15630,1,4,0:0:0:30:
36,192,15683,1,4,0:0:0:30:
182,192,15683,1,0,0:0:0:13:
329,192,15737,1,4,0:0:0:30:
475,192,15737,1,0,0:0:0:20:
36,192,15790,1,4,0:0:0:30:
109,192,15790,1,0,0:0:0:10:
475,192,15844,1,0,0:0:0:13:
402,192,15844,1,4,0:0:0:30:
109,192,15898,1,0,0:0:0:13:
36,192,15898,1,0,0:0:0:13:
402,192,15951,1,4,0:0:0:30:
475,192,15951,1,0,0:0:0:13:
329,192,16005,1,0,0:0:0:60:DeepBassKick.wav
256,192,16005,1,4,0:0:0:30:
182,192,16005,1,2,0:0:0:30:
109,192,16005,1,0,0:0:0:60:CymbalFSU.wav
402,192,16219,128,4,16487:0:0:0:30:
475,192,16219,128,0,16487:0:0:0:60:CymbalFSU.wav
109,192,16219,1,0,0:0:0:60:DeepBassKick.wav
36,192,16219,1,0,0:0:0:8:
182,192,16540,1,0,0:0:0:60:DeepBassKick.wav
329,192,16540,128,0,16808:0:0:0:8:
256,192,16540,128,0,16808:0:0:0:60:CymbalFSU.wav
256,192,16862,128,0,17130:0:0:0:8:
36,192,16862,1,0,0:0:0:60:CymbalFSU.wav
182,192,16862,128,0,17130:0:0:0:60:DeepBassKick.wav
402,192,16862,1,4,0:0:0:30:
36,192,17183,128,0,17451:0:0:0:8:
109,192,17183,128,0,17451:0:0:0:8:
329,192,17183,1,0,0:0:0:60:DeepBassKick.wav
475,192,17183,1,0,0:0:0:60:CymbalFSU.wav
475,192,17505,128,0,17933:0:0:0:10:
36,192,17505,1,0,0:0:0:10:
109,192,17505,1,0,0:0:0:30:DeepBassKick.wav
109,192,17933,1,2,0:0:0:30:
182,192,17933,1,0,0:0:0:60:CymbalFSU.wav
256,192,17933,1,0,0:0:0:60:DeepBassKick.wav
36,192,17933,128,4,19005:0:0:0:30:
329,192,17987,1,0,0:0:0:0:
402,192,18040,1,0,0:0:0:20:
475,192,18094,1,0,0:0:0:20:
109,192,18148,1,0,0:0:0:20:
182,192,18201,1,0,0:0:0:20:
256,192,18255,1,0,0:0:0:20:
329,192,18308,1,0,0:0:0:20:
402,192,18362,1,0,0:0:0:20:
475,192,18415,1,0,0:0:0:20:
402,192,18469,1,0,0:0:0:20:
329,192,18523,1,0,0:0:0:20:
256,192,18576,1,0,0:0:0:20:
182,192,18630,1,0,0:0:0:20:
109,192,18683,1,0,0:0:0:20:
475,192,18737,1,0,0:0:0:20:
329,192,18790,1,0,0:0:0:20:
182,192,18844,1,0,0:0:0:20:
402,192,18898,1,0,0:0:0:20:
256,192,18951,1,0,0:0:0:20:
109,192,19005,128,0,19112:0:0:0:20:
256,192,19112,128,0,19219:0:0:0:20:
402,192,19219,128,0,19433:0:0:0:20:
256,192,19433,128,0,19648:0:0:0:20:
182,192,19648,1,0,0:0:0:60:CymbalFSU.wav
329,192,19648,1,0,0:0:0:60:DeepBassKick.wav
475,192,19648,1,8,0:0:0:30:
36,192,19648,128,0,19862:0:0:0:0:
475,192,19862,128,0,20023:0:0:0:20:
475,192,20076,128,0,20290:0:0:0:20:
402,192,20290,128,0,20505:0:0:0:20:
329,192,20505,128,0,20719:0:0:0:20:
182,192,20719,128,0,20826:0:0:0:20:
109,192,20826,128,0,20933:0:0:0:20:
182,192,20933,128,0,21148:0:0:0:20:
36,192,21148,128,0,21362:0:0:0:20:
182,192,21362,128,0,21576:0:0:0:20:
36,192,21576,128,0,21790:0:0:0:20:
182,192,21790,128,0,22005:0:0:0:20:
256,192,22005,128,0,22112:0:0:0:20:
329,192,22112,128,0,22219:0:0:0:20:
402,192,22219,128,0,22433:0:0:0:20:
182,192,22433,128,0,22540:0:0:0:20:
109,192,22540,128,0,22594:0:0:0:20:
109,192,22648,128,0,22862:0:0:0:20:
182,192,22862,128,0,22969:0:0:0:20:
256,192,22969,128,0,23076:0:0:0:20:
329,192,23076,128,0,23290:0:0:0:20:
109,192,23290,128,0,23505:0:0:0:20:
329,192,23505,128,0,23719:0:0:0:20:
475,192,23719,128,0,23826:0:0:0:20:
402,192,23826,128,0,23933:0:0:0:20:
329,192,23933,128,0,24148:0:0:0:20:
402,192,24148,128,0,24362:0:0:0:20:
109,192,24362,128,0,24576:0:0:0:20:
182,192,24576,128,0,24683:0:0:0:20:
256,192,24683,128,0,24790:0:0:0:20:
329,192,24790,128,0,25005:0:0:0:20:
36,192,25005,128,0,25219:0:0:0:20:
329,192,25219,128,0,25326:0:0:0:20:
182,192,25326,128,0,25433:0:0:0:20:
475,192,25433,128,0,25540:0:0:0:20:
402,192,25540,128,0,25648:0:0:0:20:
256,192,25648,128,0,25862:0:0:0:20:
329,192,25862,128,0,26076:0:0:0:20:
182,192,26076,128,0,26290:0:0:0:20:
36,192,26290,128,0,26505:0:0:0:20:
402,192,26505,128,0,26719:0:0:0:20:
109,192,26719,128,0,26933:0:0:0:20:
182,192,26933,128,0,27148:0:0:0:20:
329,192,27148,128,0,27362:0:0:0:20:
256,192,27362,128,0,27576:0:0:0:20:
329,192,27576,1,0,0:0:0:20:
182,192,27576,1,0,0:0:0:20:
402,192,27648,1,0,0:0:0:40:
109,192,27648,1,0,0:0:0:0:
329,192,27719,1,0,0:0:0:20:
182,192,27719,1,0,0:0:0:20:
256,192,27790,128,0,28005:0:0:0:20:
402,192,27898,1,0,0:0:0:0:
182,192,28005,128,0,28165:0:0:0:20:
182,192,28219,128,0,28433:0:0:0:20:
329,192,28326,1,0,0:0:0:0:
402,192,28380,1,0,0:0:0:0:
36,192,28433,128,0,28648:0:0:0:20:
475,192,28433,1,0,0:0:0:20:
329,192,28487,1,0,0:0:0:0:
402,192,28540,1,0,0:0:0:0:
109,192,28648,128,0,28862:0:0:0:20:
256,192,28648,1,0,0:0:0:20:
182,192,28701,1,0,0:0:0:0:
475,192,28755,1,0,0:0:0:0:
402,192,28808,1,0,0:0:0:0:
329,192,28862,128,0,29076:0:0:0:20:
256,192,28862,1,0,0:0:0:20:
256,192,29076,128,0,29505:0:0:0:13:
109,192,29076,1,0,0:0:0:13:
402,192,29130,1,0,0:0:0:40:
109,192,29183,1,0,0:0:0:40:
402,192,29237,1,0,0:0:0:40:
182,192,29505,128,0,29933:0:0:0:13:
329,192,29505,1,0,0:0:0:13:
36,192,29558,1,0,0:0:0:40:
329,192,29612,1,0,0:0:0:40:
36,192,29665,1,0,0:0:0:40:
109,192,29933,1,0,0:0:0:60:CymbalFSU.wav
36,192,29933,1,0,0:0:0:60:DeepBassKick.wav
256,192,29933,1,0,0:0:0:60:KickMid.wav
329,192,29933,1,0,0:0:0:8:
475,192,29933,1,0,0:0:0:8:
109,192,30148,1,0,0:0:0:60:KickMid.wav
182,192,30148,1,0,0:0:0:10:
402,192,30148,1,0,0:0:0:10:
329,192,30148,1,0,0:0:0:10:
475,192,30362,1,0,0:0:0:60:KickMid.wav
402,192,30362,1,0,0:0:0:8:
329,192,30362,1,0,0:0:0:8:
256,192,30362,1,0,0:0:0:8:
182,192,30469,1,0,0:0:0:13:
109,192,30469,1,0,0:0:0:60:KickMid.wav
36,192,30469,1,0,0:0:0:13:
329,192,30576,1,0,0:0:0:8:
402,192,30576,1,0,0:0:0:60:KickMid.wav
475,192,30576,1,0,0:0:0:8:
256,192,30576,1,0,0:0:0:8:
182,192,30683,1,0,0:0:0:13:
109,192,30683,1,0,0:0:0:13:
36,192,30683,1,0,0:0:0:60:KickMid.wav
329,192,30790,1,0,0:0:0:60:KickMid.wav
402,192,30790,1,0,0:0:0:8:
475,192,30790,1,0,0:0:0:8:
256,192,30790,1,0,0:0:0:8:
475,192,30898,1,0,0:0:0:60:KickMid.wav
402,192,30898,1,0,0:0:0:8:
329,192,30898,1,0,0:0:0:8:
256,192,30898,1,0,0:0:0:8:
182,192,31005,1,0,0:0:0:60:KickMid.wav
109,192,31005,1,0,0:0:0:13:
36,192,31005,1,0,0:0:0:13:
475,192,31112,128,0,31433:0:0:0:10:
329,192,31112,1,0,0:0:0:60:KickMid.wav
402,192,31112,1,0,0:0:0:10:
256,192,31112,1,0,0:0:0:10:
256,192,31326,1,0,0:0:0:13:
182,192,31326,1,0,0:0:0:60:KickMid.wav
109,192,31326,1,0,0:0:0:13:
329,192,31433,128,0,31576:0:0:0:10:
36,192,31648,128,0,31915:0:0:0:60:CymbalFSU.wav
109,192,31648,1,0,0:0:0:60:DeepBassKick.wav
182,192,31648,1,0,0:0:0:60:KickMid.wav
256,192,31648,1,0,0:0:0:8:
182,192,31969,1,0,0:0:0:60:CymbalFSU.wav
256,192,31969,1,0,0:0:0:60:DeepBassKick.wav
329,192,31969,1,0,0:0:0:60:KickMid.wav
109,192,31969,128,0,32237:0:0:0:8:
182,192,32290,128,0,32558:0:0:0:60:CymbalFSU.wav
256,192,32290,1,0,0:0:0:60:DeepBassKick.wav
329,192,32290,1,0,0:0:0:60:KickMid.wav
402,192,32290,1,0,0:0:0:8:
475,192,32612,128,0,32880:0:0:0:60:CymbalFSU.wav
402,192,32612,1,0,0:0:0:60:DeepBassKick.wav
329,192,32612,1,0,0:0:0:60:KickMid.wav
256,192,32612,1,0,0:0:0:8:
182,192,32933,1,0,0:0:0:60:KickMid.wav
256,192,32933,1,0,0:0:0:60:DeepBassKick.wav
402,192,32933,128,0,33523:0:0:0:8:
329,192,32933,1,0,0:0:0:60:CymbalFSU.wav
329,192,33576,128,0,33737:0:0:0:8:
109,192,33576,1,0,0:0:0:60:CymbalFSU.wav
182,192,33576,1,0,0:0:0:60:DeepBassKick.wav
475,192,33576,1,0,0:0:0:60:KickMid.wav
256,192,33790,128,0,33951:0:0:0:8:
109,192,33790,1,0,0:0:0:60:CymbalFSU.wav
36,192,33790,1,0,0:0:0:60:DeepBassKick.wav
402,192,33790,1,0,0:0:0:60:KickMid.wav
182,192,34005,128,0,34165:0:0:0:8:
329,192,34005,1,0,0:0:0:60:KickMid.wav
475,192,34005,1,0,0:0:0:60:DeepBassKick.wav
36,192,34005,1,0,0:0:0:60:CymbalFSU.wav
109,192,34219,128,0,34487:0:0:0:8:
256,192,34219,1,0,0:0:0:60:CymbalFSU.wav
402,192,34219,1,0,0:0:0:60:DeepBassKick.wav
475,192,34219,1,0,0:0:0:60:KickMid.wav
182,192,34540,128,0,34808:0:0:0:8:
36,192,34540,1,0,0:0:0:60:DeepBassKick.wav
329,192,34540,1,0,0:0:0:60:CymbalFSU.wav
402,192,34540,1,0,0:0:0:60:KickMid.wav
256,192,34862,128,0,35130:0:0:0:8:
475,192,34862,1,0,0:0:0:60:CymbalFSU.wav
402,192,34862,1,0,0:0:0:60:DeepBassKick.wav
109,192,34862,1,0,0:0:0:60:KickMid.wav
475,192,35183,128,0,35451:0:0:0:8:
182,192,35183,1,0,0:0:0:60:CymbalFSU.wav
36,192,35183,1,0,0:0:0:60:KickMid.wav
329,192,35183,1,0,0:0:0:60:DeepBassKick.wav
36,192,35505,128,0,37165:0:0:0:8:
109,192,35505,1,0,0:0:0:60:KickMid.wav
256,192,35505,1,0,0:0:0:60:CymbalFSU.wav
402,192,35505,1,0,0:0:0:60:DeepBassKick.wav
109,192,35933,1,0,0:0:0:40:
182,192,35933,1,0,0:0:0:0:
256,192,35987,1,0,0:0:0:40:
329,192,36040,1,0,0:0:0:40:
402,192,36094,1,0,0:0:0:40:
109,192,36148,1,0,0:0:0:20:
475,192,36148,1,0,0:0:0:20:
182,192,36201,1,0,0:0:0:40:
256,192,36255,1,0,0:0:0:40:
329,192,36308,1,0,0:0:0:40:
475,192,36362,1,0,0:0:0:20:
402,192,36362,1,0,0:0:0:20:
109,192,36415,1,0,0:0:0:40:
256,192,36469,1,0,0:0:0:40:
182,192,36469,1,0,0:0:0:0:
329,192,36523,1,0,0:0:0:40:
402,192,36576,1,0,0:0:0:20:
475,192,36576,1,0,0:0:0:20:
256,192,36630,1,0,0:0:0:40:
109,192,36683,1,0,0:0:0:20:
182,192,36683,1,0,0:0:0:20:
402,192,36737,1,0,0:0:0:40:
475,192,36790,1,0,0:0:0:20:
329,192,36790,1,0,0:0:0:20:
182,192,36844,1,0,0:0:0:40:
256,192,36898,1,0,0:0:0:20:
109,192,36898,1,0,0:0:0:20:
329,192,36951,1,0,0:0:0:40:
475,192,37005,1,0,0:0:0:20:
402,192,37005,1,0,0:0:0:20:
182,192,37058,1,0,0:0:0:40:
256,192,37112,1,0,0:0:0:20:
329,192,37165,1,0,0:0:0:40:
36,192,37219,1,0,0:0:0:20:
109,192,37273,1,0,0:0:0:40:
182,192,37326,1,0,0:0:0:20:
256,192,37380,1,0,0:0:0:40:
475,192,37433,1,0,0:0:0:20:
402,192,37487,1,0,0:0:0:40:
329,192,37540,1,0,0:0:0:40:
256,192,37594,1,0,0:0:0:40:
182,192,37648,1,0,0:0:0:60:CymbalFSU.wav
109,192,37648,1,0,0:0:0:60:DeepBassKick.wav
36,192,37648,1,0,0:0:0:60:KickMid.wav
475,192,37648,128,0,37862:0:0:0:8:
402,192,37648,1,0,0:0:0:8:
402,192,37862,1,0,0:0:0:10:
256,192,37862,1,0,0:0:0:60:KickMid.wav
329,192,37862,1,0,0:0:0:10:
36,192,37862,128,0,38076:0:0:0:10:
109,192,38076,1,0,0:0:0:8:
182,192,38076,1,0,0:0:0:60:KickMid.wav
256,192,38076,1,0,0:0:0:8:
475,192,38076,1,0,0:0:0:8:
329,192,38183,1,0,0:0:0:13:
402,192,38183,1,0,0:0:0:13:
182,192,38290,1,0,0:0:0:8:
109,192,38290,1,0,0:0:0:60:KickMid.wav
36,192,38290,1,0,0:0:0:8:
475,192,38290,1,0,0:0:0:8:
329,192,38398,1,0,0:0:0:13:
256,192,38398,1,0,0:0:0:13:
182,192,38505,128,0,38719:0:0:0:8:
109,192,38505,1,0,0:0:0:60:KickMid.wav
402,192,38505,1,0,0:0:0:8:
475,192,38505,1,0,0:0:0:8:
329,192,38612,1,0,0:0:0:40:
402,192,38665,1,0,0:0:0:20:
256,192,38719,1,0,0:0:0:10:
36,192,38719,1,0,0:0:0:10:
475,192,38719,1,0,0:0:0:60:KickMid.wav
109,192,38719,1,0,0:0:0:10:
182,192,38826,1,0,0:0:0:13:
402,192,38880,1,0,0:0:0:0:
256,192,39040,1,0,0:0:0:10:
109,192,39040,1,0,0:0:0:10:
36,192,39040,1,0,0:0:0:10:
329,192,39040,1,0,0:0:0:10:
36,192,39148,128,0,39362:0:0:0:10:
109,192,39148,128,0,39362:0:0:0:10:
256,192,39148,1,0,0:0:0:60:KickMid.wav
329,192,39148,1,0,0:0:0:10:
475,192,39362,1,0,0:0:0:60:KickMid.wav
402,192,39362,1,0,0:0:0:13:
329,192,39389,1,0,0:0:0:0:
256,192,39415,1,0,0:0:0:60:KickMid.wav
182,192,39415,1,0,0:0:0:13:
36,192,39469,1,0,0:0:0:13:
109,192,39469,1,0,0:0:0:60:KickMid.wav
475,192,39523,1,0,0:0:0:40:
256,192,39576,1,0,0:0:0:60:KickMid.wav
182,192,39576,1,0,0:0:0:13:
402,192,39630,1,0,0:0:0:40:
36,192,39683,1,0,0:0:0:60:KickMid.wav
109,192,39683,1,0,0:0:0:13:
329,192,39737,1,0,0:0:0:40:
182,192,39790,1,0,0:0:0:60:DeepBassKick.wav
256,192,39790,1,0,0:0:0:60:CymbalFSU.wav
475,192,39790,1,0,0:0:0:60:KickMid.wav
402,192,39898,1,0,0:0:0:20:
256,192,39951,1,0,0:0:0:40:
109,192,40005,1,0,0:0:0:13:
36,192,40005,1,0,0:0:0:13:
329,192,40112,1,0,0:0:0:60:KickMid.wav
402,192,40112,1,0,0:0:0:20:
475,192,40112,1,0,0:0:0:0:
256,192,40165,1,0,0:0:0:40:
182,192,40219,1,0,0:0:0:60:CymbalFSU.wav
109,192,40219,1,0,0:0:0:60:KickMid.wav
36,192,40219,1,0,0:0:0:60:DeepBassKick.wav
329,192,40326,1,0,0:0:0:10:
475,192,40326,128,0,40648:0:0:0:10:
256,192,40380,1,0,0:0:0:0:
182,192,40433,1,0,0:0:0:20:
402,192,40433,128,0,40648:0:0:0:20:
109,192,40433,1,0,0:0:0:0:
329,192,40540,128,0,40648:0:0:0:20:
256,192,40648,1,0,0:0:0:60:CymbalFSU.wav
109,192,40648,1,0,0:0:0:60:DeepBassKick.wav
36,192,40648,1,0,0:0:0:60:KickMid.wav
182,192,40648,1,0,0:0:0:8:
182,192,40862,1,0,0:0:0:20:
329,192,40862,1,0,0:0:0:20:
109,192,41076,1,0,0:0:0:60:CymbalFSU.wav
256,192,41076,1,0,0:0:0:60:DeepBassKick.wav
475,192,41076,1,0,0:0:0:8:
402,192,41076,1,0,0:0:0:60:KickMid.wav
36,192,41076,1,0,0:0:0:0:
109,192,41290,1,0,0:0:0:8:
182,192,41290,1,0,0:0:0:60:DeepBassKick.wav
329,192,41290,1,0,0:0:0:60:CymbalFSU.wav
402,192,41290,1,0,0:0:0:60:KickMid.wav
182,192,41505,1,0,0:0:0:60:CymbalFSU.wav
475,192,41505,1,0,0:0:0:60:KickMid.wav
36,192,41505,1,0,0:0:0:8:
109,192,41505,1,0,0:0:0:8:
182,192,41612,1,0,0:0:0:20:
109,192,41612,1,0,0:0:0:60:KickMid.wav
475,192,41719,1,0,0:0:0:10:
36,192,41719,1,0,0:0:0:60:KickMid.wav
329,192,41719,1,0,0:0:0:10:
402,192,41719,1,0,0:0:0:10:
402,192,41826,1,0,0:0:0:20:
329,192,41826,1,0,0:0:0:60:KickMid.wav
256,192,41933,1,0,0:0:0:13:
475,192,41933,1,0,0:0:0:60:KickMid.wav
109,192,41933,1,0,0:0:0:13:
36,192,41933,1,0,0:0:0:0:
182,192,42040,1,0,0:0:0:20:
36,192,42040,1,0,0:0:0:20:
329,192,42148,128,0,42362:0:0:0:60:KickMid.wav
402,192,42148,1,0,0:0:0:10:
256,192,42148,1,0,0:0:0:10:
475,192,42148,1,0,0:0:0:10:
109,192,42255,1,0,0:0:0:60:KickMid.wav
256,192,42362,128,0,42469:0:0:0:10:
182,192,42362,1,0,0:0:0:60:KickMid.wav
475,192,42362,1,0,0:0:0:10:
402,192,42362,1,0,0:0:0:10:
36,192,42469,1,0,0:0:0:20:
109,192,42469,1,0,0:0:0:20:
182,192,42576,128,0,42790:0:0:0:10:
329,192,42576,1,0,0:0:0:60:KickMid.wav
402,192,42576,1,0,0:0:0:10:
475,192,42576,1,0,0:0:0:10:
475,192,42683,1,0,0:0:0:60:KickMid.wav
402,192,42683,1,0,0:0:0:20:
329,192,42683,1,0,0:0:0:0:
329,192,42790,1,0,0:0:0:10:
475,192,42790,1,0,0:0:0:10:
256,192,42790,1,0,0:0:0:60:KickMid.wav
36,192,42790,1,0,0:0:0:10:
109,192,42844,1,0,0:0:0:40:
182,192,42898,1,0,0:0:0:20:
256,192,42951,1,0,0:0:0:40:
109,192,43005,1,0,0:0:0:10:
36,192,43005,1,0,0:0:0:60:KickMid.wav
329,192,43005,1,0,0:0:0:10:
402,192,43005,1,0,0:0:0:10:
182,192,43058,1,0,0:0:0:40:
256,192,43112,1,0,0:0:0:20:
329,192,43165,1,0,0:0:0:20:
109,192,43219,1,0,0:0:0:10:
36,192,43219,1,0,0:0:0:10:
402,192,43219,1,0,0:0:0:10:
475,192,43219,1,0,0:0:0:60:KickMid.wav
182,192,43326,1,0,0:0:0:13:
329,192,43326,1,0,0:0:0:13:
256,192,43326,1,0,0:0:0:60:KickMid.wav
256,192,43433,1,0,0:0:0:13:
329,192,43433,1,0,0:0:0:13:
182,192,43433,1,0,0:0:0:60:KickMid.wav
109,192,43540,1,0,0:0:0:60:KickMid.wav
256,192,43540,1,0,0:0:0:13:
402,192,43540,1,0,0:0:0:13:
182,192,43755,1,0,0:0:0:60:DeepBassKick.wav
36,192,43755,1,0,0:0:0:60:KickMid.wav
329,192,43755,1,0,0:0:0:60:CymbalFSU.wav
402,192,43755,1,0,0:0:0:8:
182,192,43862,1,0,0:0:0:60:CymbalFSU.wav
109,192,43862,1,0,0:0:0:60:DeepBassKick.wav
329,192,43862,1,0,0:0:0:60:KickMid.wav
475,192,43862,1,0,0:0:0:8:
256,192,44076,1,0,0:0:0:60:CymbalFSU.wav
329,192,44076,1,0,0:0:0:60:DeepBassKick.wav
402,192,44076,1,0,0:0:0:8:
182,192,44076,1,0,0:0:0:60:KickMid.wav
329,192,44290,1,0,0:0:0:60:CymbalFSU.wav
256,192,44290,1,0,0:0:0:60:DeepBassKick.wav
182,192,44290,1,0,0:0:0:60:KickMid.wav
109,192,44290,1,0,0:0:0:8:
329,192,44505,1,0,0:0:0:10:
256,192,44505,1,0,0:0:0:10:
402,192,44532,1,0,0:0:0:40:
475,192,44558,1,0,0:0:0:40:
36,192,44585,1,0,0:0:0:40:
109,192,44612,1,0,0:0:0:40:
182,192,44639,1,0,0:0:0:40:
329,192,44665,1,0,0:0:0:40:
402,192,44692,1,0,0:0:0:40:
475,192,44719,1,0,0:0:0:60:KickMid.wav
256,192,44719,1,0,0:0:0:60:DeepBassKick.wav
109,192,44719,1,0,0:0:0:60:CymbalFSU.wav
36,192,44719,1,0,0:0:0:0:
402,192,44933,1,0,0:0:0:10:
109,192,44933,1,0,0:0:0:60:KickMid.wav
256,192,44933,1,0,0:0:0:10:
475,192,44933,1,0,0:0:0:10:
329,192,44987,1,0,0:0:0:20:
182,192,45040,1,0,0:0:0:20:
36,192,45094,1,0,0:0:0:20:
402,192,45148,128,0,45255:0:0:0:13:
475,192,45148,128,0,45255:0:0:0:13:
329,192,45148,1,0,0:0:0:60:KickMid.wav
36,192,45255,1,0,0:0:0:60:KickMid.wav
109,192,45255,1,0,0:0:0:20:
182,192,45282,1,0,0:0:0:40:
256,192,45308,1,0,0:0:0:40:
329,192,45335,1,0,0:0:0:40:
402,192,45362,1,0,0:0:0:20:
475,192,45362,1,0,0:0:0:20:
36,192,45469,1,0,0:0:0:60:KickMid.wav
109,192,45469,1,0,0:0:0:13:
256,192,45469,1,0,0:0:0:13:
329,192,45469,1,0,0:0:0:0:
109,192,45576,1,0,0:0:0:13:
182,192,45576,1,0,0:0:0:13:
402,192,45576,1,0,0:0:0:60:KickMid.wav
329,192,45576,128,0,45683:0:0:0:0:
475,192,45683,128,0,45790:0:0:0:20:
36,192,45790,1,0,0:0:0:20:
109,192,45790,1,0,0:0:0:20:
182,192,45898,1,0,0:0:0:20:
256,192,45898,1,0,0:0:0:20:
329,192,46005,128,0,46112:0:0:0:20:
402,192,46005,128,0,46112:0:0:0:20:
109,192,46219,1,0,0:0:0:10:
36,192,46219,1,0,0:0:0:60:KickMid.wav
182,192,46273,1,0,0:0:0:60:KickMid.wav
256,192,46273,1,0,0:0:0:13:
329,192,46326,1,0,0:0:0:60:KickMid.wav
402,192,46326,1,0,0:0:0:13:
475,192,46326,1,0,0:0:0:13:
475,192,46433,1,0,0:0:0:10:
402,192,46433,1,0,0:0:0:60:KickMid.wav
329,192,46487,1,0,0:0:0:60:KickMid.wav
256,192,46487,1,0,0:0:0:13:
182,192,46540,1,0,0:0:0:60:KickMid.wav
109,192,46540,1,0,0:0:0:13:
36,192,46540,1,0,0:0:0:13:
329,192,46648,1,0,0:0:0:60:KickMid.wav
256,192,46648,1,0,0:0:0:0:
402,192,46701,1,0,0:0:0:60:KickMid.wav
475,192,46701,1,0,0:0:0:0:
36,192,46755,1,0,0:0:0:13:
109,192,46755,1,0,0:0:0:60:KickMid.wav
182,192,46782,1,0,0:0:0:40:
256,192,46808,1,0,0:0:0:40:
329,192,46835,1,0,0:0:0:40:
402,192,46862,1,0,0:0:0:60:KickMid.wav
475,192,46862,1,0,0:0:0:10:
256,192,47076,1,0,0:0:0:0:
329,192,47076,1,0,0:0:0:0:
36,192,47076,1,0,0:0:0:0:
402,192,47130,1,0,0:0:0:0:
475,192,47130,1,0,0:0:0:0:
182,192,47183,1,0,0:0:0:0:
109,192,47183,1,0,0:0:0:0:
329,192,47237,1,0,0:0:0:0:
256,192,47237,1,0,0:0:0:0:
402,192,47290,1,0,0:0:0:0:
475,192,47290,1,0,0:0:0:0:
109,192,47344,1,0,0:0:0:0:
36,192,47344,1,0,0:0:0:0:
256,192,47398,1,0,0:0:0:0:
182,192,47398,1,0,0:0:0:0:
329,192,47451,1,0,0:0:0:0:
402,192,47451,1,0,0:0:0:0:
36,192,47505,128,0,47665:0:0:0:8:
109,192,47505,128,0,47665:0:0:0:60:CymbalFSU.wav
182,192,47505,128,0,47665:0:0:0:60:KickMid.wav
475,192,47505,1,0,0:0:0:60:DeepBassKick.wav
329,192,47719,128,0,47880:0:0:0:60:KickMid.wav
402,192,47719,128,0,47880:0:0:0:8:
475,192,47719,128,0,47880:0:0:0:60:DeepBassKick.wav
36,192,47719,1,0,0:0:0:60:CymbalFSU.wav
475,192,47933,1,0,0:0:0:60:DeepBassKick.wav
402,192,47933,1,0,0:0:0:8:
256,192,47933,1,0,0:0:0:60:KickMid.wav
109,192,47933,128,0,48148:0:0:0:60:CymbalFSU.wav
329,192,48040,1,0,0:0:0:40:
402,192,48148,128,0,48362:0:0:0:8:
475,192,48148,1,0,0:0:0:60:CymbalFSU.wav
182,192,48148,1,0,0:0:0:60:KickMid.wav
36,192,48148,1,0,0:0:0:60:DeepBassKick.wav
256,192,48255,1,0,0:0:0:40:
109,192,48362,1,0,0:0:0:60:KickMid.wav
36,192,48362,1,0,0:0:0:8:
329,192,48362,1,0,0:0:0:8:
182,192,48362,1,0,0:0:0:8:
36,192,48469,1,0,0:0:0:20:
109,192,48469,1,0,0:0:0:20:
329,192,48576,1,0,0:0:0:60:KickMid.wav
475,192,48576,1,0,0:0:0:8:
182,192,48576,1,0,0:0:0:8:
402,192,48576,1,0,0:0:0:8:
475,192,48683,1,0,0:0:0:20:
402,192,48683,1,0,0:0:0:20:
329,192,48790,1,0,0:0:0:8:
182,192,48790,128,0,49005:0:0:0:8:
109,192,48790,128,0,49005:0:0:0:60:KickMid.wav
36,192,48790,128,0,49005:0:0:0:8:
256,192,49112,1,0,0:0:0:10:
329,192,49112,1,0,0:0:0:10:
402,192,49112,1,0,0:0:0:60:KickMid.wav
475,192,49112,1,0,0:0:0:10:
402,192,49219,1,0,0:0:0:60:KickMid.wav
329,192,49219,1,0,0:0:0:10:
256,192,49219,1,0,0:0:0:10:
182,192,49219,1,0,0:0:0:10:
329,192,49326,1,0,0:0:0:60:KickMid.wav
256,192,49326,1,0,0:0:0:10:
182,192,49326,1,0,0:0:0:10:
109,192,49326,1,0,0:0:0:10:
256,192,49433,1,0,0:0:0:60:KickMid.wav
109,192,49433,1,0,0:0:0:8:
182,192,49433,1,0,0:0:0:8:
36,192,49433,1,0,0:0:0:8:
329,192,49648,1,0,0:0:0:8:
402,192,49648,1,0,0:0:0:8:
475,192,49648,1,0,0:0:0:8:
182,192,49648,1,0,0:0:0:60:KickMid.wav
182,192,49755,1,0,0:0:0:60:CymbalFSU.wav
109,192,49755,1,0,0:0:0:60:DeepBassKick.wav
36,192,49755,1,0,0:0:0:60:KickMid.wav
329,192,49755,1,0,0:0:0:8:
475,192,49969,1,0,0:0:0:10:
402,192,49969,1,0,0:0:0:10:
329,192,49996,1,0,0:0:0:40:
256,192,50023,1,0,0:0:0:40:
182,192,50049,1,0,0:0:0:40:
109,192,50076,1,0,0:0:0:60:CymbalFSU.wav
36,192,50076,1,0,0:0:0:60:DeepBassKick.wav
402,192,50076,1,0,0:0:0:60:KickMid.wav
475,192,50076,1,0,0:0:0:60:KickMid.wav
36,192,50237,1,0,0:0:0:60:CymbalFSU.wav
182,192,50237,1,0,0:0:0:60:DeepBassKick.wav
329,192,50237,1,0,0:0:0:60:KickMid.wav
475,192,50237,1,0,0:0:0:8:
402,192,50398,1,0,0:0:0:8:
329,192,50398,1,0,0:0:0:60:CymbalFSU.wav
182,192,50398,1,0,0:0:0:60:DeepBassKick.wav
109,192,50398,1,0,0:0:0:60:KickMid.wav
36,192,50505,128,0,50880:0:0:0:60:CymbalFSU.wav
109,192,50505,128,0,50880:0:0:0:60:KickMid.wav
256,192,50505,1,0,0:0:0:60:DeepBassKick.wav
329,192,50505,1,0,0:0:0:8:
402,192,50612,1,0,0:0:0:40:
475,192,50612,1,0,0:0:0:0:
475,192,50719,1,0,0:0:0:40:
402,192,50719,1,0,0:0:0:0:
402,192,50933,1,0,0:0:0:60:CymbalFSU.wav
475,192,50933,1,0,0:0:0:60:KickMid.wav
182,192,50933,128,0,51308:0:0:0:60:DeepBassKick.wav
109,192,50933,128,0,51308:0:0:0:8:
36,192,51362,1,0,0:0:0:60:CymbalFSU.wav
475,192,51362,1,0,0:0:0:60:KickMid.wav
182,192,51362,1,0,0:0:0:60:DeepBassKick.wav
256,192,51362,1,0,0:0:0:8:
402,192,51469,1,0,0:0:0:0:
329,192,51523,1,0,0:0:0:15:
109,192,51523,1,0,0:0:0:15:
256,192,51576,1,0,0:0:0:15:
182,192,51630,1,0,0:0:0:15:
402,192,51630,1,0,0:0:0:15:
109,192,51683,1,0,0:0:0:15:
329,192,51683,1,0,0:0:0:15:
36,192,51737,1,0,0:0:0:15:
182,192,51790,1,0,0:0:0:15:
402,192,51790,1,0,0:0:0:15:
256,192,51844,1,0,0:0:0:15:
475,192,51844,1,0,0:0:0:15:
329,192,51898,1,0,0:0:0:15:
36,192,51898,1,0,0:0:0:15:
402,192,51951,1,0,0:0:0:15:
109,192,51951,1,0,0:0:0:15:
475,192,52005,1,0,0:0:0:15:
182,192,52005,1,0,0:0:0:15:
256,192,52058,1,0,0:0:0:15:
329,192,52112,1,0,0:0:0:15:
402,192,52112,1,0,0:0:0:15:
36,192,52219,1,0,0:0:0:15:
109,192,52219,1,0,0:0:0:15:
182,192,52246,1,0,0:0:0:15:
256,192,52273,1,0,0:0:0:15:
329,192,52299,1,0,0:0:0:15:
402,192,52326,1,0,0:0:0:15:
475,192,52326,1,0,0:0:0:15:
36,192,52433,1,0,0:0:0:15:
182,192,52433,1,0,0:0:0:15:
109,192,52433,1,0,0:0:0:15:
256,192,52487,1,0,0:0:0:0:
329,192,52540,1,0,0:0:0:15:
402,192,52648,1,0,0:0:0:15:
475,192,52648,1,0,0:0:0:15:
329,192,52674,1,0,0:0:0:15:
256,192,52701,1,0,0:0:0:15:
182,192,52728,1,0,0:0:0:15:
109,192,52755,1,0,0:0:0:15:
36,192,52782,1,0,0:0:0:15:
475,192,52808,1,0,0:0:0:15:
402,192,52835,1,0,0:0:0:15:
329,192,52862,1,0,0:0:0:15:
256,192,52862,1,0,0:0:0:15:
182,192,52915,1,0,0:0:0:15:
109,192,52915,1,0,0:0:0:15:
402,192,52969,1,0,0:0:0:15:
475,192,52969,1,0,0:0:0:15:
329,192,53023,1,0,0:0:0:15:
256,192,53076,1,0,0:0:0:15:
182,192,53076,1,0,0:0:0:15:
36,192,53130,1,0,0:0:0:15:
109,192,53183,1,0,0:0:0:15:
329,192,53183,1,0,0:0:0:15:
182,192,53237,1,0,0:0:0:15:
402,192,53237,1,0,0:0:0:15:
256,192,53290,1,0,0:0:0:15:
475,192,53290,1,0,0:0:0:15:
182,192,53398,1,0,0:0:0:15:
36,192,53398,1,0,0:0:0:15:
475,192,53451,1,0,0:0:0:15:
329,192,53451,1,0,0:0:0:15:
36,192,53505,1,0,0:0:0:15:
109,192,53532,1,0,0:0:0:15:
182,192,53558,1,0,0:0:0:15:
256,192,53585,1,0,0:0:0:15:
329,192,53612,1,0,0:0:0:15:
402,192,53612,1,0,0:0:0:15:
475,192,53612,1,0,0:0:0:15:
36,192,53719,1,0,0:0:0:10:
109,192,53719,1,0,0:0:0:10:
182,192,53719,1,0,0:0:0:60:KickMid.wav
329,192,53773,1,0,0:0:0:13:
475,192,53773,1,0,0:0:0:13:
402,192,53773,1,0,0:0:0:60:KickMid.wav
182,192,53826,1,0,0:0:0:10:
109,192,53826,1,0,0:0:0:60:KickMid.wav
36,192,53826,1,0,0:0:0:10:
329,192,54040,1,0,0:0:0:8:
256,192,54040,1,0,0:0:0:8:
36,192,54040,128,0,54362:0:0:0:60:KickMid.wav
182,192,54040,1,0,0:0:0:8:
402,192,54148,1,0,0:0:0:60:KickMid.wav
475,192,54148,1,0,0:0:0:60:CymbalFSU.wav
109,192,54148,128,0,54362:0:0:0:8:
329,192,54148,1,0,0:0:0:60:DeepBassKick.wav
475,192,54362,128,0,54790:0:0:0:8:
329,192,54362,1,0,0:0:0:60:KickMid.wav
256,192,54362,1,0,0:0:0:60:CymbalFSU.wav
182,192,54362,1,0,0:0:0:60:DeepBassKick.wav
402,192,54576,128,0,54790:0:0:0:20:
109,192,54576,1,0,0:0:0:20:
36,192,54790,1,0,0:0:0:60:KickMid.wav
182,192,54790,1,4,0:0:0:30:
256,192,54790,1,0,0:0:0:60:CymbalFSU.wav
329,192,54790,1,0,0:0:0:60:DeepBassKick.wav
475,192,55005,1,0,0:0:0:40:
475,192,55219,1,0,0:0:0:40:
402,192,55433,1,0,0:0:0:40:
329,192,55648,128,8,56076:0:0:0:30:
256,192,55862,128,8,56076:0:0:0:30:
109,192,55969,128,8,56076:0:0:0:30:
182,192,56076,128,8,56505:0:0:0:30:
36,192,56290,128,8,56505:0:0:0:30:
475,192,56505,1,0,0:0:0:20:
109,192,56719,1,0,0:0:0:40:
182,192,56933,128,8,57362:0:0:0:30:
329,192,57148,128,8,57362:0:0:0:30:
402,192,57255,128,8,57362:0:0:0:30:
475,192,57362,1,0,0:0:0:20:
256,192,57576,1,0,0:0:0:40:
109,192,57683,1,0,0:0:0:40:
36,192,57790,128,8,58219:0:0:0:30:
182,192,58005,128,8,58219:0:0:0:30:
329,192,58112,128,8,58219:0:0:0:30:
475,192,58219,1,0,0:0:0:20:
109,192,58433,128,8,58648:0:0:0:30:
475,192,58648,1,0,0:0:0:20:
329,192,58862,128,8,59076:0:0:0:30:
182,192,58969,128,8,59076:0:0:0:30:
475,192,59076,1,0,0:0:0:20:
256,192,59290,128,8,59719:0:0:0:30:
109,192,59505,128,8,59719:0:0:0:30:
329,192,59719,1,0,0:0:0:20:
402,192,59826,1,0,0:0:0:40:
475,192,59933,1,0,0:0:0:10:
182,192,59933,1,0,0:0:0:10:
36,192,59933,1,0,0:0:0:10:
256,192,59933,1,0,0:0:0:60:KickMid.wav
329,192,60040,1,0,0:0:0:40:
182,192,60148,1,0,0:0:0:60:KickMid.wav
109,192,60148,1,0,0:0:0:10:
36,192,60148,1,0,0:0:0:10:
402,192,60148,128,8,60362:0:0:0:30:
256,192,60255,1,0,0:0:0:40:
109,192,60362,1,0,0:0:0:10:
36,192,60362,1,0,0:0:0:10:
329,192,60362,1,0,0:0:0:60:KickMid.wav
475,192,60362,1,0,0:0:0:10:
182,192,60469,1,0,0:0:0:40:
402,192,60469,1,0,0:0:0:0:
36,192,60576,1,0,0:0:0:10:
256,192,60576,1,0,0:0:0:60:KickMid.wav
329,192,60576,1,0,0:0:0:10:
475,192,60576,1,0,0:0:0:10:
182,192,60683,1,0,0:0:0:40:
402,192,60683,1,0,0:0:0:0:
475,192,60790,128,0,61005:0:0:0:60:KickMid.wav
256,192,60790,1,0,0:0:0:60:CymbalFSU.wav
329,192,60790,1,0,0:0:0:60:DeepBassKick.wav
109,192,60790,1,0,0:0:0:8:
36,192,61005,128,0,61219:0:0:0:60:DeepBassKick.wav
256,192,61005,1,0,0:0:0:8:
182,192,61005,1,0,0:0:0:60:CymbalFSU.wav
402,192,61005,1,0,0:0:0:60:KickMid.wav
256,192,61219,128,0,61540:0:0:0:60:DeepBassKick.wav
109,192,61219,1,0,0:0:0:60:CymbalFSU.wav
182,192,61219,1,0,0:0:0:8:
329,192,61219,1,0,0:0:0:60:KickMid.wav
402,192,61219,1,0,0:0:0:8:
475,192,61648,128,0,61862:0:0:0:20:
36,192,61862,128,0,62076:0:0:0:20:
182,192,62076,128,0,62290:0:0:0:20:
329,192,62290,128,0,62505:0:0:0:20:
256,192,62505,128,0,62719:0:0:0:20:
329,192,62719,128,0,62790:0:0:0:20:
402,192,62790,128,0,62862:0:0:0:20:
329,192,62862,128,0,62933:0:0:0:20:
256,192,62933,128,0,63148:0:0:0:20:
182,192,63148,128,0,63362:0:0:0:20:
109,192,63362,1,0,0:0:0:60:CymbalFSU.wav
36,192,63362,1,0,0:0:0:60:DeepBassKick.wav
329,192,63362,1,0,0:0:0:60:KickMid.wav
402,192,63362,1,0,0:0:0:8:
256,192,63469,1,0,0:0:0:20:
182,192,63576,1,0,0:0:0:60:DeepBassKick.wav
109,192,63576,1,0,0:0:0:60:CymbalFSU.wav
402,192,63576,1,0,0:0:0:8:
475,192,63576,1,0,0:0:0:60:KickMid.wav
329,192,63683,1,0,0:0:0:20:
256,192,63790,1,0,0:0:0:60:DeepBassKick.wav
475,192,63790,1,0,0:0:0:60:KickMid.wav
36,192,63790,1,0,0:0:0:60:CymbalFSU.wav
402,192,63790,1,0,0:0:0:8:
182,192,63898,1,0,0:0:0:20:
256,192,63951,1,0,0:0:0:40:
475,192,64005,1,0,0:0:0:60:KickMid.wav
329,192,64005,1,0,0:0:0:60:DeepBassKick.wav
36,192,64005,1,0,0:0:0:60:CymbalFSU.wav
109,192,64005,1,0,0:0:0:8:
402,192,64112,1,0,0:0:0:20:
329,192,64165,1,0,0:0:0:40:
36,192,64219,1,0,0:0:0:60:DeepBassKick.wav
256,192,64219,1,0,0:0:0:60:CymbalFSU.wav
109,192,64219,1,0,0:0:0:60:KickMid.wav
182,192,64219,1,0,0:0:0:8:
329,192,64326,1,0,0:0:0:20:
402,192,64326,1,0,0:0:0:20:
182,192,64380,1,0,0:0:0:20:
109,192,64380,1,0,0:0:0:20:
329,192,64433,1,0,0:0:0:20:
402,192,64433,1,0,0:0:0:20:
36,192,64540,1,0,0:0:0:20:
182,192,64540,1,0,0:0:0:20:
256,192,64648,1,0,0:0:0:8:
329,192,64648,1,0,0:0:0:8:
475,192,64648,1,0,0:0:0:8:
109,192,64648,1,0,0:0:0:60:KickMid.wav
475,192,64755,1,0,0:0:0:20:
402,192,64755,1,0,0:0:0:20:
329,192,64808,1,0,0:0:0:20:
256,192,64808,1,0,0:0:0:20:
36,192,64862,1,0,0:0:0:13:
109,192,64880,1,0,0:0:0:0:
182,192,64898,1,0,0:0:0:0:
256,192,64915,1,0,0:0:0:40:
329,192,64933,1,0,0:0:0:20:
402,192,64933,1,0,0:0:0:20:
475,192,64933,1,0,0:0:0:0:
182,192,65005,1,0,0:0:0:20:
109,192,65005,1,0,0:0:0:20:
36,192,65005,1,0,0:0:0:0:
475,192,65076,1,0,0:0:0:60:CymbalFSU.wav
402,192,65076,1,0,0:0:0:60:KickMid.wav
329,192,65076,1,0,0:0:0:8:
256,192,65076,1,0,0:0:0:60:DeepBassKick.wav
36,192,65219,1,0,0:0:0:20:
109,192,65219,1,0,0:0:0:20:
182,192,65290,1,0,0:0:0:60:KickMid.wav
256,192,65290,1,0,0:0:0:60:DeepBassKick.wav
329,192,65290,1,0,0:0:0:8:
402,192,65290,1,0,0:0:0:60:CymbalFSU.wav
475,192,65433,1,0,0:0:0:20:
36,192,65433,1,0,0:0:0:20:
109,192,65505,1,0,0:0:0:60:DeepBassKick.wav
182,192,65505,1,0,0:0:0:60:CymbalFSU.wav
256,192,65505,1,0,0:0:0:8:
329,192,65505,1,0,0:0:0:60:KickMid.wav
402,192,65648,1,0,0:0:0:20:
475,192,65648,1,0,0:0:0:20:
182,192,65719,1,0,0:0:0:60:DeepBassKick.wav
109,192,65719,1,0,0:0:0:8:
36,192,65719,1,0,0:0:0:60:CymbalFSU.wav
256,192,65719,1,0,0:0:0:60:KickMid.wav
329,192,65862,1,0,0:0:0:20:
402,192,65862,1,0,0:0:0:20:
182,192,65933,1,0,0:0:0:60:KickMid.wav
36,192,65933,1,0,0:0:0:60:CymbalFSU.wav
109,192,65933,1,0,0:0:0:60:DeepBassKick.wav
475,192,65933,1,0,0:0:0:8:
329,192,66076,1,0,0:0:0:20:
256,192,66076,1,0,0:0:0:20:
475,192,66148,1,0,0:0:0:8:
36,192,66148,1,0,0:0:0:60:CymbalFSU.wav
402,192,66148,1,0,0:0:0:60:DeepBassKick.wav
109,192,66148,1,0,0:0:0:60:KickMid.wav
182,192,66290,1,0,0:0:0:20:
256,192,66290,1,0,0:0:0:20:
402,192,66362,1,0,0:0:0:60:DeepBassKick.wav
475,192,66362,1,0,0:0:0:60:KickMid.wav
329,192,66362,1,0,0:0:0:60:CymbalFSU.wav
36,192,66362,1,0,0:0:0:8:
182,192,66505,1,0,0:0:0:20:
109,192,66505,1,0,0:0:0:20:
402,192,66576,1,0,0:0:0:60:KickMid.wav
256,192,66576,1,0,0:0:0:8:
475,192,66576,1,0,0:0:0:60:CymbalFSU.wav
329,192,66576,1,0,0:0:0:60:DeepBassKick.wav
36,192,66719,1,0,0:0:0:20:
109,192,66719,1,0,0:0:0:20:
256,192,66790,1,0,0:0:0:8:
329,192,66790,1,0,0:0:0:8:
402,192,66790,1,0,0:0:0:60:KickMid.wav
475,192,66790,1,0,0:0:0:8:
402,192,67005,1,0,0:0:0:8:
329,192,67005,1,0,0:0:0:8:
256,192,67005,1,0,0:0:0:60:KickMid.wav
182,192,67005,1,0,0:0:0:8:
329,192,67219,1,0,0:0:0:8:
256,192,67219,1,0,0:0:0:8:
182,192,67219,1,0,0:0:0:60:KickMid.wav
109,192,67219,1,0,0:0:0:8:
256,192,67433,1,0,0:0:0:8:
182,192,67433,1,0,0:0:0:60:KickMid.wav
109,192,67433,1,0,0:0:0:8:
36,192,67433,1,0,0:0:0:8:
109,192,67648,128,0,68076:0:0:0:6:
36,192,67648,128,0,68076:0:0:0:6:
402,192,67648,128,0,68076:0:0:0:60:KickMid.wav
475,192,67648,128,0,68076:0:0:0:6:
256,192,68076,1,0,0:0:0:13:
182,192,68076,1,0,0:0:0:13:
329,192,68130,1,0,0:0:0:40:
182,192,68183,1,0,0:0:0:40:
329,192,68237,1,0,0:0:0:40:
182,192,68290,1,0,0:0:0:20:
329,192,68344,1,0,0:0:0:20:
182,192,68398,1,0,0:0:0:20:
329,192,68451,1,0,0:0:0:20:
182,192,68505,1,0,0:0:0:60:CymbalFSU.wav
109,192,68505,1,0,0:0:0:60:DeepBassKick.wav
36,192,68505,1,0,0:0:0:60:KickMid.wav
475,192,68505,1,0,0:0:0:0:
475,192,68612,1,0,0:0:0:13:
402,192,68612,1,0,0:0:0:13:
329,192,68665,1,0,0:0:0:40:
109,192,68719,1,0,0:0:0:13:
36,192,68719,1,0,0:0:0:13:
182,192,68773,1,0,0:0:0:40:
402,192,68826,1,0,0:0:0:13:
329,192,68826,1,0,0:0:0:13:
256,192,68880,1,0,0:0:0:40:
36,192,68933,1,0,0:0:0:60:KickMid.wav
475,192,68933,1,0,0:0:0:10:
402,192,68933,1,0,0:0:0:10:
109,192,68933,1,0,0:0:0:10:
109,192,69040,1,0,0:0:0:10:
36,192,69040,1,0,0:0:0:10:
402,192,69040,1,0,0:0:0:10:
475,192,69040,1,0,0:0:0:60:KickMid.wav
36,192,69148,1,0,0:0:0:60:DeepBassKick.wav
109,192,69148,1,0,0:0:0:60:CymbalFSU.wav
402,192,69148,1,0,0:0:0:10:
475,192,69148,1,0,0:0:0:60:KickMid.wav
475,192,69362,1,0,0:0:0:60:CymbalFSU.wav
402,192,69362,1,0,0:0:0:10:
256,192,69362,1,0,0:0:0:60:KickMid.wav
182,192,69362,1,0,0:0:0:60:DeepBassKick.wav
109,192,69469,1,0,0:0:0:20:
36,192,69576,1,0,0:0:0:60:KickMid.wav
182,192,69576,1,0,0:0:0:13:
329,192,69576,1,0,0:0:0:13:
109,192,69683,1,0,0:0:0:8:
256,192,69683,1,0,0:0:0:60:CymbalFSU.wav
36,192,69683,1,0,0:0:0:60:DeepBassKick.wav
329,192,69683,1,0,0:0:0:60:KickMid.wav
402,192,69790,1,0,0:0:0:20:
329,192,69898,1,0,0:0:0:60:KickMid.wav
475,192,69898,1,0,0:0:0:13:
182,192,69898,1,0,0:0:0:13:
36,192,70005,1,0,0:0:0:10:
402,192,70005,1,0,0:0:0:60:KickMid.wav
109,192,70032,1,0,0:0:0:40:
182,192,70058,1,0,0:0:0:30:
256,192,70085,1,0,0:0:0:40:
329,192,70112,1,0,0:0:0:13:
36,192,70112,1,0,0:0:0:13:
402,192,70139,1,0,0:0:0:40:
475,192,70165,1,0,0:0:0:40:
109,192,70219,1,0,0:0:0:60:KickMid.wav
182,192,70219,1,0,0:0:0:13:
256,192,70246,1,0,0:0:0:40:
329,192,70273,1,0,0:0:0:40:
402,192,70299,1,0,0:0:0:40:
475,192,70326,1,0,0:0:0:13:
36,192,70326,1,0,0:0:0:60:KickMid.wav
182,192,70380,1,0,0:0:0:20:
256,192,70380,1,0,0:0:0:20:
109,192,70433,1,0,0:0:0:13:
402,192,70433,1,0,0:0:0:13:
329,192,70433,1,0,0:0:0:60:KickMid.wav
256,192,70540,1,0,0:0:0:60:DeepBassKick.wav
182,192,70540,1,0,0:0:0:8:
36,192,70540,1,0,0:0:0:60:CymbalFSU.wav
475,192,70540,1,0,0:0:0:60:KickMid.wav
402,192,70755,1,0,0:0:0:20:
475,192,70755,1,0,0:0:0:60:KickMid.wav
329,192,70782,1,0,0:0:0:40:
256,192,70808,1,0,0:0:0:40:
182,192,70835,1,0,0:0:0:40:
109,192,70862,1,0,0:0:0:10:
36,192,70862,1,0,0:0:0:10:
402,192,70862,1,0,0:0:0:60:KickMid.wav
475,192,70862,128,0,71076:0:0:0:10:
329,192,71076,1,0,0:0:0:60:KickMid.wav
36,192,71076,1,0,0:0:0:60:CymbalFSU.wav
256,192,71076,1,0,0:0:0:60:DeepBassKick.wav
109,192,71076,1,0,0:0:0:8:
182,192,71183,1,0,0:0:0:20:
402,192,71183,1,0,0:0:0:20:
329,192,71290,1,0,0:0:0:60:KickMid.wav
256,192,71290,1,0,0:0:0:60:CymbalFSU.wav
36,192,71290,1,0,0:0:0:60:DeepBassKick.wav
475,192,71290,1,0,0:0:0:8:
182,192,71398,1,0,0:0:0:20:
109,192,71398,1,0,0:0:0:20:
475,192,71505,1,0,0:0:0:10:
256,192,71505,1,0,0:0:0:10:
402,192,71505,1,0,0:0:0:60:KickMid.wav
329,192,71558,1,0,0:0:0:20:
182,192,71558,1,0,0:0:0:20:
256,192,71612,1,0,0:0:0:60:CymbalFSU.wav
109,192,71612,1,0,0:0:0:60:KickMid.wav
36,192,71612,1,0,0:0:0:60:DeepBassKick.wav
475,192,71612,1,0,0:0:0:8:
329,192,71719,1,0,0:0:0:20:
402,192,71719,1,0,0:0:0:20:
36,192,71826,1,0,0:0:0:60:KickMid.wav
109,192,71826,1,0,0:0:0:10:
256,192,71826,1,0,0:0:0:10:
182,192,71880,1,0,0:0:0:20:
329,192,71880,1,0,0:0:0:20:
256,192,71933,1,0,0:0:0:60:DeepBassKick.wav
402,192,71933,1,0,0:0:0:60:CymbalFSU.wav
36,192,71933,1,0,0:0:0:60:KickMid.wav
475,192,71933,128,0,72308:0:0:0:8:
182,192,72094,1,0,0:0:0:13:
109,192,72094,1,0,0:0:0:13:
182,192,72201,1,0,0:0:0:13:
109,192,72201,1,0,0:0:0:13:
36,192,72362,128,0,72737:0:0:0:60:KickMid.wav
182,192,72362,1,0,0:0:0:60:CymbalFSU.wav
256,192,72362,1,0,0:0:0:60:DeepBassKick.wav
402,192,72362,1,0,0:0:0:8:
329,192,72469,1,0,0:0:0:20:
475,192,72469,1,0,0:0:0:20:
256,192,72523,1,0,0:0:0:13:
109,192,72523,1,0,0:0:0:13:
36,192,72790,1,0,0:0:0:60:CymbalFSU.wav
109,192,72790,1,0,0:0:0:60:DeepBassKick.wav
182,192,72790,1,0,0:0:0:60:KickMid.wav
402,192,72790,1,0,0:0:0:8:
329,192,72898,1,0,0:0:0:40:
182,192,73005,1,0,0:0:0:60:KickMid.wav
109,192,73005,1,0,0:0:0:8:
36,192,73005,1,0,0:0:0:8:
475,192,73005,1,0,0:0:0:8:
36,192,73112,1,0,0:0:0:60:CymbalFSU.wav
329,192,73112,1,0,0:0:0:60:DeepBassKick.wav
402,192,73112,1,0,0:0:0:8:
475,192,73112,1,0,0:0:0:60:KickMid.wav
182,192,73219,1,0,0:0:0:40:
109,192,73326,1,0,0:0:0:8:
329,192,73326,1,0,0:0:0:8:
402,192,73326,1,0,0:0:0:8:
475,192,73326,1,0,0:0:0:60:KickMid.wav
182,192,73433,1,0,0:0:0:60:KickMid.wav
256,192,73433,1,0,0:0:0:20:
329,192,73460,1,0,0:0:0:0:
402,192,73487,1,0,0:0:0:40:
475,192,73514,1,0,0:0:0:0:
109,192,73540,1,0,0:0:0:20:
182,192,73540,1,0,0:0:0:20:
256,192,73567,1,0,0:0:0:0:
329,192,73594,1,0,0:0:0:40:
36,192,73648,1,0,0:0:0:13:
109,192,73648,1,0,0:0:0:13:
182,192,73674,1,0,0:0:0:40:
256,192,73701,1,0,0:0:0:40:
329,192,73728,1,0,0:0:0:40:
402,192,73755,1,0,0:0:0:20:
475,192,73755,1,0,0:0:0:20:
109,192,73808,1,0,0:0:0:20:
36,192,73808,1,0,0:0:0:20:
402,192,73862,1,0,0:0:0:60:KickMid.wav
475,192,73862,1,0,0:0:0:13:
329,192,73969,1,0,0:0:0:60:CymbalFSU.wav
182,192,73969,1,0,0:0:0:8:
36,192,73969,1,0,0:0:0:60:DeepBassKick.wav
109,192,73969,1,0,0:0:0:60:KickMid.wav
475,192,74183,1,0,0:0:0:60:KickMid.wav
402,192,74183,1,0,0:0:0:13:
329,192,74210,1,0,0:0:0:40:
256,192,74237,1,0,0:0:0:20:
182,192,74264,1,0,0:0:0:40:
109,192,74290,1,0,0:0:0:20:
36,192,74290,128,0,74398:0:0:0:20:
36,192,74505,1,0,0:0:0:60:KickMid.wav
109,192,74505,1,0,0:0:0:8:
256,192,74505,1,0,0:0:0:60:CymbalFSU.wav
402,192,74505,1,0,0:0:0:60:DeepBassKick.wav
182,192,74612,1,0,0:0:0:40:
109,192,74719,1,0,0:0:0:60:CymbalFSU.wav
256,192,74719,1,0,0:0:0:60:KickMid.wav
402,192,74719,1,0,0:0:0:8:
475,192,74719,1,0,0:0:0:60:DeepBassKick.wav
329,192,74826,1,0,0:0:0:40:
475,192,74933,1,0,0:0:0:60:KickMid.wav
109,192,74933,1,0,0:0:0:13:
36,192,74933,1,0,0:0:0:13:
402,192,74933,1,0,0:0:0:0:
182,192,74987,1,0,0:0:0:20:
329,192,74987,1,0,0:0:0:20:
475,192,75040,1,0,0:0:0:8:
36,192,75040,1,0,0:0:0:60:KickMid.wav
402,192,75040,1,0,0:0:0:60:DeepBassKick.wav
109,192,75040,1,0,0:0:0:60:CymbalFSU.wav
256,192,75040,1,0,0:0:0:0:
109,192,75255,1,0,0:0:0:60:KickMid.wav
402,192,75255,1,0,0:0:0:20:
182,192,75255,1,0,0:0:0:0:
329,192,75255,1,0,0:0:0:0:
182,192,75362,1,0,0:0:0:8:
36,192,75362,1,0,0:0:0:60:KickMid.wav
256,192,75362,1,0,0:0:0:60:DeepBassKick.wav
329,192,75362,1,0,0:0:0:60:CymbalFSU.wav
475,192,75362,1,0,0:0:0:8:
329,192,75576,1,0,0:0:0:20:
402,192,75683,1,0,0:0:0:20:
475,192,75790,1,0,0:0:0:13:
182,192,75790,1,0,0:0:0:13:
109,192,76005,1,0,0:0:0:13:
402,192,76005,1,0,0:0:0:13:
329,192,76219,1,0,0:0:0:60:KickMid.wav
256,192,76219,1,8,0:0:0:50:
36,192,76219,1,0,0:0:0:8:
475,192,76433,1,0,0:0:0:20:
182,192,76648,1,4,0:0:0:30:
109,192,76648,1,0,0:0:0:8:
475,192,76648,1,0,0:0:0:8:
402,192,76862,1,0,0:0:0:20:
329,192,77076,1,0,0:0:0:8:
109,192,77076,1,8,0:0:0:30:
36,192,77076,1,0,0:0:0:8:
256,192,77290,1,0,0:0:0:20:
109,192,77398,1,0,0:0:0:20:
182,192,77505,1,4,0:0:0:50:
402,192,77505,1,0,0:0:0:8:
475,192,77505,1,0,0:0:0:8:
36,192,77719,1,0,0:0:0:20:
182,192,77933,1,0,0:0:0:8:
256,192,77933,1,0,0:0:0:8:
475,192,77933,1,8,0:0:0:50:
36,192,78148,1,0,0:0:0:20:
182,192,78362,1,0,0:0:0:8:
402,192,78362,1,4,0:0:0:50:
329,192,78362,1,0,0:0:0:8:
256,192,78576,1,0,0:0:0:20:
329,192,78683,1,0,0:0:0:20:
402,192,78790,1,0,0:0:0:8:
182,192,78790,1,8,0:0:0:30:
36,192,78790,1,0,0:0:0:8:
329,192,79005,1,0,0:0:0:20:
256,192,79112,1,0,0:0:0:20:
182,192,79219,1,0,0:0:0:8:
109,192,79219,1,4,0:0:0:50:
36,192,79219,1,0,0:0:0:8:
256,192,79433,1,0,0:0:0:20:
329,192,79540,1,0,0:0:0:20:
402,192,79648,1,0,0:0:0:8:
182,192,79648,1,0,0:0:0:8:
109,192,79648,1,8,0:0:0:50:
256,192,79862,1,0,0:0:0:20:
402,192,80076,1,0,0:0:0:8:
36,192,80076,1,4,0:0:0:50:
182,192,80076,1,0,0:0:0:8:
475,192,80290,1,0,0:0:0:20:
402,192,80398,1,0,0:0:0:20:
329,192,80505,1,8,0:0:0:50:
256,192,80505,1,0,0:0:0:8:
109,192,80505,1,0,0:0:0:8:
402,192,80719,1,0,0:0:0:20:
256,192,80933,1,4,0:0:0:50:
182,192,80933,1,0,0:0:0:8:
36,192,80933,1,0,0:0:0:8:
329,192,81148,1,0,0:0:0:20:
402,192,81255,1,0,0:0:0:20:
475,192,81362,1,0,0:0:0:60:KickMid.wav
256,192,81362,1,0,0:0:0:8:
182,192,81362,1,0,0:0:0:60:DeepBassKick.wav
36,192,81362,1,0,0:0:0:60:CymbalFSU.wav
475,192,81576,1,0,0:0:0:60:CymbalFSU.wav
402,192,81576,1,0,0:0:0:60:KickMid.wav
256,192,81576,1,0,0:0:0:8:
182,192,81576,1,0,0:0:0:60:DeepBassKick.wav
402,192,81683,1,0,0:0:0:60:DeepBassKick.wav
475,192,81683,1,0,0:0:0:60:CymbalFSU.wav
109,192,81683,1,0,0:0:0:60:KickMid.wav
36,192,81683,1,0,0:0:0:8:
256,192,81862,1,0,0:0:0:8:
402,192,81862,1,0,0:0:0:60:KickMid.wav
329,192,81862,1,0,0:0:0:8:
109,192,81933,1,0,0:0:0:13:
36,192,81933,1,0,0:0:0:13:
182,192,81933,1,0,0:0:0:60:KickMid.wav
329,192,82005,1,0,0:0:0:60:KickMid.wav
475,192,82005,1,0,0:0:0:13:
402,192,82005,1,0,0:0:0:13:
256,192,82076,1,0,0:0:0:13:
182,192,82076,1,0,0:0:0:60:KickMid.wav
109,192,82076,1,0,0:0:0:13:
329,192,82148,1,0,0:0:0:13:
475,192,82148,1,0,0:0:0:13:
402,192,82148,1,0,0:0:0:60:KickMid.wav
256,192,82219,1,0,0:0:0:8:
109,192,82219,1,0,0:0:0:60:DeepBassKick.wav
36,192,82219,1,0,0:0:0:60:KickMid.wav
182,192,82219,1,0,0:0:0:60:CymbalFSU.wav
182,192,82362,1,0,0:0:0:60:KickMid.wav
109,192,82362,1,0,0:0:0:8:
36,192,82362,1,0,0:0:0:8:
256,192,82433,1,0,0:0:0:8:
329,192,82433,1,0,0:0:0:60:KickMid.wav
475,192,82433,1,0,0:0:0:60:DeepBassKick.wav
402,192,82433,1,0,0:0:0:60:CymbalFSU.wav
182,192,82540,1,0,0:0:0:20:
109,192,82648,1,0,0:0:0:60:KickMid.wav
36,192,82648,1,0,0:0:0:8:
402,192,82648,1,0,0:0:0:60:CymbalFSU.wav
475,192,82648,1,0,0:0:0:60:DeepBassKick.wav
475,192,82862,1,0,0:0:0:60:KickMid.wav
402,192,82862,1,0,0:0:0:10:
329,192,82862,1,0,0:0:0:10:
182,192,82915,1,0,0:0:0:60:KickMid.wav
109,192,82915,1,0,0:0:0:13:
329,192,82969,1,0,0:0:0:60:KickMid.wav
402,192,82969,1,0,0:0:0:13:
182,192,83023,1,0,0:0:0:60:KickMid.wav
109,192,83023,1,0,0:0:0:13:
402,192,83076,1,0,0:0:0:60:KickMid.wav
475,192,83076,1,0,0:0:0:60:CymbalFSU.wav
256,192,83076,1,0,0:0:0:10:
329,192,83076,1,0,0:0:0:60:DeepBassKick.wav
109,192,83183,1,0,0:0:0:20:
36,192,83183,1,0,0:0:0:20:
329,192,83290,1,0,0:0:0:8:
402,192,83290,1,0,0:0:0:60:KickMid.wav
475,192,83290,1,0,0:0:0:8:
182,192,83398,1,0,0:0:0:20:
109,192,83398,1,0,0:0:0:20:
36,192,83505,1,0,0:0:0:8:
402,192,83505,1,0,0:0:0:60:KickMid.wav
475,192,83505,1,0,0:0:0:8:
256,192,83612,1,0,0:0:0:20:
182,192,83612,1,0,0:0:0:20:
109,192,83719,1,0,0:0:0:60:KickMid.wav
36,192,83719,1,0,0:0:0:8:
475,192,83719,1,0,0:0:0:8:
329,192,83826,1,0,0:0:0:20:
256,192,83826,1,0,0:0:0:20:
36,192,83933,128,0,84362:0:0:0:10:
475,192,83933,1,0,0:0:0:10:
109,192,84148,128,0,84362:0:0:0:10:
402,192,84148,1,0,0:0:0:10:
182,192,84255,128,0,84362:0:0:0:10:
329,192,84255,1,0,0:0:0:10:
256,192,84362,1,0,0:0:0:10:
475,192,84362,1,0,0:0:0:10:
256,192,84576,1,0,0:0:0:10:
36,192,84576,1,0,0:0:0:10:
36,192,84790,1,0,0:0:0:60:KickMid.wav
109,192,84790,1,0,0:0:0:60:DeepBassKick.wav
475,192,84790,1,0,0:0:0:60:CymbalFSU.wav
182,192,84817,1,0,0:0:0:0:
256,192,84844,1,0,0:0:0:0:
329,192,84871,1,0,0:0:0:0:
402,192,84898,1,0,0:0:0:20:
36,192,85005,1,0,0:0:0:60:KickMid.wav
182,192,85005,1,0,0:0:0:8:
475,192,85005,1,0,0:0:0:8:
256,192,85005,1,0,0:0:0:8:
329,192,85112,1,0,0:0:0:20:
402,192,85112,1,0,0:0:0:20:
475,192,85219,128,0,85433:0:0:0:60:KickMid.wav
109,192,85219,1,0,0:0:0:8:
36,192,85219,1,0,0:0:0:8:
402,192,85326,1,0,0:0:0:60:KickMid.wav
329,192,85326,1,0,0:0:0:20:
109,192,85380,1,0,0:0:0:60:KickMid.wav
182,192,85380,1,0,0:0:0:0:
329,192,85433,128,0,85648:0:0:0:10:
402,192,85433,1,0,0:0:0:60:KickMid.wav
256,192,85433,1,0,0:0:0:10:
109,192,85540,1,0,0:0:0:13:
36,192,85540,1,0,0:0:0:60:KickMid.wav
182,192,85594,1,0,0:0:0:60:KickMid.wav
256,192,85594,1,0,0:0:0:0:
109,192,85648,1,0,0:0:0:8:
36,192,85648,1,0,0:0:0:60:KickMid.wav
402,192,85648,1,0,0:0:0:60:DeepBassKick.wav
475,192,85648,1,0,0:0:0:60:CymbalFSU.wav
109,192,85808,1,0,0:0:0:8:
36,192,85808,1,0,0:0:0:60:DeepBassKick.wav
402,192,85808,1,0,0:0:0:60:KickMid.wav
475,192,85808,1,0,0:0:0:60:CymbalFSU.wav
402,192,85969,1,0,0:0:0:60:CymbalFSU.wav
329,192,85969,1,0,0:0:0:60:DeepBassKick.wav
182,192,85969,1,0,0:0:0:60:KickMid.wav
109,192,85969,1,0,0:0:0:8:
182,192,86076,1,0,0:0:0:60:CymbalFSU.wav
109,192,86076,1,0,0:0:0:8:
329,192,86076,1,0,0:0:0:60:DeepBassKick.wav
402,192,86076,1,0,0:0:0:60:KickMid.wav
402,192,86183,1,0,0:0:0:60:CymbalFSU.wav
329,192,86183,1,0,0:0:0:60:DeepBassKick.wav
182,192,86183,1,0,0:0:0:8:
109,192,86183,1,0,0:0:0:60:KickMid.wav
402,192,86290,1,0,0:0:0:8:
475,192,86290,1,0,0:0:0:8:
256,192,86290,1,0,0:0:0:60:KickMid.wav
329,192,86344,1,0,0:0:0:20:
182,192,86398,1,0,0:0:0:10:
109,192,86398,1,0,0:0:0:10:
36,192,86398,1,0,0:0:0:60:KickMid.wav
256,192,86424,1,0,0:0:0:40:
329,192,86451,1,0,0:0:0:40:
402,192,86478,1,0,0:0:0:40:
475,192,86505,1,0,0:0:0:60:KickMid.wav
182,192,86505,1,0,0:0:0:60:DeepBassKick.wav
109,192,86505,1,0,0:0:0:8:
36,192,86505,1,0,0:0:0:60:CymbalFSU.wav
256,192,86612,1,0,0:0:0:20:
36,192,86719,128,0,86933:0:0:0:13:
329,192,86719,1,0,0:0:0:13:
402,192,86719,1,0,0:0:0:13:
402,192,86826,1,0,0:0:0:13:
329,192,86826,1,0,0:0:0:13:
182,192,86933,128,0,87148:0:0:0:10:
329,192,86933,1,0,0:0:0:10:
402,192,86933,1,0,0:0:0:10:
475,192,87148,128,0,87362:0:0:0:10:
256,192,87148,1,0,0:0:0:10:
109,192,87148,1,0,0:0:0:60:KickMid.wav
36,192,87148,1,0,0:0:0:10:
329,192,87255,128,0,87362:0:0:0:10:
256,192,87362,128,0,87576:0:0:0:10:
182,192,87362,1,0,0:0:0:60:KickMid.wav
109,192,87362,1,0,0:0:0:10:
402,192,87362,1,0,0:0:0:10:
329,192,87469,1,0,0:0:0:13:
475,192,87469,1,0,0:0:0:13:
182,192,87523,1,0,0:0:0:20:
36,192,87523,1,0,0:0:0:20:
402,192,87576,128,0,87790:0:0:0:13:
329,192,87576,1,0,0:0:0:13:
36,192,87790,1,0,0:0:0:60:KickMid.wav
329,192,87790,1,0,0:0:0:10:
475,192,87790,1,0,0:0:0:10:
109,192,87817,1,0,0:0:0:40:
182,192,87844,1,0,0:0:0:40:
256,192,87871,1,0,0:0:0:40:
329,192,87898,1,0,0:0:0:40:
402,192,87924,1,0,0:0:0:40:
475,192,87951,1,0,0:0:0:40:
36,192,88005,1,0,0:0:0:20:
109,192,88023,1,0,0:0:0:0:
182,192,88040,1,0,0:0:0:0:
256,192,88058,1,0,0:0:0:40:
329,192,88076,1,0,0:0:0:0:
402,192,88094,1,0,0:0:0:0:
475,192,88112,1,0,0:0:0:40:
36,192,88130,1,0,0:0:0:0:
109,192,88148,1,0,0:0:0:0:
182,192,88165,1,0,0:0:0:40:
256,192,88219,1,0,0:0:0:60:DeepBassKick.wav
329,192,88219,1,0,0:0:0:60:KickMid.wav
402,192,88219,1,0,0:0:0:60:CymbalFSU.wav
475,192,88219,1,0,0:0:0:10:
109,192,88326,1,0,0:0:0:20:
36,192,88326,1,0,0:0:0:20:
182,192,88433,1,0,0:0:0:60:CymbalFSU.wav
256,192,88433,1,0,0:0:0:8:
329,192,88433,1,0,0:0:0:60:KickMid.wav
402,192,88433,1,0,0:0:0:60:DeepBassKick.wav
475,192,88540,1,0,0:0:0:20:
109,192,88540,1,0,0:0:0:20:
329,192,88648,128,0,88755:0:0:0:10:
36,192,88648,1,0,0:0:0:60:KickMid.wav
256,192,88648,1,0,0:0:0:10:
475,192,88755,128,0,88862:0:0:0:60:KickMid.wav
182,192,88755,1,0,0:0:0:10:
402,192,88755,1,0,0:0:0:10:
36,192,88862,128,0,88969:0:0:0:10:
329,192,88862,1,0,0:0:0:60:KickMid.wav
109,192,88862,1,0,0:0:0:10:
256,192,88969,1,0,0:0:0:60:KickMid.wav
182,192,88969,128,0,89076:0:0:0:10:
475,192,88969,1,0,0:0:0:10:
329,192,89076,1,0,0:0:0:60:KickMid.wav
402,192,89076,1,0,0:0:0:60:DeepBassKick.wav
109,192,89076,1,0,0:0:0:60:CymbalFSU.wav
36,192,89076,1,0,0:0:0:8:
109,192,89290,1,0,0:0:0:8:
182,192,89290,1,0,0:0:0:60:KickMid.wav
402,192,89290,1,0,0:0:0:60:CymbalFSU.wav
475,192,89290,1,0,0:0:0:60:DeepBassKick.wav
36,192,89505,1,0,0:0:0:60:CymbalFSU.wav
109,192,89505,1,0,0:0:0:60:KickMid.wav
402,192,89505,1,0,0:0:0:60:DeepBassKick.wav
475,192,89505,1,0,0:0:0:8:
182,192,89558,1,0,0:0:0:20:
256,192,89612,1,0,0:0:0:20:
329,192,89665,1,0,0:0:0:20:
475,192,89719,1,0,0:0:0:13:
402,192,89719,1,0,0:0:0:13:
109,192,89773,1,0,0:0:0:13:
36,192,89773,1,0,0:0:0:13:
402,192,89826,1,0,0:0:0:13:
475,192,89826,1,0,0:0:0:13:
109,192,89880,1,0,0:0:0:13:
36,192,89880,1,0,0:0:0:13:
475,192,89933,128,0,90790:0:0:0:13:
329,192,89933,1,0,0:0:0:13:
402,192,89933,1,0,0:0:0:13:
256,192,90040,1,0,0:0:0:20:
402,192,90148,1,0,0:0:0:20:
329,192,90148,1,0,0:0:0:20:
182,192,90255,1,0,0:0:0:20:
329,192,90362,1,0,0:0:0:20:
402,192,90362,1,0,0:0:0:20:
109,192,90469,1,0,0:0:0:20:
329,192,90576,1,0,0:0:0:20:
402,192,90576,1,0,0:0:0:20:
36,192,90683,1,0,0:0:0:20:
256,192,90790,128,0,90844:0:0:0:8:
182,192,90790,128,0,90844:0:0:0:8:
329,192,90898,128,0,90951:0:0:0:10:
402,192,90898,128,0,90951:0:0:0:10:
182,192,91005,128,0,91058:0:0:0:8:
109,192,91005,128,0,91058:0:0:0:8:
36,192,91005,128,0,91058:0:0:0:8:
329,192,91112,128,0,91165:0:0:0:10:
402,192,91112,128,0,91165:0:0:0:10:
182,192,91219,128,0,91273:0:0:0:8:
109,192,91219,128,0,91273:0:0:0:8:
36,192,91219,128,0,91273:0:0:0:8:
402,192,91326,128,0,91380:0:0:0:10:
329,192,91326,128,0,91380:0:0:0:10:
36,192,91433,128,0,91487:0:0:0:8:
109,192,91433,128,0,91487:0:0:0:8:
182,192,91433,128,0,91487:0:0:0:8:
329,192,91540,128,0,91594:0:0:0:10:
402,192,91540,128,0,91594:0:0:0:10:
256,192,91648,1,0,0:0:0:8:
182,192,91648,1,0,0:0:0:8:
109,192,91648,1,0,0:0:0:8:
36,192,91648,1,0,0:0:0:60:KickMid.wav
329,192,91755,1,0,0:0:0:8:
402,192,91755,1,0,0:0:0:8:
475,192,91755,128,0,92076:0:0:0:8:
256,192,92076,1,0,0:0:0:8:
182,192,92076,1,0,0:0:0:8:
109,192,92076,1,0,0:0:0:8:
36,192,92076,1,0,0:0:0:60:KickMid.wav
402,192,92183,128,0,92505:0:0:0:8:
329,192,92183,1,0,0:0:0:8:
475,192,92183,128,0,92505:0:0:0:8:
256,192,92505,1,0,0:0:0:8:
182,192,92505,1,0,0:0:0:8:
109,192,92505,1,0,0:0:0:8:
36,192,92505,1,0,0:0:0:60:KickMid.wav
329,192,92612,128,0,92880:0:0:0:8:
402,192,92612,128,0,92880:0:0:0:8:
475,192,92612,128,0,92880:0:0:0:8:
36,192,92612,1,0,0:0:0:8:
109,192,92719,1,0,0:0:0:20:
182,192,92826,1,0,0:0:0:20:
36,192,92933,128,0,93362:0:0:0:8:
329,192,92933,128,0,93040:0:0:0:0:
402,192,92933,128,0,93148:0:0:0:0:
475,192,92933,128,0,93255:0:0:0:0:
182,192,93362,1,0,0:0:0:13:
329,192,93362,1,0,0:0:0:13:
475,192,93362,1,0,0:0:0:60:KickMid.wav
182,192,93790,1,0,0:0:0:60:DeepBassKick.wav
109,192,93790,1,0,0:0:0:60:CymbalFSU.wav
36,192,93790,128,0,94326:0:0:0:60:KickMid.wav
475,192,94112,128,0,94326:0:0:0:13:
329,192,94112,1,0,0:0:0:13:
402,192,94112,1,0,0:0:0:13:
36,192,94433,128,0,95076:0:0:0:20:
109,192,94433,1,0,0:0:0:60:KickMid.wav
402,192,94433,1,0,0:0:0:0:
109,192,94648,128,0,94862:0:0:0:40:
182,192,94755,128,0,94862:0:0:0:40:
256,192,94862,128,0,95076:0:0:0:40:
329,192,94969,128,0,95076:0:0:0:40:
475,192,95076,1,0,0:0:0:13:
402,192,95076,1,0,0:0:0:60:KickMid.wav
182,192,95112,1,0,0:0:0:20:
109,192,95112,1,0,0:0:0:60:KickMid.wav
256,192,95148,1,0,0:0:0:20:
329,192,95148,1,0,0:0:0:60:KickMid.wav
109,192,95219,1,0,0:0:0:13:
36,192,95219,1,0,0:0:0:60:KickMid.wav
256,192,95290,1,0,0:0:0:10:
329,192,95290,1,0,0:0:0:10:
402,192,95290,1,0,0:0:0:60:KickMid.wav
109,192,95398,1,0,0:0:0:10:
182,192,95398,1,0,0:0:0:10:
256,192,95398,1,0,0:0:0:60:KickMid.wav
109,192,95505,1,0,0:0:0:8:
402,192,95505,1,0,0:0:0:8:
475,192,95505,1,0,0:0:0:60:KickMid.wav
36,192,95505,1,0,0:0:0:8:
182,192,95612,1,0,0:0:0:20:
256,192,95612,1,0,0:0:0:60:KickMid.wav
329,192,95612,1,0,0:0:0:0:
109,192,95719,1,0,0:0:0:60:KickMid.wav
36,192,95719,1,0,0:0:0:8:
402,192,95719,1,0,0:0:0:8:
475,192,95719,1,0,0:0:0:8:
329,192,95826,1,0,0:0:0:20:
256,192,95826,1,0,0:0:0:60:KickMid.wav
182,192,95826,1,0,0:0:0:0:
256,192,96148,1,0,0:0:0:8:
109,192,96148,1,0,0:0:0:60:KickMid.wav
475,192,96148,1,0,0:0:0:60:CymbalFSU.wav
402,192,96148,1,0,0:0:0:60:DeepBassKick.wav
402,192,96469,1,0,0:0:0:60:CymbalFSU.wav
256,192,96469,1,0,0:0:0:60:DeepBassKick.wav
109,192,96469,1,0,0:0:0:8:
36,192,96469,1,0,0:0:0:60:KickMid.wav
36,192,96790,1,0,0:0:0:60:KickMid.wav
109,192,96790,1,0,0:0:0:10:
475,192,96790,1,0,0:0:0:10:
402,192,96817,1,0,0:0:0:40:
329,192,96844,1,0,0:0:0:40:
256,192,96871,1,0,0:0:0:40:
182,192,96898,1,0,0:0:0:60:KickMid.wav
109,192,96898,1,0,0:0:0:20:
402,192,96951,1,0,0:0:0:20:
475,192,96951,1,0,0:0:0:60:KickMid.wav
329,192,97005,1,0,0:0:0:10:
256,192,97005,1,0,0:0:0:10:
36,192,97005,1,0,0:0:0:60:KickMid.wav
182,192,97112,128,0,97433:0:0:0:40:
329,192,97219,1,0,0:0:0:20:
402,192,97219,1,0,0:0:0:20:
402,192,97433,1,0,0:0:0:20:
329,192,97433,1,0,0:0:0:20:
36,192,97540,1,0,0:0:0:60:DeepBassKick.wav
475,192,97540,1,0,0:0:0:60:CymbalFSU.wav
256,192,97540,1,0,0:0:0:60:KickMid.wav
402,192,97540,1,0,0:0:0:8:
475,192,97862,1,0,0:0:0:60:DeepBassKick.wav
329,192,97862,1,0,0:0:0:60:CymbalFSU.wav
182,192,97862,1,0,0:0:0:60:KickMid.wav
36,192,97862,1,0,0:0:0:8:
256,192,98183,1,0,0:0:0:60:KickMid.wav
109,192,98183,1,0,0:0:0:60:DeepBassKick.wav
36,192,98183,1,0,0:0:0:8:
475,192,98183,1,0,0:0:0:60:CymbalFSU.wav
36,192,98505,128,0,98719:0:0:0:13:
109,192,98558,128,0,98719:0:0:0:40:
182,192,98612,128,0,98719:0:0:0:40:
256,192,98665,128,0,98719:0:0:0:40:
475,192,98719,128,0,98933:0:0:0:40:
402,192,98773,128,0,98933:0:0:0:40:
329,192,98826,128,0,98933:0:0:0:40:
256,192,98880,128,0,98933:0:0:0:40:
36,192,98933,1,0,0:0:0:20:
109,192,98987,1,0,0:0:0:20:
182,192,99040,1,0,0:0:0:20:
256,192,99094,1,0,0:0:0:20:
329,192,99148,1,0,0:0:0:20:
402,192,99201,1,0,0:0:0:20:
475,192,99255,1,0,0:0:0:60:DeepBassKick.wav
182,192,99255,1,0,0:0:0:10:
109,192,99255,1,0,0:0:0:60:KickMid.wav
36,192,99255,1,0,0:0:0:10:
36,192,99362,1,0,0:0:0:10:
182,192,99362,1,0,0:0:0:60:DeepBassKick.wav
109,192,99362,1,0,0:0:0:60:KickMid.wav
475,192,99362,1,0,0:0:0:10:
402,192,99576,1,0,0:0:0:10:
329,192,99576,1,0,0:0:0:60:DeepBassKick.wav
256,192,99576,1,0,0:0:0:10:
182,192,99576,1,0,0:0:0:60:KickMid.wav
182,192,99898,1,0,0:0:0:60:CymbalFSU.wav
109,192,99898,1,0,0:0:0:60:DeepBassKick.wav
402,192,99898,1,0,0:0:0:10:
475,192,99898,1,0,0:0:0:60:KickMid.wav
329,192,100005,1,0,0:0:0:20:
256,192,100005,1,0,0:0:0:20:
475,192,100219,1,0,0:0:0:10:
36,192,100219,1,0,0:0:0:60:KickMid.wav
182,192,100219,1,0,0:0:0:10:
402,192,100326,1,0,0:0:0:20:
256,192,100326,1,0,0:0:0:60:KickMid.wav
329,192,100326,1,0,0:0:0:0:
182,192,100380,1,0,0:0:0:60:KickMid.wav
109,192,100380,1,0,0:0:0:20:
36,192,100380,1,0,0:0:0:0:
329,192,100433,1,0,0:0:0:60:KickMid.wav
475,192,100433,1,0,0:0:0:13:
402,192,100433,1,0,0:0:0:13:
256,192,100540,1,0,0:0:0:10:
182,192,100540,1,0,0:0:0:10:
109,192,100540,1,0,0:0:0:60:KickMid.wav
475,192,100755,1,0,0:0:0:13:
402,192,100755,1,0,0:0:0:13:
475,192,100862,128,0,101076:0:0:0:13:
402,192,100862,128,0,101076:0:0:0:13:
329,192,100969,1,0,0:0:0:40:
256,192,100969,1,0,0:0:0:0:
182,192,101076,128,0,101290:0:0:0:13:
109,192,101076,1,0,0:0:0:13:
36,192,101290,128,0,101505:0:0:0:60:KickMid.wav
256,192,101290,1,0,0:0:0:10:
329,192,101290,1,0,0:0:0:10:
182,192,101505,1,0,0:0:0:40:
256,192,101612,128,0,101826:0:0:0:10:
109,192,101612,128,0,101826:0:0:0:10:
402,192,101612,1,0,0:0:0:60:KickMid.wav
182,192,101933,1,0,0:0:0:13:
475,192,101933,1,0,0:0:0:60:CymbalFSU.wav
36,192,101933,1,0,0:0:0:13:
256,192,101987,1,0,0:0:0:0:
329,192,102040,1,0,0:0:0:0:
402,192,102094,1,0,0:0:0:0:
475,192,102148,128,0,102255:0:0:0:13:
256,192,102148,128,0,102255:0:0:0:13:
109,192,102255,1,0,0:0:0:20:
36,192,102255,1,0,0:0:0:60:KickMid.wav
256,192,102362,128,0,102469:0:0:0:13:
475,192,102362,128,0,102469:0:0:0:13:
182,192,102469,1,0,0:0:0:60:KickMid.wav
109,192,102469,1,0,0:0:0:13:
36,192,102469,1,0,0:0:0:13:
256,192,102576,128,0,102683:0:0:0:13:
475,192,102576,128,0,102683:0:0:0:13:
329,192,102683,128,0,102898:0:0:0:60:KickMid.wav
182,192,102683,128,0,102898:0:0:0:8:
109,192,102683,1,0,0:0:0:8:
402,192,102683,1,0,0:0:0:8:
256,192,102898,1,0,0:0:0:0:
182,192,103005,128,0,103219:0:0:0:60:KickMid.wav
329,192,103005,128,0,103219:0:0:0:8:
475,192,103005,1,0,0:0:0:8:
36,192,103005,1,0,0:0:0:8:
256,192,103219,1,0,0:0:0:0:
109,192,103326,1,0,0:0:0:8:
36,192,103326,1,0,0:0:0:60:KickMid.wav
402,192,103326,1,0,0:0:0:8:
475,192,103326,1,0,0:0:0:8:
475,192,103433,1,0,0:0:0:8:
329,192,103433,1,0,0:0:0:60:KickMid.wav
182,192,103433,1,0,0:0:0:60:CymbalFSU.wav
36,192,103433,1,0,0:0:0:60:DeepBassKick.wav
256,192,103648,128,0,104290:0:0:0:60:DeepBassKick.wav
402,192,103648,1,0,0:0:0:6:
109,192,103648,1,0,0:0:0:60:KickMid.wav
182,192,103648,128,0,103862:0:0:0:60:CymbalFSU.wav
329,192,103862,128,0,104076:0:0:0:20:
109,192,103969,1,0,0:0:0:20:
402,192,103969,1,0,0:0:0:20:
182,192,104076,128,0,104290:0:0:0:20:
109,192,104290,1,0,0:0:0:8:
402,192,104290,1,0,0:0:0:8:
36,192,104505,1,0,0:0:0:60:KickMid.wav
109,192,104505,1,0,0:0:0:8:
475,192,104505,1,0,0:0:0:8:
402,192,104576,1,0,0:0:0:20:
329,192,104576,1,0,0:0:0:20:
182,192,104648,1,0,0:0:0:20:
256,192,104648,1,0,0:0:0:20:
36,192,104719,1,0,0:0:0:8:
402,192,104719,1,0,0:0:0:8:
475,192,104719,1,0,0:0:0:60:KickMid.wav
329,192,104790,1,0,0:0:0:20:
256,192,104790,1,0,0:0:0:20:
182,192,104862,1,0,0:0:0:20:
109,192,104862,1,0,0:0:0:20:
402,192,104933,1,0,0:0:0:10:
329,192,104933,1,0,0:0:0:10:
256,192,105040,1,0,0:0:0:13:
182,192,105040,1,0,0:0:0:13:
36,192,105040,1,0,0:0:0:60:KickMid.wav
109,192,105148,1,0,0:0:0:10:
256,192,105148,1,0,0:0:0:10:
329,192,105148,1,0,0:0:0:60:KickMid.wav
182,192,105255,1,0,0:0:0:10:
329,192,105255,1,0,0:0:0:10:
402,192,105255,1,0,0:0:0:60:KickMid.wav
256,192,105362,1,0,0:0:0:60:KickMid.wav
402,192,105362,1,0,0:0:0:60:CymbalFSU.wav
475,192,105362,1,0,0:0:0:60:DeepBassKick.wav
36,192,105389,1,0,0:0:0:0:
109,192,105415,1,0,0:0:0:0:
182,192,105442,1,0,0:0:0:0:
475,192,105469,1,0,0:0:0:0:
402,192,105496,1,0,0:0:0:0:
329,192,105523,1,0,0:0:0:0:
256,192,105549,1,0,0:0:0:0:
182,192,105576,1,0,0:0:0:0:
36,192,105576,1,0,0:0:0:0:
475,192,105612,1,0,0:0:0:0:
402,192,105648,1,0,0:0:0:0:
329,192,105683,1,0,0:0:0:0:
109,192,105683,1,0,0:0:0:0:
182,192,105737,1,0,0:0:0:0:
36,192,105790,1,0,0:0:0:60:KickMid.wav
256,192,105790,1,0,0:0:0:10:
402,192,105790,1,0,0:0:0:0:
256,192,106005,1,0,0:0:0:60:KickMid.wav
475,192,106005,1,0,0:0:0:10:
109,192,106005,1,0,0:0:0:0:
402,192,106433,128,0,106755:0:0:0:60:DeepBassKick.wav
475,192,106433,128,0,106755:0:0:0:8:
329,192,106433,1,0,0:0:0:60:CymbalFSU.wav
256,192,106433,1,0,0:0:0:60:KickMid.wav
329,192,106755,128,0,107076:0:0:0:60:DeepBassKick.wav
256,192,106755,128,0,107076:0:0:0:8:
182,192,106755,1,0,0:0:0:60:CymbalFSU.wav
109,192,106755,1,0,0:0:0:60:KickMid.wav
182,192,107076,128,0,107290:0:0:0:60:DeepBassKick.wav
109,192,107076,128,0,107290:0:0:0:8:
36,192,107076,1,0,0:0:0:60:CymbalFSU.wav
475,192,107076,1,0,0:0:0:60:KickMid.wav
402,192,107290,1,0,0:0:0:20:
329,192,107290,1,0,0:0:0:60:KickMid.wav
182,192,107398,1,0,0:0:0:20:
109,192,107398,1,0,0:0:0:20:
256,192,107719,1,0,0:0:0:10:
182,192,107719,1,0,0:0:0:10:
109,192,107933,1,0,0:0:0:60:DeepBassKick.wav
36,192,107933,1,0,0:0:0:60:KickMid.wav
475,192,107933,1,0,0:0:0:60:CymbalFSU.wav
256,192,107933,128,0,108255:0:0:0:10:
329,192,108255,128,0,108576:0:0:0:40:
109,192,108255,1,0,0:0:0:0:
402,192,108576,128,0,108683:0:0:0:13:
182,192,108576,1,0,0:0:0:13:
256,192,108683,1,0,0:0:0:20:
109,192,109005,1,0,0:0:0:60:CymbalFSU.wav
36,192,109005,1,0,0:0:0:8:
475,192,109005,1,0,0:0:0:60:KickMid.wav
402,192,109005,1,0,0:0:0:60:DeepBassKick.wav
329,192,109058,1,0,0:0:0:40:
256,192,109112,1,0,0:0:0:40:
182,192,109165,1,0,0:0:0:40:
329,192,109219,1,0,0:0:0:40:
256,192,109273,1,0,0:0:0:40:
182,192,109326,1,0,0:0:0:40:
109,192,109380,1,0,0:0:0:40:
256,192,109433,1,0,0:0:0:40:
182,192,109487,1,0,0:0:0:40:
109,192,109540,1,0,0:0:0:40:
36,192,109594,1,0,0:0:0:40:
475,192,109648,128,0,116505:0:0:0:13:
329,192,109648,1,0,0:0:0:60:KickMid.wav
402,192,109648,1,0,0:0:0:60:DeepBassKick.wav
182,192,110076,1,0,0:0:0:60:DeepBassKick.wav
109,192,110076,1,0,0:0:0:20:
256,192,110290,1,0,0:0:0:40:
109,192,110505,1,8,0:0:0:50:
36,192,110505,1,0,0:0:0:20:
329,192,110933,1,0,0:0:0:40:
182,192,111148,1,0,0:0:0:60:DeepBassKick.wav
109,192,111148,1,0,0:0:0:20:
256,192,111362,1,0,0:0:0:60:KickMid.wav
402,192,111362,1,0,0:0:0:13:
182,192,111790,1,0,0:0:0:60:DeepBassKick.wav
109,192,111790,1,0,0:0:0:20:
329,192,112005,1,0,0:0:0:40:
109,192,112219,1,0,0:0:0:20:
36,192,112219,1,8,0:0:0:50:
329,192,112648,1,0,0:0:0:20:
402,192,112648,1,0,0:0:0:60:DeepBassKick.wav
256,192,113076,1,0,0:0:0:60:DeepBassKick.wav
182,192,113076,1,0,0:0:0:10:
329,192,113505,1,0,0:0:0:20:
402,192,113505,1,0,0:0:0:60:DeepBassKick.wav
109,192,113719,1,0,0:0:0:40:
329,192,113933,1,8,0:0:0:50:
256,192,113933,1,0,0:0:0:20:
36,192,114362,1,0,0:0:0:40:
329,192,114576,1,0,0:0:0:60:DeepBassKick.wav
402,192,114576,1,0,0:0:0:20:
256,192,114790,1,0,0:0:0:60:KickMid.wav
182,192,114790,1,0,0:0:0:13:
329,192,115219,1,0,0:0:0:60:DeepBassKick.wav
402,192,115219,1,0,0:0:0:20:
109,192,115433,1,0,0:0:0:40:
329,192,115648,1,8,0:0:0:50:
256,192,115648,1,0,0:0:0:20:
182,192,116076,1,0,0:0:0:20:
36,192,116076,1,0,0:0:0:60:DeepBassKick.wav
329,192,116719,1,0,0:0:0:20:
402,192,116826,1,0,0:0:0:20:
475,192,116933,1,0,0:0:0:20:
402,192,117148,1,0,0:0:0:20:
256,192,117362,1,0,0:0:0:20:
36,192,117362,128,0,118219:0:0:0:20:
109,192,117362,1,0,0:0:0:0:
475,192,117576,1,0,0:0:0:20:
475,192,117790,1,0,0:0:0:20:
109,192,117790,1,0,0:0:0:0:
402,192,118005,1,0,0:0:0:20:
329,192,118219,1,0,0:0:0:20:
256,192,118219,128,0,119076:0:0:0:0:
182,192,118433,1,0,0:0:0:20:
109,192,118540,1,0,0:0:0:20:
182,192,118648,1,0,0:0:0:20:
36,192,118862,1,0,0:0:0:20:
182,192,119076,1,0,0:0:0:20:
402,192,119076,128,0,119933:0:0:0:0:
36,192,119290,1,0,0:0:0:20:
182,192,119505,1,0,0:0:0:20:
256,192,119719,1,0,0:0:0:20:
329,192,119826,1,0,0:0:0:20:
109,192,119933,128,0,120790:0:0:0:20:
475,192,119933,1,0,0:0:0:0:
329,192,120148,1,0,0:0:0:20:
182,192,120255,1,0,0:0:0:20:
182,192,120362,1,0,0:0:0:20:
256,192,120576,1,0,0:0:0:20:
402,192,120683,1,0,0:0:0:20:
475,192,120790,1,0,0:0:0:20:
329,192,120790,128,0,121648:0:0:0:0:
182,192,121005,1,0,0:0:0:20:
475,192,121219,1,0,0:0:0:20:
402,192,121433,1,0,0:0:0:20:
256,192,121540,1,0,0:0:0:20:
475,192,121648,128,0,122451:0:0:0:20:
182,192,121648,1,0,0:0:0:0:
256,192,121862,1,0,0:0:0:20:
109,192,122076,1,0,0:0:0:20:
182,192,122290,1,0,0:0:0:20:
256,192,122398,1,0,0:0:0:20:
475,192,122505,1,0,0:0:0:60:CymbalFSU.wav
402,192,122505,1,0,0:0:0:8:
329,192,122505,1,0,0:0:0:60:DeepBassKick.wav
36,192,122505,1,0,0:0:0:60:KickMid.wav
329,192,122719,1,0,0:0:0:60:KickMid.wav
182,192,122719,1,0,0:0:0:8:
109,192,122719,1,0,0:0:0:60:DeepBassKick.wav
36,192,122719,1,0,0:0:0:60:CymbalFSU.wav
256,192,122862,1,0,0:0:0:60:KickMid.wav
402,192,122862,1,0,0:0:0:13:
475,192,122862,1,0,0:0:0:13:
329,192,122933,1,0,0:0:0:10:
182,192,122933,1,0,0:0:0:60:KickMid.wav
109,192,122933,1,0,0:0:0:10:
36,192,123005,1,0,0:0:0:13:
256,192,123005,1,0,0:0:0:60:KickMid.wav
475,192,123005,1,0,0:0:0:13:
402,192,123076,1,0,0:0:0:60:KickMid.wav
329,192,123076,1,0,0:0:0:13:
182,192,123076,1,0,0:0:0:13:
256,192,123148,1,0,0:0:0:60:DeepBassKick.wav
109,192,123148,1,0,0:0:0:8:
36,192,123148,1,0,0:0:0:60:KickMid.wav
475,192,123148,1,0,0:0:0:60:CymbalFSU.wav
182,192,123290,1,0,0:0:0:10:
402,192,123290,1,0,0:0:0:10:
36,192,123290,1,0,0:0:0:60:KickMid.wav
256,192,123362,1,0,0:0:0:60:CymbalFSU.wav
329,192,123362,1,0,0:0:0:60:KickMid.wav
475,192,123362,1,0,0:0:0:8:
109,192,123362,1,0,0:0:0:60:DeepBassKick.wav
402,192,123505,1,0,0:0:0:10:
475,192,123505,1,0,0:0:0:10:
182,192,123505,1,0,0:0:0:60:KickMid.wav
329,192,123576,1,0,0:0:0:8:
256,192,123576,1,0,0:0:0:60:DeepBassKick.wav
109,192,123576,1,0,0:0:0:60:KickMid.wav
36,192,123576,1,0,0:0:0:60:CymbalFSU.wav
182,192,123719,1,0,0:0:0:60:KickMid.wav
109,192,123719,1,0,0:0:0:10:
329,192,123719,1,0,0:0:0:10:
256,192,123790,128,0,124219:0:0:0:60:DeepBassKick.wav
402,192,123790,1,0,0:0:0:60:KickMid.wav
475,192,123790,1,0,0:0:0:60:CymbalFSU.wav
36,192,123790,1,0,0:0:0:8:
182,192,124005,128,0,124219:0:0:0:60:DeepBassKick.wav
329,192,124005,1,0,0:0:0:8:
402,192,124005,1,0,0:0:0:60:KickMid.wav
475,192,124005,1,0,0:0:0:8:
36,192,124219,1,0,0:0:0:60:KickMid.wav
109,192,124219,1,0,0:0:0:6:
329,192,124219,1,0,0:0:0:60:CymbalFSU.wav
402,192,124219,1,0,0:0:0:6:
475,192,124219,1,0,0:0:0:60:DeepBassKick.wav
256,192,124326,1,0,0:0:0:60:KickMid.wav
182,192,124326,1,0,0:0:0:20:
109,192,124433,1,0,0:0:0:60:KickMid.wav
36,192,124433,1,0,0:0:0:8:
402,192,124433,1,0,0:0:0:8:
475,192,124433,1,0,0:0:0:60:DeepBassKick.wav
329,192,124540,1,0,0:0:0:60:KickMid.wav
256,192,124540,1,0,0:0:0:20:
182,192,124648,1,0,0:0:0:8:
109,192,124648,1,0,0:0:0:60:DeepBassKick.wav
402,192,124648,1,0,0:0:0:60:KickMid.wav
475,192,124648,1,0,0:0:0:8:
329,192,124755,1,0,0:0:0:60:KickMid.wav
36,192,124755,1,0,0:0:0:20:
109,192,124808,1,0,0:0:0:20:
402,192,124808,1,0,0:0:0:20:
329,192,124862,1,0,0:0:0:60:DeepBassKick.wav
182,192,124862,1,0,0:0:0:60:KickMid.wav
475,192,124862,1,0,0:0:0:8:
256,192,124862,1,0,0:0:0:8:
36,192,124969,1,0,0:0:0:20:
109,192,124969,1,0,0:0:0:60:KickMid.wav
182,192,125076,1,0,0:0:0:60:DeepBassKick.wav
256,192,125076,1,0,0:0:0:8:
402,192,125076,1,0,0:0:0:8:
475,192,125076,1,0,0:0:0:60:KickMid.wav
329,192,125183,1,0,0:0:0:60:KickMid.wav
109,192,125183,1,0,0:0:0:20:
182,192,125237,1,0,0:0:0:20:
402,192,125237,1,0,0:0:0:20:
256,192,125290,1,0,0:0:0:60:KickMid.wav
36,192,125290,1,0,0:0:0:8:
475,192,125290,1,0,0:0:0:8:
109,192,125290,1,0,0:0:0:60:DeepBassKick.wav
182,192,125398,1,0,0:0:0:8:
109,192,125398,1,0,0:0:0:60:KickMid.wav
329,192,125398,1,0,0:0:0:8:
402,192,125398,1,0,0:0:0:60:DeepBassKick.wav
256,192,125505,1,0,0:0:0:60:DeepBassKick.wav
36,192,125505,1,0,0:0:0:60:KickMid.wav
402,192,125505,1,0,0:0:0:8:
475,192,125505,1,0,0:0:0:8:
329,192,125612,1,0,0:0:0:60:KickMid.wav
182,192,125612,1,0,0:0:0:20:
256,192,125719,1,0,0:0:0:8:
109,192,125719,1,0,0:0:0:8:
36,192,125719,1,0,0:0:0:60:KickMid.wav
475,192,125719,1,0,0:0:0:60:DeepBassKick.wav
329,192,125826,1,0,0:0:0:60:KickMid.wav
182,192,125826,1,0,0:0:0:20:
109,192,125933,1,0,0:0:0:8:
402,192,125933,1,0,0:0:0:8:
475,192,125933,1,0,0:0:0:60:DeepBassKick.wav
36,192,125933,1,0,0:0:0:60:KickMid.wav
256,192,126040,1,0,0:0:0:60:KickMid.wav
329,192,126040,1,0,0:0:0:20:
475,192,126148,1,0,0:0:0:8:
109,192,126148,1,0,0:0:0:60:KickMid.wav
36,192,126148,1,0,0:0:0:8:
402,192,126148,1,0,0:0:0:60:DeepBassKick.wav
182,192,126201,1,0,0:0:0:0:
256,192,126201,1,0,0:0:0:0:
329,192,126255,1,0,0:0:0:20:
402,192,126255,1,0,0:0:0:60:KickMid.wav
109,192,126308,1,0,0:0:0:20:
36,192,126308,1,0,0:0:0:20:
256,192,126362,1,0,0:0:0:60:DeepBassKick.wav
182,192,126362,1,0,0:0:0:60:KickMid.wav
329,192,126362,1,0,0:0:0:8:
475,192,126362,1,0,0:0:0:8:
109,192,126469,1,0,0:0:0:60:KickMid.wav
36,192,126469,1,0,0:0:0:20:
36,192,126576,1,0,0:0:0:8:
182,192,126576,1,0,0:0:0:8:
109,192,126576,1,0,0:0:0:60:DeepBassKick.wav
475,192,126576,1,0,0:0:0:60:KickMid.wav
402,192,126603,1,0,0:0:0:0:
329,192,126630,1,0,0:0:0:0:
256,192,126657,1,0,0:0:0:0:
36,192,126683,1,0,0:0:0:60:DeepBassKick.wav
109,192,126683,1,0,0:0:0:8:
182,192,126683,1,0,0:0:0:60:KickMid.wav
475,192,126710,1,0,0:0:0:0:
402,192,126737,1,0,0:0:0:0:
329,192,126764,1,0,0:0:0:0:
182,192,126790,1,0,0:0:0:8:
109,192,126790,1,0,0:0:0:60:DeepBassKick.wav
36,192,126790,1,0,0:0:0:8:
256,192,126790,1,0,0:0:0:60:KickMid.wav
475,192,126844,1,0,0:0:0:0:
402,192,126898,1,0,0:0:0:60:KickMid.wav
329,192,126898,1,0,0:0:0:20:
256,192,126951,1,0,0:0:0:20:
182,192,126951,1,0,0:0:0:20:
109,192,127005,1,0,0:0:0:8:
36,192,127005,1,0,0:0:0:60:DeepBassKick.wav
475,192,127005,1,0,0:0:0:8:
402,192,127005,1,0,0:0:0:60:KickMid.wav
329,192,127112,1,0,0:0:0:60:DeepBassKick.wav
402,192,127112,1,0,0:0:0:8:
109,192,127112,1,0,0:0:0:60:KickMid.wav
182,192,127112,1,0,0:0:0:8:
182,192,127219,1,0,0:0:0:8:
402,192,127219,1,0,0:0:0:8:
329,192,127219,1,0,0:0:0:60:DeepBassKick.wav
109,192,127219,1,0,0:0:0:60:KickMid.wav
256,192,127326,1,0,0:0:0:20:
475,192,127326,1,0,0:0:0:60:KickMid.wav
402,192,127380,1,0,0:0:0:0:
182,192,127380,1,0,0:0:0:0:
329,192,127433,1,0,0:0:0:8:
256,192,127433,1,0,0:0:0:60:KickMid.wav
109,192,127433,1,0,0:0:0:60:DeepBassKick.wav
36,192,127433,1,0,0:0:0:8:
182,192,127540,1,0,0:0:0:8:
329,192,127540,1,0,0:0:0:60:KickMid.wav
402,192,127540,1,0,0:0:0:8:
109,192,127540,1,0,0:0:0:60:DeepBassKick.wav
402,192,127648,1,0,0:0:0:60:KickMid.wav
182,192,127648,1,0,0:0:0:8:
475,192,127648,1,0,0:0:0:8:
256,192,127648,1,0,0:0:0:60:DeepBassKick.wav
109,192,127755,1,0,0:0:0:20:
36,192,127755,1,0,0:0:0:60:KickMid.wav
182,192,127808,1,0,0:0:0:40:
475,192,127862,1,0,0:0:0:8:
256,192,127862,1,0,0:0:0:60:KickMid.wav
329,192,127862,1,0,0:0:0:8:
402,192,127862,1,0,0:0:0:60:DeepBassKick.wav
109,192,127915,1,0,0:0:0:40:
36,192,127915,1,0,0:0:0:0:
402,192,127969,1,0,0:0:0:20:
475,192,127969,1,0,0:0:0:60:KickMid.wav
329,192,128076,1,0,0:0:0:60:KickMid.wav
256,192,128076,1,0,0:0:0:8:
182,192,128076,1,0,0:0:0:8:
109,192,128076,1,0,0:0:0:60:DeepBassKick.wav
402,192,128183,1,0,0:0:0:60:KickMid.wav
475,192,128183,1,0,0:0:0:20:
182,192,128290,1,0,0:0:0:60:KickMid.wav
256,192,128290,1,0,0:0:0:60:DeepBassKick.wav
329,192,128290,1,0,0:0:0:8:
402,192,128290,1,0,0:0:0:8:
329,192,128398,1,0,0:0:0:60:DeepBassKick.wav
182,192,128398,1,0,0:0:0:60:KickMid.wav
256,192,128398,1,0,0:0:0:8:
109,192,128398,1,0,0:0:0:8:
256,192,128505,1,0,0:0:0:8:
109,192,128505,1,0,0:0:0:8:
182,192,128505,1,0,0:0:0:60:KickMid.wav
36,192,128505,1,0,0:0:0:60:DeepBassKick.wav
402,192,128612,1,0,0:0:0:20:
475,192,128612,1,0,0:0:0:60:KickMid.wav
329,192,128719,1,0,0:0:0:8:
256,192,128719,1,0,0:0:0:60:DeepBassKick.wav
36,192,128719,1,0,0:0:0:8:
475,192,128719,1,0,0:0:0:60:KickMid.wav
182,192,128773,1,0,0:0:0:40:
402,192,128773,1,0,0:0:0:0:
329,192,128826,1,0,0:0:0:60:KickMid.wav
109,192,128826,1,0,0:0:0:20:
256,192,128880,1,0,0:0:0:20:
36,192,128880,1,0,0:0:0:20:
109,192,128933,1,0,0:0:0:8:
475,192,128933,1,0,0:0:0:60:DeepBassKick.wav
402,192,128933,1,0,0:0:0:8:
182,192,128933,1,0,0:0:0:60:KickMid.wav
329,192,128987,1,0,0:0:0:40:
256,192,129040,1,0,0:0:0:60:KickMid.wav
182,192,129040,1,0,0:0:0:20:
182,192,129148,1,0,0:0:0:8:
109,192,129148,1,0,0:0:0:60:DeepBassKick.wav
36,192,129148,1,0,0:0:0:60:KickMid.wav
475,192,129148,128,0,129362:0:0:0:8:
36,192,129255,1,0,0:0:0:60:KickMid.wav
109,192,129255,1,0,0:0:0:8:
182,192,129255,1,0,0:0:0:8:
402,192,129255,128,0,129362:0:0:0:60:DeepBassKick.wav
329,192,129362,1,0,0:0:0:60:KickMid.wav
182,192,129362,1,0,0:0:0:8:
109,192,129362,1,0,0:0:0:8:
36,192,129362,1,0,0:0:0:60:DeepBassKick.wav
256,192,129469,1,0,0:0:0:20:
402,192,129469,1,0,0:0:0:60:KickMid.wav
329,192,129576,1,0,0:0:0:60:DeepBassKick.wav
109,192,129576,1,0,0:0:0:8:
36,192,129576,1,0,0:0:0:8:
475,192,129576,1,0,0:0:0:60:KickMid.wav
256,192,129683,1,0,0:0:0:60:KickMid.wav
182,192,129683,1,0,0:0:0:13:
36,192,129790,1,0,0:0:0:60:KickMid.wav
402,192,129790,1,0,0:0:0:60:DeepBassKick.wav
475,192,129790,1,0,0:0:0:8:
329,192,129790,1,0,0:0:0:8:
256,192,129898,1,0,0:0:0:8:
182,192,129898,1,0,0:0:0:60:KickMid.wav
329,192,129898,1,0,0:0:0:60:DeepBassKick.wav
109,192,129898,1,0,0:0:0:8:
256,192,130005,1,0,0:0:0:60:KickMid.wav
36,192,130005,1,0,0:0:0:8:
402,192,130005,1,0,0:0:0:60:DeepBassKick.wav
475,192,130005,1,0,0:0:0:8:
329,192,130112,1,0,0:0:0:60:DeepBassKick.wav
109,192,130112,1,0,0:0:0:60:KickMid.wav
182,192,130112,1,0,0:0:0:8:
36,192,130112,1,0,0:0:0:8:
475,192,130219,128,0,130433:0:0:0:8:
36,192,130219,1,0,0:0:0:60:DeepBassKick.wav
182,192,130219,1,0,0:0:0:60:KickMid.wav
109,192,130219,1,0,0:0:0:8:
329,192,130326,1,0,0:0:0:60:KickMid.wav
256,192,130326,1,0,0:0:0:20:
36,192,130433,128,0,130648:0:0:0:8:
109,192,130433,1,0,0:0:0:60:KickMid.wav
329,192,130433,1,0,0:0:0:60:DeepBassKick.wav
402,192,130433,1,0,0:0:0:8:
182,192,130540,1,0,0:0:0:60:KickMid.wav
256,192,130540,1,0,0:0:0:20:
475,192,130648,128,0,130862:0:0:0:8:
109,192,130648,1,0,0:0:0:8:
182,192,130648,1,0,0:0:0:60:DeepBassKick.wav
402,192,130648,1,0,0:0:0:60:KickMid.wav
329,192,130755,1,0,0:0:0:60:KickMid.wav
256,192,130755,1,0,0:0:0:20:
402,192,130755,1,0,0:0:0:0:
182,192,130862,1,0,0:0:0:60:KickMid.wav
109,192,130862,1,0,0:0:0:10:
36,192,130862,1,0,0:0:0:60:DeepBassKick.wav
329,192,130915,1,0,0:0:0:60:KickMid.wav
402,192,130915,1,0,0:0:0:13:
475,192,130915,1,0,0:0:0:13:
182,192,130969,1,0,0:0:0:60:KickMid.wav
109,192,130969,1,0,0:0:0:10:
36,192,130969,1,0,0:0:0:10:
329,192,131023,1,0,0:0:0:60:KickMid.wav
402,192,131023,1,0,0:0:0:13:
475,192,131023,1,0,0:0:0:13:
256,192,131076,1,0,0:0:0:60:DeepBassKick.wav
182,192,131076,1,0,0:0:0:10:
109,192,131076,1,0,0:0:0:60:KickMid.wav
36,192,131076,1,0,0:0:0:60:CymbalFSU.wav
329,192,131183,1,0,0:0:0:60:KickMid.wav
475,192,131183,1,0,0:0:0:20:
256,192,131290,1,0,0:0:0:60:KickMid.wav
109,192,131290,1,0,0:0:0:8:
36,192,131290,1,0,0:0:0:8:
402,192,131290,1,0,0:0:0:60:DeepBassKick.wav
182,192,131398,1,0,0:0:0:60:KickMid.wav
329,192,131398,1,0,0:0:0:20:
109,192,131505,1,0,0:0:0:8:
256,192,131505,1,0,0:0:0:8:
402,192,131505,1,0,0:0:0:60:KickMid.wav
475,192,131505,1,0,0:0:0:60:DeepBassKick.wav
182,192,131612,1,0,0:0:0:20:
36,192,131612,1,0,0:0:0:60:KickMid.wav
256,192,131719,1,0,0:0:0:8:
109,192,131719,1,0,0:0:0:8:
329,192,131719,1,0,0:0:0:60:KickMid.wav
475,192,131719,1,0,0:0:0:60:DeepBassKick.wav
402,192,131826,1,0,0:0:0:60:KickMid.wav
182,192,131826,1,0,0:0:0:20:
109,192,131933,1,0,0:0:0:60:KickMid.wav
36,192,131933,1,0,0:0:0:8:
256,192,131933,1,0,0:0:0:60:DeepBassKick.wav
329,192,131933,1,0,0:0:0:8:
402,192,132040,1,0,0:0:0:20:
475,192,132040,1,0,0:0:0:60:KickMid.wav
182,192,132148,1,0,0:0:0:10:
329,192,132148,1,0,0:0:0:60:KickMid.wav
109,192,132148,1,0,0:0:0:10:
36,192,132148,1,0,0:0:0:60:DeepBassKick.wav
402,192,132219,1,0,0:0:0:60:KickMid.wav
475,192,132219,1,0,0:0:0:13:
256,192,132219,1,0,0:0:0:60:DeepBassKick.wav
329,192,132290,1,0,0:0:0:13:
109,192,132290,1,0,0:0:0:60:KickMid.wav
36,192,132290,1,0,0:0:0:60:DeepBassKick.wav
256,192,132362,1,0,0:0:0:60:DeepBassKick.wav
182,192,132362,1,0,0:0:0:8:
402,192,132362,1,0,0:0:0:60:KickMid.wav
475,192,132362,1,0,0:0:0:8:
109,192,132469,1,0,0:0:0:60:KickMid.wav
36,192,132469,1,0,0:0:0:20:
182,192,132576,1,0,0:0:0:60:KickMid.wav
256,192,132576,1,0,0:0:0:8:
329,192,132576,1,0,0:0:0:60:DeepBassKick.wav
402,192,132576,1,0,0:0:0:8:
36,192,132683,1,0,0:0:0:60:KickMid.wav
475,192,132683,1,0,0:0:0:20:
402,192,132790,1,0,0:0:0:60:KickMid.wav
256,192,132790,1,0,0:0:0:60:DeepBassKick.wav
182,192,132790,1,0,0:0:0:8:
109,192,132790,1,0,0:0:0:8:
329,192,132898,1,0,0:0:0:60:KickMid.wav
402,192,132951,1,0,0:0:0:20:
475,192,132951,1,0,0:0:0:20:
182,192,133005,1,0,0:0:0:8:
109,192,133005,1,0,0:0:0:8:
36,192,133005,1,0,0:0:0:60:KickMid.wav
256,192,133005,1,0,0:0:0:60:DeepBassKick.wav
475,192,133058,1,0,0:0:0:20:
402,192,133058,1,0,0:0:0:20:
329,192,133112,1,0,0:0:0:60:KickMid.wav
475,192,133219,1,0,0:0:0:8:
36,192,133219,1,0,0:0:0:8:
256,192,133219,1,0,0:0:0:60:DeepBassKick.wav
402,192,133219,1,0,0:0:0:60:KickMid.wav
182,192,133273,1,0,0:0:0:40:
109,192,133326,1,0,0:0:0:60:KickMid.wav
329,192,133326,1,0,0:0:0:20:
402,192,133380,1,0,0:0:0:40:
475,192,133433,1,0,0:0:0:8:
256,192,133433,1,0,0:0:0:8:
182,192,133433,1,0,0:0:0:60:DeepBassKick.wav
36,192,133433,1,0,0:0:0:60:KickMid.wav
109,192,133540,1,0,0:0:0:60:KickMid.wav
329,192,133540,1,0,0:0:0:20:
475,192,133648,1,0,0:0:0:10:
402,192,133648,1,0,0:0:0:60:KickMid.wav
329,192,133648,1,0,0:0:0:60:DeepBassKick.wav
182,192,133701,1,0,0:0:0:60:KickMid.wav
109,192,133701,1,0,0:0:0:13:
402,192,133755,1,0,0:0:0:60:KickMid.wav
475,192,133755,1,0,0:0:0:13:
329,192,133755,1,0,0:0:0:13:
182,192,133808,1,0,0:0:0:60:KickMid.wav
109,192,133808,1,0,0:0:0:13:
256,192,133862,1,0,0:0:0:10:
402,192,133862,1,0,0:0:0:60:DeepBassKick.wav
475,192,133862,1,0,0:0:0:10:
329,192,133862,1,0,0:0:0:60:KickMid.wav
182,192,133969,1,0,0:0:0:60:KickMid.wav
36,192,134076,1,0,0:0:0:10:
109,192,134076,1,0,0:0:0:60:DeepBassKick.wav
182,192,134076,1,0,0:0:0:60:KickMid.wav
402,192,134130,1,0,0:0:0:60:KickMid.wav
329,192,134130,1,0,0:0:0:13:
109,192,134183,1,0,0:0:0:13:
36,192,134183,1,0,0:0:0:13:
182,192,134183,1,0,0:0:0:60:KickMid.wav
329,192,134237,1,0,0:0:0:13:
402,192,134237,1,0,0:0:0:60:KickMid.wav
36,192,134290,1,0,0:0:0:10:
182,192,134290,1,0,0:0:0:60:KickMid.wav
256,192,134290,1,0,0:0:0:60:DeepBassKick.wav
109,192,134290,1,0,0:0:0:10:
329,192,134398,1,0,0:0:0:60:KickMid.wav
475,192,134505,1,0,0:0:0:8:
182,192,134505,1,0,0:0:0:60:DeepBassKick.wav
36,192,134505,1,0,0:0:0:60:CymbalFSU.wav
402,192,134505,1,0,0:0:0:60:KickMid.wav
109,192,134505,1,0,0:0:0:8:
329,192,134612,1,0,0:0:0:60:KickMid.wav
256,192,134665,1,0,0:0:0:40:
182,192,134665,1,0,0:0:0:0:
109,192,134719,1,0,0:0:0:60:KickMid.wav
36,192,134719,1,0,0:0:0:8:
475,192,134719,1,0,0:0:0:60:DeepBassKick.wav
402,192,134719,1,0,0:0:0:8:
182,192,134826,1,0,0:0:0:60:KickMid.wav
256,192,134826,1,0,0:0:0:13:
475,192,134933,1,0,0:0:0:10:
36,192,134933,1,0,0:0:0:60:KickMid.wav
256,192,134933,1,0,0:0:0:60:DeepBassKick.wav
402,192,134987,1,0,0:0:0:60:KickMid.wav
182,192,134987,1,0,0:0:0:20:
109,192,135040,1,0,0:0:0:60:KickMid.wav
329,192,135040,1,0,0:0:0:13:
36,192,135094,1,0,0:0:0:20:
256,192,135094,1,0,0:0:0:60:KickMid.wav
402,192,135148,1,0,0:0:0:60:KickMid.wav
475,192,135148,1,0,0:0:0:60:DeepBassKick.wav
182,192,135148,128,0,135362:0:0:0:8:
109,192,135255,1,0,0:0:0:20:
329,192,135255,1,0,0:0:0:60:KickMid.wav
475,192,135362,1,0,0:0:0:60:CymbalFSU.wav
402,192,135362,1,0,0:0:0:60:DeepBassKick.wav
256,192,135362,1,0,0:0:0:8:
329,192,135362,1,0,0:0:0:8:
36,192,135362,1,0,0:0:0:60:KickMid.wav
182,192,135469,1,0,0:0:0:60:KickMid.wav
329,192,135523,1,0,0:0:0:20:
402,192,135523,1,0,0:0:0:20:
256,192,135576,1,0,0:0:0:8:
109,192,135576,1,0,0:0:0:8:
36,192,135576,1,0,0:0:0:60:KickMid.wav
182,192,135576,1,0,0:0:0:60:DeepBassKick.wav
475,192,135683,1,0,0:0:0:60:KickMid.wav
402,192,135683,1,0,0:0:0:13:
329,192,135737,1,0,0:0:0:20:
256,192,135737,1,0,0:0:0:60:KickMid.wav
109,192,135790,1,0,0:0:0:10:
36,192,135790,1,0,0:0:0:60:DeepBassKick.wav
182,192,135790,1,0,0:0:0:60:KickMid.wav
475,192,135844,1,0,0:0:0:20:
402,192,135844,1,0,0:0:0:60:KickMid.wav
329,192,135898,1,0,0:0:0:13:
256,192,135898,1,0,0:0:0:60:KickMid.wav
182,192,135951,1,0,0:0:0:20:
109,192,135951,1,0,0:0:0:20:
475,192,136005,128,0,136219:0:0:0:60:DeepBassKick.wav
36,192,136005,1,0,0:0:0:8:
402,192,136005,1,0,0:0:0:8:
329,192,136005,1,0,0:0:0:60:KickMid.wav
182,192,136112,1,0,0:0:0:60:KickMid.wav
256,192,136112,1,0,0:0:0:20:
182,192,136219,1,0,0:0:0:60:CymbalFSU.wav
109,192,136219,1,0,0:0:0:8:
36,192,136219,1,0,0:0:0:8:
329,192,136219,1,0,0:0:0:60:KickMid.wav
402,192,136219,1,0,0:0:0:60:DeepBassKick.wav
256,192,136326,1,0,0:0:0:13:
475,192,136326,1,0,0:0:0:60:KickMid.wav
402,192,136433,1,0,0:0:0:60:KickMid.wav
329,192,136433,1,0,0:0:0:8:
36,192,136433,1,0,0:0:0:8:
109,192,136433,1,0,0:0:0:60:DeepBassKick.wav
182,192,136540,1,0,0:0:0:60:KickMid.wav
256,192,136540,1,0,0:0:0:13:
475,192,136648,1,0,0:0:0:10:
36,192,136648,1,0,0:0:0:60:KickMid.wav
256,192,136648,1,0,0:0:0:60:DeepBassKick.wav
109,192,136701,1,0,0:0:0:60:KickMid.wav
329,192,136701,1,0,0:0:0:20:
182,192,136755,1,0,0:0:0:60:KickMid.wav
402,192,136755,1,0,0:0:0:13:
256,192,136808,1,0,0:0:0:20:
475,192,136808,1,0,0:0:0:60:KickMid.wav
109,192,136862,1,0,0:0:0:60:DeepBassKick.wav
329,192,136862,128,0,137076:0:0:0:8:
36,192,136862,1,0,0:0:0:60:KickMid.wav
402,192,136969,1,0,0:0:0:60:KickMid.wav
182,192,136969,1,0,0:0:0:20:
182,192,137076,1,0,0:0:0:60:KickMid.wav
109,192,137076,1,0,0:0:0:8:
36,192,137076,1,0,0:0:0:60:CymbalFSU.wav
256,192,137076,1,0,0:0:0:60:DeepBassKick.wav
475,192,137076,1,0,0:0:0:8:
402,192,137183,1,0,0:0:0:13:
329,192,137183,1,0,0:0:0:60:KickMid.wav
256,192,137237,1,0,0:0:0:20:
182,192,137237,1,0,0:0:0:20:
109,192,137290,1,0,0:0:0:60:KickMid.wav
36,192,137290,1,0,0:0:0:60:DeepBassKick.wav
402,192,137290,1,0,0:0:0:8:
475,192,137290,1,0,0:0:0:8:
329,192,137398,1,0,0:0:0:13:
256,192,137398,1,0,0:0:0:60:KickMid.wav
182,192,137451,1,0,0:0:0:20:
109,192,137451,1,0,0:0:0:60:KickMid.wav
329,192,137505,1,0,0:0:0:60:KickMid.wav
402,192,137505,1,0,0:0:0:60:DeepBassKick.wav
36,192,137505,1,0,0:0:0:10:
256,192,137558,1,0,0:0:0:20:
182,192,137558,1,0,0:0:0:60:KickMid.wav
402,192,137612,1,0,0:0:0:60:KickMid.wav
475,192,137612,1,0,0:0:0:13:
329,192,137665,1,0,0:0:0:60:KickMid.wav
256,192,137665,1,0,0:0:0:20:
182,192,137719,1,0,0:0:0:8:
109,192,137719,1,0,0:0:0:60:DeepBassKick.wav
36,192,137719,128,0,137933:0:0:0:60:KickMid.wav
475,192,137719,1,0,0:0:0:8:
256,192,137826,1,0,0:0:0:20:
329,192,137826,1,0,0:0:0:60:KickMid.wav
475,192,137933,1,0,0:0:0:60:DeepBassKick.wav
256,192,137933,1,0,0:0:0:8:
329,192,137933,1,0,0:0:0:8:
402,192,137933,1,0,0:0:0:60:CymbalFSU.wav
182,192,137933,1,0,0:0:0:60:KickMid.wav
36,192,137987,1,0,0:0:0:20:
109,192,137987,1,0,0:0:0:60:KickMid.wav
329,192,138040,1,0,0:0:0:60:KickMid.wav
402,192,138040,1,0,0:0:0:13:
475,192,138040,1,0,0:0:0:0:
256,192,138094,1,0,0:0:0:20:
182,192,138094,1,0,0:0:0:60:KickMid.wav
109,192,138148,1,0,0:0:0:60:KickMid.wav
36,192,138148,1,0,0:0:0:60:DeepBassKick.wav
475,192,138148,128,0,138362:0:0:0:8:
402,192,138148,1,0,0:0:0:8:
329,192,138255,1,0,0:0:0:20:
256,192,138255,1,0,0:0:0:60:KickMid.wav
329,192,138362,1,0,0:0:0:60:DeepBassKick.wav
256,192,138362,1,0,0:0:0:8:
36,192,138362,1,0,0:0:0:8:
109,192,138362,1,0,0:0:0:60:KickMid.wav
182,192,138362,1,0,0:0:0:60:CymbalFSU.wav
475,192,138415,1,0,0:0:0:20:
402,192,138415,1,0,0:0:0:60:KickMid.wav
182,192,138469,1,0,0:0:0:60:KickMid.wav
109,192,138469,1,0,0:0:0:13:
36,192,138469,1,0,0:0:0:0:
256,192,138523,1,0,0:0:0:60:KickMid.wav
329,192,138523,1,0,0:0:0:20:
36,192,138576,128,0,138790:0:0:0:60:KickMid.wav
475,192,138576,1,0,0:0:0:8:
402,192,138576,1,0,0:0:0:8:
109,192,138576,1,0,0:0:0:60:DeepBassKick.wav
256,192,138683,1,0,0:0:0:20:
182,192,138683,1,0,0:0:0:60:KickMid.wav
256,192,138790,1,0,0:0:0:60:DeepBassKick.wav
329,192,138790,1,0,0:0:0:8:
475,192,138790,1,0,0:0:0:60:CymbalFSU.wav
109,192,138790,1,0,0:0:0:60:KickMid.wav
402,192,138790,1,0,0:0:0:8:
402,192,138898,1,0,0:0:0:60:KickMid.wav
475,192,138898,1,0,0:0:0:0:
182,192,139005,1,0,0:0:0:8:
109,192,139005,1,0,0:0:0:60:KickMid.wav
36,192,139005,1,0,0:0:0:8:
256,192,139005,1,0,0:0:0:60:DeepBassKick.wav
329,192,139040,1,0,0:0:0:40:
402,192,139076,1,0,0:0:0:40:
36,192,139112,1,0,0:0:0:20:
475,192,139112,1,0,0:0:0:60:KickMid.wav
109,192,139112,1,0,0:0:0:0:
182,192,139112,1,0,0:0:0:0:
329,192,139165,1,0,0:0:0:20:
256,192,139165,1,0,0:0:0:20:
36,192,139219,1,0,0:0:0:60:KickMid.wav
109,192,139219,1,0,0:0:0:60:DeepBassKick.wav
402,192,139219,1,0,0:0:0:8:
475,192,139219,128,0,139433:0:0:0:8:
329,192,139326,1,0,0:0:0:60:KickMid.wav
256,192,139326,1,0,0:0:0:0:
36,192,139433,1,0,0:0:0:60:DeepBassKick.wav
109,192,139433,1,0,0:0:0:60:CymbalFSU.wav
182,192,139433,1,0,0:0:0:60:KickMid.wav
256,192,139460,1,0,0:0:0:40:
329,192,139487,1,0,0:0:0:40:
402,192,139487,1,0,0:0:0:40:
475,192,139514,1,0,0:0:0:13:
36,192,139540,1,0,0:0:0:13:
109,192,139540,1,0,0:0:0:13:
182,192,139540,1,0,0:0:0:0:
256,192,139567,1,0,0:0:0:40:
329,192,139594,1,0,0:0:0:40:
402,192,139594,1,0,0:0:0:0:
475,192,139621,1,0,0:0:0:40:
182,192,139648,1,0,0:0:0:60:CymbalFSU.wav
109,192,139648,1,0,0:0:0:60:KickMid.wav
36,192,139648,128,0,139862:0:0:0:60:DeepBassKick.wav
256,192,139862,128,0,140076:0:0:0:40:
475,192,139969,1,0,0:0:0:40:
402,192,140023,1,0,0:0:0:0:
182,192,140076,128,0,140290:0:0:0:10:
109,192,140076,1,0,0:0:0:10:
36,192,140076,1,0,0:0:0:60:DeepBassKick.wav
329,192,140076,1,0,0:0:0:60:KickMid.wav
109,192,140290,128,0,140505:0:0:0:40:
402,192,140505,128,0,140719:0:0:0:40:
475,192,140505,128,0,141362:0:0:0:0:
256,192,140612,128,0,140826:0:0:0:40:
329,192,140719,128,0,140933:0:0:0:40:
182,192,140826,128,0,141040:0:0:0:40:
256,192,140933,128,0,141148:0:0:0:40:
109,192,141040,128,0,141255:0:0:0:40:
182,192,141148,128,0,141362:0:0:0:20:
36,192,141255,128,0,141362:0:0:0:40:
109,192,141790,1,0,0:0:0:60:KickMid.wav
36,192,141790,1,0,0:0:0:60:CymbalFSU.wav
402,192,141790,1,0,0:0:0:8:
475,192,141790,1,0,0:0:0:60:DeepBassKick.wav
256,192,141790,128,0,144790:0:0:0:8:
182,192,142219,1,0,0:0:0:40:
329,192,142648,1,0,0:0:0:40:
182,192,143076,1,0,0:0:0:40:
329,192,143505,1,0,0:0:0:40:
182,192,143933,1,0,0:0:0:40:
329,192,144362,1,0,0:0:0:40:
36,192,144790,128,0,144951:0:0:0:0:
109,192,144790,128,0,144951:0:0:0:0:
182,192,144790,128,0,144951:0:0:0:0:
329,192,144790,128,0,144951:0:0:0:0:
402,192,144790,128,0,144951:0:0:0:0:
475,192,144790,128,0,144951:0:0:0:0:
