osu file format v14

[General]
AudioFilename: Doppelganger.mp3
AudioLeadIn: 0
PreviewTime: 19648
Countdown: 0
SampleSet: None
StackLeniency: 0.7
Mode: 3
LetterboxInBreaks: 0
SpecialStyle: 0
WidescreenStoryboard: 0

[Editor]
DistanceSpacing: 2
BeatDivisor: 4
GridSize: 4
TimelineZoom: 2.899999

[Metadata]
Title:Doppelganger
TitleUnicode:Doppelganger
Artist:LeaF
ArtistUnicode:LeaF
Creator:Jinjin
Version:Insane
Source:BMS
Tags:bms of fighters 2013 bof frenz come to an end einsamkeit jakads lude evening
BeatmapID:1023965
BeatmapSetID:407153

[Difficulty]
HPDrainRate:8
CircleSize:7
OverallDifficulty:7.5
ApproachRate:5
SliderMultiplier:1.4
SliderTickRate:1

[Events]
//Background and Video events
0,0,"doppelganger bg new.jpg",0,0
//Break Periods
//Storyboard Layer 0 (Background)
//Storyboard Layer 1 (Fail)
//Storyboard Layer 2 (Pass)
//Storyboard Layer 3 (Foreground)
//Storyboard Sound Samples

[TimingPoints]
791,214.285714285714,4,3,0,30,1,0
898,-66.6666666666667,4,3,0,30,0,0
951,-133.333333333333,4,3,0,30,0,0
1112,-66.6666666666667,4,3,0,30,0,0
1165,-133.333333333333,4,3,0,30,0,0
1326,-66.6666666666667,4,3,0,30,0,0
1380,-133.333333333333,4,3,0,30,0,0
1540,-66.6666666666667,4,3,0,30,0,0
1594,-133.333333333333,4,3,0,30,0,0
1755,-100,4,3,0,30,0,0
2290,-66.6666666666667,4,3,0,30,0,0
2344,-133.333333333333,4,3,0,30,0,0
2505,-66.6666666666667,4,3,0,30,0,0
2558,-133.333333333333,4,3,0,30,0,0
2826,-66.6666666666667,4,3,0,30,0,0
2880,-133.333333333333,4,3,0,30,0,0
3040,-66.6666666666667,4,3,0,30,0,0
3094,-133.333333333333,4,3,0,30,0,0
3255,-100,4,3,0,30,0,0
5933,-111.111111111111,4,3,0,30,0,0
7433,-50,4,3,0,30,0,0
7460,-500,4,3,0,30,0,0
7487,-50,4,3,0,30,0,0
7514,-500,4,3,0,30,0,0
7540,-50,4,3,0,30,0,0
7567,-500,4,3,0,30,0,0
7594,-50,4,3,0,30,0,0
7621,-500,4,3,0,30,0,0
7648,-100,4,3,0,30,0,0
9362,-111.111111111111,4,3,0,30,0,0
10219,-100,4,3,0,30,0,0
14505,-66.6666666666667,4,3,0,30,0,0
14558,-100,4,3,0,30,0,0
16219,-66.6666666666667,4,3,0,30,0,0
16273,-100,4,3,0,30,0,0
16540,-66.6666666666667,4,3,0,30,0,0
16594,-100,4,3,0,30,0,0
16862,-66.6666666666667,4,3,0,30,0,0
16915,-100,4,3,0,30,0,0
17183,-66.6666666666667,4,3,0,30,0,0
17237,-100,4,3,0,30,0,0
17505,-50,4,3,0,30,0,0
17612,-83.3333333333333,4,3,0,30,0,0
17665,-90.9090909090909,4,3,0,30,0,0
17719,-100,4,3,0,30,0,0
17773,-111.111111111111,4,3,0,30,0,0
17826,-125,4,3,0,30,0,0
17880,-142.857142857143,4,3,0,30,0,0
17933,-100,4,3,0,30,0,0
29933,-25,4,3,0,30,0,0
29960,-100,4,3,0,30,0,0
30362,-50,4,3,0,30,0,0
30415,-500,4,3,0,30,0,0
30469,-50,4,3,0,30,0,0
30523,-500,4,3,0,30,0,0
30576,-50,4,3,0,30,0,0
30630,-500,4,3,0,30,0,0
30683,-50,4,3,0,30,0,0
30737,-500,4,3,0,30,0,0
30790,-50,4,3,0,30,0,0
30844,-500,4,3,0,30,0,0
30898,-50,4,3,0,30,0,0
30951,-500,4,3,0,30,0,0
31005,-50,4,3,0,30,0,0
31058,-500,4,3,0,30,0,0
31112,-66.6666666666667,4,3,0,30,0,0
31165,-100,4,3,0,30,0,0
31648,-33.3333333333333,4,3,0,30,0,0
31701,-125,4,3,0,30,0,0
31969,-33.3333333333333,4,3,0,30,0,0
32023,-125,4,3,0,30,0,0
32290,-33.3333333333333,4,3,0,30,0,0
32344,-125,4,3,0,30,0,0
32612,-33.3333333333333,4,3,0,30,0,0
32665,-125,4,3,0,30,0,0
32933,-33.3333333333333,4,3,0,30,0,0
33308,-125,4,3,0,30,0,0
33576,-50,4,3,0,30,0,0
33630,-100,4,3,0,30,0,0
33790,-50,4,3,0,30,0,0
33844,-100,4,3,0,30,0,0
34005,-50,4,3,0,30,0,0
34058,-100,4,3,0,30,0,0
34219,-33.3333333333333,4,3,0,30,0,0
34273,-125,4,3,0,30,0,0
34540,-33.3333333333333,4,3,0,30,0,0
34594,-125,4,3,0,30,0,0
34862,-33.3333333333333,4,3,0,30,0,0
34915,-125,4,3,0,30,0,0
35183,-33.3333333333333,4,3,0,30,0,0
35237,-125,4,3,0,30,0,0
35505,-100,4,3,0,30,0,0
38826,-50,4,3,0,30,0,0
38880,-100,4,3,0,30,0,0
40648,-66.6666666666667,4,3,0,30,0,0
40755,-142.857142857143,4,3,0,30,0,0
40862,-66.6666666666667,4,3,0,30,0,0
40969,-142.857142857143,4,3,0,30,0,0
41076,-66.6666666666667,4,3,0,30,0,0
41183,-142.857142857143,4,3,0,30,0,0
41290,-66.6666666666667,4,3,0,30,0,0
41398,-142.857142857143,4,3,0,30,0,0
41505,-100,4,3,0,30,0,0
43540,-50,4,3,0,30,0,0
43594,-111.111111111111,4,3,0,30,0,0
43755,-100,4,3,0,30,0,0
43862,-55.5555555555556,4,3,0,30,0,0
43915,-142.857142857143,4,3,0,30,0,0
44076,-55.5555555555556,4,3,0,30,0,0
44130,-142.857142857143,4,3,0,30,0,0
44290,-55.5555555555556,4,3,0,30,0,0
44344,-142.857142857143,4,3,0,30,0,0
44505,-100,4,3,0,30,0,0
47505,-55.5555555555556,4,3,0,30,0,0
47558,-142.857142857143,4,3,0,30,0,0
47719,-55.5555555555556,4,3,0,30,0,0
47773,-142.857142857143,4,3,0,30,0,0
47933,-55.5555555555556,4,3,0,30,0,0
47987,-142.857142857143,4,3,0,30,0,0
48148,-100,4,3,0,30,0,0
48362,-66.6666666666667,4,3,0,30,0,0
48415,-142.857142857143,4,3,0,30,0,0
48469,-66.6666666666667,4,3,0,30,0,0
48523,-142.857142857143,4,3,0,30,0,0
48576,-66.6666666666667,4,3,0,30,0,0
48630,-142.857142857143,4,3,0,30,0,0
48683,-66.6666666666667,4,3,0,30,0,0
48737,-142.857142857143,4,3,0,30,0,0
48790,-100,4,3,0,30,0,0
49112,-66.6666666666667,4,3,0,30,0,0
49165,-142.857142857143,4,3,0,30,0,0
49219,-66.6666666666667,4,3,0,30,0,0
49273,-142.857142857143,4,3,0,30,0,0
49326,-66.6666666666667,4,3,0,30,0,0
49380,-142.857142857143,4,3,0,30,0,0
49433,-100,4,3,0,30,0,0
49648,-58.8235294117647,4,3,0,30,0,0
49701,-149.253731343284,4,3,0,30,0,0
49755,-100,4,3,0,30,0,0
49969,-58.8235294117647,4,3,0,30,0,0
50023,-149.253731343284,4,3,0,30,0,0
50076,-100,4,3,0,30,0,0
53826,-66.6666666666667,4,3,0,30,0,0
53880,-100,4,3,0,30,0,0
60790,-71.4285714285714,4,3,0,30,0,0
60844,-149.253731343284,4,3,0,30,0,0
61005,-71.4285714285714,4,3,0,30,0,0
61058,-149.253731343284,4,3,0,30,0,0
61219,-111.111111111111,4,3,0,30,0,0
63362,-100,4,3,0,30,0,0
66790,-62.5,4,3,0,30,0,0
66844,-149.253731343284,4,3,0,30,0,0
67005,-62.5,4,3,0,30,0,0
67058,-149.253731343284,4,3,0,30,0,0
67219,-62.5,4,3,0,30,0,0
67273,-149.253731343284,4,3,0,30,0,0
67433,-62.5,4,3,0,30,0,0
67487,-149.253731343284,4,3,0,30,0,0
67648,-100,4,3,0,30,0,0
69362,-66.6666666666667,4,3,0,30,0,0
69415,-133.333333333333,4,3,0,30,0,0
69576,-100,4,3,0,30,0,0
69683,-66.6666666666667,4,3,0,30,0,0
69737,-133.333333333333,4,3,0,30,0,0
69898,-100,4,3,0,30,0,0
70540,-66.6666666666667,4,3,0,30,0,0
70594,-133.333333333333,4,3,0,30,0,0
70755,-100,4,3,0,30,0,0
71076,-66.6666666666667,4,3,0,30,0,0
71130,-133.333333333333,4,3,0,30,0,0
71290,-66.6666666666667,4,3,0,30,0,0
71344,-133.333333333333,4,3,0,30,0,0
71505,-100,4,3,0,30,0,0
71612,-66.6666666666667,4,3,0,30,0,0
71665,-133.333333333333,4,3,0,30,0,0
71826,-100,4,3,0,30,0,0
72790,-66.6666666666667,4,3,0,30,0,0
72844,-133.333333333333,4,3,0,30,0,0
73005,-100,4,3,0,30,0,0
73112,-66.6666666666667,4,3,0,30,0,0
73165,-133.333333333333,4,3,0,30,0,0
73326,-100,4,3,0,30,0,0
73969,-66.6666666666667,4,3,0,30,0,0
74023,-133.333333333333,4,3,0,30,0,0
74183,-100,4,3,0,30,0,0
74505,-66.6666666666667,4,3,0,30,0,0
74558,-133.333333333333,4,3,0,30,0,0
74719,-66.6666666666667,4,3,0,30,0,0
74773,-133.333333333333,4,3,0,30,0,0
74933,-100,4,3,0,30,0,0
75040,-66.6666666666667,4,3,0,30,0,0
75094,-133.333333333333,4,3,0,30,0,0
75255,-100,4,3,0,30,0,0
75362,-105.263157894737,4,3,0,30,0,0
76219,-66.6666666666667,4,3,0,30,0,0
76273,-111.111111111111,4,3,0,30,0,0
76648,-66.6666666666667,4,3,0,30,0,0
76701,-111.111111111111,4,3,0,30,0,0
77076,-66.6666666666667,4,3,0,30,0,0
77130,-111.111111111111,4,3,0,30,0,0
77505,-66.6666666666667,4,3,0,30,0,0
77558,-111.111111111111,4,3,0,30,0,0
77933,-66.6666666666667,4,3,0,30,0,0
77987,-111.111111111111,4,3,0,30,0,0
78362,-66.6666666666667,4,3,0,30,0,0
78415,-111.111111111111,4,3,0,30,0,0
78790,-66.6666666666667,4,3,0,30,0,0
78844,-111.111111111111,4,3,0,30,0,0
79219,-66.6666666666667,4,3,0,30,0,0
79273,-111.111111111111,4,3,0,30,0,0
79648,-66.6666666666667,4,3,0,30,0,0
79701,-111.111111111111,4,3,0,30,0,0
80076,-66.6666666666667,4,3,0,30,0,0
80130,-111.111111111111,4,3,0,30,0,0
80505,-66.6666666666667,4,3,0,30,0,0
80558,-111.111111111111,4,3,0,30,0,0
80933,-66.6666666666667,4,3,0,30,0,0
80987,-111.111111111111,4,3,0,30,0,0
81362,-66.6666666666667,4,3,0,30,0,0
81469,-200,4,3,0,30,0,0
81576,-66.6666666666667,4,3,0,30,0,0
81630,-200,4,3,0,30,0,0
81683,-71.4285714285714,4,3,0,30,0,0
81790,-166.666666666667,4,3,0,30,0,0
81862,-100,4,3,0,30,0,0
82862,-66.6666666666667,4,3,0,30,0,0
82889,-200,4,3,0,30,0,0
82915,-66.6666666666667,4,3,0,30,0,0
82942,-200,4,3,0,30,0,0
82969,-66.6666666666667,4,3,0,30,0,0
82996,-200,4,3,0,30,0,0
83023,-66.6666666666667,4,3,0,30,0,0
83049,-200,4,3,0,30,0,0
83076,-100,4,3,0,30,0,0
83933,-113.636363636364,4,3,0,30,0,0
84362,-71.4285714285714,4,3,0,30,0,0
84415,-111.111111111111,4,3,0,30,0,0
84576,-66.6666666666667,4,3,0,30,0,0
84630,-111.111111111111,4,3,0,30,0,0
84790,-100,4,3,0,30,0,0
85219,-92.5925925925926,4,3,0,30,0,0
85433,-89.2857142857143,4,3,0,30,0,0
85648,-95.2380952380952,4,3,0,30,0,0
85969,-94.3396226415094,4,3,0,30,0,0
86076,-92.5925925925926,4,3,0,30,0,0
86183,-90.9090909090909,4,3,0,30,0,0
86290,-89.2857142857143,4,3,0,30,0,0
86344,-87.719298245614,4,3,0,30,0,0
86398,-86.2068965517241,4,3,0,30,0,0
86451,-84.7457627118644,4,3,0,30,0,0
86505,-100,4,3,0,30,0,0
86933,-86.9565217391304,4,3,0,30,0,0
87040,-111.111111111111,4,3,0,30,0,0
87148,-86.9565217391304,4,3,0,30,0,0
87255,-125,4,3,0,30,0,0
87362,-111.111111111111,4,3,0,30,0,0
87576,-105.263157894737,4,3,0,30,0,0
87630,-100,4,3,0,30,0,0
87683,-95.2380952380952,4,3,0,30,0,0
87737,-90.9090909090909,4,3,0,30,0,0
87790,-100,4,3,0,30,0,0
88005,-83.3333333333333,4,3,0,30,0,0
88219,-100,4,3,0,30,0,0
88648,-108.695652173913,4,3,0,30,0,0
89076,-54.054054054054,4,3,0,30,0,0
89183,-200,4,3,0,30,0,0
89290,-54.054054054054,4,3,0,30,0,0
89398,-200,4,3,0,30,0,0
89505,-100,4,3,0,30,0,0
92933,-50,4,3,0,30,0,0
93040,-100,4,3,0,30,0,0
93255,-142.857142857143,4,3,0,30,0,0
93362,-113.636363636364,4,3,0,30,0,0
93576,-106.382978723404,4,3,0,30,0,0
93790,-100,4,3,0,30,0,0
95290,-71.4285714285714,4,3,0,30,0,0
95344,-142.857142857143,4,3,0,30,0,0
95398,-71.4285714285714,4,3,0,30,0,0
95451,-142.857142857143,4,3,0,30,0,0
95505,-71.4285714285714,4,3,0,30,0,0
95558,-142.857142857143,4,3,0,30,0,0
95612,-71.4285714285714,4,3,0,30,0,0
95665,-142.857142857143,4,3,0,30,0,0
95719,-71.4285714285714,4,3,0,30,0,0
95773,-142.857142857143,4,3,0,30,0,0
95826,-10,4,3,0,30,0,0
95880,-142.857142857143,4,3,0,30,0,0
96148,-66.6666666666667,4,3,0,30,0,0
96255,-142.857142857143,4,3,0,30,0,0
96469,-66.6666666666667,4,3,0,30,0,0
96576,-142.857142857143,4,3,0,30,0,0
96790,-100,4,3,0,30,0,0
97540,-62.5,4,3,0,30,0,0
97648,-142.857142857143,4,3,0,30,0,0
97862,-62.5,4,3,0,30,0,0
97969,-142.857142857143,4,3,0,30,0,0
98183,-62.5,4,3,0,30,0,0
98290,-142.857142857143,4,3,0,30,0,0
98505,-100,4,3,0,30,0,0
99255,-66.6666666666667,4,3,0,30,0,0
99308,-125,4,3,0,30,0,0
99362,-66.6666666666667,4,3,0,30,0,0
99469,-142.857142857143,4,3,0,30,0,0
99576,-66.6666666666667,4,3,0,30,0,0
99683,-142.857142857143,4,3,0,30,0,0
99898,-66.6666666666667,4,3,0,30,0,0
99951,-125,4,3,0,30,0,0
100005,-100,4,3,0,30,0,0
103433,-55.5555555555556,4,3,0,30,0,0
103540,-142.857142857143,4,3,0,30,0,0
103648,-100,4,3,0,30,0,0
105790,-55.5555555555556,4,3,0,30,0,0
105898,-142.857142857143,4,3,0,30,0,0
106005,-10,4,3,0,30,0,0
106032,-111.111111111111,4,3,0,30,0,0
106433,-100,4,3,0,30,0,0
109648,-10,4,3,0,30,0,0
109674,-125,4,3,0,30,0,0
111362,-117.647058823529,4,3,0,30,0,0
113076,-111.111111111111,4,3,0,30,0,0
114790,-105.263157894737,4,3,0,30,0,0
116505,-100,4,3,0,30,0,0
124005,-66.6666666666667,4,3,0,30,0,0
124058,-131.578947368421,4,3,0,30,0,0
124219,-100,4,3,0,30,0,1
141362,-10,4,3,0,30,0,0
141415,-142.857142857143,4,3,0,30,0,0
143076,-117.647058823529,4,3,0,30,0,0
143505,-100,4,3,0,30,0,0
143933,-83.3333333333333,4,3,0,30,0,0
144362,-66.6666666666667,4,3,0,30,0,0

[HitObjects]
36,192,791,5,0,0:0:0:60:KickMid.wav
475,192,791,1,4,0:0:0:30:
256,192,791,1,2,0:0:0:30:
36,192,898,1,0,0:0:0:60:KickMid.wav
256,192,898,1,2,0:0:0:30:
182,192,1112,1,0,0:0:0:60:KickMid.wav
475,192,1112,1,4,0:0:0:30:
329,192,1112,1,2,0:0:0:30:
182,192,1326,1,0,0:0:0:60:KickMid.wav
329,192,1326,1,2,0:0:0:30:
475,192,1326,1,4,0:0:0:30:
182,192,1540,1,0,0:0:0:60:KickMid.wav
329,192,1540,1,2,0:0:0:30:
475,192,1540,1,4,0:0:0:30:
36,192,1755,1,0,0:0:0:60:KickMid.wav
256,192,1755,1,2,0:0:0:30:
109,192,1755,1,4,0:0:0:30:
182,192,1862,1,0,0:0:0:60:KickMid.wav
329,192,1862,1,4,0:0:0:30:
109,192,1969,1,0,0:0:0:60:KickMid.wav
256,192,1969,1,4,0:0:0:30:
182,192,2076,1,0,0:0:0:60:KickMid.wav
329,192,2076,1,4,0:0:0:30:
475,192,2076,1,2,0:0:0:30:
36,192,2183,1,0,0:0:0:30:
109,192,2237,1,0,0:0:0:30:
182,192,2290,1,0,0:0:0:60:KickMid.wav
256,192,2290,1,4,0:0:0:30:
402,192,2290,1,2,0:0:0:30:
36,192,2398,1,0,0:0:0:30:
475,192,2505,1,0,0:0:0:60:KickMid.wav
256,192,2505,1,4,0:0:0:30:
402,192,2505,1,2,0:0:0:30:
109,192,2612,1,0,0:0:0:30:
182,192,2719,1,0,0:0:0:60:KickMid.wav
329,192,2719,1,2,0:0:0:30:
36,192,2719,1,4,0:0:0:30:
182,192,2826,1,0,0:0:0:60:KickMid.wav
329,192,2826,1,2,0:0:0:30:
256,192,2933,1,0,0:0:0:30:
475,192,3040,1,0,0:0:0:60:KickMid.wav
109,192,3040,1,4,0:0:0:30:
402,192,3040,1,2,0:0:0:30:
256,192,3148,1,0,0:0:0:30:
475,192,3255,1,0,0:0:0:60:KickMid.wav
402,192,3255,1,4,0:0:0:30:
109,192,3255,1,2,0:0:0:30:
256,192,3362,1,0,0:0:0:30:
329,192,3469,1,8,0:0:0:30:
475,192,3469,1,0,0:0:0:30:
329,192,3576,1,8,0:0:0:30:
475,192,3576,1,0,0:0:0:30:
329,192,3683,1,8,0:0:0:30:
475,192,3683,1,0,0:0:0:30:
36,192,3790,128,0,4219:0:0:0:60:KickMid.wav
109,192,3790,128,2,4219:0:0:0:30:
182,192,4219,1,0,0:0:0:60:DeepBassKick.wav
329,192,4219,1,0,0:0:0:60:CymbalFSU.wav
475,192,4219,1,0,0:0:0:60:KickMid.wav
256,192,4326,1,0,0:0:0:30:
36,192,4433,1,0,0:0:0:60:KickMid.wav
109,192,4433,1,0,0:0:0:30:
329,192,4433,1,0,0:0:0:30:
256,192,4540,1,0,0:0:0:30:
182,192,4648,1,0,0:0:0:60:KickMid.wav
109,192,4648,1,0,0:0:0:30:
402,192,4648,1,0,0:0:0:30:
402,192,4755,1,0,0:0:0:30:
109,192,4755,1,0,0:0:0:30:
182,192,4862,1,0,0:0:0:60:KickMid.wav
329,192,4862,1,0,0:0:0:30:
402,192,4969,1,0,0:0:0:30:
36,192,4969,1,0,0:0:0:30:
256,192,5076,1,0,0:0:0:60:KickMid.wav
329,192,5076,1,0,0:0:0:30:
182,192,5183,1,0,0:0:0:30:
475,192,5183,1,0,0:0:0:30:
402,192,5290,1,0,0:0:0:60:KickMid.wav
109,192,5290,1,0,0:0:0:30:
36,192,5290,1,0,0:0:0:30:
256,192,5398,1,0,0:0:0:30:
182,192,5505,1,0,0:0:0:60:KickMid.wav
109,192,5505,1,0,0:0:0:30:
475,192,5505,1,0,0:0:0:30:
256,192,5612,1,0,0:0:0:30:
109,192,5719,1,0,0:0:0:60:KickMid.wav
36,192,5719,1,0,0:0:0:30:
402,192,5719,1,0,0:0:0:30:
256,192,5826,1,0,0:0:0:30:
36,192,5933,128,0,7648:0:0:0:30:
329,192,5933,1,4,0:0:0:30:
475,192,5933,1,0,0:0:0:30:
182,192,6040,1,2,0:0:0:30:
475,192,6148,1,4,0:0:0:30:
402,192,6148,1,0,0:0:0:30:
182,192,6255,1,2,0:0:0:30:
329,192,6362,1,0,0:0:0:30:
475,192,6362,1,4,0:0:0:30:
182,192,6469,1,2,0:0:0:30:
402,192,6576,1,0,0:0:0:30:
475,192,6576,1,4,0:0:0:30:
182,192,6683,1,2,0:0:0:30:
329,192,6790,1,0,0:0:0:30:
475,192,6790,1,4,0:0:0:30:
182,192,6898,1,2,0:0:0:30:
402,192,7005,1,0,0:0:0:30:
475,192,7005,1,4,0:0:0:30:
182,192,7112,1,2,0:0:0:30:
329,192,7219,1,0,0:0:0:30:
475,192,7219,1,4,0:0:0:30:
182,192,7326,1,2,0:0:0:30:
402,192,7433,1,0,0:0:0:60:KickMid.wav
475,192,7433,1,0,0:0:0:30:
329,192,7487,1,0,0:0:0:60:KickMid.wav
256,192,7540,1,0,0:0:0:60:KickMid.wav
182,192,7594,1,0,0:0:0:60:KickMid.wav
109,192,7648,1,0,0:0:0:60:DeepBassKick.wav
402,192,7648,1,0,0:0:0:60:CymbalFSU.wav
475,192,7648,1,0,0:0:0:60:KickMid.wav
256,192,7755,1,0,0:0:0:30:
182,192,7862,1,0,0:0:0:60:KickMid.wav
36,192,7862,1,0,0:0:0:30:
402,192,7862,1,0,0:0:0:30:
256,192,7969,1,0,0:0:0:30:
109,192,8076,1,0,0:0:0:60:KickMid.wav
329,192,8076,1,0,0:0:0:30:
475,192,8076,1,0,0:0:0:30:
109,192,8183,1,0,0:0:0:30:
475,192,8183,1,0,0:0:0:30:
256,192,8290,1,0,0:0:0:60:KickMid.wav
329,192,8290,1,0,0:0:0:30:
402,192,8398,1,0,0:0:0:30:
182,192,8398,1,0,0:0:0:30:
256,192,8505,1,0,0:0:0:60:KickMid.wav
36,192,8505,1,0,0:0:0:30:
475,192,8612,1,0,0:0:0:30:
182,192,8612,1,0,0:0:0:30:
402,192,8719,1,0,0:0:0:60:KickMid.wav
36,192,8719,1,0,0:0:0:30:
109,192,8719,1,0,0:0:0:30:
256,192,8826,1,0,0:0:0:30:
182,192,8933,1,0,0:0:0:60:KickMid.wav
329,192,8933,1,0,0:0:0:30:
475,192,8933,1,0,0:0:0:30:
256,192,9040,1,0,0:0:0:30:
36,192,9148,1,0,0:0:0:60:KickMid.wav
182,192,9148,1,0,0:0:0:30:
329,192,9148,1,0,0:0:0:30:
256,192,9255,1,0,0:0:0:30:
475,192,9362,128,0,10219:0:0:0:30:
182,192,9362,1,4,0:0:0:30:
36,192,9362,1,0,0:0:0:30:
329,192,9469,1,2,0:0:0:30:
36,192,9576,1,4,0:0:0:30:
109,192,9576,1,0,0:0:0:30:
329,192,9683,1,2,0:0:0:30:
36,192,9790,1,0,0:0:0:30:
182,192,9790,1,4,0:0:0:30:
329,192,9898,1,2,0:0:0:30:
36,192,10005,1,0,0:0:0:30:
109,192,10005,1,4,0:0:0:30:
329,192,10112,1,2,0:0:0:30:
36,192,10219,1,0,0:0:0:60:DeepBassKick.wav
109,192,10219,1,0,0:0:0:60:CymbalFSU.wav
402,192,10219,1,0,0:0:0:60:KickMid.wav
182,192,10273,1,0,0:0:0:30:
256,192,10326,1,0,0:0:0:30:
329,192,10380,1,0,0:0:0:30:
109,192,10433,1,0,0:0:0:60:DeepBassKick.wav
475,192,10433,1,0,0:0:0:60:CymbalFSU.wav
402,192,10433,1,0,0:0:0:60:KickMid.wav
182,192,10487,1,0,0:0:0:30:
329,192,10540,1,0,0:0:0:30:
402,192,10594,1,0,0:0:0:30:
36,192,10648,1,0,0:0:0:60:DeepBassKick.wav
109,192,10648,1,0,0:0:0:60:CymbalFSU.wav
256,192,10648,1,0,0:0:0:60:KickMid.wav
329,192,10701,1,0,0:0:0:30:
402,192,10755,1,0,0:0:0:30:
475,192,10808,1,0,0:0:0:30:
36,192,10862,1,0,0:0:0:30:
109,192,10915,1,0,0:0:0:30:
182,192,10969,1,0,0:0:0:30:
256,192,11023,1,0,0:0:0:30:
329,192,11076,1,0,0:0:0:60:KickMid.wav
475,192,11076,1,4,0:0:0:30:
36,192,11076,1,4,0:0:0:30:
109,192,11183,1,2,0:0:0:30:
182,192,11290,1,0,0:0:0:60:KickMid.wav
329,192,11290,1,4,0:0:0:30:
36,192,11398,1,2,0:0:0:30:
256,192,11505,1,0,0:0:0:60:KickMid.wav
402,192,11505,1,4,0:0:0:30:
109,192,11612,1,2,0:0:0:30:
329,192,11719,1,0,0:0:0:60:KickMid.wav
475,192,11719,1,4,0:0:0:30:
182,192,11826,1,2,0:0:0:30:
402,192,11933,1,0,0:0:0:60:KickMid.wav
475,192,11933,1,4,0:0:0:30:
182,192,12040,1,2,0:0:0:30:
329,192,12148,1,0,0:0:0:60:KickMid.wav
475,192,12148,1,4,0:0:0:30:
109,192,12255,1,2,0:0:0:30:
256,192,12362,1,0,0:0:0:60:KickMid.wav
402,192,12362,1,4,0:0:0:30:
36,192,12469,1,2,0:0:0:30:
182,192,12576,1,0,0:0:0:60:KickMid.wav
329,192,12576,1,4,0:0:0:30:
36,192,12683,1,2,0:0:0:30:
402,192,12790,1,0,0:0:0:60:KickMid.wav
475,192,12790,1,4,0:0:0:30:
36,192,12898,1,2,0:0:0:30:
182,192,13005,1,0,0:0:0:60:KickMid.wav
329,192,13005,1,4,0:0:0:30:
475,192,13112,1,2,0:0:0:30:
109,192,13219,1,0,0:0:0:60:KickMid.wav
256,192,13219,1,4,0:0:0:30:
402,192,13326,1,2,0:0:0:30:
36,192,13433,1,0,0:0:0:60:KickMid.wav
182,192,13433,1,4,0:0:0:30:
329,192,13540,1,2,0:0:0:30:
36,192,13648,1,0,0:0:0:60:KickMid.wav
109,192,13648,1,4,0:0:0:30:
329,192,13755,1,2,0:0:0:30:
36,192,13862,1,0,0:0:0:60:KickMid.wav
182,192,13862,1,4,0:0:0:30:
402,192,13969,1,2,0:0:0:30:
109,192,14076,1,0,0:0:0:60:KickMid.wav
256,192,14076,1,4,0:0:0:30:
475,192,14183,1,2,0:0:0:30:
182,192,14290,1,0,0:0:0:60:KickMid.wav
329,192,14290,1,4,0:0:0:30:
36,192,14398,1,0,0:0:0:30:
475,192,14398,1,4,0:0:0:30:
182,192,14505,1,0,0:0:0:60:KickMid.wav
329,192,14505,1,4,0:0:0:30:
109,192,14719,128,0,15148:0:0:0:30:
402,192,14719,1,0,0:0:0:30:
329,192,14826,1,0,0:0:0:30:
475,192,14933,128,2,15362:0:0:0:30:
182,192,14933,1,0,0:0:0:30:
256,192,15040,1,2,0:0:0:30:
402,192,15148,1,0,0:0:0:30:
329,192,15255,1,0,0:0:0:30:
109,192,15362,1,0,0:0:0:30:
182,192,15469,1,0,0:0:0:30:
402,192,15576,1,4,0:0:0:30:
329,192,15630,1,4,0:0:0:30:
109,192,15683,1,4,0:0:0:30:
182,192,15737,1,4,0:0:0:30:
256,192,15790,1,4,0:0:0:30:
475,192,15790,1,0,0:0:0:30:
402,192,15844,1,4,0:0:0:30:
36,192,15898,1,4,0:0:0:30:
182,192,15951,1,4,0:0:0:30:
256,192,16005,1,0,0:0:0:60:DeepBassKick.wav
329,192,16005,1,0,0:0:0:60:CymbalFSU.wav
475,192,16005,1,0,0:0:0:30:
256,192,16219,1,0,0:0:0:60:DeepBassKick.wav
329,192,16219,1,0,0:0:0:60:CymbalFSU.wav
475,192,16219,1,4,0:0:0:30:
182,192,16540,1,0,0:0:0:60:DeepBassKick.wav
256,192,16540,1,0,0:0:0:60:CymbalFSU.wav
402,192,16540,1,4,0:0:0:30:
109,192,16862,1,0,0:0:0:60:DeepBassKick.wav
182,192,16862,1,0,0:0:0:60:CymbalFSU.wav
329,192,16862,1,4,0:0:0:30:
36,192,17183,1,0,0:0:0:60:DeepBassKick.wav
109,192,17183,1,0,0:0:0:60:CymbalFSU.wav
256,192,17183,1,4,0:0:0:30:
36,192,17505,128,0,17933:0:0:0:30:DeepBassKick.wav
182,192,17933,1,0,0:0:0:60:DeepBassKick.wav
109,192,17933,1,0,0:0:0:60:CymbalFSU.wav
256,192,17933,1,4,0:0:0:30:
329,192,18040,1,0,0:0:0:30:
402,192,18094,1,0,0:0:0:30:
475,192,18148,1,0,0:0:0:30:
36,192,18201,1,0,0:0:0:30:
109,192,18255,1,0,0:0:0:30:
182,192,18308,1,0,0:0:0:30:
475,192,18362,1,0,0:0:0:30:
402,192,18415,1,0,0:0:0:30:
329,192,18469,1,0,0:0:0:30:
182,192,18523,1,0,0:0:0:30:
109,192,18576,1,0,0:0:0:30:
36,192,18630,1,0,0:0:0:30:
475,192,18683,1,0,0:0:0:30:
402,192,18737,1,0,0:0:0:30:
329,192,18790,1,0,0:0:0:30:
109,192,18844,1,0,0:0:0:30:
182,192,18898,1,0,0:0:0:30:
256,192,18951,1,0,0:0:0:30:
329,192,19005,128,8,19112:0:0:0:30:
402,192,19112,128,8,19219:0:0:0:30:
475,192,19219,128,8,19433:0:0:0:30:
402,192,19433,128,8,19648:0:0:0:30:
36,192,19648,1,0,0:0:0:60:DeepBassKick.wav
182,192,19648,1,0,0:0:0:60:CymbalFSU.wav
475,192,19862,1,0,0:0:0:20:
475,192,20076,1,0,0:0:0:20:
402,192,20290,1,0,0:0:0:20:
329,192,20505,1,0,0:0:0:20:
256,192,20719,1,0,0:0:0:20:
182,192,20826,1,0,0:0:0:20:
256,192,20933,1,0,0:0:0:20:
36,192,21148,1,0,0:0:0:20:
256,192,21362,1,0,0:0:0:20:
36,192,21576,1,0,0:0:0:20:
256,192,21790,1,0,0:0:0:20:
329,192,22005,1,0,0:0:0:20:
402,192,22112,1,0,0:0:0:20:
475,192,22219,1,0,0:0:0:20:
402,192,22433,1,0,0:0:0:20:
329,192,22540,1,0,0:0:0:20:
329,192,22648,1,0,0:0:0:20:
109,192,22862,1,0,0:0:0:20:
182,192,22969,1,0,0:0:0:20:
256,192,23076,1,0,0:0:0:20:
36,192,23290,1,0,0:0:0:20:
256,192,23505,1,0,0:0:0:20:
475,192,23719,1,0,0:0:0:20:
402,192,23826,1,0,0:0:0:20:
329,192,23933,1,0,0:0:0:20:
402,192,24148,1,0,0:0:0:20:
256,192,24362,1,0,0:0:0:20:
36,192,24576,1,0,0:0:0:20:
109,192,24683,1,0,0:0:0:20:
182,192,24790,1,0,0:0:0:20:
36,192,25005,1,0,0:0:0:20:
182,192,25219,1,0,0:0:0:20:
36,192,25326,1,0,0:0:0:20:
402,192,25433,1,0,0:0:0:20:
329,192,25540,1,0,0:0:0:20:
256,192,25648,1,0,0:0:0:20:
329,192,25862,1,0,0:0:0:20:
182,192,26076,1,0,0:0:0:20:
36,192,26290,1,0,0:0:0:20:
402,192,26505,1,0,0:0:0:20:
36,192,26719,1,0,0:0:0:20:
182,192,26933,1,0,0:0:0:20:
475,192,27148,1,0,0:0:0:20:
329,192,27362,1,0,0:0:0:20:
329,192,27576,1,0,0:0:0:20:
402,192,27648,1,0,0:0:0:20:
329,192,27719,1,0,0:0:0:20:
256,192,27790,1,0,0:0:0:20:
182,192,28005,1,0,0:0:0:20:
182,192,28219,1,0,0:0:0:20:
36,192,28433,1,0,0:0:0:20:
109,192,28648,1,0,0:0:0:20:
402,192,28862,1,0,0:0:0:20:
329,192,29076,128,0,29505:0:0:0:20:
182,192,29505,128,0,29933:0:0:0:20:
256,192,29933,1,0,0:0:0:60:DeepBassKick.wav
475,192,29933,1,0,0:0:0:60:CymbalFSU.wav
402,192,29933,1,0,0:0:0:60:KickMid.wav
182,192,30148,1,0,0:0:0:60:KickMid.wav
36,192,30148,1,0,0:0:0:30:
475,192,30362,1,0,0:0:0:60:KickMid.wav
329,192,30362,1,0,0:0:0:30:
182,192,30469,1,0,0:0:0:60:KickMid.wav
36,192,30469,1,0,0:0:0:30:
329,192,30576,1,0,0:0:0:60:KickMid.wav
475,192,30576,1,0,0:0:0:30:
182,192,30683,1,0,0:0:0:60:KickMid.wav
36,192,30683,1,0,0:0:0:30:
329,192,30790,1,0,0:0:0:60:KickMid.wav
475,192,30790,1,0,0:0:0:30:
475,192,30898,1,0,0:0:0:60:KickMid.wav
329,192,30898,1,0,0:0:0:30:
182,192,31005,1,0,0:0:0:60:KickMid.wav
36,192,31005,1,0,0:0:0:30:
402,192,31112,128,0,31326:0:0:0:60:KickMid.wav
475,192,31112,128,0,31326:0:0:0:30:
36,192,31326,1,0,0:0:0:60:KickMid.wav
109,192,31326,1,0,0:0:0:30:
402,192,31433,1,0,0:0:0:30:
329,192,31433,1,0,0:0:0:30:
36,192,31648,1,0,0:0:0:60:DeepBassKick.wav
109,192,31648,1,0,0:0:0:60:CymbalFSU.wav
256,192,31648,1,0,0:0:0:60:KickMid.wav
475,192,31648,1,0,0:0:0:30:
109,192,31969,1,0,0:0:0:60:DeepBassKick.wav
182,192,31969,1,0,0:0:0:60:CymbalFSU.wav
329,192,31969,1,0,0:0:0:60:KickMid.wav
475,192,31969,1,0,0:0:0:30:
182,192,32290,1,0,0:0:0:60:DeepBassKick.wav
256,192,32290,1,0,0:0:0:60:CymbalFSU.wav
36,192,32290,1,0,0:0:0:60:KickMid.wav
402,192,32290,1,0,0:0:0:30:
109,192,32612,1,0,0:0:0:60:DeepBassKick.wav
256,192,32612,1,0,0:0:0:60:CymbalFSU.wav
329,192,32612,1,0,0:0:0:60:KickMid.wav
475,192,32612,1,0,0:0:0:30:
182,192,32933,1,0,0:0:0:60:DeepBassKick.wav
36,192,32933,1,0,0:0:0:60:CymbalFSU.wav
329,192,32933,1,0,0:0:0:60:KickMid.wav
475,192,32933,1,0,0:0:0:30:
475,192,33576,1,0,0:0:0:60:DeepBassKick.wav
182,192,33576,1,0,0:0:0:60:CymbalFSU.wav
329,192,33576,1,0,0:0:0:60:KickMid.wav
109,192,33576,1,0,0:0:0:30:
402,192,33790,1,0,0:0:0:60:DeepBassKick.wav
256,192,33790,1,0,0:0:0:60:CymbalFSU.wav
109,192,33790,1,0,0:0:0:60:KickMid.wav
36,192,34005,1,0,0:0:0:60:DeepBassKick.wav
182,192,34005,1,0,0:0:0:60:CymbalFSU.wav
329,192,34005,1,0,0:0:0:60:KickMid.wav
36,192,34219,1,0,0:0:0:60:DeepBassKick.wav
109,192,34219,1,0,0:0:0:60:CymbalFSU.wav
256,192,34219,1,0,0:0:0:60:KickMid.wav
402,192,34219,1,0,0:0:0:30:
109,192,34540,1,0,0:0:0:60:DeepBassKick.wav
182,192,34540,1,0,0:0:0:60:CymbalFSU.wav
329,192,34540,1,0,0:0:0:60:KickMid.wav
475,192,34540,1,0,0:0:0:30:
182,192,34862,1,0,0:0:0:60:DeepBassKick.wav
256,192,34862,1,0,0:0:0:60:CymbalFSU.wav
402,192,34862,1,0,0:0:0:60:KickMid.wav
475,192,34862,1,0,0:0:0:30:
36,192,35183,1,0,0:0:0:60:DeepBassKick.wav
109,192,35183,1,0,0:0:0:60:CymbalFSU.wav
329,192,35183,1,0,0:0:0:60:KickMid.wav
475,192,35183,1,0,0:0:0:30:
256,192,35505,1,0,0:0:0:60:DeepBassKick.wav
402,192,35505,1,0,0:0:0:60:CymbalFSU.wav
109,192,35505,1,0,0:0:0:60:KickMid.wav
36,192,35505,128,0,37219:0:0:0:30:
256,192,35933,1,0,0:0:0:30:
329,192,35987,1,0,0:0:0:30:
402,192,36040,1,0,0:0:0:30:
475,192,36094,1,0,0:0:0:30:
256,192,36148,1,0,0:0:0:30:
182,192,36201,1,0,0:0:0:30:
402,192,36255,1,0,0:0:0:30:
329,192,36308,1,0,0:0:0:30:
256,192,36362,1,0,0:0:0:30:
182,192,36415,1,0,0:0:0:30:
109,192,36469,1,0,0:0:0:30:
329,192,36523,1,0,0:0:0:30:
402,192,36576,1,0,0:0:0:30:
182,192,36630,1,0,0:0:0:30:
256,192,36683,1,0,0:0:0:30:
329,192,36737,1,0,0:0:0:30:
402,192,36790,1,0,0:0:0:30:
109,192,36844,1,0,0:0:0:30:
182,192,36898,1,0,0:0:0:30:
256,192,36951,1,0,0:0:0:30:
475,192,37005,1,0,0:0:0:30:
402,192,37058,1,0,0:0:0:30:
329,192,37112,1,0,0:0:0:30:
256,192,37165,1,0,0:0:0:30:
109,192,37219,1,0,0:0:0:30:
182,192,37273,1,0,0:0:0:30:
402,192,37326,1,0,0:0:0:30:
329,192,37380,1,0,0:0:0:30:
36,192,37433,1,0,0:0:0:30:
109,192,37487,1,0,0:0:0:30:
182,192,37540,1,0,0:0:0:30:
256,192,37594,1,0,0:0:0:30:
402,192,37648,1,0,0:0:0:60:DeepBassKick.wav
475,192,37648,1,0,0:0:0:60:CymbalFSU.wav
329,192,37648,1,0,0:0:0:60:KickMid.wav
36,192,37648,1,0,0:0:0:30:
182,192,37862,1,0,0:0:0:60:KickMid.wav
329,192,37862,1,0,0:0:0:30:
402,192,38076,1,0,0:0:0:60:KickMid.wav
475,192,38076,1,0,0:0:0:30:
256,192,38076,1,0,0:0:0:30:
402,192,38183,1,0,0:0:0:30:
475,192,38183,1,0,0:0:0:30:
109,192,38290,1,0,0:0:0:60:KickMid.wav
36,192,38290,1,0,0:0:0:30:
256,192,38290,1,0,0:0:0:30:
109,192,38398,1,0,0:0:0:30:
36,192,38398,1,0,0:0:0:30:
182,192,38505,1,0,0:0:0:60:KickMid.wav
329,192,38505,128,0,38719:0:0:0:30:
475,192,38505,1,0,0:0:0:30:
36,192,38719,1,0,0:0:0:60:KickMid.wav
256,192,38719,1,0,0:0:0:30:
182,192,38826,1,0,0:0:0:30:
329,192,38826,1,0,0:0:0:30:
109,192,39040,1,0,0:0:0:30:
402,192,39040,1,0,0:0:0:30:
182,192,39148,1,0,0:0:0:60:KickMid.wav
329,192,39148,1,0,0:0:0:30:
475,192,39362,1,0,0:0:0:60:KickMid.wav
36,192,39362,1,0,0:0:0:30:
182,192,39415,1,0,0:0:0:60:KickMid.wav
329,192,39469,1,0,0:0:0:60:KickMid.wav
402,192,39523,1,0,0:0:0:30:
36,192,39576,1,0,0:0:0:60:KickMid.wav
109,192,39576,1,0,0:0:0:30:
256,192,39630,1,0,0:0:0:30:
402,192,39683,1,0,0:0:0:60:KickMid.wav
475,192,39737,1,0,0:0:0:30:
36,192,39790,1,0,0:0:0:60:DeepBassKick.wav
182,192,39790,1,0,0:0:0:60:CymbalFSU.wav
256,192,39898,1,0,0:0:0:30:
329,192,40005,1,0,0:0:0:30:
402,192,40005,1,0,0:0:0:30:
109,192,40112,1,0,0:0:0:60:KickMid.wav
256,192,40112,1,0,0:0:0:30:
182,192,40219,1,0,0:0:0:60:DeepBassKick.wav
402,192,40219,1,0,0:0:0:60:CymbalFSU.wav
475,192,40219,1,0,0:0:0:60:KickMid.wav
329,192,40326,128,0,40433:0:0:0:30:
36,192,40433,1,0,0:0:0:30:
109,192,40433,1,0,0:0:0:30:
256,192,40648,1,0,0:0:0:60:DeepBassKick.wav
402,192,40648,1,0,0:0:0:60:CymbalFSU.wav
475,192,40648,1,0,0:0:0:60:KickMid.wav
36,192,40648,1,0,0:0:0:30:
182,192,40862,1,0,0:0:0:30:
329,192,40862,1,0,0:0:0:30:
36,192,41076,1,0,0:0:0:60:DeepBassKick.wav
256,192,41076,1,0,0:0:0:60:CymbalFSU.wav
109,192,41076,1,0,0:0:0:60:KickMid.wav
475,192,41076,1,0,0:0:0:30:
109,192,41290,1,0,0:0:0:60:DeepBassKick.wav
256,192,41290,1,0,0:0:0:60:CymbalFSU.wav
402,192,41290,1,0,0:0:0:60:KickMid.wav
36,192,41290,1,0,0:0:0:30:
182,192,41505,1,0,0:0:0:60:CymbalFSU.wav
329,192,41505,1,0,0:0:0:60:KickMid.wav
475,192,41505,1,0,0:0:0:30:
256,192,41612,1,0,0:0:0:60:KickMid.wav
36,192,41719,1,0,0:0:0:60:KickMid.wav
182,192,41719,1,0,0:0:0:30:
402,192,41719,1,0,0:0:0:30:
329,192,41826,1,0,0:0:0:60:KickMid.wav
36,192,41933,1,0,0:0:0:60:KickMid.wav
109,192,41933,1,0,0:0:0:30:
256,192,41933,1,0,0:0:0:30:
329,192,42040,128,0,42148:0:0:0:30:
182,192,42148,1,0,0:0:0:60:KickMid.wav
402,192,42148,1,0,0:0:0:30:
256,192,42255,1,0,0:0:0:60:KickMid.wav
36,192,42362,1,0,0:0:0:60:KickMid.wav
329,192,42362,1,0,0:0:0:30:
182,192,42362,1,0,0:0:0:30:
109,192,42576,1,0,0:0:0:60:KickMid.wav
256,192,42576,1,0,0:0:0:30:
475,192,42576,1,0,0:0:0:30:
36,192,42790,1,0,0:0:0:60:KickMid.wav
329,192,42790,1,0,0:0:0:30:
475,192,42790,1,0,0:0:0:30:
109,192,42844,1,0,0:0:0:30:
182,192,42898,1,0,0:0:0:30:
256,192,42951,1,0,0:0:0:30:
329,192,43005,1,0,0:0:0:60:KickMid.wav
475,192,43005,1,0,0:0:0:30:
109,192,43005,1,0,0:0:0:30:
182,192,43058,1,0,0:0:0:30:
256,192,43112,1,0,0:0:0:30:
329,192,43165,1,0,0:0:0:30:
402,192,43219,1,0,0:0:0:60:KickMid.wav
475,192,43219,1,0,0:0:0:30:
182,192,43326,1,0,0:0:0:60:KickMid.wav
329,192,43326,1,0,0:0:0:30:
182,192,43433,1,0,0:0:0:60:KickMid.wav
329,192,43433,1,0,0:0:0:30:
36,192,43540,1,0,0:0:0:60:KickMid.wav
109,192,43540,1,0,0:0:0:30:
36,192,43755,1,0,0:0:0:60:DeepBassKick.wav
109,192,43755,1,0,0:0:0:60:CymbalFSU.wav
256,192,43755,1,0,0:0:0:60:KickMid.wav
402,192,43755,1,0,0:0:0:30:
329,192,43862,1,0,0:0:0:60:DeepBassKick.wav
475,192,43862,1,0,0:0:0:60:CymbalFSU.wav
182,192,43862,1,0,0:0:0:60:KickMid.wav
36,192,44076,1,0,0:0:0:60:DeepBassKick.wav
109,192,44076,1,0,0:0:0:60:CymbalFSU.wav
256,192,44076,1,0,0:0:0:60:KickMid.wav
402,192,44076,1,0,0:0:0:30:
36,192,44290,1,0,0:0:0:60:DeepBassKick.wav
109,192,44290,1,0,0:0:0:60:CymbalFSU.wav
329,192,44290,1,0,0:0:0:60:KickMid.wav
182,192,44290,1,0,0:0:0:30:
475,192,44505,1,0,0:0:0:30:
402,192,44505,1,0,0:0:0:30:
256,192,44505,128,0,44719:0:0:0:30:
36,192,44719,1,0,0:0:0:60:DeepBassKick.wav
182,192,44719,1,0,0:0:0:60:CymbalFSU.wav
329,192,44719,1,0,0:0:0:60:KickMid.wav
36,192,44933,1,0,0:0:0:60:KickMid.wav
475,192,44933,1,0,0:0:0:30:
109,192,44987,1,0,0:0:0:30:
182,192,45040,1,0,0:0:0:30:
329,192,45040,1,0,0:0:0:30:
109,192,45094,1,0,0:0:0:30:
36,192,45148,1,0,0:0:0:60:KickMid.wav
475,192,45148,1,0,0:0:0:30:
329,192,45255,1,0,0:0:0:60:KickMid.wav
256,192,45255,128,0,45362:0:0:0:30:
182,192,45469,1,0,0:0:0:60:KickMid.wav
329,192,45469,1,0,0:0:0:30:
109,192,45576,1,0,0:0:0:60:KickMid.wav
402,192,45576,1,0,0:0:0:30:
256,192,45683,1,0,0:0:0:30:
36,192,45790,1,0,0:0:0:30:
182,192,45790,1,0,0:0:0:30:
109,192,45898,1,0,0:0:0:30:
329,192,45898,1,0,0:0:0:30:
402,192,46005,128,0,46112:0:0:0:30:
182,192,46005,128,0,46112:0:0:0:30:
109,192,46219,1,0,0:0:0:60:KickMid.wav
182,192,46219,1,0,0:0:0:30:
329,192,46273,1,0,0:0:0:60:KickMid.wav
109,192,46326,1,0,0:0:0:60:KickMid.wav
182,192,46326,1,0,0:0:0:30:
329,192,46433,1,0,0:0:0:60:KickMid.wav
402,192,46433,1,0,0:0:0:30:
182,192,46487,1,0,0:0:0:60:KickMid.wav
329,192,46540,1,0,0:0:0:60:KickMid.wav
402,192,46540,1,0,0:0:0:30:
36,192,46648,1,0,0:0:0:60:KickMid.wav
475,192,46648,1,0,0:0:0:30:
109,192,46701,1,0,0:0:0:60:KickMid.wav
329,192,46755,128,0,46862:0:0:0:60:KickMid.wav
182,192,46755,1,0,0:0:0:30:
36,192,46862,1,0,0:0:0:60:KickMid.wav
475,192,46862,1,0,0:0:0:30:
36,192,47076,1,0,0:0:0:30:
475,192,47076,1,0,0:0:0:30:
402,192,47076,1,0,0:0:0:30:
109,192,47130,1,0,0:0:0:30:
329,192,47183,1,0,0:0:0:30:
256,192,47237,1,0,0:0:0:30:
182,192,47290,1,0,0:0:0:30:
329,192,47344,1,0,0:0:0:30:
402,192,47398,1,0,0:0:0:30:
475,192,47451,1,0,0:0:0:30:
36,192,47505,1,0,0:0:0:60:DeepBassKick.wav
182,192,47505,1,0,0:0:0:60:CymbalFSU.wav
256,192,47505,1,0,0:0:0:60:KickMid.wav
475,192,47719,1,0,0:0:0:60:DeepBassKick.wav
182,192,47719,1,0,0:0:0:60:CymbalFSU.wav
329,192,47719,1,0,0:0:0:60:KickMid.wav
402,192,47933,1,0,0:0:0:60:DeepBassKick.wav
109,192,47933,1,0,0:0:0:60:CymbalFSU.wav
256,192,47933,1,0,0:0:0:60:KickMid.wav
36,192,48148,1,0,0:0:0:60:DeepBassKick.wav
182,192,48148,1,0,0:0:0:60:CymbalFSU.wav
329,192,48148,1,0,0:0:0:60:KickMid.wav
109,192,48362,1,0,0:0:0:60:KickMid.wav
256,192,48362,1,0,0:0:0:30:
36,192,48362,1,0,0:0:0:30:
182,192,48469,1,0,0:0:0:30:
329,192,48469,1,0,0:0:0:30:
402,192,48576,1,0,0:0:0:60:KickMid.wav
256,192,48576,1,0,0:0:0:30:
182,192,48683,1,0,0:0:0:30:
329,192,48683,1,0,0:0:0:30:
256,192,48790,1,0,0:0:0:60:KickMid.wav
402,192,48790,1,0,0:0:0:30:
475,192,48790,1,0,0:0:0:30:
36,192,48790,1,0,0:0:0:30:
109,192,49112,1,0,0:0:0:60:KickMid.wav
329,192,49112,1,0,0:0:0:30:
182,192,49219,1,0,0:0:0:60:KickMid.wav
402,192,49219,1,0,0:0:0:30:
256,192,49326,1,0,0:0:0:60:KickMid.wav
475,192,49326,1,0,0:0:0:30:
36,192,49433,1,0,0:0:0:60:KickMid.wav
109,192,49433,1,0,0:0:0:30:
329,192,49433,1,0,0:0:0:30:
36,192,49648,1,0,0:0:0:60:KickMid.wav
182,192,49755,1,0,0:0:0:60:DeepBassKick.wav
329,192,49755,1,0,0:0:0:60:CymbalFSU.wav
475,192,49755,1,0,0:0:0:60:KickMid.wav
36,192,49969,1,0,0:0:0:60:KickMid.wav
475,192,50076,1,0,0:0:0:60:DeepBassKick.wav
256,192,50076,1,0,0:0:0:60:CymbalFSU.wav
182,192,50237,1,0,0:0:0:60:DeepBassKick.wav
402,192,50237,1,0,0:0:0:60:CymbalFSU.wav
109,192,50398,1,0,0:0:0:60:DeepBassKick.wav
329,192,50398,1,0,0:0:0:60:CymbalFSU.wav
36,192,50505,1,0,0:0:0:60:DeepBassKick.wav
256,192,50505,1,0,0:0:0:60:CymbalFSU.wav
475,192,50505,1,0,0:0:0:60:KickMid.wav
402,192,50505,1,0,0:0:0:30:
109,192,50933,1,0,0:0:0:60:DeepBassKick.wav
182,192,50933,1,0,0:0:0:60:CymbalFSU.wav
329,192,50933,1,0,0:0:0:60:KickMid.wav
475,192,50933,1,0,0:0:0:30:
182,192,51362,1,0,0:0:0:60:DeepBassKick.wav
256,192,51362,1,0,0:0:0:60:CymbalFSU.wav
402,192,51362,1,0,0:0:0:60:KickMid.wav
475,192,51362,1,0,0:0:0:30:
36,192,51523,1,0,0:0:0:30:
182,192,51523,1,0,0:0:0:30:
475,192,51630,1,0,0:0:0:30:
329,192,51630,1,0,0:0:0:30:
256,192,51683,1,0,0:0:0:30:
109,192,51790,1,0,0:0:0:30:
475,192,51844,1,0,0:0:0:30:
329,192,51844,1,0,0:0:0:30:
329,192,51951,1,0,0:0:0:30:
475,192,51951,1,0,0:0:0:30:
182,192,52005,1,0,0:0:0:30:
329,192,52112,1,0,0:0:0:30:
475,192,52112,1,0,0:0:0:30:
256,192,52219,128,0,52326:0:0:0:30:
182,192,52433,1,0,0:0:0:30:
475,192,52433,1,0,0:0:0:30:
36,192,52540,1,0,0:0:0:30:
329,192,52648,1,0,0:0:0:30:
402,192,52648,1,0,0:0:0:30:
109,192,52701,1,0,0:0:0:30:
182,192,52755,1,0,0:0:0:30:
256,192,52808,1,0,0:0:0:30:
329,192,52862,1,0,0:0:0:30:
475,192,52862,1,0,0:0:0:30:
182,192,52969,1,0,0:0:0:30:
329,192,53023,1,0,0:0:0:30:
36,192,53076,1,0,0:0:0:30:
109,192,53076,1,0,0:0:0:30:
182,192,53183,1,0,0:0:0:30:
402,192,53183,1,0,0:0:0:30:
256,192,53237,1,0,0:0:0:30:
329,192,53290,1,0,0:0:0:30:
109,192,53290,1,0,0:0:0:30:
182,192,53398,1,0,0:0:0:30:
402,192,53398,1,0,0:0:0:30:
256,192,53505,1,0,0:0:0:30:
182,192,53558,1,0,0:0:0:30:
109,192,53612,1,0,0:0:0:30:
36,192,53612,1,0,0:0:0:30:
402,192,53719,1,0,0:0:0:60:KickMid.wav
475,192,53719,1,0,0:0:0:30:
329,192,53773,1,0,0:0:0:60:KickMid.wav
182,192,53773,1,0,0:0:0:30:
109,192,53826,1,0,0:0:0:60:KickMid.wav
36,192,53826,1,0,0:0:0:30:
36,192,54040,1,0,0:0:0:60:KickMid.wav
182,192,54040,1,0,0:0:0:30:
329,192,54040,1,0,0:0:0:30:
475,192,54040,1,0,0:0:0:30:
109,192,54148,1,0,0:0:0:60:DeepBassKick.wav
256,192,54148,1,0,0:0:0:60:CymbalFSU.wav
402,192,54148,1,0,0:0:0:60:KickMid.wav
109,192,54362,1,0,0:0:0:60:DeepBassKick.wav
182,192,54362,1,0,0:0:0:60:CymbalFSU.wav
329,192,54362,1,0,0:0:0:60:KickMid.wav
475,192,54362,1,0,0:0:0:30:
256,192,54576,1,0,0:0:0:30:
402,192,54576,1,0,0:0:0:30:
36,192,54790,1,0,0:0:0:60:DeepBassKick.wav
182,192,54790,1,0,0:0:0:60:CymbalFSU.wav
329,192,54790,1,0,0:0:0:60:KickMid.wav
109,192,54790,1,4,0:0:0:30:
475,192,55005,1,0,0:0:0:30:
475,192,55219,1,0,0:0:0:30:
402,192,55433,1,0,0:0:0:30:
256,192,55648,128,8,55862:0:0:0:30:
475,192,55648,128,0,55862:0:0:0:30:
182,192,55862,128,8,55969:0:0:0:30:
402,192,55862,128,0,55969:0:0:0:30:
109,192,55969,128,8,56076:0:0:0:30:
329,192,55969,128,0,56076:0:0:0:30:
182,192,56076,128,8,56290:0:0:0:30:
402,192,56076,128,0,56290:0:0:0:30:
36,192,56290,128,8,56505:0:0:0:30:
256,192,56290,128,0,56505:0:0:0:30:
475,192,56505,1,0,0:0:0:30:
329,192,56719,1,0,0:0:0:30:
36,192,56933,128,8,57148:0:0:0:30:
256,192,56933,128,0,57148:0:0:0:30:
109,192,57148,128,8,57255:0:0:0:30:
329,192,57148,128,0,57255:0:0:0:30:
182,192,57255,128,8,57362:0:0:0:30:
402,192,57255,128,0,57362:0:0:0:30:
475,192,57362,1,0,0:0:0:30:
402,192,57576,1,0,0:0:0:30:
329,192,57683,1,0,0:0:0:30:
36,192,57790,128,8,58005:0:0:0:30:
256,192,57790,128,0,58005:0:0:0:30:
109,192,58005,128,8,58112:0:0:0:30:
329,192,58005,128,0,58112:0:0:0:30:
402,192,58112,128,0,58219:0:0:0:30:
182,192,58112,128,8,58219:0:0:0:30:
475,192,58219,1,0,0:0:0:30:
36,192,58433,128,8,58648:0:0:0:30:
109,192,58433,128,0,58648:0:0:0:30:
475,192,58648,1,0,0:0:0:30:
182,192,58862,128,8,58969:0:0:0:30:
256,192,58862,128,0,58969:0:0:0:30:
109,192,58969,128,0,59076:0:0:0:30:
36,192,58969,128,8,59076:0:0:0:30:
475,192,59076,1,0,0:0:0:30:
256,192,59290,128,8,59505:0:0:0:30:
109,192,59290,128,0,59505:0:0:0:30:
182,192,59505,128,0,59719:0:0:0:30:
36,192,59505,128,8,59719:0:0:0:30:
329,192,59719,1,0,0:0:0:30:
402,192,59826,1,0,0:0:0:30:
36,192,59933,1,0,0:0:0:60:KickMid.wav
182,192,59933,1,0,0:0:0:30:
475,192,59933,1,0,0:0:0:30:
36,192,60148,1,0,0:0:0:60:KickMid.wav
182,192,60148,1,8,0:0:0:30:
329,192,60148,128,0,60362:0:0:0:30:
36,192,60362,1,0,0:0:0:60:KickMid.wav
182,192,60362,1,0,0:0:0:30:
402,192,60362,1,0,0:0:0:30:
329,192,60469,1,0,0:0:0:30:
475,192,60576,1,0,0:0:0:60:KickMid.wav
36,192,60576,1,0,0:0:0:30:
182,192,60576,1,0,0:0:0:30:
256,192,60683,1,0,0:0:0:30:
109,192,60790,128,0,60951:0:0:0:60:DeepBassKick.wav
182,192,60790,128,0,60951:0:0:0:60:CymbalFSU.wav
329,192,60790,128,0,60951:0:0:0:60:KickMid.wav
402,192,60790,128,0,60951:0:0:0:30:
182,192,61005,128,0,61165:0:0:0:60:DeepBassKick.wav
256,192,61005,128,0,61165:0:0:0:60:CymbalFSU.wav
402,192,61005,128,0,61165:0:0:0:60:KickMid.wav
475,192,61005,128,0,61165:0:0:0:30:
36,192,61219,128,0,61594:0:0:0:60:DeepBassKick.wav
109,192,61219,128,0,61594:0:0:0:60:CymbalFSU.wav
256,192,61219,128,0,61594:0:0:0:60:KickMid.wav
329,192,61219,128,0,61594:0:0:0:30:
475,192,61648,128,0,61862:0:0:0:20:
36,192,61862,128,0,62076:0:0:0:20:
182,192,62076,128,0,62290:0:0:0:20:
402,192,62290,128,0,62505:0:0:0:20:
256,192,62505,128,0,62719:0:0:0:20:
329,192,62719,128,0,62790:0:0:0:20:
402,192,62790,128,0,62862:0:0:0:20:
329,192,62862,128,0,62933:0:0:0:20:
182,192,62933,128,0,63148:0:0:0:20:
109,192,63148,128,0,63362:0:0:0:20:
36,192,63362,1,0,0:0:0:60:DeepBassKick.wav
256,192,63362,1,0,0:0:0:60:CymbalFSU.wav
402,192,63362,1,0,0:0:0:60:KickMid.wav
475,192,63362,1,0,0:0:0:30:
36,192,63576,1,0,0:0:0:60:DeepBassKick.wav
182,192,63576,1,0,0:0:0:60:CymbalFSU.wav
329,192,63576,1,0,0:0:0:60:KickMid.wav
109,192,63790,1,0,0:0:0:60:DeepBassKick.wav
256,192,63790,1,0,0:0:0:60:CymbalFSU.wav
402,192,63790,1,0,0:0:0:60:KickMid.wav
182,192,64005,1,0,0:0:0:60:DeepBassKick.wav
329,192,64005,1,0,0:0:0:60:CymbalFSU.wav
475,192,64005,1,0,0:0:0:60:KickMid.wav
36,192,64219,1,0,0:0:0:60:DeepBassKick.wav
109,192,64219,1,0,0:0:0:60:CymbalFSU.wav
256,192,64219,1,0,0:0:0:60:KickMid.wav
402,192,64219,1,0,0:0:0:30:
329,192,64326,1,0,0:0:0:30:
182,192,64380,1,0,0:0:0:30:
329,192,64433,1,0,0:0:0:30:
182,192,64540,1,0,0:0:0:30:
36,192,64648,1,0,0:0:0:60:KickMid.wav
329,192,64648,1,0,0:0:0:30:
256,192,64648,1,0,0:0:0:30:
402,192,64648,1,0,0:0:0:30:
182,192,64755,1,0,0:0:0:30:
329,192,64808,1,0,0:0:0:30:
109,192,64862,1,0,0:0:0:30:
182,192,64933,1,0,0:0:0:30:
256,192,65005,1,0,0:0:0:30:
329,192,65076,1,0,0:0:0:60:DeepBassKick.wav
475,192,65076,1,0,0:0:0:60:CymbalFSU.wav
109,192,65076,1,0,0:0:0:60:KickMid.wav
36,192,65076,1,0,0:0:0:30:
36,192,65290,1,0,0:0:0:60:DeepBassKick.wav
182,192,65290,1,0,0:0:0:60:CymbalFSU.wav
402,192,65290,1,0,0:0:0:60:KickMid.wav
475,192,65290,1,0,0:0:0:30:
36,192,65505,1,0,0:0:0:60:DeepBassKick.wav
109,192,65505,1,0,0:0:0:60:CymbalFSU.wav
329,192,65505,1,0,0:0:0:60:KickMid.wav
475,192,65505,1,0,0:0:0:30:
182,192,65719,1,0,0:0:0:60:DeepBassKick.wav
36,192,65719,1,0,0:0:0:60:CymbalFSU.wav
402,192,65719,1,0,0:0:0:60:KickMid.wav
475,192,65719,1,0,0:0:0:30:
36,192,65933,1,0,0:0:0:60:DeepBassKick.wav
329,192,65933,1,0,0:0:0:60:CymbalFSU.wav
475,192,65933,1,0,0:0:0:60:KickMid.wav
256,192,65933,1,0,0:0:0:30:
36,192,66148,1,0,0:0:0:60:DeepBassKick.wav
182,192,66148,1,0,0:0:0:60:CymbalFSU.wav
256,192,66148,1,0,0:0:0:60:KickMid.wav
475,192,66148,1,0,0:0:0:30:
109,192,66362,1,0,0:0:0:60:DeepBassKick.wav
182,192,66362,1,0,0:0:0:60:CymbalFSU.wav
329,192,66362,1,0,0:0:0:60:KickMid.wav
402,192,66362,1,0,0:0:0:30:
36,192,66576,1,0,0:0:0:60:DeepBassKick.wav
109,192,66576,1,0,0:0:0:60:CymbalFSU.wav
256,192,66576,1,0,0:0:0:60:KickMid.wav
329,192,66576,1,0,0:0:0:30:
182,192,66790,1,0,0:0:0:60:KickMid.wav
329,192,66790,1,0,0:0:0:30:
475,192,66790,1,0,0:0:0:30:
36,192,66790,1,0,0:0:0:30:
256,192,67005,1,0,0:0:0:60:KickMid.wav
402,192,67005,1,0,0:0:0:30:
109,192,67005,1,0,0:0:0:30:
36,192,67219,1,0,0:0:0:60:KickMid.wav
182,192,67219,1,0,0:0:0:30:
329,192,67219,1,0,0:0:0:30:
256,192,67433,1,0,0:0:0:60:KickMid.wav
402,192,67433,1,0,0:0:0:30:
475,192,67433,1,0,0:0:0:30:
182,192,67648,1,0,0:0:0:60:KickMid.wav
329,192,67648,1,0,0:0:0:6:
36,192,67648,128,0,68505:0:0:0:30:
475,192,68076,128,0,68505:0:0:0:30:
109,192,68505,1,0,0:0:0:60:DeepBassKick.wav
182,192,68505,1,0,0:0:0:60:CymbalFSU.wav
329,192,68505,1,0,0:0:0:60:KickMid.wav
402,192,68505,1,0,0:0:0:30:
256,192,68612,1,0,0:0:0:30:
329,192,68719,1,0,0:0:0:30:
402,192,68826,1,0,0:0:0:30:
36,192,68933,1,0,0:0:0:60:KickMid.wav
109,192,68933,1,0,0:0:0:30:
475,192,68933,1,0,0:0:0:30:
182,192,69040,1,0,0:0:0:60:KickMid.wav
256,192,69040,1,0,0:0:0:30:
329,192,69040,1,0,0:0:0:30:
36,192,69148,1,0,0:0:0:60:DeepBassKick.wav
475,192,69148,1,0,0:0:0:60:CymbalFSU.wav
402,192,69148,1,0,0:0:0:60:KickMid.wav
182,192,69255,1,0,0:0:0:30:
109,192,69362,1,0,0:0:0:60:DeepBassKick.wav
402,192,69362,1,0,0:0:0:60:CymbalFSU.wav
256,192,69362,1,0,0:0:0:60:KickMid.wav
329,192,69576,1,0,0:0:0:60:KickMid.wav
475,192,69576,1,0,0:0:0:30:
36,192,69683,1,0,0:0:0:60:DeepBassKick.wav
256,192,69683,1,0,0:0:0:60:CymbalFSU.wav
402,192,69683,1,0,0:0:0:60:KickMid.wav
182,192,69898,1,0,0:0:0:60:KickMid.wav
329,192,69898,1,0,0:0:0:30:
402,192,70005,1,0,0:0:0:60:KickMid.wav
256,192,70005,128,0,70219:0:0:0:30:
475,192,70219,1,0,0:0:0:60:KickMid.wav
109,192,70219,1,0,0:0:0:30:
402,192,70273,1,0,0:0:0:30:
329,192,70326,1,0,0:0:0:60:KickMid.wav
256,192,70380,1,0,0:0:0:30:
182,192,70433,1,0,0:0:0:60:KickMid.wav
36,192,70433,1,0,0:0:0:30:
256,192,70540,1,0,0:0:0:60:DeepBassKick.wav
402,192,70540,1,0,0:0:0:60:CymbalFSU.wav
475,192,70540,1,0,0:0:0:60:KickMid.wav
182,192,70755,128,0,70862:0:0:0:60:KickMid.wav
329,192,70755,1,0,0:0:0:30:
475,192,70862,1,0,0:0:0:60:KickMid.wav
36,192,70862,1,0,0:0:0:30:
402,192,70862,1,0,0:0:0:30:
36,192,71076,1,0,0:0:0:60:DeepBassKick.wav
109,192,71076,1,0,0:0:0:60:CymbalFSU.wav
256,192,71076,1,0,0:0:0:60:KickMid.wav
36,192,71290,1,0,0:0:0:60:DeepBassKick.wav
109,192,71290,1,0,0:0:0:60:CymbalFSU.wav
256,192,71290,1,0,0:0:0:60:KickMid.wav
475,192,71505,1,0,0:0:0:60:KickMid.wav
329,192,71505,1,0,0:0:0:30:
256,192,71558,1,0,0:0:0:30:
36,192,71612,1,0,0:0:0:60:DeepBassKick.wav
109,192,71612,1,0,0:0:0:60:CymbalFSU.wav
182,192,71612,1,0,0:0:0:60:KickMid.wav
475,192,71826,1,0,0:0:0:60:KickMid.wav
402,192,71826,1,0,0:0:0:30:
329,192,71880,1,0,0:0:0:30:
256,192,71933,128,0,72255:0:0:0:60:DeepBassKick.wav
36,192,71933,128,0,72255:0:0:0:60:CymbalFSU.wav
182,192,71933,128,0,72255:0:0:0:60:KickMid.wav
256,192,72362,128,0,72683:0:0:0:60:DeepBassKick.wav
475,192,72362,128,0,72683:0:0:0:60:CymbalFSU.wav
329,192,72362,128,0,72683:0:0:0:60:KickMid.wav
256,192,72790,1,0,0:0:0:60:DeepBassKick.wav
329,192,72790,1,0,0:0:0:60:CymbalFSU.wav
475,192,72790,1,0,0:0:0:60:KickMid.wav
36,192,73005,1,0,0:0:0:60:KickMid.wav
182,192,73005,1,0,0:0:0:30:
256,192,73112,1,0,0:0:0:60:DeepBassKick.wav
329,192,73112,1,0,0:0:0:60:CymbalFSU.wav
475,192,73112,1,0,0:0:0:60:KickMid.wav
36,192,73326,1,0,0:0:0:60:KickMid.wav
182,192,73326,1,0,0:0:0:30:
329,192,73433,1,0,0:0:0:60:KickMid.wav
402,192,73433,1,0,0:0:0:30:
256,192,73540,1,0,0:0:0:30:
109,192,73648,128,0,73755:0:0:0:30:
182,192,73648,128,0,73755:0:0:0:30:
402,192,73648,1,0,0:0:0:30:
329,192,73701,1,0,0:0:0:30:
402,192,73755,1,0,0:0:0:30:
329,192,73808,1,0,0:0:0:30:
109,192,73862,1,0,0:0:0:60:KickMid.wav
182,192,73862,1,0,0:0:0:30:
256,192,73862,1,0,0:0:0:30:
475,192,73969,1,0,0:0:0:60:DeepBassKick.wav
36,192,73969,1,0,0:0:0:60:CymbalFSU.wav
329,192,73969,1,0,0:0:0:60:KickMid.wav
182,192,74183,1,0,0:0:0:60:KickMid.wav
329,192,74183,1,0,0:0:0:30:
402,192,74290,128,0,74398:0:0:0:30:
109,192,74290,128,0,74398:0:0:0:30:
36,192,74505,1,0,0:0:0:60:DeepBassKick.wav
256,192,74505,1,0,0:0:0:60:CymbalFSU.wav
475,192,74505,1,0,0:0:0:60:KickMid.wav
36,192,74719,1,0,0:0:0:60:DeepBassKick.wav
256,192,74719,1,0,0:0:0:60:CymbalFSU.wav
475,192,74719,1,0,0:0:0:60:KickMid.wav
329,192,74933,1,0,0:0:0:60:KickMid.wav
182,192,74933,1,0,0:0:0:30:
402,192,74987,1,0,0:0:0:30:
36,192,75040,1,0,0:0:0:60:DeepBassKick.wav
256,192,75040,1,0,0:0:0:60:CymbalFSU.wav
475,192,75040,1,0,0:0:0:60:KickMid.wav
182,192,75255,1,0,0:0:0:60:KickMid.wav
329,192,75255,1,0,0:0:0:30:
36,192,75362,1,0,0:0:0:60:DeepBassKick.wav
256,192,75362,1,0,0:0:0:60:CymbalFSU.wav
475,192,75362,1,0,0:0:0:60:KickMid.wav
109,192,75576,1,0,0:0:0:30:
329,192,75576,1,0,0:0:0:30:
182,192,75683,1,0,0:0:0:30:
402,192,75683,1,0,0:0:0:30:
256,192,75790,1,0,0:0:0:30:
475,192,75790,1,0,0:0:0:30:
182,192,76005,1,0,0:0:0:30:
402,192,76005,1,0,0:0:0:30:
36,192,76219,1,0,0:0:0:60:KickMid.wav
109,192,76219,1,8,0:0:0:50:
256,192,76219,1,0,0:0:0:30:
475,192,76219,1,0,0:0:0:30:
329,192,76433,1,0,0:0:0:30:
36,192,76648,1,4,0:0:0:50:
329,192,76648,1,0,0:0:0:30:
475,192,76648,1,0,0:0:0:30:
256,192,76862,1,0,0:0:0:30:
109,192,77076,1,8,0:0:0:50:
182,192,77076,1,0,0:0:0:30:
402,192,77076,1,0,0:0:0:30:
256,192,77290,1,0,0:0:0:30:
109,192,77398,1,0,0:0:0:30:
475,192,77505,1,4,0:0:0:50:
256,192,77505,1,0,0:0:0:30:
329,192,77505,1,0,0:0:0:30:
182,192,77719,1,0,0:0:0:30:
36,192,77933,1,8,0:0:0:50:
475,192,77933,1,0,0:0:0:30:
329,192,77933,1,0,0:0:0:30:
182,192,78148,1,0,0:0:0:30:
329,192,78362,1,4,0:0:0:50:
36,192,78362,1,0,0:0:0:30:
475,192,78362,1,0,0:0:0:30:
256,192,78576,1,0,0:0:0:30:
329,192,78683,1,0,0:0:0:30:
402,192,78790,1,8,0:0:0:50:
475,192,78790,1,0,0:0:0:30:
182,192,78790,1,0,0:0:0:30:
329,192,79005,1,0,0:0:0:30:
256,192,79112,1,0,0:0:0:30:
36,192,79219,1,4,0:0:0:50:
475,192,79219,1,0,0:0:0:30:
182,192,79219,1,0,0:0:0:30:
256,192,79433,1,0,0:0:0:30:
329,192,79540,1,0,0:0:0:30:
402,192,79648,1,8,0:0:0:50:
475,192,79648,1,0,0:0:0:30:
109,192,79648,1,0,0:0:0:30:
182,192,79862,1,0,0:0:0:30:
256,192,80076,1,4,0:0:0:50:
329,192,80076,1,0,0:0:0:30:
475,192,80076,1,0,0:0:0:30:
402,192,80290,1,0,0:0:0:30:
329,192,80398,1,0,0:0:0:30:
36,192,80505,1,8,0:0:0:50:
256,192,80505,1,0,0:0:0:30:
475,192,80505,1,0,0:0:0:30:
329,192,80719,1,0,0:0:0:30:
36,192,80933,1,4,0:0:0:50:
475,192,80933,1,0,0:0:0:30:
182,192,80933,1,0,0:0:0:30:
329,192,81148,1,0,0:0:0:30:
402,192,81255,1,0,0:0:0:30:
475,192,81362,1,0,0:0:0:60:DeepBassKick.wav
36,192,81362,1,0,0:0:0:60:CymbalFSU.wav
109,192,81362,1,0,0:0:0:60:KickMid.wav
256,192,81362,1,0,0:0:0:30:
182,192,81576,1,0,0:0:0:60:DeepBassKick.wav
329,192,81576,1,0,0:0:0:60:CymbalFSU.wav
36,192,81683,1,0,0:0:0:60:DeepBassKick.wav
109,192,81683,1,0,0:0:0:60:CymbalFSU.wav
256,192,81683,1,0,0:0:0:60:KickMid.wav
475,192,81683,1,0,0:0:0:30:
329,192,81862,1,0,0:0:0:60:KickMid.wav
402,192,81862,1,0,0:0:0:30:
182,192,81933,1,0,0:0:0:60:KickMid.wav
109,192,81933,1,0,0:0:0:30:
329,192,82005,1,0,0:0:0:60:KickMid.wav
402,192,82005,1,0,0:0:0:30:
182,192,82076,1,0,0:0:0:60:KickMid.wav
109,192,82076,1,0,0:0:0:30:
329,192,82148,1,0,0:0:0:60:KickMid.wav
402,192,82148,1,0,0:0:0:30:
36,192,82219,1,0,0:0:0:60:DeepBassKick.wav
182,192,82219,1,0,0:0:0:60:CymbalFSU.wav
329,192,82362,1,0,0:0:0:60:KickMid.wav
475,192,82362,1,0,0:0:0:30:
182,192,82433,1,0,0:0:0:60:DeepBassKick.wav
36,192,82433,1,0,0:0:0:60:CymbalFSU.wav
256,192,82540,1,0,0:0:0:30:
329,192,82648,1,0,0:0:0:60:DeepBassKick.wav
475,192,82648,1,0,0:0:0:60:CymbalFSU.wav
402,192,82862,1,0,0:0:0:60:KickMid.wav
109,192,82862,128,0,83076:0:0:0:30:
329,192,82915,1,0,0:0:0:60:KickMid.wav
182,192,82969,1,0,0:0:0:60:KickMid.wav
256,192,83023,1,0,0:0:0:60:KickMid.wav
36,192,83076,1,0,0:0:0:60:DeepBassKick.wav
329,192,83076,1,0,0:0:0:60:CymbalFSU.wav
475,192,83076,1,0,0:0:0:60:KickMid.wav
402,192,83076,1,0,0:0:0:30:
182,192,83183,1,0,0:0:0:30:
329,192,83290,1,0,0:0:0:60:KickMid.wav
475,192,83290,1,0,0:0:0:30:
182,192,83398,1,0,0:0:0:30:
329,192,83505,1,0,0:0:0:60:KickMid.wav
475,192,83505,1,0,0:0:0:30:
109,192,83612,1,0,0:0:0:30:
256,192,83719,1,0,0:0:0:60:KickMid.wav
402,192,83719,1,0,0:0:0:30:
109,192,83826,1,0,0:0:0:30:
36,192,83933,1,0,0:0:0:30:
329,192,83933,128,0,84148:0:0:0:30:
182,192,84148,128,0,84255:0:0:0:30:
109,192,84255,128,0,84362:0:0:0:30:
475,192,84362,1,0,0:0:0:30:
256,192,84362,1,0,0:0:0:30:
402,192,84576,1,0,0:0:0:30:
182,192,84576,1,0,0:0:0:30:
36,192,84790,1,0,0:0:0:60:DeepBassKick.wav
109,192,84790,1,0,0:0:0:60:CymbalFSU.wav
329,192,84790,1,0,0:0:0:60:KickMid.wav
475,192,84790,1,0,0:0:0:30:
36,192,85005,1,0,0:0:0:60:KickMid.wav
256,192,85005,1,0,0:0:0:30:
402,192,85005,1,0,0:0:0:30:
182,192,85219,128,0,85648:0:0:0:60:KickMid.wav
256,192,85219,1,0,0:0:0:30:
329,192,85326,1,0,0:0:0:60:KickMid.wav
402,192,85433,1,0,0:0:0:60:KickMid.wav
475,192,85540,1,0,0:0:0:60:KickMid.wav
36,192,85648,1,0,0:0:0:60:DeepBassKick.wav
256,192,85648,1,0,0:0:0:60:CymbalFSU.wav
402,192,85648,1,0,0:0:0:60:KickMid.wav
256,192,85808,1,0,0:0:0:60:DeepBassKick.wav
402,192,85808,1,0,0:0:0:60:CymbalFSU.wav
36,192,85808,1,0,0:0:0:60:KickMid.wav
329,192,85969,1,0,0:0:0:60:DeepBassKick.wav
109,192,85969,1,0,0:0:0:60:CymbalFSU.wav
182,192,86076,1,0,0:0:0:60:DeepBassKick.wav
402,192,86076,1,0,0:0:0:60:CymbalFSU.wav
109,192,86183,1,0,0:0:0:60:DeepBassKick.wav
329,192,86183,1,0,0:0:0:60:CymbalFSU.wav
182,192,86290,1,0,0:0:0:60:KickMid.wav
402,192,86290,1,0,0:0:0:30:
36,192,86398,1,0,0:0:0:60:KickMid.wav
256,192,86398,1,0,0:0:0:30:
109,192,86505,1,0,0:0:0:60:DeepBassKick.wav
329,192,86505,1,0,0:0:0:60:CymbalFSU.wav
475,192,86505,1,0,0:0:0:60:KickMid.wav
182,192,86719,1,0,0:0:0:30:
182,192,86826,1,0,0:0:0:30:
329,192,86933,1,0,0:0:0:30:
475,192,87148,1,0,0:0:0:60:KickMid.wav
36,192,87148,128,0,87362:0:0:0:30:
109,192,87148,128,0,87362:0:0:0:30:
329,192,87362,1,0,0:0:0:60:KickMid.wav
182,192,87362,1,0,0:0:0:30:
256,192,87469,1,0,0:0:0:30:
329,192,87523,1,0,0:0:0:30:
402,192,87576,128,0,87790:0:0:0:30:
36,192,87790,1,0,0:0:0:60:KickMid.wav
256,192,87790,1,0,0:0:0:30:
329,192,88005,128,0,88219:0:0:0:30:
109,192,88005,1,0,0:0:0:30:
182,192,88112,1,0,0:0:0:30:
256,192,88219,1,0,0:0:0:60:DeepBassKick.wav
36,192,88219,1,0,0:0:0:60:CymbalFSU.wav
475,192,88219,1,0,0:0:0:60:KickMid.wav
182,192,88326,1,0,0:0:0:30:
329,192,88433,1,0,0:0:0:60:DeepBassKick.wav
109,192,88433,1,0,0:0:0:60:CymbalFSU.wav
182,192,88540,1,0,0:0:0:30:
329,192,88648,1,0,0:0:0:60:KickMid.wav
402,192,88648,1,0,0:0:0:30:
36,192,88755,1,0,0:0:0:60:KickMid.wav
109,192,88755,1,0,0:0:0:30:
402,192,88862,1,0,0:0:0:60:KickMid.wav
475,192,88862,1,0,0:0:0:30:
329,192,88969,1,0,0:0:0:60:KickMid.wav
256,192,88969,1,0,0:0:0:30:
182,192,89076,1,0,0:0:0:60:DeepBassKick.wav
109,192,89076,1,0,0:0:0:60:CymbalFSU.wav
36,192,89076,1,0,0:0:0:60:KickMid.wav
329,192,89290,1,0,0:0:0:60:DeepBassKick.wav
402,192,89290,1,0,0:0:0:60:CymbalFSU.wav
475,192,89290,1,0,0:0:0:60:KickMid.wav
36,192,89505,1,0,0:0:0:60:DeepBassKick.wav
109,192,89505,1,0,0:0:0:60:CymbalFSU.wav
182,192,89505,1,0,0:0:0:60:KickMid.wav
256,192,89558,1,0,0:0:0:30:
329,192,89612,1,0,0:0:0:30:
402,192,89665,1,0,0:0:0:30:
109,192,89719,1,0,0:0:0:30:
182,192,89773,1,0,0:0:0:30:
256,192,89826,1,0,0:0:0:30:
329,192,89880,1,0,0:0:0:30:
402,192,89933,128,0,90790:0:0:0:30:
475,192,89933,128,0,90790:0:0:0:30:
36,192,89933,1,0,0:0:0:30:
109,192,90148,1,0,0:0:0:30:
182,192,90148,1,0,0:0:0:30:
109,192,90362,1,0,0:0:0:30:
182,192,90362,1,0,0:0:0:30:
109,192,90576,1,0,0:0:0:30:
182,192,90576,1,0,0:0:0:30:
329,192,90790,1,2,0:0:0:30:
256,192,90790,1,0,0:0:0:30:
36,192,90898,1,0,0:0:0:30:
109,192,90898,1,0,0:0:0:30:
402,192,91005,1,2,0:0:0:30:
475,192,91005,1,0,0:0:0:30:
256,192,91112,1,0,0:0:0:30:
182,192,91112,1,0,0:0:0:30:
329,192,91219,1,2,0:0:0:30:
402,192,91219,1,0,0:0:0:30:
109,192,91326,1,0,0:0:0:30:
182,192,91326,1,0,0:0:0:30:
329,192,91433,1,2,0:0:0:30:
256,192,91433,1,0,0:0:0:30:
36,192,91540,1,0,0:0:0:30:
109,192,91540,1,0,0:0:0:30:
329,192,91648,1,0,0:0:0:60:KickMid.wav
475,192,91648,1,0,0:0:0:30:
182,192,91648,1,0,0:0:0:30:
475,192,91755,128,0,92023:0:0:0:30:
329,192,91755,128,0,92023:0:0:0:30:
36,192,92076,1,0,0:0:0:60:KickMid.wav
329,192,92076,1,0,0:0:0:30:
182,192,92076,1,0,0:0:0:30:
182,192,92183,128,0,92451:0:0:0:30:
36,192,92183,128,0,92451:0:0:0:30:
329,192,92505,1,0,0:0:0:60:KickMid.wav
475,192,92505,1,0,0:0:0:30:
182,192,92505,1,0,0:0:0:30:
109,192,92612,1,0,0:0:0:30:
256,192,92612,1,0,0:0:0:30:
182,192,92719,1,0,0:0:0:30:
329,192,92719,1,0,0:0:0:30:
256,192,92826,1,0,0:0:0:30:
402,192,92826,1,0,0:0:0:30:
36,192,92933,128,0,93308:0:0:0:30:
329,192,92933,128,0,93308:0:0:0:30:
475,192,92933,128,0,93308:0:0:0:30:
36,192,93362,1,0,0:0:0:60:KickMid.wav
329,192,93362,1,0,0:0:0:30:
475,192,93362,1,0,0:0:0:30:
36,192,93790,128,0,94326:0:0:0:60:DeepBassKick.wav
182,192,93790,128,0,94326:0:0:0:60:CymbalFSU.wav
329,192,94112,128,0,94648:0:0:0:30:
475,192,94112,128,0,94648:0:0:0:30:
36,192,94433,128,0,94648:0:0:0:60:KickMid.wav
109,192,94433,128,0,94648:0:0:0:30:
182,192,94648,128,0,95076:0:0:0:30:
256,192,94755,128,0,95076:0:0:0:30:
329,192,94862,128,0,95076:0:0:0:30:
402,192,94969,128,0,95076:0:0:0:30:
36,192,95076,1,0,0:0:0:60:KickMid.wav
475,192,95076,1,0,0:0:0:30:
109,192,95112,1,0,0:0:0:60:KickMid.wav
402,192,95112,1,0,0:0:0:30:
182,192,95148,1,0,0:0:0:60:KickMid.wav
329,192,95148,1,0,0:0:0:30:
36,192,95219,1,0,0:0:0:60:KickMid.wav
475,192,95219,1,0,0:0:0:30:
182,192,95290,1,0,0:0:0:60:KickMid.wav
329,192,95290,1,0,0:0:0:30:
36,192,95398,1,0,0:0:0:60:KickMid.wav
475,192,95398,1,0,0:0:0:30:
109,192,95505,1,0,0:0:0:60:KickMid.wav
402,192,95505,1,0,0:0:0:30:
182,192,95612,1,0,0:0:0:60:KickMid.wav
329,192,95612,1,0,0:0:0:30:
36,192,95719,1,0,0:0:0:60:KickMid.wav
475,192,95719,1,0,0:0:0:30:
182,192,95826,1,0,0:0:0:60:KickMid.wav
329,192,95826,1,0,0:0:0:30:
36,192,96148,1,0,0:0:0:60:DeepBassKick.wav
475,192,96148,1,0,0:0:0:60:CymbalFSU.wav
402,192,96148,1,0,0:0:0:60:KickMid.wav
109,192,96148,1,0,0:0:0:30:
109,192,96469,1,0,0:0:0:60:DeepBassKick.wav
182,192,96469,1,0,0:0:0:60:CymbalFSU.wav
329,192,96469,1,0,0:0:0:60:KickMid.wav
402,192,96469,1,0,0:0:0:30:
36,192,96790,1,0,0:0:0:60:KickMid.wav
475,192,96790,128,0,97005:0:0:0:30:
329,192,96790,1,0,0:0:0:30:
256,192,96844,1,0,0:0:0:30:
182,192,96898,1,0,0:0:0:60:KickMid.wav
109,192,97005,1,0,0:0:0:60:KickMid.wav
36,192,97112,1,0,0:0:0:30:
329,192,97219,1,0,0:0:0:30:
329,192,97433,1,0,0:0:0:30:
109,192,97540,1,0,0:0:0:60:DeepBassKick.wav
182,192,97540,1,0,0:0:0:60:CymbalFSU.wav
475,192,97540,1,0,0:0:0:60:KickMid.wav
402,192,97862,1,0,0:0:0:60:DeepBassKick.wav
36,192,97862,1,0,0:0:0:60:CymbalFSU.wav
109,192,97862,1,0,0:0:0:60:KickMid.wav
329,192,98183,1,0,0:0:0:60:DeepBassKick.wav
36,192,98183,1,0,0:0:0:60:CymbalFSU.wav
256,192,98183,1,0,0:0:0:60:KickMid.wav
475,192,98505,128,0,99148:0:0:0:30:
182,192,98505,128,0,98719:0:0:0:30:
36,192,98505,128,0,99148:0:0:0:30:
329,192,98719,128,0,98933:0:0:0:30:
256,192,98933,128,0,99148:0:0:0:30:
36,192,99255,1,0,0:0:0:60:DeepBassKick.wav
256,192,99255,1,0,0:0:0:60:KickMid.wav
475,192,99255,1,0,0:0:0:30:
475,192,99362,1,0,0:0:0:60:DeepBassKick.wav
256,192,99362,1,0,0:0:0:60:KickMid.wav
36,192,99362,1,0,0:0:0:30:
109,192,99576,1,0,0:0:0:60:DeepBassKick.wav
182,192,99576,1,0,0:0:0:60:KickMid.wav
329,192,99576,1,0,0:0:0:30:
256,192,99898,1,0,0:0:0:60:DeepBassKick.wav
402,192,99898,1,0,0:0:0:60:CymbalFSU.wav
475,192,99898,1,0,0:0:0:60:KickMid.wav
329,192,100005,1,0,0:0:0:30:
182,192,100005,1,0,0:0:0:30:
109,192,100219,1,0,0:0:0:60:KickMid.wav
36,192,100219,1,0,0:0:0:30:
402,192,100219,1,0,0:0:0:30:
329,192,100326,1,0,0:0:0:60:KickMid.wav
182,192,100380,1,0,0:0:0:60:KickMid.wav
256,192,100433,1,0,0:0:0:60:KickMid.wav
475,192,100540,1,0,0:0:0:60:KickMid.wav
109,192,100540,1,0,0:0:0:30:
329,192,100755,1,0,0:0:0:30:
329,192,100862,1,0,0:0:0:30:
475,192,100969,1,0,0:0:0:30:
256,192,101076,1,0,0:0:0:30:
36,192,101290,1,0,0:0:0:60:KickMid.wav
182,192,101290,128,0,101505:0:0:0:30:
329,192,101290,1,0,0:0:0:30:
402,192,101505,1,0,0:0:0:30:
109,192,101612,1,0,0:0:0:60:KickMid.wav
475,192,101612,1,0,0:0:0:30:
256,192,101612,128,0,101826:0:0:0:30:
182,192,101933,1,0,0:0:0:60:CymbalFSU.wav
329,192,101933,1,0,0:0:0:30:
475,192,101933,1,0,0:0:0:30:
475,192,102148,1,0,0:0:0:30:
402,192,102148,1,0,0:0:0:30:
256,192,102148,1,0,0:0:0:30:
182,192,102255,1,0,0:0:0:60:KickMid.wav
475,192,102362,1,0,0:0:0:30:
402,192,102362,1,0,0:0:0:30:
329,192,102362,1,0,0:0:0:30:
109,192,102469,1,0,0:0:0:60:KickMid.wav
36,192,102469,1,0,0:0:0:30:
256,192,102576,1,0,0:0:0:30:
402,192,102576,1,0,0:0:0:30:
475,192,102576,1,0,0:0:0:30:
36,192,102683,1,0,0:0:0:60:KickMid.wav
329,192,102683,1,0,0:0:0:30:
182,192,102683,1,0,0:0:0:30:
182,192,103005,1,0,0:0:0:60:KickMid.wav
475,192,103005,1,0,0:0:0:30:
329,192,103005,1,0,0:0:0:30:
36,192,103326,1,0,0:0:0:60:KickMid.wav
182,192,103326,1,0,0:0:0:30:
329,192,103326,1,0,0:0:0:30:
109,192,103433,1,0,0:0:0:60:DeepBassKick.wav
256,192,103433,1,0,0:0:0:60:CymbalFSU.wav
402,192,103433,1,0,0:0:0:60:KickMid.wav
182,192,103648,128,0,104505:0:0:0:60:DeepBassKick.wav
329,192,103648,128,0,104505:0:0:0:60:CymbalFSU.wav
36,192,103648,1,0,0:0:0:60:KickMid.wav
475,192,103648,1,0,0:0:0:6:
402,192,103862,128,0,104076:0:0:0:30:
109,192,104076,128,0,104290:0:0:0:30:
256,192,104290,128,0,104505:0:0:0:30:
36,192,104505,1,0,0:0:0:60:KickMid.wav
475,192,104505,1,0,0:0:0:30:
402,192,104576,1,0,0:0:0:30:
329,192,104648,1,0,0:0:0:30:
109,192,104719,1,0,0:0:0:60:KickMid.wav
402,192,104719,1,0,0:0:0:30:
182,192,104790,1,0,0:0:0:30:
256,192,104862,1,0,0:0:0:30:
329,192,104933,1,0,0:0:0:30:
475,192,105040,1,0,0:0:0:60:KickMid.wav
256,192,105040,1,0,0:0:0:30:
402,192,105148,1,0,0:0:0:60:KickMid.wav
182,192,105148,1,0,0:0:0:30:
109,192,105255,1,0,0:0:0:60:KickMid.wav
329,192,105255,1,0,0:0:0:30:
36,192,105362,1,0,0:0:0:60:DeepBassKick.wav
256,192,105362,1,0,0:0:0:60:CymbalFSU.wav
109,192,105415,1,0,0:0:0:30:
182,192,105469,1,0,0:0:0:30:
329,192,105523,1,0,0:0:0:30:
402,192,105576,1,0,0:0:0:30:
475,192,105630,1,0,0:0:0:30:
36,192,105683,1,0,0:0:0:30:
109,192,105737,1,0,0:0:0:30:
182,192,105790,1,0,0:0:0:60:KickMid.wav
329,192,105790,1,0,0:0:0:30:
402,192,105790,1,0,0:0:0:30:
182,192,106005,1,0,0:0:0:60:KickMid.wav
329,192,106005,1,0,0:0:0:30:
402,192,106005,1,0,0:0:0:30:
182,192,106433,1,0,0:0:0:60:DeepBassKick.wav
256,192,106433,1,0,0:0:0:60:CymbalFSU.wav
402,192,106433,1,0,0:0:0:60:KickMid.wav
475,192,106433,1,0,0:0:0:30:
329,192,106755,1,0,0:0:0:60:DeepBassKick.wav
402,192,106755,1,0,0:0:0:60:CymbalFSU.wav
182,192,106755,1,0,0:0:0:60:KickMid.wav
109,192,106755,1,0,0:0:0:30:
36,192,107076,1,0,0:0:0:60:DeepBassKick.wav
109,192,107076,1,0,0:0:0:60:CymbalFSU.wav
256,192,107076,1,0,0:0:0:60:KickMid.wav
329,192,107076,1,0,0:0:0:30:
182,192,107290,1,0,0:0:0:60:KickMid.wav
329,192,107398,1,0,0:0:0:30:
475,192,107398,1,0,0:0:0:30:
36,192,107719,1,0,0:0:0:30:
182,192,107719,1,0,0:0:0:30:
36,192,107933,128,0,108683:0:0:0:60:DeepBassKick.wav
182,192,107933,128,0,108683:0:0:0:60:CymbalFSU.wav
256,192,107933,1,0,0:0:0:60:KickMid.wav
329,192,108148,1,0,0:0:0:30:
402,192,108255,128,0,108469:0:0:0:30:
475,192,108255,128,0,108469:0:0:0:30:
402,192,108576,128,0,108683:0:0:0:30:
475,192,108576,128,0,108683:0:0:0:30:
36,192,109005,1,0,0:0:0:60:DeepBassKick.wav
475,192,109005,1,0,0:0:0:60:CymbalFSU.wav
329,192,109005,1,0,0:0:0:60:KickMid.wav
256,192,109058,1,0,0:0:0:30:
182,192,109112,1,0,0:0:0:30:
109,192,109165,1,0,0:0:0:30:
475,192,109219,1,0,0:0:0:30:
329,192,109273,1,0,0:0:0:30:
182,192,109326,1,0,0:0:0:30:
36,192,109380,1,0,0:0:0:30:
402,192,109433,1,0,0:0:0:30:
329,192,109487,1,0,0:0:0:30:
256,192,109540,1,0,0:0:0:30:
182,192,109594,1,0,0:0:0:30:
109,192,109648,1,0,0:0:0:60:DeepBassKick.wav
402,192,109648,1,0,0:0:0:60:KickMid.wav
475,192,109648,128,0,116505:0:0:0:30:
182,192,110076,1,0,0:0:0:60:DeepBassKick.wav
36,192,110076,1,0,0:0:0:30:
256,192,110290,1,0,0:0:0:30:
329,192,110505,1,0,0:0:0:30:
402,192,110505,1,8,0:0:0:50:
256,192,110933,1,0,0:0:0:30:
36,192,111148,1,0,0:0:0:60:DeepBassKick.wav
182,192,111148,1,0,0:0:0:30:
329,192,111362,1,0,0:0:0:60:KickMid.wav
36,192,111790,1,0,0:0:0:60:DeepBassKick.wav
182,192,111790,1,0,0:0:0:30:
256,192,112005,1,0,0:0:0:30:
329,192,112219,1,8,0:0:0:50:
402,192,112219,1,0,0:0:0:30:
36,192,112648,1,0,0:0:0:60:DeepBassKick.wav
182,192,112648,1,0,0:0:0:30:
36,192,113076,1,0,0:0:0:60:DeepBassKick.wav
182,192,113076,1,0,0:0:0:30:
36,192,113505,1,0,0:0:0:60:DeepBassKick.wav
182,192,113505,1,0,0:0:0:30:
256,192,113719,1,0,0:0:0:30:
329,192,113933,1,0,0:0:0:30:
402,192,113933,1,8,0:0:0:50:
256,192,114362,1,0,0:0:0:30:
36,192,114576,1,0,0:0:0:60:DeepBassKick.wav
182,192,114576,1,0,0:0:0:30:
329,192,114790,1,0,0:0:0:60:KickMid.wav
36,192,115219,1,0,0:0:0:60:DeepBassKick.wav
182,192,115219,1,0,0:0:0:30:
256,192,115433,1,0,0:0:0:30:
329,192,115648,1,0,0:0:0:30:
402,192,115648,1,8,0:0:0:50:
36,192,116076,1,0,0:0:0:60:DeepBassKick.wav
182,192,116076,1,0,0:0:0:30:
329,192,116719,1,0,0:0:0:20:
402,192,116826,1,0,0:0:0:20:
475,192,116933,1,0,0:0:0:20:
402,192,117148,1,0,0:0:0:20:
36,192,117362,1,0,0:0:0:20:
475,192,117576,1,0,0:0:0:20:
475,192,117790,1,0,0:0:0:20:
402,192,118005,1,0,0:0:0:20:
329,192,118219,1,0,0:0:0:20:
256,192,118433,1,0,0:0:0:20:
182,192,118540,1,0,0:0:0:20:
256,192,118648,1,0,0:0:0:20:
36,192,118862,1,0,0:0:0:20:
256,192,119076,1,0,0:0:0:20:
36,192,119290,1,0,0:0:0:20:
256,192,119505,1,0,0:0:0:20:
329,192,119719,1,0,0:0:0:20:
402,192,119826,1,0,0:0:0:20:
475,192,119933,1,0,0:0:0:20:
329,192,120148,1,0,0:0:0:20:
182,192,120255,1,0,0:0:0:20:
182,192,120362,1,0,0:0:0:20:
329,192,120576,1,0,0:0:0:20:
402,192,120683,1,0,0:0:0:20:
475,192,120790,1,0,0:0:0:20:
109,192,121005,1,0,0:0:0:20:
329,192,121219,1,0,0:0:0:20:
475,192,121433,1,0,0:0:0:20:
402,192,121540,1,0,0:0:0:20:
329,192,121648,1,0,0:0:0:20:
402,192,121862,1,0,0:0:0:20:
36,192,122076,1,0,0:0:0:20:
109,192,122290,1,0,0:0:0:20:
182,192,122398,1,0,0:0:0:20:
256,192,122505,1,0,0:0:0:60:DeepBassKick.wav
402,192,122505,1,0,0:0:0:60:CymbalFSU.wav
475,192,122505,1,0,0:0:0:60:KickMid.wav
36,192,122505,1,0,0:0:0:30:
182,192,122719,1,0,0:0:0:60:DeepBassKick.wav
36,192,122719,1,0,0:0:0:60:CymbalFSU.wav
402,192,122719,1,0,0:0:0:60:KickMid.wav
256,192,122719,1,0,0:0:0:30:
475,192,122862,1,0,0:0:0:60:KickMid.wav
329,192,122862,1,0,0:0:0:30:
182,192,122933,1,0,0:0:0:60:KickMid.wav
36,192,122933,1,0,0:0:0:30:
329,192,123005,1,0,0:0:0:60:KickMid.wav
475,192,123005,1,0,0:0:0:30:
182,192,123076,1,0,0:0:0:60:KickMid.wav
36,192,123076,1,0,0:0:0:30:
329,192,123148,1,0,0:0:0:60:DeepBassKick.wav
475,192,123148,1,0,0:0:0:60:CymbalFSU.wav
182,192,123290,1,0,0:0:0:60:KickMid.wav
402,192,123290,1,0,0:0:0:30:
36,192,123362,1,0,0:0:0:60:DeepBassKick.wav
256,192,123362,1,0,0:0:0:60:CymbalFSU.wav
475,192,123362,1,0,0:0:0:60:KickMid.wav
329,192,123505,1,0,0:0:0:60:KickMid.wav
109,192,123505,1,0,0:0:0:30:
36,192,123576,1,0,0:0:0:60:DeepBassKick.wav
475,192,123576,1,0,0:0:0:60:CymbalFSU.wav
256,192,123576,1,0,0:0:0:60:KickMid.wav
402,192,123719,1,0,0:0:0:60:KickMid.wav
182,192,123719,1,0,0:0:0:30:
256,192,123790,1,0,0:0:0:60:DeepBassKick.wav
475,192,123790,1,0,0:0:0:60:CymbalFSU.wav
36,192,123790,1,0,0:0:0:60:KickMid.wav
402,192,124005,1,0,0:0:0:60:DeepBassKick.wav
109,192,124005,1,0,0:0:0:60:KickMid.wav
256,192,124005,1,0,0:0:0:30:
329,192,124219,1,0,0:0:0:60:DeepBassKick.wav
475,192,124219,1,0,0:0:0:60:CymbalFSU.wav
36,192,124219,1,0,0:0:0:60:KickMid.wav
182,192,124219,1,0,0:0:0:6:
109,192,124433,1,0,0:0:0:60:DeepBassKick.wav
402,192,124433,1,0,0:0:0:60:KickMid.wav
475,192,124433,1,0,0:0:0:30:
256,192,124433,1,0,0:0:0:30:
109,192,124648,1,0,0:0:0:60:DeepBassKick.wav
402,192,124648,1,0,0:0:0:60:KickMid.wav
475,192,124648,1,0,0:0:0:30:
256,192,124648,1,0,0:0:0:30:
36,192,124862,1,0,0:0:0:60:DeepBassKick.wav
182,192,124862,1,0,0:0:0:60:KickMid.wav
329,192,124862,1,0,0:0:0:30:
402,192,124862,1,0,0:0:0:30:
256,192,125076,1,0,0:0:0:60:DeepBassKick.wav
329,192,125076,1,0,0:0:0:60:KickMid.wav
109,192,125076,1,0,0:0:0:30:
36,192,125076,1,0,0:0:0:30:
402,192,125290,1,0,0:0:0:60:DeepBassKick.wav
475,192,125290,1,0,0:0:0:60:KickMid.wav
329,192,125290,1,0,0:0:0:30:
36,192,125398,1,0,0:0:0:60:DeepBassKick.wav
109,192,125398,1,0,0:0:0:60:KickMid.wav
182,192,125398,1,0,0:0:0:30:
329,192,125505,1,0,0:0:0:60:DeepBassKick.wav
475,192,125505,1,0,0:0:0:60:KickMid.wav
402,192,125505,1,0,0:0:0:30:
36,192,125719,1,0,0:0:0:60:DeepBassKick.wav
109,192,125719,1,0,0:0:0:60:KickMid.wav
256,192,125719,1,0,0:0:0:30:
329,192,125719,1,0,0:0:0:30:
256,192,125933,1,0,0:0:0:60:DeepBassKick.wav
402,192,125933,1,0,0:0:0:60:KickMid.wav
475,192,125933,1,0,0:0:0:30:
182,192,125933,1,0,0:0:0:30:
109,192,126148,1,0,0:0:0:60:DeepBassKick.wav
36,192,126148,1,0,0:0:0:60:KickMid.wav
329,192,126148,1,0,0:0:0:30:
256,192,126148,1,0,0:0:0:30:
256,192,126362,1,0,0:0:0:60:DeepBassKick.wav
402,192,126362,1,0,0:0:0:60:KickMid.wav
475,192,126362,1,0,0:0:0:30:
182,192,126362,1,0,0:0:0:30:
36,192,126576,1,0,0:0:0:60:DeepBassKick.wav
329,192,126576,1,0,0:0:0:60:KickMid.wav
182,192,126576,1,0,0:0:0:30:
402,192,126683,1,0,0:0:0:60:DeepBassKick.wav
109,192,126683,1,0,0:0:0:60:KickMid.wav
256,192,126683,1,0,0:0:0:30:
475,192,126790,1,0,0:0:0:60:DeepBassKick.wav
182,192,126790,1,0,0:0:0:60:KickMid.wav
329,192,126790,1,0,0:0:0:30:
475,192,127005,1,0,0:0:0:60:DeepBassKick.wav
402,192,127005,1,0,0:0:0:60:KickMid.wav
329,192,127005,1,0,0:0:0:30:
109,192,127112,1,0,0:0:0:60:DeepBassKick.wav
182,192,127112,1,0,0:0:0:60:KickMid.wav
36,192,127112,1,0,0:0:0:30:
109,192,127219,1,0,0:0:0:60:DeepBassKick.wav
182,192,127219,1,0,0:0:0:60:KickMid.wav
36,192,127219,1,0,0:0:0:30:
36,192,127433,1,0,0:0:0:60:DeepBassKick.wav
109,192,127433,1,0,0:0:0:60:KickMid.wav
329,192,127433,1,0,0:0:0:30:
182,192,127540,1,0,0:0:0:60:DeepBassKick.wav
256,192,127540,1,0,0:0:0:60:KickMid.wav
402,192,127540,1,0,0:0:0:30:
329,192,127648,1,0,0:0:0:60:DeepBassKick.wav
475,192,127648,1,0,0:0:0:60:KickMid.wav
36,192,127648,1,0,0:0:0:30:
256,192,127862,1,0,0:0:0:60:DeepBassKick.wav
36,192,127862,1,0,0:0:0:60:KickMid.wav
109,192,127862,1,0,0:0:0:30:
329,192,127862,1,0,0:0:0:30:
182,192,128076,1,0,0:0:0:60:DeepBassKick.wav
329,192,128076,1,0,0:0:0:60:KickMid.wav
402,192,128076,1,0,0:0:0:30:
109,192,128076,1,0,0:0:0:30:
402,192,128290,1,0,0:0:0:60:DeepBassKick.wav
475,192,128290,1,0,0:0:0:60:KickMid.wav
256,192,128290,1,0,0:0:0:30:
182,192,128290,1,0,0:0:0:30:
109,192,128398,1,0,0:0:0:60:DeepBassKick.wav
329,192,128398,1,0,0:0:0:60:KickMid.wav
36,192,128398,1,0,0:0:0:30:
256,192,128505,1,0,0:0:0:60:DeepBassKick.wav
475,192,128505,1,0,0:0:0:60:KickMid.wav
182,192,128505,1,0,0:0:0:30:
402,192,128719,1,0,0:0:0:60:DeepBassKick.wav
475,192,128719,1,0,0:0:0:60:KickMid.wav
182,192,128719,1,0,0:0:0:30:
36,192,128719,1,0,0:0:0:30:
329,192,128933,1,0,0:0:0:60:DeepBassKick.wav
109,192,128933,1,0,0:0:0:60:KickMid.wav
402,192,128933,1,0,0:0:0:30:
36,192,128933,1,0,0:0:0:30:
256,192,129148,1,0,0:0:0:60:DeepBassKick.wav
109,192,129148,1,0,0:0:0:60:KickMid.wav
402,192,129148,1,0,0:0:0:30:
182,192,129255,1,0,0:0:0:60:DeepBassKick.wav
475,192,129255,1,0,0:0:0:60:KickMid.wav
329,192,129255,1,0,0:0:0:30:
256,192,129362,1,0,0:0:0:60:DeepBassKick.wav
36,192,129362,1,0,0:0:0:60:KickMid.wav
402,192,129362,1,0,0:0:0:30:
182,192,129576,1,0,0:0:0:60:DeepBassKick.wav
256,192,129576,1,0,0:0:0:60:KickMid.wav
402,192,129576,1,0,0:0:0:30:
109,192,129576,1,0,0:0:0:30:
256,192,129790,1,0,0:0:0:60:DeepBassKick.wav
329,192,129790,1,0,0:0:0:60:KickMid.wav
475,192,129790,1,0,0:0:0:30:
36,192,129898,1,0,0:0:0:60:DeepBassKick.wav
109,192,129898,1,0,0:0:0:60:KickMid.wav
182,192,129898,1,0,0:0:0:30:
329,192,130005,1,0,0:0:0:60:DeepBassKick.wav
402,192,130005,1,0,0:0:0:60:KickMid.wav
475,192,130005,1,0,0:0:0:30:
256,192,130112,1,0,0:0:0:60:DeepBassKick.wav
182,192,130112,1,0,0:0:0:60:KickMid.wav
109,192,130112,1,0,0:0:0:30:
36,192,130219,1,0,0:0:0:60:DeepBassKick.wav
402,192,130219,1,0,0:0:0:60:KickMid.wav
475,192,130219,1,0,0:0:0:30:
109,192,130433,1,0,0:0:0:60:DeepBassKick.wav
182,192,130433,1,0,0:0:0:60:KickMid.wav
329,192,130433,1,0,0:0:0:30:
475,192,130433,1,0,0:0:0:30:
36,192,130648,1,0,0:0:0:60:DeepBassKick.wav
109,192,130648,1,0,0:0:0:60:KickMid.wav
256,192,130648,1,0,0:0:0:30:
402,192,130648,1,0,0:0:0:30:
329,192,130862,1,0,0:0:0:60:DeepBassKick.wav
256,192,130862,1,0,0:0:0:60:KickMid.wav
36,192,130862,128,0,131076:0:0:0:30:
109,192,130862,1,0,0:0:0:30:
402,192,131076,1,0,0:0:0:60:DeepBassKick.wav
475,192,131076,1,0,0:0:0:60:CymbalFSU.wav
329,192,131076,1,0,0:0:0:60:KickMid.wav
182,192,131076,1,0,0:0:0:30:
182,192,131290,1,0,0:0:0:60:DeepBassKick.wav
256,192,131290,1,0,0:0:0:60:KickMid.wav
329,192,131290,1,0,0:0:0:30:
36,192,131290,1,0,0:0:0:30:
256,192,131505,1,0,0:0:0:60:DeepBassKick.wav
329,192,131505,1,0,0:0:0:60:KickMid.wav
402,192,131505,1,0,0:0:0:30:
109,192,131505,1,0,0:0:0:30:
329,192,131719,1,0,0:0:0:60:DeepBassKick.wav
475,192,131719,1,0,0:0:0:60:KickMid.wav
402,192,131719,1,0,0:0:0:30:
182,192,131719,1,0,0:0:0:30:
36,192,131933,1,0,0:0:0:60:DeepBassKick.wav
256,192,131933,1,0,0:0:0:60:KickMid.wav
402,192,131933,1,0,0:0:0:30:
109,192,131933,1,0,0:0:0:30:
182,192,132148,1,0,0:0:0:60:DeepBassKick.wav
109,192,132148,1,0,0:0:0:60:KickMid.wav
402,192,132148,1,0,0:0:0:30:
256,192,132219,1,0,0:0:0:60:DeepBassKick.wav
475,192,132219,1,0,0:0:0:60:KickMid.wav
402,192,132290,1,0,0:0:0:60:DeepBassKick.wav
182,192,132290,1,0,0:0:0:60:KickMid.wav
329,192,132362,1,0,0:0:0:60:DeepBassKick.wav
109,192,132362,1,0,0:0:0:60:KickMid.wav
36,192,132362,1,0,0:0:0:30:
182,192,132576,1,0,0:0:0:60:DeepBassKick.wav
109,192,132576,1,0,0:0:0:60:KickMid.wav
402,192,132576,1,0,0:0:0:30:
475,192,132576,1,0,0:0:0:30:
109,192,132790,1,0,0:0:0:60:DeepBassKick.wav
182,192,132790,1,0,0:0:0:60:KickMid.wav
402,192,132790,1,0,0:0:0:30:
475,192,132790,1,0,0:0:0:30:
329,192,133005,1,0,0:0:0:60:DeepBassKick.wav
36,192,133005,1,0,0:0:0:60:KickMid.wav
109,192,133005,1,0,0:0:0:30:
256,192,133005,1,0,0:0:0:30:
109,192,133219,1,0,0:0:0:60:DeepBassKick.wav
182,192,133219,1,0,0:0:0:60:KickMid.wav
402,192,133219,1,0,0:0:0:30:
329,192,133219,1,0,0:0:0:30:
475,192,133433,1,0,0:0:0:60:DeepBassKick.wav
182,192,133433,1,0,0:0:0:60:KickMid.wav
256,192,133433,1,0,0:0:0:30:
402,192,133433,1,0,0:0:0:30:
329,192,133648,1,0,0:0:0:60:DeepBassKick.wav
182,192,133648,1,0,0:0:0:60:KickMid.wav
109,192,133648,128,0,133862:0:0:0:30:
402,192,133648,1,0,0:0:0:30:
256,192,133862,1,0,0:0:0:60:DeepBassKick.wav
402,192,133862,1,0,0:0:0:60:KickMid.wav
475,192,133862,1,0,0:0:0:30:
36,192,134076,128,0,134290:0:0:0:60:DeepBassKick.wav
182,192,134076,1,0,0:0:0:60:KickMid.wav
329,192,134076,1,0,0:0:0:30:
402,192,134076,1,0,0:0:0:30:
256,192,134290,1,0,0:0:0:60:DeepBassKick.wav
402,192,134290,1,0,0:0:0:60:KickMid.wav
475,192,134290,1,0,0:0:0:30:
109,192,134290,1,0,0:0:0:30:
329,192,134505,1,0,0:0:0:60:DeepBassKick.wav
475,192,134505,1,0,0:0:0:60:CymbalFSU.wav
402,192,134505,1,0,0:0:0:60:KickMid.wav
182,192,134505,1,0,0:0:0:30:
36,192,134612,1,0,0:0:0:60:KickMid.wav
256,192,134719,1,0,0:0:0:60:DeepBassKick.wav
329,192,134719,1,0,0:0:0:60:KickMid.wav
402,192,134719,1,0,0:0:0:30:
182,192,134719,1,0,0:0:0:30:
36,192,134826,1,0,0:0:0:60:KickMid.wav
329,192,134933,1,0,0:0:0:60:DeepBassKick.wav
256,192,134933,1,0,0:0:0:60:KickMid.wav
182,192,134933,128,0,135148:0:0:0:30:
402,192,135148,1,0,0:0:0:60:DeepBassKick.wav
36,192,135148,1,0,0:0:0:60:KickMid.wav
329,192,135148,1,0,0:0:0:30:
475,192,135148,1,0,0:0:0:30:
475,192,135362,1,0,0:0:0:60:DeepBassKick.wav
256,192,135362,1,0,0:0:0:60:CymbalFSU.wav
402,192,135362,1,0,0:0:0:60:KickMid.wav
182,192,135362,1,0,0:0:0:30:
109,192,135469,1,0,0:0:0:60:KickMid.wav
182,192,135576,1,0,0:0:0:60:DeepBassKick.wav
329,192,135576,1,0,0:0:0:60:KickMid.wav
475,192,135576,1,0,0:0:0:30:
402,192,135576,1,0,0:0:0:30:
109,192,135683,1,0,0:0:0:60:KickMid.wav
256,192,135790,128,0,136005:0:0:0:60:DeepBassKick.wav
182,192,135790,1,0,0:0:0:60:KickMid.wav
329,192,135790,1,0,0:0:0:30:
402,192,136005,1,0,0:0:0:60:DeepBassKick.wav
475,192,136005,1,0,0:0:0:60:KickMid.wav
36,192,136005,1,0,0:0:0:30:
109,192,136005,1,0,0:0:0:30:
402,192,136219,1,0,0:0:0:60:DeepBassKick.wav
475,192,136219,1,0,0:0:0:60:CymbalFSU.wav
182,192,136219,1,0,0:0:0:60:KickMid.wav
256,192,136219,1,0,0:0:0:30:
36,192,136326,1,0,0:0:0:60:KickMid.wav
329,192,136433,1,0,0:0:0:60:DeepBassKick.wav
402,192,136433,1,0,0:0:0:60:KickMid.wav
182,192,136433,1,0,0:0:0:30:
109,192,136433,1,0,0:0:0:30:
475,192,136540,1,0,0:0:0:60:KickMid.wav
256,192,136648,1,0,0:0:0:60:DeepBassKick.wav
329,192,136648,1,0,0:0:0:60:KickMid.wav
36,192,136648,128,0,136862:0:0:0:30:
109,192,136648,1,0,0:0:0:30:
182,192,136862,1,0,0:0:0:60:DeepBassKick.wav
475,192,136862,1,0,0:0:0:60:KickMid.wav
329,192,136862,1,0,0:0:0:30:
329,192,137076,1,0,0:0:0:60:DeepBassKick.wav
109,192,137076,1,0,0:0:0:60:CymbalFSU.wav
256,192,137076,1,0,0:0:0:60:KickMid.wav
402,192,137076,1,0,0:0:0:30:
475,192,137183,1,0,0:0:0:60:KickMid.wav
256,192,137290,1,0,0:0:0:60:DeepBassKick.wav
36,192,137290,128,0,137505:0:0:0:60:KickMid.wav
182,192,137290,1,0,0:0:0:30:
329,192,137290,1,0,0:0:0:30:
475,192,137398,1,0,0:0:0:60:KickMid.wav
329,192,137505,1,0,0:0:0:60:DeepBassKick.wav
109,192,137505,128,0,137719:0:0:0:60:KickMid.wav
402,192,137505,1,0,0:0:0:30:
256,192,137719,1,0,0:0:0:60:DeepBassKick.wav
402,192,137719,1,0,0:0:0:60:KickMid.wav
475,192,137719,1,0,0:0:0:30:
182,192,137719,1,0,0:0:0:30:
182,192,137933,128,0,138148:0:0:0:60:DeepBassKick.wav
475,192,137933,1,0,0:0:0:60:CymbalFSU.wav
402,192,137933,1,0,0:0:0:60:KickMid.wav
256,192,137933,1,0,0:0:0:30:
329,192,138040,1,0,0:0:0:60:KickMid.wav
36,192,138148,1,0,0:0:0:60:DeepBassKick.wav
109,192,138148,1,0,0:0:0:60:KickMid.wav
402,192,138148,1,0,0:0:0:30:
475,192,138255,1,0,0:0:0:60:KickMid.wav
329,192,138362,128,0,138576:0:0:0:60:DeepBassKick.wav
36,192,138362,1,0,0:0:0:60:CymbalFSU.wav
109,192,138362,1,0,0:0:0:60:KickMid.wav
256,192,138362,1,0,0:0:0:30:
182,192,138469,1,0,0:0:0:60:KickMid.wav
475,192,138576,1,0,0:0:0:60:DeepBassKick.wav
402,192,138576,1,0,0:0:0:60:KickMid.wav
109,192,138576,1,0,0:0:0:30:
36,192,138683,1,0,0:0:0:60:KickMid.wav
182,192,138790,1,0,0:0:0:60:DeepBassKick.wav
402,192,138790,1,0,0:0:0:60:CymbalFSU.wav
475,192,138790,1,0,0:0:0:60:KickMid.wav
256,192,138790,1,0,0:0:0:30:
329,192,139005,1,0,0:0:0:60:DeepBassKick.wav
402,192,139005,1,0,0:0:0:60:KickMid.wav
182,192,139005,1,0,0:0:0:30:
109,192,139005,1,0,0:0:0:30:
36,192,139219,1,0,0:0:0:60:DeepBassKick.wav
109,192,139219,1,0,0:0:0:60:KickMid.wav
256,192,139219,1,0,0:0:0:30:
329,192,139219,1,0,0:0:0:30:
475,192,139433,128,0,139648:0:0:0:60:DeepBassKick.wav
182,192,139433,128,0,139540:0:0:0:60:CymbalFSU.wav
109,192,139540,128,0,139648:0:0:0:30:
256,192,139648,1,0,0:0:0:60:DeepBassKick.wav
36,192,139648,1,0,0:0:0:60:CymbalFSU.wav
402,192,139648,128,0,139862:0:0:0:60:KickMid.wav
329,192,139862,128,0,140076:0:0:0:30:
256,192,140076,128,0,140290:0:0:0:60:DeepBassKick.wav
36,192,140076,1,0,0:0:0:60:KickMid.wav
475,192,140076,1,0,0:0:0:30:
182,192,140290,128,0,140505:0:0:0:30:
329,192,140505,128,0,141362:0:0:0:30:
256,192,140719,128,0,141362:0:0:0:30:
182,192,140933,128,0,141362:0:0:0:30:
109,192,141148,128,0,141362:0:0:0:30:
256,192,141790,128,0,144790:0:0:0:60:DeepBassKick.wav
36,192,141790,1,0,0:0:0:60:CymbalFSU.wav
475,192,141790,1,0,0:0:0:60:KickMid.wav
329,192,142219,1,0,0:0:0:30:
182,192,142648,1,0,0:0:0:30:
329,192,143076,1,0,0:0:0:30:
182,192,143505,1,0,0:0:0:30:
329,192,143933,1,0,0:0:0:30:
182,192,144362,1,0,0:0:0:30:
36,192,144790,1,0,0:0:0:30:
475,192,144790,1,0,0:0:0:30:
