osu file format v14

[General]
AudioFilename: audio.mp3
AudioLeadIn: 0
PreviewTime: 123892
Countdown: 0
SampleSet: Normal
StackLeniency: 0.2
Mode: 1
LetterboxInBreaks: 0
WidescreenStoryboard: 1

[Editor]
DistanceSpacing: 0.8
BeatDivisor: 2
GridSize: 32
TimelineZoom: 3.719999

[Metadata]
Title:Doppelganger
TitleUnicode:Doppelganger
Artist:LeaF
ArtistUnicode:LeaF
Creator:Genjuro
Version:Inner Oni
Source:
Tags:electronic instrumental video game breakcore einsamkeit solitude konzertsaal -THE BMS OF FIGHTERS 2013- bof featured artist fa osu! SOUND VOLTEX IV HEAVENLY HAVEN CHUNITHM Phigros bemani konami rhythm tasuke912
BeatmapID:2577370
BeatmapSetID:1239213

[Difficulty]
HPDrainRate:6
CircleSize:2
OverallDifficulty:6
ApproachRate:10
SliderMultiplier:1.4
SliderTickRate:1

[Events]
//Background and Video events
0,0,"bg.jpg",0,0
//Break Periods
2,61321,62585
//Storyboard Layer 0 (Background)
//Storyboard Layer 1 (Fail)
//Storyboard Layer 2 (Pass)
//Storyboard Layer 3 (Foreground)
//Storyboard Layer 4 (Overlay)
//Storyboard Sound Samples

[TimingPoints]
464,214.285714285714,4,1,0,100,1,0
18624,-106.629815402464,4,1,0,75,0,0
18731,-110.285684035927,4,1,0,75,0,0
18838,-114.201140184184,4,1,0,75,0,0
19053,-122.929861138429,4,1,0,75,0,0
19267,-133.103507942952,4,1,0,75,0,0
29553,-100,4,1,0,100,0,0
53660,-103.225806451613,4,1,0,100,0,0
53767,-106.666666666667,4,1,0,100,0,0
53981,-114.285714285714,4,1,0,100,0,0
54410,-133.333333333333,4,1,0,100,0,0
59767,-123.076923076923,4,1,0,100,0,0
59981,-114.285714285714,4,1,0,100,0,0
60088,-110.344827586207,4,1,0,100,0,0
60196,-106.666666666667,4,1,0,100,0,0
60410,-100,4,1,0,100,0,0
61267,-160,4,1,0,25,0,0
62981,-100,4,1,0,100,0,0
75196,-106.666666666667,4,1,0,75,0,0
75303,-110.344827586207,4,1,0,75,0,0
75410,-114.285714285714,4,1,0,75,0,0
75624,-123.076923076923,4,1,0,75,0,0
75838,-133.333333333333,4,1,0,75,0,0
80981,-100,4,1,0,100,0,0
83553,-100,4,1,0,75,0,0
84410,-100,4,1,0,100,0,0
86338,-100,4,1,0,75,0,0
86767,-100,4,1,0,100,0,0
109696,-133.333333333333,4,1,0,100,0,0
116124,-149.935153046307,4,1,0,100,0,0
116338,-159.889228742327,4,1,0,50,0,0
116446,-165.379189675046,4,1,0,50,0,0
116553,-171.259269407957,4,1,0,50,0,0
116767,-184.369860690133,4,1,0,50,0,0
116981,-199.654597546245,4,1,0,50,0,0
122124,-100,4,1,0,100,0,0
123892,-100,4,1,0,100,0,1
139321,-100,4,1,0,100,0,0
141838,-100,4,1,0,50,0,0
143553,-100,4,1,0,60,0,0
143767,-100,4,1,0,70,0,0
143981,-100,4,1,0,80,0,0
144196,-100,4,1,0,90,0,0
144410,-20,4,1,0,100,0,0

[HitObjects]
256,192,464,5,8,0:0:0:0:
256,192,571,1,8,0:0:0:0:
256,192,785,1,8,0:0:0:0:
256,192,999,1,8,0:0:0:0:
256,192,1213,1,8,0:0:0:0:
256,192,1428,1,8,0:0:0:0:
256,192,1535,1,8,0:0:0:0:
256,192,1642,1,8,0:0:0:0:
256,192,1749,1,8,0:0:0:0:
256,192,1856,1,0,0:0:0:0:
256,192,1963,1,8,0:0:0:0:
256,192,2178,1,8,0:0:0:0:
256,192,2285,1,0,0:0:0:0:
256,192,2392,1,8,0:0:0:0:
256,192,2499,1,8,0:0:0:0:
256,192,2606,1,0,0:0:0:0:
256,192,2713,1,8,0:0:0:0:
256,192,2821,1,0,0:0:0:0:
256,192,2928,1,8,0:0:0:0:
256,192,3142,1,8,0:0:0:0:
256,192,3249,1,8,0:0:0:0:
256,192,3356,1,8,0:0:0:0:
256,192,3463,1,8,0:0:0:0:
256,192,3892,1,4,0:0:0:0:
256,192,4106,1,8,0:0:0:0:
256,192,4321,1,0,0:0:0:0:
256,192,4428,1,8,0:0:0:0:
256,192,4642,1,0,0:0:0:0:
256,192,4856,1,8,0:0:0:0:
256,192,4963,1,8,0:0:0:0:
256,192,5178,1,0,0:0:0:0:
256,192,5392,1,8,0:0:0:0:
256,192,5606,1,0,0:0:0:0:
256,192,5713,1,0,0:0:0:0:
256,192,5821,1,8,0:0:0:0:
256,192,5928,1,8,0:0:0:0:
256,192,6035,1,0,0:0:0:0:
256,192,6142,1,8,0:0:0:0:
256,192,6356,1,0,0:0:0:0:
256,192,6571,1,8,0:0:0:0:
256,192,6678,1,8,0:0:0:0:
256,192,6785,1,0,0:0:0:0:
256,192,6892,1,8,0:0:0:0:
256,192,7106,1,8,0:0:0:0:
256,192,7160,1,8,0:0:0:0:
256,192,7213,1,8,0:0:0:0:
256,192,7321,1,4,0:0:0:0:
256,192,7535,1,8,0:0:0:0:
256,192,7749,1,0,0:0:0:0:
256,192,7856,1,8,0:0:0:0:
256,192,8071,1,0,0:0:0:0:
256,192,8285,1,8,0:0:0:0:
256,192,8392,1,8,0:0:0:0:
256,192,8606,1,0,0:0:0:0:
256,192,8821,1,8,0:0:0:0:
256,192,9035,1,0,0:0:0:0:
256,192,9142,1,0,0:0:0:0:
256,192,9249,1,8,0:0:0:0:
256,192,9356,1,8,0:0:0:0:
256,192,9463,1,0,0:0:0:0:
256,192,9571,1,8,0:0:0:0:
256,192,9678,1,8,0:0:0:0:
256,192,9892,1,4,0:0:0:0:
256,192,10106,1,12,0:0:0:0:
256,192,10321,1,12,0:0:0:0:
256,192,10749,1,4,0:0:0:0:
256,192,10963,1,8,0:0:0:0:
256,192,11071,1,8,0:0:0:0:
256,192,11178,1,0,0:0:0:0:
256,192,11285,1,8,0:0:0:0:
256,192,11392,1,0,0:0:0:0:
256,192,11446,1,0,0:0:0:0:
256,192,11499,1,0,0:0:0:0:
256,192,11606,1,8,0:0:0:0:
256,192,11821,1,0,0:0:0:0:
256,192,11928,1,0,0:0:0:0:
256,192,12035,1,8,0:0:0:0:
256,192,12142,1,8,0:0:0:0:
256,192,12249,1,0,0:0:0:0:
256,192,12463,1,8,0:0:0:0:
256,192,12678,1,0,0:0:0:0:
256,192,12785,1,0,0:0:0:0:
256,192,12892,1,8,0:0:0:0:
256,192,12999,1,0,0:0:0:0:
256,192,13106,1,8,0:0:0:0:
256,192,13160,1,8,0:0:0:0:
256,192,13213,1,8,0:0:0:0:
256,192,13321,1,0,0:0:0:0:
256,192,13535,1,8,0:0:0:0:
256,192,13642,1,8,0:0:0:0:
256,192,13749,1,0,0:0:0:0:
256,192,13856,1,0,0:0:0:0:
256,192,13963,1,8,0:0:0:0:
256,192,14178,1,0,0:0:0:0:
256,192,14392,1,8,0:0:0:0:
256,192,14446,1,8,0:0:0:0:
256,192,14499,1,8,0:0:0:0:
256,192,14553,1,8,0:0:0:0:
256,192,14606,1,8,0:0:0:0:
256,192,14767,1,8,0:0:0:0:
256,192,14928,1,0,0:0:0:0:
256,192,15035,1,8,0:0:0:0:
256,192,15142,1,8,0:0:0:0:
256,192,15249,1,0,0:0:0:0:
256,192,15303,1,0,0:0:0:0:
256,192,15356,1,0,0:0:0:0:
256,192,15463,1,8,0:0:0:0:
256,192,15517,1,8,0:0:0:0:
256,192,15571,1,8,0:0:0:0:
256,192,15678,1,4,0:0:0:0:
256,192,15892,1,12,0:0:0:0:
256,192,16213,1,4,0:0:0:0:
256,192,16535,1,12,0:0:0:0:
256,192,16856,1,12,0:0:0:0:
256,192,17178,1,4,0:0:0:0:
256,192,17606,2,0,L|256:128,16,35
256,192,18678,1,8,0:0:0:0:
256,192,18785,1,0,0:0:0:0:
256,192,18892,1,8,0:0:0:0:
256,192,19106,1,8,0:0:0:0:
256,192,19321,1,4,0:0:0:0:
256,192,19535,1,8,0:0:0:0:
256,192,19749,1,8,0:0:0:0:
256,192,19963,1,0,0:0:0:0:
256,192,20178,1,8,0:0:0:0:
256,192,20392,1,0,0:0:0:0:
256,192,20499,1,0,0:0:0:0:
256,192,20606,1,8,0:0:0:0:
256,192,20821,1,0,0:0:0:0:
256,192,20874,1,0,0:0:0:0:
256,192,20928,1,0,0:0:0:0:
256,192,21035,1,8,0:0:0:0:
256,192,21249,1,0,0:0:0:0:
256,192,21463,1,8,0:0:0:0:
256,192,21678,1,0,0:0:0:0:
256,192,21785,1,8,0:0:0:0:
256,192,21892,1,0,0:0:0:0:
256,192,22106,1,8,0:0:0:0:
256,192,22213,1,8,0:0:0:0:
256,192,22321,1,0,0:0:0:0:
256,192,22535,1,0,0:0:0:0:
256,192,22642,1,0,0:0:0:0:
256,192,22749,1,8,0:0:0:0:
256,192,22963,1,0,0:0:0:0:
256,192,23178,1,8,0:0:0:0:
256,192,23392,1,8,0:0:0:0:
256,192,23499,1,8,0:0:0:0:
256,192,23606,1,0,0:0:0:0:
256,192,23821,1,8,0:0:0:0:
256,192,24035,1,0,0:0:0:0:
256,192,24463,1,8,0:0:0:0:
256,192,24678,1,0,0:0:0:0:
256,192,24892,1,8,0:0:0:0:
256,192,24999,1,8,0:0:0:0:
256,192,25106,1,0,0:0:0:0:
256,192,25213,1,0,0:0:0:0:
256,192,25321,1,8,0:0:0:0:
256,192,25535,1,0,0:0:0:0:
256,192,25749,1,8,0:0:0:0:
256,192,26178,1,8,0:0:0:0:
256,192,26392,1,0,0:0:0:0:
256,192,26606,1,8,0:0:0:0:
256,192,26821,1,8,0:0:0:0:
256,192,27035,1,0,0:0:0:0:
256,192,27249,1,0,0:0:0:0:
256,192,27321,1,0,0:0:0:0:
256,192,27392,1,0,0:0:0:0:
256,192,27463,1,8,0:0:0:0:
256,192,27678,1,8,0:0:0:0:
256,192,27892,1,8,0:0:0:0:
256,192,28106,1,0,0:0:0:0:
256,192,28321,1,8,0:0:0:0:
256,192,28535,1,8,0:0:0:0:
256,192,28749,1,0,0:0:0:0:
256,192,29178,1,0,0:0:0:0:
256,192,29606,1,12,0:0:0:0:
256,192,29821,1,0,0:0:0:0:
256,192,30035,1,8,0:0:0:0:
256,192,30142,1,0,0:0:0:0:
256,192,30249,1,8,0:0:0:0:
256,192,30356,1,0,0:0:0:0:
256,192,30463,1,8,0:0:0:0:
256,192,30571,1,8,0:0:0:0:
256,192,30678,1,0,0:0:0:0:
256,192,30785,1,8,0:0:0:0:
256,192,30999,1,0,0:0:0:0:
256,192,31106,1,8,0:0:0:0:
256,192,31321,1,4,0:0:0:0:
256,192,31642,1,4,0:0:0:0:
256,192,31963,1,4,0:0:0:0:
256,192,32285,1,12,0:0:0:0:
256,192,32606,1,12,0:0:0:0:
256,192,33249,1,4,0:0:0:0:
256,192,33463,1,12,0:0:0:0:
256,192,33678,1,12,0:0:0:0:
256,192,33892,1,4,0:0:0:0:
256,192,34213,1,4,0:0:0:0:
256,192,34535,1,4,0:0:0:0:
256,192,34856,1,12,0:0:0:0:
256,192,35178,1,12,0:0:0:0:
256,192,35392,2,0,L|256:128,26,35
256,192,37321,1,12,0:0:0:0:
256,192,37535,1,0,0:0:0:0:
256,192,37749,1,8,0:0:0:0:
256,192,37856,1,0,0:0:0:0:
256,192,37963,1,8,0:0:0:0:
256,192,38071,1,8,0:0:0:0:
256,192,38178,1,0,0:0:0:0:
256,192,38338,1,8,0:0:0:0:
256,192,38392,1,8,0:0:0:0:
256,192,38499,1,0,0:0:0:0:
256,192,38713,1,0,0:0:0:0:
256,192,38821,1,8,0:0:0:0:
256,192,38874,1,8,0:0:0:0:
256,192,38928,1,8,0:0:0:0:
256,192,39035,1,0,0:0:0:0:
256,192,39088,1,0,0:0:0:0:
256,192,39142,1,0,0:0:0:0:
256,192,39249,1,8,0:0:0:0:
256,192,39463,1,0,0:0:0:0:
256,192,39571,1,8,0:0:0:0:
256,192,39624,1,8,0:0:0:0:
256,192,39678,1,8,0:0:0:0:
256,192,39785,1,0,0:0:0:0:
256,192,39892,1,8,0:0:0:0:
256,192,39999,1,0,0:0:0:0:
256,192,40053,1,0,0:0:0:0:
256,192,40106,1,0,0:0:0:0:
256,192,40213,1,8,0:0:0:0:
256,192,40321,1,4,0:0:0:0:
256,192,40749,1,12,0:0:0:0:
256,192,40963,1,0,0:0:0:0:
256,192,41178,1,8,0:0:0:0:
256,192,41285,1,0,0:0:0:0:
256,192,41392,1,8,0:0:0:0:
256,192,41499,1,0,0:0:0:0:
256,192,41606,1,0,0:0:0:0:
256,192,41713,1,8,0:0:0:0:
256,192,41821,1,8,0:0:0:0:
256,192,42035,1,0,0:0:0:0:
256,192,42142,1,8,0:0:0:0:
256,192,42249,1,0,0:0:0:0:
256,192,42356,1,0,0:0:0:0:
256,192,42463,1,8,0:0:0:0:
256,192,42517,1,8,0:0:0:0:
256,192,42571,1,8,0:0:0:0:
256,192,42678,1,0,0:0:0:0:
256,192,42731,1,0,0:0:0:0:
256,192,42785,1,0,0:0:0:0:
256,192,42892,1,8,0:0:0:0:
256,192,42999,1,8,0:0:0:0:
256,192,43106,1,8,0:0:0:0:
256,192,43213,1,0,0:0:0:0:
256,192,43428,1,4,0:0:0:0:
256,192,43535,1,12,0:0:0:0:
256,192,43749,1,12,0:0:0:0:
256,192,43963,1,12,0:0:0:0:
256,192,44178,1,0,0:0:0:0:
256,192,44231,1,0,0:0:0:0:
256,192,44285,1,0,0:0:0:0:
256,192,44338,1,0,0:0:0:0:
256,192,44392,1,0,0:0:0:0:
256,192,44606,1,0,0:0:0:0:
256,192,44660,1,0,0:0:0:0:
256,192,44713,1,0,0:0:0:0:
256,192,44821,1,0,0:0:0:0:
256,192,44928,1,8,0:0:0:0:
256,192,44981,1,8,0:0:0:0:
256,192,45035,1,8,0:0:0:0:
256,192,45142,1,8,0:0:0:0:
256,192,45249,1,0,0:0:0:0:
256,192,45463,1,0,0:0:0:0:
256,192,45571,1,8,0:0:0:0:
256,192,45678,1,0,0:0:0:0:
256,192,45892,1,8,0:0:0:0:
256,192,45946,1,8,0:0:0:0:
256,192,45999,1,8,0:0:0:0:
256,192,46106,1,8,0:0:0:0:
256,192,46160,1,8,0:0:0:0:
256,192,46213,1,8,0:0:0:0:
256,192,46321,1,0,0:0:0:0:
256,192,46428,1,8,0:0:0:0:
256,192,46535,1,0,0:0:0:0:
256,192,46749,1,8,0:0:0:0:
256,192,46803,1,8,0:0:0:0:
256,192,46856,1,8,0:0:0:0:
256,192,46963,1,0,0:0:0:0:
256,192,47017,1,0,0:0:0:0:
256,192,47071,1,0,0:0:0:0:
256,192,47178,1,12,0:0:0:0:
256,192,47392,1,12,0:0:0:0:
256,192,47606,1,4,0:0:0:0:
256,192,47821,1,8,0:0:0:0:
256,192,47928,1,0,0:0:0:0:
256,192,48035,1,8,0:0:0:0:
256,192,48142,1,8,0:0:0:0:
256,192,48249,1,8,0:0:0:0:
256,192,48356,1,8,0:0:0:0:
256,192,48463,1,0,0:0:0:0:
256,192,48785,1,8,0:0:0:0:
256,192,48892,1,8,0:0:0:0:
256,192,48999,1,8,0:0:0:0:
256,192,49106,1,8,0:0:0:0:
256,192,49321,1,0,0:0:0:0:
256,192,49428,1,8,0:0:0:0:
256,192,49642,1,0,0:0:0:0:
256,192,49749,1,8,0:0:0:0:
256,192,49910,1,8,0:0:0:0:
256,192,50071,1,8,0:0:0:0:
256,192,50178,1,4,0:0:0:0:
256,192,50606,1,12,0:0:0:0:
256,192,51035,1,0,0:0:0:0:
256,192,51142,1,8,0:0:0:0:
256,192,51249,1,8,0:0:0:0:
256,192,51463,1,8,0:0:0:0:
256,192,51678,1,0,0:0:0:0:
256,192,51785,1,8,0:0:0:0:
256,192,51892,1,0,0:0:0:0:
256,192,51946,1,0,0:0:0:0:
256,192,51999,1,0,0:0:0:0:
256,192,52106,1,0,0:0:0:0:
256,192,52321,1,8,0:0:0:0:
256,192,52374,1,8,0:0:0:0:
256,192,52428,1,8,0:0:0:0:
256,192,52535,1,0,0:0:0:0:
256,192,52749,1,8,0:0:0:0:
256,192,52856,1,8,0:0:0:0:
256,192,52910,1,8,0:0:0:0:
256,192,52963,1,8,0:0:0:0:
256,192,53071,1,8,0:0:0:0:
256,192,53178,1,0,0:0:0:0:
256,192,53231,1,0,0:0:0:0:
256,192,53285,1,0,0:0:0:0:
256,192,53392,1,0,0:0:0:0:
256,192,53446,1,0,0:0:0:0:
256,192,53499,1,0,0:0:0:0:
256,192,53713,1,4,0:0:0:0:
256,192,53821,1,12,0:0:0:0:
256,192,54035,1,12,0:0:0:0:
256,192,54463,1,4,0:0:0:0:
256,192,54678,1,8,0:0:0:0:
256,192,54892,1,8,0:0:0:0:
256,192,55106,1,8,0:0:0:0:
256,192,55321,1,0,0:0:0:0:
256,192,55535,1,0,0:0:0:0:
256,192,55642,1,0,0:0:0:0:
256,192,55749,1,0,0:0:0:0:
256,192,55963,1,0,0:0:0:0:
256,192,56178,1,8,0:0:0:0:
256,192,56392,1,8,0:0:0:0:
256,192,56606,1,0,0:0:0:0:
256,192,56821,1,0,0:0:0:0:
256,192,56928,1,0,0:0:0:0:
256,192,57035,1,8,0:0:0:0:
256,192,57249,1,8,0:0:0:0:
256,192,57356,1,8,0:0:0:0:
256,192,57463,1,0,0:0:0:0:
256,192,57678,1,0,0:0:0:0:
256,192,57785,1,0,0:0:0:0:
256,192,57892,1,8,0:0:0:0:
256,192,58106,1,0,0:0:0:0:
256,192,58321,1,8,0:0:0:0:
256,192,58535,1,0,0:0:0:0:
256,192,58642,1,0,0:0:0:0:
256,192,58749,1,8,0:0:0:0:
256,192,58963,1,0,0:0:0:0:
256,192,59178,1,0,0:0:0:0:
256,192,59392,1,8,0:0:0:0:
256,192,59499,1,8,0:0:0:0:
256,192,59606,1,8,0:0:0:0:
256,192,59821,1,0,0:0:0:0:
256,192,60035,1,8,0:0:0:0:
256,192,60142,1,8,0:0:0:0:
256,192,60249,1,0,0:0:0:0:
256,192,60463,1,12,0:0:0:0:
256,192,60678,1,12,0:0:0:0:
256,192,60892,1,12,0:0:0:0:
256,192,63035,5,4,0:0:0:0:
256,192,63249,1,8,0:0:0:0:
256,192,63356,1,0,0:0:0:0:
256,192,63463,1,8,0:0:0:0:
256,192,63571,1,0,0:0:0:0:
256,192,63678,1,8,0:0:0:0:
256,192,63785,1,8,0:0:0:0:
256,192,63892,1,0,0:0:0:0:
256,192,63999,1,8,0:0:0:0:
256,192,64053,1,8,0:0:0:0:
256,192,64106,1,8,0:0:0:0:
256,192,64321,1,8,0:0:0:0:
256,192,64428,1,8,0:0:0:0:
256,192,64535,1,0,0:0:0:0:
256,192,64606,1,0,0:0:0:0:
256,192,64678,1,0,0:0:0:0:
256,192,64749,1,8,0:0:0:0:
256,192,64892,1,0,0:0:0:0:
256,192,64963,1,8,0:0:0:0:
256,192,65106,1,8,0:0:0:0:
256,192,65178,1,0,0:0:0:0:
256,192,65321,1,8,0:0:0:0:
256,192,65392,1,0,0:0:0:0:
256,192,65535,1,8,0:0:0:0:
256,192,65606,1,8,0:0:0:0:
256,192,65749,1,8,0:0:0:0:
256,192,65821,1,8,0:0:0:0:
256,192,65963,1,0,0:0:0:0:
256,192,66035,1,8,0:0:0:0:
256,192,66178,1,0,0:0:0:0:
256,192,66249,1,8,0:0:0:0:
256,192,66392,1,8,0:0:0:0:
256,192,66463,1,0,0:0:0:0:
256,192,66678,1,0,0:0:0:0:
256,192,66892,1,8,0:0:0:0:
256,192,67106,1,0,0:0:0:0:
256,192,67321,1,12,0:0:0:0:
256,192,68178,1,4,0:0:0:0:
256,192,68606,1,0,0:0:0:0:
256,192,68713,1,0,0:0:0:0:
256,192,68821,1,8,0:0:0:0:
256,192,69035,1,0,0:0:0:0:
256,192,69249,1,8,0:0:0:0:
256,192,69356,1,0,0:0:0:0:
256,192,69571,1,8,0:0:0:0:
256,192,69678,1,0,0:0:0:0:
256,192,69731,1,0,0:0:0:0:
256,192,69785,1,0,0:0:0:0:
256,192,69892,1,8,0:0:0:0:
256,192,69999,1,8,0:0:0:0:
256,192,70053,1,8,0:0:0:0:
256,192,70106,1,8,0:0:0:0:
256,192,70213,1,0,0:0:0:0:
256,192,70428,1,0,0:0:0:0:
256,192,70535,1,8,0:0:0:0:
256,192,70588,1,8,0:0:0:0:
256,192,70642,1,8,0:0:0:0:
256,192,70749,1,0,0:0:0:0:
256,192,70963,1,0,0:0:0:0:
256,192,71178,1,8,0:0:0:0:
256,192,71231,1,8,0:0:0:0:
256,192,71285,1,0,0:0:0:0:
256,192,71499,1,8,0:0:0:0:
256,192,71553,1,8,0:0:0:0:
256,192,71606,1,0,0:0:0:0:
256,192,71767,1,8,0:0:0:0:
256,192,71874,1,8,0:0:0:0:
256,192,72035,1,0,0:0:0:0:
256,192,72142,1,8,0:0:0:0:
256,192,72196,1,8,0:0:0:0:
256,192,72463,1,0,0:0:0:0:
256,192,72678,1,8,0:0:0:0:
256,192,72785,1,0,0:0:0:0:
256,192,72999,1,8,0:0:0:0:
256,192,73106,1,0,0:0:0:0:
256,192,73160,1,0,0:0:0:0:
256,192,73213,1,0,0:0:0:0:
256,192,73321,1,8,0:0:0:0:
256,192,73428,1,8,0:0:0:0:
256,192,73481,1,8,0:0:0:0:
256,192,73535,1,8,0:0:0:0:
256,192,73642,1,0,0:0:0:0:
256,192,73856,1,0,0:0:0:0:
256,192,73963,1,8,0:0:0:0:
256,192,74017,1,8,0:0:0:0:
256,192,74071,1,8,0:0:0:0:
256,192,74178,1,0,0:0:0:0:
256,192,74392,1,0,0:0:0:0:
256,192,74606,1,8,0:0:0:0:
256,192,74660,1,8,0:0:0:0:
256,192,74713,1,0,0:0:0:0:
256,192,74928,1,8,0:0:0:0:
256,192,75035,1,4,0:0:0:0:
256,192,75249,1,2,0:0:0:0:
256,192,75356,1,2,0:0:0:0:
256,192,75463,1,2,0:0:0:0:
256,192,75678,1,2,0:0:0:0:
256,192,75892,1,0,0:0:0:0:
256,192,76106,1,8,0:0:0:0:
256,192,76213,1,0,0:0:0:0:
256,192,76321,1,8,0:0:0:0:
256,192,76535,1,0,0:0:0:0:
256,192,76642,1,0,0:0:0:0:
256,192,76749,1,2,0:0:0:0:
256,192,76963,1,8,0:0:0:0:
256,192,77071,1,0,0:0:0:0:
256,192,77178,1,8,0:0:0:0:
256,192,77392,1,0,0:0:0:0:
256,192,77446,1,0,0:0:0:0:
256,192,77499,1,0,0:0:0:0:
256,192,77606,1,2,0:0:0:0:
256,192,77821,1,8,0:0:0:0:
256,192,77928,1,0,0:0:0:0:
256,192,78035,1,8,0:0:0:0:
256,192,78249,1,0,0:0:0:0:
256,192,78356,1,0,0:0:0:0:
256,192,78463,1,2,0:0:0:0:
256,192,78678,1,8,0:0:0:0:
256,192,78785,1,0,0:0:0:0:
256,192,78892,1,8,0:0:0:0:
256,192,78999,1,8,0:0:0:0:
256,192,79106,1,0,0:0:0:0:
256,192,79160,1,0,0:0:0:0:
256,192,79213,1,0,0:0:0:0:
256,192,79321,1,2,0:0:0:0:
256,192,79535,1,8,0:0:0:0:
256,192,79642,1,0,0:0:0:0:
256,192,79749,1,2,0:0:0:0:
256,192,79963,1,0,0:0:0:0:
256,192,80071,1,0,0:0:0:0:
256,192,80178,1,2,0:0:0:0:
256,192,80392,1,8,0:0:0:0:
256,192,80499,1,0,0:0:0:0:
256,192,80606,1,2,0:0:0:0:
256,192,80821,1,0,0:0:0:0:
256,192,81035,1,8,0:0:0:0:
256,192,81249,1,0,0:0:0:0:
256,192,81356,1,8,0:0:0:0:
256,192,81535,1,0,0:0:0:0:
256,192,81606,1,0,0:0:0:0:
256,192,81678,1,8,0:0:0:0:
256,192,81749,1,8,0:0:0:0:
256,192,81821,1,8,0:0:0:0:
256,192,81892,1,0,0:0:0:0:
256,192,82035,1,8,0:0:0:0:
256,192,82106,1,0,0:0:0:0:
256,192,82321,1,8,0:0:0:0:
256,192,82535,1,8,0:0:0:0:
256,192,82588,1,8,0:0:0:0:
256,192,82642,1,8,0:0:0:0:
256,192,82749,1,4,0:0:0:0:
256,192,82963,1,8,0:0:0:0:
256,192,83071,1,0,0:0:0:0:
256,192,83178,1,8,0:0:0:0:
256,192,83285,1,0,0:0:0:0:
256,192,83392,1,8,0:0:0:0:
256,192,83499,1,8,0:0:0:0:
256,192,83606,1,0,0:0:0:0:
256,192,83821,1,0,0:0:0:0:
256,192,83928,1,0,0:0:0:0:
256,192,84035,1,8,0:0:0:0:
256,192,84249,1,8,0:0:0:0:
256,192,84463,1,8,0:0:0:0:
256,192,84517,1,8,0:0:0:0:
256,192,84571,1,8,0:0:0:0:
256,192,84678,1,0,0:0:0:0:
256,192,84785,1,8,0:0:0:0:
256,192,84892,1,0,0:0:0:0:
256,192,84999,1,0,0:0:0:0:
256,192,85053,1,0,0:0:0:0:
256,192,85106,1,0,0:0:0:0:
256,192,85213,1,0,0:0:0:0:
256,192,85321,1,8,0:0:0:0:
256,192,85481,1,8,0:0:0:0:
256,192,85642,1,8,0:0:0:0:
256,192,85749,1,0,0:0:0:0:
256,192,85856,1,0,0:0:0:0:
256,192,85963,1,8,0:0:0:0:
256,192,86017,1,8,0:0:0:0:
256,192,86071,1,8,0:0:0:0:
256,192,86124,1,8,0:0:0:0:
256,192,86178,1,8,0:0:0:0:
256,192,86392,1,8,0:0:0:0:
256,192,86499,1,8,0:0:0:0:
256,192,86606,1,8,0:0:0:0:
256,192,86821,1,0,0:0:0:0:
256,192,87035,1,0,0:0:0:0:
256,192,87142,1,8,0:0:0:0:
256,192,87249,1,0,0:0:0:0:
256,192,87463,1,8,0:0:0:0:
256,192,87517,1,8,0:0:0:0:
256,192,87571,1,8,0:0:0:0:
256,192,87678,1,0,0:0:0:0:
256,192,87731,1,0,0:0:0:0:
256,192,87785,1,0,0:0:0:0:
256,192,87892,1,8,0:0:0:0:
256,192,87999,1,8,0:0:0:0:
256,192,88106,1,0,0:0:0:0:
256,192,88213,1,8,0:0:0:0:
256,192,88321,1,0,0:0:0:0:
256,192,88428,1,0,0:0:0:0:
256,192,88535,1,0,0:0:0:0:
256,192,88642,1,0,0:0:0:0:
256,192,88749,1,12,0:0:0:0:
256,192,88963,1,12,0:0:0:0:
256,192,89178,1,12,0:0:0:0:
256,192,89392,1,0,0:0:0:0:
256,192,89446,1,0,0:0:0:0:
256,192,89499,1,0,0:0:0:0:
256,192,89606,1,8,0:0:0:0:
256,192,89713,1,0,0:0:0:0:
256,192,89821,1,8,0:0:0:0:
256,192,89928,1,0,0:0:0:0:
256,192,90035,1,8,0:0:0:0:
256,192,90142,1,0,0:0:0:0:
256,192,90249,1,8,0:0:0:0:
256,192,90463,1,0,0:0:0:0:
256,192,90571,1,0,0:0:0:0:
256,192,90678,1,8,0:0:0:0:
256,192,90785,1,0,0:0:0:0:
256,192,90892,1,8,0:0:0:0:
256,192,90999,1,0,0:0:0:0:
256,192,91106,1,8,0:0:0:0:
256,192,91213,1,0,0:0:0:0:
256,192,91321,1,8,0:0:0:0:
256,192,91428,1,8,0:0:0:0:
256,192,91535,1,0,0:0:0:0:
256,192,91749,1,8,0:0:0:0:
256,192,91856,1,8,0:0:0:0:
256,192,91963,1,0,0:0:0:0:
256,192,92178,1,8,0:0:0:0:
256,192,92285,1,0,0:0:0:0:
256,192,92392,1,8,0:0:0:0:
256,192,92499,1,8,0:0:0:0:
256,192,92606,1,4,0:0:0:0:
256,192,93035,1,8,0:0:0:0:
256,192,93463,1,4,0:0:0:0:
256,192,93785,1,8,0:0:0:0:
256,192,94106,1,0,0:0:0:0:
256,192,94321,1,8,0:0:0:0:
256,192,94535,1,8,0:0:0:0:
256,192,94749,1,0,0:0:0:0:
256,192,94803,1,0,0:0:0:0:
256,192,94856,1,0,0:0:0:0:
256,192,94910,1,0,0:0:0:0:
256,192,94963,1,0,0:0:0:0:
256,192,95071,1,0,0:0:0:0:
256,192,95178,1,8,0:0:0:0:
256,192,95285,1,0,0:0:0:0:
256,192,95392,1,8,0:0:0:0:
256,192,95499,1,0,0:0:0:0:
256,192,95821,1,12,0:0:0:0:
256,192,96142,1,12,0:0:0:0:
256,192,96463,1,0,0:0:0:0:
256,192,96517,1,0,0:0:0:0:
256,192,96571,1,0,0:0:0:0:
256,192,96624,1,0,0:0:0:0:
256,192,96678,1,0,0:0:0:0:
256,192,96892,1,8,0:0:0:0:
256,192,97106,1,8,0:0:0:0:
256,192,97213,1,4,0:0:0:0:
256,192,97535,1,12,0:0:0:0:
256,192,97856,1,4,0:0:0:0:
256,192,98178,1,8,0:0:0:0:
256,192,98285,1,0,0:0:0:0:
256,192,98392,1,8,0:0:0:0:
256,192,98499,1,8,0:0:0:0:
256,192,98606,1,0,0:0:0:0:
256,192,98713,1,8,0:0:0:0:
256,192,98767,1,8,0:0:0:0:
256,192,98821,1,8,0:0:0:0:
256,192,98928,1,0,0:0:0:0:
256,192,99035,1,0,0:0:0:0:
256,192,99249,1,4,0:0:0:0:
256,192,99571,1,12,0:0:0:0:
256,192,99892,1,0,0:0:0:0:
256,192,99999,1,0,0:0:0:0:
256,192,100053,1,0,0:0:0:0:
256,192,100106,1,0,0:0:0:0:
256,192,100213,1,0,0:0:0:0:
256,192,100428,1,0,0:0:0:0:
256,192,100535,1,8,0:0:0:0:
256,192,100642,1,0,0:0:0:0:
256,192,100749,1,8,0:0:0:0:
256,192,100963,1,0,0:0:0:0:
256,192,101285,1,0,0:0:0:0:
256,192,101606,1,8,0:0:0:0:
256,192,101821,1,0,0:0:0:0:
256,192,101928,1,8,0:0:0:0:
256,192,102142,1,0,0:0:0:0:
256,192,102356,1,8,0:0:0:0:
256,192,102678,1,8,0:0:0:0:
256,192,102999,1,0,0:0:0:0:
256,192,103106,1,8,0:0:0:0:
256,192,103321,1,4,0:0:0:0:
256,192,103642,1,8,0:0:0:0:
256,192,103963,1,8,0:0:0:0:
256,192,104178,1,0,0:0:0:0:
256,192,104392,1,0,0:0:0:0:
256,192,104713,1,0,0:0:0:0:
256,192,104821,1,0,0:0:0:0:
256,192,104928,1,0,0:0:0:0:
256,192,105035,1,8,0:0:0:0:
256,192,105088,1,8,0:0:0:0:
256,192,105142,1,8,0:0:0:0:
256,192,105249,1,0,0:0:0:0:
256,192,105303,1,0,0:0:0:0:
256,192,105356,1,0,0:0:0:0:
256,192,105463,1,8,0:0:0:0:
256,192,105678,1,0,0:0:0:0:
256,192,106106,1,12,0:0:0:0:
256,192,106428,1,12,0:0:0:0:
256,192,106749,1,12,0:0:0:0:
256,192,106963,1,0,0:0:0:0:
256,192,107071,1,8,0:0:0:0:
256,192,107392,1,8,0:0:0:0:
256,192,107606,1,4,0:0:0:0:
256,192,107928,1,8,0:0:0:0:
256,192,108249,1,0,0:0:0:0:
256,192,108678,2,0,L|256:128,10,35
256,192,109321,1,4,0:0:0:0:
256,192,109749,1,0,0:0:0:0:
256,192,110178,1,8,0:0:0:0:
256,192,110821,1,0,0:0:0:0:
256,192,111035,1,0,0:0:0:0:
256,192,111463,1,0,0:0:0:0:
256,192,111892,1,8,0:0:0:0:
256,192,112321,1,0,0:0:0:0:
256,192,112749,1,0,0:0:0:0:
256,192,113178,1,0,0:0:0:0:
256,192,113606,1,8,0:0:0:0:
256,192,114249,1,0,0:0:0:0:
256,192,114463,1,0,0:0:0:0:
256,192,114892,1,0,0:0:0:0:
256,192,115321,1,8,0:0:0:0:
256,192,115749,1,0,0:0:0:0:
256,192,116178,1,8,0:0:0:0:
256,192,116392,1,0,0:0:0:0:
256,192,116499,1,0,0:0:0:0:
256,192,116606,1,0,0:0:0:0:
256,192,116821,1,0,0:0:0:0:
256,192,117035,1,2,0:0:0:0:
256,192,117249,1,2,0:0:0:0:
256,192,117463,1,2,0:0:0:0:
256,192,117678,1,2,0:0:0:0:
256,192,117892,1,2,0:0:0:0:
256,192,118106,1,2,0:0:0:0:
256,192,118213,1,2,0:0:0:0:
256,192,118321,1,2,0:0:0:0:
256,192,118535,1,2,0:0:0:0:
256,192,118749,1,2,0:0:0:0:
256,192,118963,1,2,0:0:0:0:
256,192,119178,1,2,0:0:0:0:
256,192,119392,1,2,0:0:0:0:
256,192,119499,1,2,0:0:0:0:
256,192,119606,1,2,0:0:0:0:
256,192,119821,1,2,0:0:0:0:
256,192,119928,1,2,0:0:0:0:
256,192,120035,1,2,0:0:0:0:
256,192,120249,1,2,0:0:0:0:
256,192,120356,1,2,0:0:0:0:
256,192,120463,1,2,0:0:0:0:
256,192,120678,1,2,0:0:0:0:
256,192,120892,1,2,0:0:0:0:
256,192,121106,1,2,0:0:0:0:
256,192,121213,1,2,0:0:0:0:
256,192,121321,1,2,0:0:0:0:
256,192,121535,1,2,0:0:0:0:
256,192,121749,1,2,0:0:0:0:
256,192,122178,1,8,0:0:0:0:
256,192,122392,1,0,0:0:0:0:
256,192,122535,1,8,0:0:0:0:
256,192,122606,1,0,0:0:0:0:
256,192,122678,1,0,0:0:0:0:
256,192,122749,1,0,0:0:0:0:
256,192,122821,1,8,0:0:0:0:
256,192,122963,1,8,0:0:0:0:
256,192,123035,1,8,0:0:0:0:
256,192,123178,1,8,0:0:0:0:
256,192,123249,1,0,0:0:0:0:
256,192,123392,1,0,0:0:0:0:
256,192,123463,1,8,0:0:0:0:
256,192,123678,1,8,0:0:0:0:
256,192,123892,1,4,0:0:0:0:
256,192,124106,1,8,0:0:0:0:
256,192,124213,1,0,0:0:0:0:
256,192,124321,1,8,0:0:0:0:
256,192,124481,1,8,0:0:0:0:
256,192,124535,1,8,0:0:0:0:
256,192,124749,1,0,0:0:0:0:
256,192,124910,1,8,0:0:0:0:
256,192,124963,1,8,0:0:0:0:
256,192,125071,1,8,0:0:0:0:
256,192,125178,1,0,0:0:0:0:
256,192,125285,1,0,0:0:0:0:
256,192,125392,1,8,0:0:0:0:
256,192,125606,1,0,0:0:0:0:
256,192,125821,1,8,0:0:0:0:
256,192,125874,1,8,0:0:0:0:
256,192,125981,1,8,0:0:0:0:
256,192,126035,1,8,0:0:0:0:
256,192,126249,1,0,0:0:0:0:
256,192,126356,1,0,0:0:0:0:
256,192,126463,1,8,0:0:0:0:
256,192,126624,1,8,0:0:0:0:
256,192,126785,1,0,0:0:0:0:
256,192,126892,1,8,0:0:0:0:
256,192,126999,1,0,0:0:0:0:
256,192,127106,1,8,0:0:0:0:
256,192,127160,1,8,0:0:0:0:
256,192,127213,1,8,0:0:0:0:
256,192,127321,1,0,0:0:0:0:
256,192,127535,1,8,0:0:0:0:
256,192,127642,1,0,0:0:0:0:
256,192,127749,1,8,0:0:0:0:
256,192,127856,1,8,0:0:0:0:
256,192,127963,1,0,0:0:0:0:
256,192,128071,1,0,0:0:0:0:
256,192,128178,1,8,0:0:0:0:
256,192,128285,1,0,0:0:0:0:
256,192,128392,1,8,0:0:0:0:
256,192,128446,1,8,0:0:0:0:
256,192,128499,1,8,0:0:0:0:
256,192,128606,1,8,0:0:0:0:
256,192,128713,1,8,0:0:0:0:
256,192,128821,1,8,0:0:0:0:
256,192,128874,1,8,0:0:0:0:
256,192,128928,1,8,0:0:0:0:
256,192,129035,1,0,0:0:0:0:
256,192,129249,1,8,0:0:0:0:
256,192,129356,1,0,0:0:0:0:
256,192,129463,1,8,0:0:0:0:
256,192,129571,1,8,0:0:0:0:
256,192,129678,1,0,0:0:0:0:
256,192,129892,1,0,0:0:0:0:
256,192,129946,1,0,0:0:0:0:
256,192,129999,1,0,0:0:0:0:
256,192,130106,1,8,0:0:0:0:
256,192,130160,1,8,0:0:0:0:
256,192,130213,1,8,0:0:0:0:
256,192,130321,1,8,0:0:0:0:
256,192,130428,1,0,0:0:0:0:
256,192,130535,1,0,0:0:0:0:
256,192,130588,1,0,0:0:0:0:
256,192,130642,1,0,0:0:0:0:
256,192,130696,1,0,0:0:0:0:
256,192,130749,1,8,0:0:0:0:
256,192,130963,1,0,0:0:0:0:
256,192,131071,1,8,0:0:0:0:
256,192,131178,1,0,0:0:0:0:
256,192,131285,1,0,0:0:0:0:
256,192,131392,1,8,0:0:0:0:
256,192,131606,1,0,0:0:0:0:
256,192,131713,1,0,0:0:0:0:
256,192,131821,1,8,0:0:0:0:
256,192,131892,1,8,0:0:0:0:
256,192,131963,1,8,0:0:0:0:
256,192,132035,1,0,0:0:0:0:
256,192,132142,1,8,0:0:0:0:
256,192,132249,1,0,0:0:0:0:
256,192,132463,1,0,0:0:0:0:
256,192,132571,1,8,0:0:0:0:
256,192,132678,1,8,0:0:0:0:
256,192,132785,1,0,0:0:0:0:
256,192,132892,1,8,0:0:0:0:
256,192,132946,1,8,0:0:0:0:
256,192,132999,1,8,0:0:0:0:
256,192,133106,1,0,0:0:0:0:
256,192,133213,1,0,0:0:0:0:
256,192,133321,1,8,0:0:0:0:
256,192,133374,1,8,0:0:0:0:
256,192,133428,1,8,0:0:0:0:
256,192,133481,1,8,0:0:0:0:
256,192,133535,1,0,0:0:0:0:
256,192,133749,1,8,0:0:0:0:
256,192,133803,1,8,0:0:0:0:
256,192,133856,1,8,0:0:0:0:
256,192,133910,1,8,0:0:0:0:
256,192,133963,1,0,0:0:0:0:
256,192,134178,1,8,0:0:0:0:
256,192,134285,1,0,0:0:0:0:
256,192,134338,1,0,0:0:0:0:
256,192,134392,1,0,0:0:0:0:
256,192,134499,1,8,0:0:0:0:
256,192,134606,1,0,0:0:0:0:
256,192,134660,1,0,0:0:0:0:
256,192,134713,1,0,0:0:0:0:
256,192,134767,1,0,0:0:0:0:
256,192,134821,1,8,0:0:0:0:
256,192,135035,1,0,0:0:0:0:
256,192,135142,1,8,0:0:0:0:
256,192,135249,1,0,0:0:0:0:
256,192,135356,1,8,0:0:0:0:
256,192,135410,1,8,0:0:0:0:
256,192,135463,1,8,0:0:0:0:
256,192,135517,1,8,0:0:0:0:
256,192,135571,1,8,0:0:0:0:
256,192,135678,1,0,0:0:0:0:
256,192,135892,1,8,0:0:0:0:
256,192,135999,1,0,0:0:0:0:
256,192,136106,1,8,0:0:0:0:
256,192,136213,1,8,0:0:0:0:
256,192,136321,1,0,0:0:0:0:
256,192,136374,1,0,0:0:0:0:
256,192,136428,1,0,0:0:0:0:
256,192,136481,1,0,0:0:0:0:
256,192,136535,1,8,0:0:0:0:
256,192,136749,1,0,0:0:0:0:
256,192,136856,1,8,0:0:0:0:
256,192,136963,1,0,0:0:0:0:
256,192,137071,1,8,0:0:0:0:
256,192,137124,1,8,0:0:0:0:
256,192,137178,1,8,0:0:0:0:
256,192,137231,1,8,0:0:0:0:
256,192,137285,1,8,0:0:0:0:
256,192,137392,1,0,0:0:0:0:
256,192,137606,1,0,0:0:0:0:
256,192,137660,1,0,0:0:0:0:
256,192,137713,1,0,0:0:0:0:
256,192,137767,1,0,0:0:0:0:
256,192,137821,1,8,0:0:0:0:
256,192,138035,1,0,0:0:0:0:
256,192,138088,1,0,0:0:0:0:
256,192,138142,1,0,0:0:0:0:
256,192,138196,1,0,0:0:0:0:
256,192,138249,1,8,0:0:0:0:
256,192,138463,1,0,0:0:0:0:
256,192,138678,1,8,0:0:0:0:
256,192,138731,1,8,0:0:0:0:
256,192,138785,1,8,0:0:0:0:
256,192,138892,1,0,0:0:0:0:
256,192,138999,1,8,0:0:0:0:
256,192,139106,1,0,0:0:0:0:
256,192,139160,1,0,0:0:0:0:
256,192,139213,1,0,0:0:0:0:
256,192,139267,1,0,0:0:0:0:
256,192,139321,1,0,0:0:0:0:
256,192,139749,1,12,0:0:0:0:
256,192,141463,1,4,0:0:0:0:
256,192,141892,8,0,144463,0:0:0:0:
