osu file format v14

[General]
AudioFilename: audio.mp3
AudioLeadIn: 0
PreviewTime: 321175
Countdown: 0
SampleSet: Soft
StackLeniency: 0.7
Mode: 3
LetterboxInBreaks: 0
SpecialStyle: 0
WidescreenStoryboard: 1

[Editor]
Bookmarks: 154675,211975,213025
DistanceSpacing: 2
BeatDivisor: 8
GridSize: 16
TimelineZoom: 1.900001

[Metadata]
Title:Calamity Fortune (extended ver.)
TitleUnicode:Calamity Fortune (extended ver.)
Artist:LeaF
ArtistUnicode:LeaF
Creator:Remuring
Version:Fortunate
Source:東方風神録 ~ Mountain of Faith.
Tags:FA Featured Artist Instrumental Electronic 少女が見た日本の原風景 Shoujo ga mita nihon no genfuukei The Primal Scene of Japan the Girl Saw Touhou Project Doppelganger Blocko Affirmation storyboard sb 東方project osu! 太鼓の達人 セッションでドドンがドン! chunithm star チュウニズム オンゲキ ongeki plus wacca lily sanae kochiya maimai murasaki
BeatmapID:3651709
BeatmapSetID:1711883

[Difficulty]
HPDrainRate:8.5
CircleSize:7
OverallDifficulty:8
ApproachRate:5
SliderMultiplier:1.4
SliderTickRate:1

[Events]
//Background and Video events
0,0,"calamity bg.jpg",0,0
//Break Periods
//Storyboard Layer 0 (Background)
//Storyboard Layer 1 (Fail)
//Storyboard Layer 2 (Pass)
//Storyboard Layer 3 (Foreground)
//Storyboard Layer 4 (Overlay)
//Storyboard Sound Samples

[TimingPoints]
775,300,4,2,1,50,1,0
4075,-1000,4,2,1,50,0,0
4300,-66.6666666666667,4,2,1,50,0,0
4375,-100,4,2,1,50,0,0
9175,-200,4,2,1,50,0,0
9287,-66.6666666666667,4,2,1,50,0,0
9400,-200,4,2,1,50,0,0
9437,-66.6666666666667,4,2,1,50,0,0
9475,-200,4,2,1,50,0,0
9550,-66.6666666666667,4,2,1,50,0,0
9625,-200,4,2,1,50,0,0
9700,-66.6666666666667,4,2,1,50,0,0
9775,-1000,4,2,1,50,0,0
10000,-66.6666666666667,4,2,1,50,0,0
10075,-200,4,2,1,50,0,0
10150,-66.6666666666667,4,2,1,50,0,0
10225,-200,4,2,1,50,0,0
10300,-66.6666666666667,4,2,1,50,0,0
10375,-200,4,2,1,50,0,0
10450,-66.6666666666667,4,2,1,50,0,0
10525,-200,4,2,1,50,0,0
10600,-66.6666666666667,4,2,1,50,0,0
10675,-200,4,2,1,50,0,0
10825,-66.6666666666667,4,2,1,50,0,0
10975,-1000,4,2,1,50,0,0
11200,-66.6666666666667,4,2,1,50,0,0
11275,-100,4,2,1,50,0,0
23275,-250,4,2,1,50,0,0
23537,-45.4545454545455,4,2,1,50,0,0
23575,-100,4,2,1,50,0,0
25675,-1000,4,2,1,50,0,0
25900,-66.6666666666667,4,2,1,50,0,0
25975,-100,4,2,1,50,0,0
48475,-250,4,2,1,50,0,0
48737,-45.4545454545455,4,2,1,50,0,0
48775,-100,4,2,1,50,0,0
50875,-1000,4,2,1,50,0,0
51100,-66.6666666666667,4,2,1,50,0,0
51175,-100,4,2,1,50,0,0
59575,-200,4,2,1,50,0,0
59687,-66.6666666666667,4,2,1,50,0,0
59800,-200,4,2,1,50,0,0
59837,-66.6666666666667,4,2,1,50,0,0
59875,-200,4,2,1,50,0,0
59950,-66.6666666666667,4,2,1,50,0,0
60025,-200,4,2,1,50,0,0
60100,-66.6666666666667,4,2,1,50,0,0
60175,-200,4,2,1,50,0,0
60325,-66.6666666666667,4,2,1,50,0,0
60475,-100,4,2,1,50,0,0
61675,-66.6666666666667,4,2,1,50,0,0
61712,-200,4,2,1,50,0,0
61750,-66.6666666666667,4,2,1,50,0,0
61787,-200,4,2,1,50,0,0
61825,-66.6666666666667,4,2,1,50,0,0
61862,-200,4,2,1,50,0,0
61900,-66.6666666666667,4,2,1,50,0,0
61937,-200,4,2,1,50,0,0
61975,-100,4,2,1,50,0,0
64075,-1000,4,2,1,50,0,0
64300,-66.6666666666667,4,2,1,50,0,0
64375,-100,4,2,1,50,0,0
65575,-200,4,2,1,50,0,0
65612,-66.6666666666667,4,2,1,50,0,0
65650,-200,4,2,1,50,0,0
65725,-66.6666666666667,4,2,1,50,0,0
65800,-200,4,2,1,50,0,0
65837,-66.6666666666667,4,2,1,50,0,0
65875,-200,4,2,1,50,0,0
65950,-66.6666666666667,4,2,1,50,0,0
66025,-100,4,2,1,50,0,0
66325,-66.6666666666667,4,2,1,50,0,0
66362,-200,4,2,1,50,0,0
66400,-66.6666666666667,4,2,1,50,0,0
66437,-200,4,2,1,50,0,0
66475,-66.6666666666667,4,2,1,50,0,0
66512,-200,4,2,1,50,0,0
66550,-66.6666666666667,4,2,1,50,0,0
66587,-200,4,2,1,50,0,0
66625,-66.6666666666667,4,2,1,50,0,0
66662,-200,4,2,1,50,0,0
66700,-66.6666666666667,4,2,1,50,0,0
66737,-200,4,2,1,50,0,0
66775,-100,4,2,1,50,0,0
67975,-40,4,2,1,50,0,0
67993,-100,4,2,1,50,0,0
68275,-40,4,2,1,50,0,0
68293,-100,4,2,1,50,0,0
68575,-40,4,2,1,50,0,0
68593,-100,4,2,1,50,0,0
68875,-40,4,2,1,50,0,0
68893,-100,4,2,1,50,0,0
70375,-200,4,2,1,50,0,0
70450,-66.6666666666667,4,2,1,50,0,0
70525,-200,4,2,1,50,0,0
70562,-66.6666666666667,4,2,1,50,0,0
70600,-200,4,2,1,50,0,0
70637,-66.6666666666667,4,2,1,50,0,0
70675,-200,4,2,1,50,0,0
70750,-66.6666666666667,4,2,1,50,0,0
70825,-200,4,2,1,50,0,0
70862,-66.6666666666667,4,2,1,50,0,0
70900,-200,4,2,1,50,0,0
70975,-66.6666666666667,4,2,1,50,0,0
71050,-200,4,2,1,50,0,0
71087,-66.6666666666667,4,2,1,50,0,0
71125,-200,4,2,1,50,0,0
71162,-66.6666666666667,4,2,1,50,0,0
71200,-200,4,2,1,50,0,0
71237,-66.6666666666667,4,2,1,50,0,0
71275,-200,4,2,1,50,0,0
71350,-66.6666666666667,4,2,1,50,0,0
71425,-100,4,2,1,50,0,0
91675,-250,4,2,1,50,0,0
91937,-45.4545454545455,4,2,1,50,0,0
91975,-100,4,2,1,50,0,0
128875,-66.6666666666667,4,2,1,50,0,0
128950,-200,4,2,1,50,0,0
129025,-40,4,2,1,50,0,0
129062,-100,4,2,1,50,0,0
129325,-40,4,2,1,50,0,0
129362,-100,4,2,1,50,0,0
129625,-66.6666666666667,4,2,1,50,0,0
129700,-200,4,2,1,50,0,0
129775,-66.6666666666667,4,2,1,50,0,0
129850,-200,4,2,1,50,0,0
129925,-100,4,2,1,50,0,0
130075,-250,4,2,1,50,0,0
130337,-45.4545454545455,4,2,1,50,0,0
130375,-100,4,2,1,50,0,0
132475,-1000,4,2,1,50,0,0
132700,-66.6666666666667,4,2,1,50,0,0
132775,-100,4,2,1,50,0,0
134875,-250,4,2,1,50,0,0
135137,-45.4545454545455,4,2,1,50,0,0
135175,-100,4,2,1,50,0,0
137275,-1000,4,2,1,50,0,0
137500,-66.6666666666667,4,2,1,50,0,0
137575,-100,4,2,1,50,0,0
139525,-50,4,2,1,50,0,0
139562,-100,4,2,1,50,0,0
139675,-50,4,2,1,50,0,0
139712,-100,4,2,1,50,0,0
139825,-66.6666666666667,4,2,1,50,0,0
139843,-200,4,2,1,50,0,0
139862,-66.6666666666667,4,2,1,50,0,0
139880,-200,4,2,1,50,0,0
139900,-66.6666666666667,4,2,1,50,0,0
139918,-200,4,2,1,50,0,0
139937,-66.6666666666667,4,2,1,50,0,0
139955,-200,4,2,1,50,0,0
139975,-100,4,2,1,50,0,0
149575,-62.5,4,2,1,50,0,0
149612,-83.3333333333333,4,2,1,50,0,0
149650,-125,4,2,1,50,0,0
149687,-250,4,2,1,50,0,0
149725,-50.5050505050505,4,2,1,50,0,0
149743,-5000,4,2,1,50,0,0
149762,-50.5050505050505,4,2,1,50,0,0
149781,-5000,4,2,1,50,0,0
149800,-50.5050505050505,4,2,1,50,0,0
149818,-5000,4,2,1,50,0,0
149837,-50.5050505050505,4,2,1,50,0,0
149856,-5000,4,2,1,50,0,0
149875,-100,4,2,1,50,0,0
150175,-55.5555555555556,4,2,1,50,0,0
150212,-500,4,2,1,50,0,0
150250,-55.5555555555556,4,2,1,50,0,0
150287,-500,4,2,1,50,0,0
150325,-55.5555555555556,4,2,1,50,0,0
150362,-500,4,2,1,50,0,0
150400,-55.5555555555556,4,2,1,50,0,0
150437,-500,4,2,1,50,0,0
150475,-62.5,4,2,1,50,0,0
150512,-83.3333333333333,4,2,1,50,0,0
150550,-125,4,2,1,50,0,0
150587,-250,4,2,1,50,0,0
150625,-100,4,2,1,50,0,0
150775,-50,4,2,1,50,0,0
150793,-100,4,2,1,50,0,0
150925,-200,4,2,1,50,0,0
150962,-66.6666666666667,4,2,1,50,0,0
151000,-200,4,2,1,50,0,0
151037,-66.6666666666667,4,2,1,50,0,0
151075,-50,4,2,1,50,0,0
151093,-100,4,2,1,50,0,0
151225,-200,4,2,1,50,0,0
151262,-66.6666666666667,4,2,1,50,0,0
151300,-200,4,2,1,50,0,0
151337,-66.6666666666667,4,2,1,50,0,0
151375,-100,4,2,1,50,0,0
153175,-50.5050505050505,4,2,1,50,0,0
153193,-5000,4,2,1,50,0,0
153212,-50.5050505050505,4,2,1,50,0,0
153231,-5000,4,2,1,50,0,0
153250,-50.5050505050505,4,2,1,50,0,0
153268,-5000,4,2,1,50,0,0
153287,-50.5050505050505,4,2,1,50,0,0
153306,-5000,4,2,1,50,0,0
153325,-50.5050505050505,4,2,1,50,0,0
153343,-5000,4,2,1,50,0,0
153362,-50.5050505050505,4,2,1,50,0,0
153381,-5000,4,2,1,50,0,0
153400,-50.5050505050505,4,2,1,50,0,0
153418,-5000,4,2,1,50,0,0
153437,-50.5050505050505,4,2,1,50,0,0
153456,-5000,4,2,1,50,0,0
153475,-100,4,2,1,50,0,0
154675,-50.5050505050505,4,2,1,50,0,0
154693,-5000,4,2,1,50,0,0
154712,-50.5050505050505,4,2,1,50,0,0
154731,-5000,4,2,1,50,0,0
154750,-50.5050505050505,4,2,1,50,0,0
154768,-5000,4,2,1,50,0,0
154787,-50.5050505050505,4,2,1,50,0,0
154806,-5000,4,2,1,50,0,0
154825,-100,4,2,1,50,0,0
156475,-1000,4,2,1,50,0,0
156700,-66.6666666666667,4,2,1,50,0,0
156775,-100,4,2,1,50,0,0
159475,-62.5,4,2,1,50,0,0
159550,-500,4,2,1,50,0,0
159625,-125,4,2,1,50,0,0
159700,-71.4285714285714,4,2,1,50,0,0
159775,-100,4,2,1,50,0,0
160075,-62.5,4,2,1,50,0,0
160150,-500,4,2,1,50,0,0
160225,-125,4,2,1,50,0,0
160300,-71.4285714285714,4,2,1,50,0,0
160375,-100,4,2,1,50,0,0
183175,-200,4,2,1,50,0,0
183212,-66.6666666666667,4,2,1,50,0,0
183250,-200,4,2,1,50,0,0
183287,-66.6666666666667,4,2,1,50,0,0
183325,-200,4,2,1,50,0,0
183400,-66.6666666666667,4,2,1,50,0,0
183475,-200,4,2,1,50,0,0
183550,-66.6666666666667,4,2,1,50,0,0
183625,-200,4,2,1,50,0,0
183662,-66.6666666666667,4,2,1,50,0,0
183700,-200,4,2,1,50,0,0
183775,-66.6666666666667,4,2,1,50,0,0
183850,-200,4,2,1,50,0,0
183925,-66.6666666666667,4,2,1,50,0,0
184000,-200,4,2,1,50,0,0
184037,-66.6666666666667,4,2,1,50,0,0
184075,-200,4,2,1,50,0,0
184150,-66.6666666666667,4,2,1,50,0,0
184225,-200,4,2,1,50,0,0
184300,-66.6666666666667,4,2,1,50,0,0
184375,-100,4,2,1,50,0,0
202375,-200,4,2,1,50,0,0
202412,-66.6666666666667,4,2,1,50,0,0
202450,-200,4,2,1,50,0,0
202487,-66.6666666666667,4,2,1,50,0,0
202525,-200,4,2,1,50,0,0
202600,-66.6666666666667,4,2,1,50,0,0
202675,-200,4,2,1,50,0,0
202750,-66.6666666666667,4,2,1,50,0,0
202825,-200,4,2,1,50,0,0
202862,-66.6666666666667,4,2,1,50,0,0
202900,-200,4,2,1,50,0,0
202975,-66.6666666666667,4,2,1,50,0,0
203050,-200,4,2,1,50,0,0
203125,-66.6666666666667,4,2,1,50,0,0
203200,-200,4,2,1,50,0,0
203237,-66.6666666666667,4,2,1,50,0,0
203275,-200,4,2,1,50,0,0
203350,-66.6666666666667,4,2,1,50,0,0
203425,-200,4,2,1,50,0,0
203500,-66.6666666666667,4,2,1,50,0,0
203575,-100,4,2,1,50,0,0
211975,-62.5,4,2,1,50,0,0
212012,-83.3333333333333,4,2,1,50,0,0
212050,-125,4,2,1,50,0,0
212087,-250,4,2,1,50,0,0
212125,-50.5050505050505,4,2,1,50,0,0
212143,-5000,4,2,1,50,0,0
212162,-50.5050505050505,4,2,1,50,0,0
212181,-5000,4,2,1,50,0,0
212200,-50.5050505050505,4,2,1,50,0,0
212218,-5000,4,2,1,50,0,0
212237,-50.5050505050505,4,2,1,50,0,0
212256,-5000,4,2,1,50,0,0
212275,-100,4,2,1,50,0,0
212575,-55.5555555555556,4,2,1,50,0,0
212612,-500,4,2,1,50,0,0
212650,-55.5555555555556,4,2,1,50,0,0
212687,-500,4,2,1,50,0,0
212725,-55.5555555555556,4,2,1,50,0,0
212762,-500,4,2,1,50,0,0
212800,-55.5555555555556,4,2,1,50,0,0
212837,-500,4,2,1,50,0,0
212875,-62.5,4,2,1,50,0,0
212912,-83.3333333333333,4,2,1,50,0,0
212950,-125,4,2,1,50,0,0
212987,-250,4,2,1,50,0,0
213025,-100,4,2,1,50,0,0
224875,-142.857142857143,4,2,1,50,0,0
225025,-100,4,2,1,50,0,0
225100,-62.5,4,2,1,50,0,0
225175,-100,4,2,1,50,0,0
230575,-55.5555555555556,4,2,1,50,0,0
230612,-500,4,2,1,50,0,0
230650,-55.5555555555556,4,2,1,50,0,0
230687,-500,4,2,1,50,0,0
230725,-55.5555555555556,4,2,1,50,0,0
230762,-500,4,2,1,50,0,0
230800,-55.5555555555556,4,2,1,50,0,0
230837,-500,4,2,1,50,0,0
230875,-76.9230769230769,4,2,1,50,0,0
230950,-142.857142857143,4,2,1,50,0,0
231025,-76.9230769230769,4,2,1,50,0,0
231100,-142.857142857143,4,2,1,50,0,0
231175,-62.5,4,2,1,50,0,0
231250,-250,4,2,1,50,0,0
231325,-62.5,4,2,1,50,0,0
231400,-250,4,2,1,50,0,0
231475,-62.5,4,2,1,50,0,0
231550,-83.3333333333333,4,2,1,50,0,0
231625,-125,4,2,1,50,0,0
231700,-250,4,2,1,50,0,0
231775,-62.5,4,2,1,50,0,0
231850,-250,4,2,1,50,0,0
231925,-100,4,2,1,50,0,0
232075,-200,4,2,1,50,0,0
232150,-66.6666666666667,4,2,1,50,0,0
232225,-62.5,4,2,1,50,0,0
232300,-250,4,2,1,50,0,0
232375,-62.5,4,2,1,50,0,0
232450,-250,4,2,1,50,0,0
232525,-62.5,4,2,1,50,0,0
232600,-250,4,2,1,50,0,0
232675,-62.5,4,2,1,50,0,0
232750,-250,4,2,1,50,0,0
232825,-62.5,4,2,1,50,0,0
232900,-250,4,2,1,50,0,0
232975,-100,4,2,1,50,0,0
233275,-62.5,4,2,1,50,0,0
233350,-500,4,2,1,50,0,0
233425,-125,4,2,1,50,0,0
233500,-71.4285714285714,4,2,1,50,0,0
233575,-62.5,4,2,1,50,0,0
233650,-250,4,2,1,50,0,0
233725,-62.5,4,2,1,50,0,0
233800,-250,4,2,1,50,0,0
233875,-62.5,4,2,1,50,0,0
233950,-83.3333333333333,4,2,1,50,0,0
234025,-125,4,2,1,50,0,0
234100,-250,4,2,1,50,0,0
234175,-62.5,4,2,1,50,0,0
234250,-83.3333333333333,4,2,1,50,0,0
234325,-125,4,2,1,50,0,0
234400,-250,4,2,1,50,0,0
234475,-62.5,4,2,1,50,0,0
234550,-83.3333333333333,4,2,1,50,0,0
234625,-125,4,2,1,50,0,0
234700,-250,4,2,1,50,0,0
234775,-62.5,4,2,1,50,0,0
234850,-83.3333333333333,4,2,1,50,0,0
234925,-125,4,2,1,50,0,0
235000,-250,4,2,1,50,0,0
235075,-62.5,4,2,1,50,0,0
235150,-250,4,2,1,50,0,0
235225,-62.5,4,2,1,50,0,0
235300,-250,4,2,1,50,0,0
235375,-62.5,4,2,1,50,0,0
235450,-250,4,2,1,50,0,0
235525,-50.5050505050505,4,2,1,50,0,0
235543,-5000,4,2,1,50,0,0
235562,-50.5050505050505,4,2,1,50,0,0
235581,-5000,4,2,1,50,0,0
235600,-50.5050505050505,4,2,1,50,0,0
235618,-5000,4,2,1,50,0,0
235637,-50.5050505050505,4,2,1,50,0,0
235656,-5000,4,2,1,50,0,0
235675,-50.5050505050505,4,2,1,50,0,0
235693,-5000,4,2,1,50,0,0
235712,-50.5050505050505,4,2,1,50,0,0
235731,-5000,4,2,1,50,0,0
235750,-50.5050505050505,4,2,1,50,0,0
235768,-5000,4,2,1,50,0,0
235787,-50.5050505050505,4,2,1,50,0,0
235806,-5000,4,2,1,50,0,0
235825,-50.5050505050505,4,2,1,50,0,0
235843,-5000,4,2,1,50,0,0
235862,-50.5050505050505,4,2,1,50,0,0
235881,-5000,4,2,1,50,0,0
235900,-50.5050505050505,4,2,1,50,0,0
235918,-5000,4,2,1,50,0,0
235937,-50.5050505050505,4,2,1,50,0,0
235956,-5000,4,2,1,50,0,0
235975,-100,4,2,1,50,0,0
256375,-50.5050505050505,4,2,1,50,0,0
256393,-5000,4,2,1,50,0,0
256412,-50.5050505050505,4,2,1,50,0,0
256431,-5000,4,2,1,50,0,0
256450,-50.5050505050505,4,2,1,50,0,0
256468,-5000,4,2,1,50,0,0
256487,-50.5050505050505,4,2,1,50,0,0
256506,-5000,4,2,1,50,0,0
256525,-50.5050505050505,4,2,1,50,0,0
256543,-5000,4,2,1,50,0,0
256562,-50.5050505050505,4,2,1,50,0,0
256581,-5000,4,2,1,50,0,0
256600,-50.5050505050505,4,2,1,50,0,0
256618,-5000,4,2,1,50,0,0
256637,-50.5050505050505,4,2,1,50,0,0
256656,-5000,4,2,1,50,0,0
256675,-100,4,2,1,50,0,0
257875,-50.5050505050505,4,2,1,50,0,0
257893,-5000,4,2,1,50,0,0
257912,-50.5050505050505,4,2,1,50,0,0
257931,-5000,4,2,1,50,0,0
257950,-50.5050505050505,4,2,1,50,0,0
257968,-5000,4,2,1,50,0,0
257987,-50.5050505050505,4,2,1,50,0,0
258006,-5000,4,2,1,50,0,0
258025,-100,4,2,1,50,0,0
259675,-142.857142857143,4,2,1,50,0,0
259825,-100,4,2,1,50,0,0
259900,-62.5,4,2,1,50,0,0
259975,-100,4,2,1,50,0,0
262075,-62.5,4,2,1,50,0,0
262150,-500,4,2,1,50,0,0
262225,-125,4,2,1,50,0,0
262300,-71.4285714285714,4,2,1,50,0,0
262375,-100,4,2,1,50,0,0
262675,-62.5,4,2,1,50,0,0
262750,-500,4,2,1,50,0,0
262825,-125,4,2,1,50,0,0
262900,-71.4285714285714,4,2,1,50,0,0
262975,-100,4,2,1,50,0,0
263275,-62.5,4,2,1,50,0,0
263350,-500,4,2,1,50,0,0
263425,-125,4,2,1,50,0,0
263500,-71.4285714285714,4,2,1,50,0,0
263575,-100,4,2,1,50,0,0
264775,-133.333333333333,4,2,1,50,0,0
265975,-100,4,2,1,50,0,0
284875,-142.857142857143,4,2,1,50,0,0
285025,-100,4,2,1,50,0,0
285100,-62.5,4,2,1,50,0,0
285175,-100,4,2,1,50,0,0
345175,-62.5,4,2,1,50,0,0
345212,-250,4,2,1,50,0,0
345250,-62.5,4,2,1,50,0,0
345287,-250,4,2,1,50,0,0
345325,-62.5,4,2,1,50,0,0
345362,-83.3333333333333,4,2,1,50,0,0
345400,-125,4,2,1,50,0,0
345437,-250,4,2,1,50,0,0
345475,-62.5,4,2,1,50,0,0
345512,-83.3333333333333,4,2,1,50,0,0
345550,-125,4,2,1,50,0,0
345587,-250,4,2,1,50,0,0
345625,-62.5,4,2,1,50,0,0
345662,-250,4,2,1,50,0,0
345700,-62.5,4,2,1,50,0,0
345737,-83.3333333333333,4,2,1,50,0,0
345775,-125,4,2,1,50,0,0
345812,-250,4,2,1,50,0,0
345850,-62.5,4,2,1,50,0,0
345887,-83.3333333333333,4,2,1,50,0,0
345925,-125,4,2,1,50,0,0
345962,-250,4,2,1,50,0,0
346000,-62.5,4,2,1,50,0,0
346037,-250,4,2,1,50,0,0
346075,-62.5,4,2,1,50,0,0
346112,-83.3333333333333,4,2,1,50,0,0
346150,-125,4,2,1,50,0,0
346187,-250,4,2,1,50,0,0
346225,-62.5,4,2,1,50,0,0
346262,-83.3333333333333,4,2,1,50,0,0
346300,-125,4,2,1,50,0,0
346337,-250,4,2,1,50,0,0
346375,-50.5050505050505,4,2,1,50,0,0
346393,-5000,4,2,1,50,0,0
346412,-50.5050505050505,4,2,1,50,0,0
346431,-5000,4,2,1,50,0,0
346450,-50.5050505050505,4,2,1,50,0,0
346468,-5000,4,2,1,50,0,0
346487,-50.5050505050505,4,2,1,50,0,0
346506,-5000,4,2,1,50,0,0
346525,-50.5050505050505,4,2,1,50,0,0
346543,-5000,4,2,1,50,0,0
346562,-50.5050505050505,4,2,1,50,0,0
346581,-5000,4,2,1,50,0,0
346600,-50.5050505050505,4,2,1,50,0,0
346618,-5000,4,2,1,50,0,0
346637,-50.5050505050505,4,2,1,50,0,0
346656,-5000,4,2,1,50,0,0
346675,-100,4,2,1,50,0,0
346750,-50.5050505050505,4,2,1,50,0,0
346768,-5000,4,2,1,50,0,0
346787,-50.5050505050505,4,2,1,50,0,0
346806,-5000,4,2,1,50,0,0
346825,-50.5050505050505,4,2,1,50,0,0
346843,-5000,4,2,1,50,0,0
346862,-50.5050505050505,4,2,1,50,0,0
346881,-5000,4,2,1,50,0,0
346900,-100,4,2,1,50,0,0
346975,-50.5050505050505,4,2,1,50,0,0
346993,-5000,4,2,1,50,0,0
347012,-50.5050505050505,4,2,1,50,0,0
347031,-5000,4,2,1,50,0,0
347050,-100,4,2,1,50,0,0
347125,-50.5050505050505,4,2,1,50,0,0
347143,-5000,4,2,1,50,0,0
347162,-50.5050505050505,4,2,1,50,0,0
347181,-5000,4,2,1,50,0,0
347200,-100,4,2,1,50,0,0
347275,-50.5050505050505,4,2,1,50,0,0
347293,-5000,4,2,1,50,0,0
347312,-50.5050505050505,4,2,1,50,0,0
347331,-5000,4,2,1,50,0,0
347350,-100,4,2,1,50,0,0
347425,-50.5050505050505,4,2,1,50,0,0
347443,-5000,4,2,1,50,0,0
347462,-50.5050505050505,4,2,1,50,0,0
347481,-5000,4,2,1,50,0,0
347500,-100,4,2,1,50,0,0
364375,-62.5,4,2,1,50,0,0
364412,-250,4,2,1,50,0,0
364450,-62.5,4,2,1,50,0,0
364487,-250,4,2,1,50,0,0
364525,-62.5,4,2,1,50,0,0
364562,-83.3333333333333,4,2,1,50,0,0
364600,-125,4,2,1,50,0,0
364637,-250,4,2,1,50,0,0
364675,-62.5,4,2,1,50,0,0
364712,-83.3333333333333,4,2,1,50,0,0
364750,-125,4,2,1,50,0,0
364787,-250,4,2,1,50,0,0
364825,-62.5,4,2,1,50,0,0
364862,-250,4,2,1,50,0,0
364900,-62.5,4,2,1,50,0,0
364937,-250,4,2,1,50,0,0
364975,-62.5,4,2,1,50,0,0
365012,-250,4,2,1,50,0,0
365050,-62.5,4,2,1,50,0,0
365087,-250,4,2,1,50,0,0
365125,-62.5,4,2,1,50,0,0
365162,-250,4,2,1,50,0,0
365200,-62.5,4,2,1,50,0,0
365237,-250,4,2,1,50,0,0
365275,-62.5,4,2,1,50,0,0
365312,-83.3333333333333,4,2,1,50,0,0
365350,-125,4,2,1,50,0,0
365387,-250,4,2,1,50,0,0
365425,-62.5,4,2,1,50,0,0
365462,-83.3333333333333,4,2,1,50,0,0
365500,-125,4,2,1,50,0,0
365537,-250,4,2,1,50,0,0
365575,-100,4,2,1,50,0,0

[HitObjects]
36,192,775,5,0,0:0:0:0:
36,192,925,1,0,0:0:0:0:
182,192,1000,1,0,0:0:0:0:
475,192,1075,1,0,0:0:0:0:
329,192,1075,1,0,0:0:0:0:
329,192,1300,1,0,0:0:0:0:
402,192,1300,1,0,0:0:0:0:
329,192,1450,1,0,0:0:0:0:
402,192,1450,1,0,0:0:0:0:
109,192,1525,1,0,0:0:0:0:
182,192,1525,1,0,0:0:0:0:
329,192,1600,1,0,0:0:0:0:
402,192,1600,1,0,0:0:0:0:
36,192,1675,1,0,0:0:0:0:
182,192,1675,1,0,0:0:0:0:
182,192,1825,1,0,0:0:0:0:
36,192,1825,1,0,0:0:0:0:
256,192,1900,1,0,0:0:0:0:
329,192,1975,1,0,0:0:0:0:
402,192,1975,1,0,0:0:0:0:
475,192,1975,1,0,0:0:0:0:
36,192,1975,1,0,0:0:0:0:
109,192,2050,1,0,0:0:0:0:
475,192,2125,128,0,2275:0:0:0:0:
329,192,2125,1,0,0:0:0:0:
256,192,2200,1,0,0:0:0:0:
182,192,2275,1,0,0:0:0:0:
36,192,2275,1,0,0:0:0:0:
109,192,2275,1,0,0:0:0:0:
402,192,2350,1,0,0:0:0:0:
182,192,2425,128,0,2575:0:0:0:0:
36,192,2425,1,0,0:0:0:0:
402,192,2500,1,0,0:0:0:0:
329,192,2575,1,0,0:0:0:0:
475,192,2575,1,0,0:0:0:0:
109,192,2650,1,0,0:0:0:0:
329,192,2725,128,0,2875:0:0:0:0:
475,192,2725,1,0,0:0:0:0:
256,192,2800,1,0,0:0:0:0:
36,192,2875,1,0,0:0:0:0:
182,192,2875,1,0,0:0:0:0:
109,192,2875,1,0,0:0:0:0:
402,192,2950,1,0,0:0:0:0:
36,192,3025,128,0,3175:0:0:0:0:
182,192,3025,1,0,0:0:0:0:
256,192,3100,1,0,0:0:0:0:
329,192,3175,1,0,0:0:0:0:
402,192,3175,1,0,0:0:0:0:
402,192,3325,1,0,0:0:0:0:
36,192,3475,1,0,0:0:0:0:
256,192,3475,1,0,0:0:0:0:
475,192,3475,1,0,0:0:0:0:
109,192,3625,1,0,0:0:0:0:
182,192,3700,1,0,0:0:0:0:
329,192,3700,1,0,0:0:0:0:
36,192,3775,1,0,0:0:0:0:
256,192,3850,1,0,0:0:0:0:
109,192,3850,1,0,0:0:0:0:
475,192,3925,1,0,0:0:0:0:
402,192,3925,1,0,0:0:0:0:
256,192,4075,1,0,0:0:0:0:
182,192,4375,1,0,0:0:0:0:
109,192,4375,1,0,0:0:0:0:
36,192,4375,1,0,0:0:0:0:
475,192,4375,1,0,0:0:0:0:
402,192,4450,1,0,0:0:0:0:
36,192,4525,128,0,4675:0:0:0:0:
182,192,4525,1,0,0:0:0:0:
256,192,4600,1,0,0:0:0:0:
329,192,4675,1,0,0:0:0:0:
475,192,4675,1,0,0:0:0:0:
402,192,4675,1,0,0:0:0:0:
109,192,4750,1,0,0:0:0:0:
329,192,4825,128,0,4975:0:0:0:0:
475,192,4825,1,0,0:0:0:0:
109,192,4900,1,0,0:0:0:0:
182,192,4975,1,0,0:0:0:0:
36,192,4975,1,0,0:0:0:0:
402,192,5050,1,0,0:0:0:0:
182,192,5125,128,0,5275:0:0:0:0:
36,192,5125,1,0,0:0:0:0:
256,192,5200,1,0,0:0:0:0:
475,192,5275,1,0,0:0:0:0:
329,192,5275,1,0,0:0:0:0:
402,192,5275,1,0,0:0:0:0:
109,192,5350,1,0,0:0:0:0:
475,192,5425,128,0,5575:0:0:0:0:
329,192,5425,1,0,0:0:0:0:
256,192,5500,1,0,0:0:0:0:
182,192,5575,1,0,0:0:0:0:
36,192,5575,128,0,6025:0:0:0:0:
182,192,5725,128,0,6025:0:0:0:0:
475,192,5725,1,0,0:0:0:0:
402,192,5800,1,0,0:0:0:0:
329,192,5875,1,0,0:0:0:0:
256,192,5875,1,0,0:0:0:0:
329,192,6025,1,0,0:0:0:0:
256,192,6025,128,0,6550:0:0:0:0:
402,192,6100,1,0,0:0:0:0:
475,192,6175,1,0,0:0:0:0:
36,192,6175,1,0,0:0:0:0:
109,192,6175,128,0,6550:0:0:0:0:
475,192,6325,1,0,0:0:0:0:
402,192,6325,1,0,0:0:0:0:
402,192,6475,1,0,0:0:0:0:
475,192,6475,128,0,6625:0:0:0:0:
329,192,6475,128,0,6625:0:0:0:0:
109,192,6625,1,0,0:0:0:0:
36,192,6625,1,0,0:0:0:0:
182,192,6625,1,0,0:0:0:0:
329,192,6700,1,0,0:0:0:0:
475,192,6700,1,0,0:0:0:0:
402,192,6700,1,0,0:0:0:0:
475,192,6775,1,0,0:0:0:0:
402,192,6775,1,0,0:0:0:0:
329,192,6775,1,0,0:0:0:0:
256,192,6775,128,0,9100:0:0:0:0:
36,192,6775,1,0,0:0:0:0:
109,192,6775,128,0,7975:0:0:0:0:
475,192,6925,1,0,0:0:0:0:
402,192,7000,1,0,0:0:0:0:
329,192,7075,1,0,0:0:0:0:
182,192,7075,1,0,0:0:0:0:
36,192,7075,1,0,0:0:0:0:
329,192,7225,1,0,0:0:0:0:
402,192,7300,1,0,0:0:0:0:
475,192,7375,1,0,0:0:0:0:
36,192,7375,1,0,0:0:0:0:
182,192,7450,1,0,0:0:0:0:
475,192,7525,1,0,0:0:0:0:
329,192,7600,1,0,0:0:0:0:
182,192,7675,1,0,0:0:0:0:
36,192,7675,1,0,0:0:0:0:
475,192,7675,1,0,0:0:0:0:
182,192,7825,1,0,0:0:0:0:
329,192,7900,1,0,0:0:0:0:
36,192,7975,1,0,0:0:0:0:
475,192,7975,1,0,0:0:0:0:
402,192,7975,128,0,8575:0:0:0:0:
109,192,8050,1,0,0:0:0:0:
182,192,8125,1,0,0:0:0:0:
36,192,8275,1,0,0:0:0:0:
329,192,8275,128,0,8575:0:0:0:0:
475,192,8275,1,0,0:0:0:0:
182,192,8425,1,0,0:0:0:0:
109,192,8500,1,0,0:0:0:0:
36,192,8575,128,0,9100:0:0:0:0:
475,192,8575,1,0,0:0:0:0:
402,192,8650,1,0,0:0:0:0:
109,192,8725,1,0,0:0:0:0:
182,192,8800,1,0,0:0:0:0:
475,192,8875,128,0,9100:0:0:0:0:
402,192,8875,1,0,0:0:0:0:
329,192,8875,128,0,9100:0:0:0:0:
402,192,9025,128,0,9100:0:0:0:0:
256,192,9175,1,0,0:0:0:0:
109,192,9175,1,0,0:0:0:0:
36,192,9175,1,0,0:0:0:0:
402,192,9175,1,0,0:0:0:0:
475,192,9175,1,0,0:0:0:0:
109,192,9400,1,0,0:0:0:0:
36,192,9400,1,0,0:0:0:0:
256,192,9400,1,0,0:0:0:0:
402,192,9400,1,0,0:0:0:0:
475,192,9400,1,0,0:0:0:0:
36,192,9475,1,0,0:0:0:0:
109,192,9475,1,0,0:0:0:0:
475,192,9475,1,0,0:0:0:0:
402,192,9475,1,0,0:0:0:0:
256,192,9475,1,0,0:0:0:0:
182,192,9625,1,0,0:0:0:0:
329,192,9625,1,0,0:0:0:0:
475,192,9625,1,0,0:0:0:0:
36,192,9625,1,0,0:0:0:0:
182,192,9775,1,0,0:0:0:0:
256,192,9775,1,0,0:0:0:0:
329,192,9775,1,0,0:0:0:0:
475,192,9775,1,0,0:0:0:0:
36,192,9775,1,0,0:0:0:0:
256,192,10075,1,0,0:0:0:0:
109,192,10075,1,0,0:0:0:0:
36,192,10075,1,0,0:0:0:0:
402,192,10075,1,0,0:0:0:0:
475,192,10075,1,0,0:0:0:0:
182,192,10225,1,0,0:0:0:0:
36,192,10225,1,0,0:0:0:0:
329,192,10225,1,0,0:0:0:0:
475,192,10225,1,0,0:0:0:0:
475,192,10375,1,0,0:0:0:0:
329,192,10375,1,0,0:0:0:0:
109,192,10375,1,0,0:0:0:0:
182,192,10375,1,0,0:0:0:0:
402,192,10375,1,0,0:0:0:0:
36,192,10375,1,0,0:0:0:0:
36,192,10525,1,0,0:0:0:0:
182,192,10525,1,0,0:0:0:0:
402,192,10525,1,0,0:0:0:0:
475,192,10525,1,0,0:0:0:0:
109,192,10525,1,0,0:0:0:0:
329,192,10525,1,0,0:0:0:0:
402,192,10675,1,0,0:0:0:0:
36,192,10675,1,0,0:0:0:0:
182,192,10675,1,0,0:0:0:0:
475,192,10675,1,0,0:0:0:0:
329,192,10675,1,0,0:0:0:0:
109,192,10675,1,0,0:0:0:0:
182,192,10975,1,0,0:0:0:0:
109,192,10975,1,0,0:0:0:0:
36,192,10975,1,0,0:0:0:0:
329,192,10975,1,0,0:0:0:0:
402,192,10975,1,0,0:0:0:0:
475,192,10975,1,0,0:0:0:0:
329,192,11275,1,0,0:0:0:0:
109,192,11275,1,0,0:0:0:0:
36,192,11275,1,0,0:0:0:0:
475,192,11275,1,0,0:0:0:0:
256,192,11350,1,0,0:0:0:0:
402,192,11350,1,0,0:0:0:0:
329,192,11425,1,0,0:0:0:0:
182,192,11425,1,0,0:0:0:0:
256,192,11500,1,0,0:0:0:0:
109,192,11500,1,0,0:0:0:0:
182,192,11575,1,0,0:0:0:0:
402,192,11575,1,0,0:0:0:0:
36,192,11575,1,0,0:0:0:0:
329,192,11575,1,0,0:0:0:0:
475,192,11575,1,0,0:0:0:0:
36,192,11725,1,0,0:0:0:0:
329,192,11725,1,0,0:0:0:0:
109,192,11800,1,0,0:0:0:0:
256,192,11800,1,0,0:0:0:0:
475,192,11875,1,0,0:0:0:0:
402,192,11875,1,0,0:0:0:0:
109,192,11950,1,0,0:0:0:0:
256,192,11950,1,0,0:0:0:0:
329,192,12025,1,0,0:0:0:0:
36,192,12025,128,0,12175:0:0:0:0:
109,192,12175,1,0,0:0:0:0:
256,192,12175,1,0,0:0:0:0:
402,192,12175,1,0,0:0:0:0:
109,192,12325,128,0,12475:0:0:0:0:
402,192,12325,1,0,0:0:0:0:
256,192,12325,1,0,0:0:0:0:
329,192,12475,1,0,0:0:0:0:
475,192,12475,1,0,0:0:0:0:
36,192,12475,1,0,0:0:0:0:
256,192,12550,1,0,0:0:0:0:
182,192,12550,1,0,0:0:0:0:
109,192,12625,1,0,0:0:0:0:
402,192,12625,1,0,0:0:0:0:
256,192,12700,1,0,0:0:0:0:
329,192,12700,1,0,0:0:0:0:
109,192,12775,1,0,0:0:0:0:
475,192,12775,1,0,0:0:0:0:
36,192,12775,1,0,0:0:0:0:
182,192,12775,1,0,0:0:0:0:
182,192,12925,1,0,0:0:0:0:
475,192,12925,1,0,0:0:0:0:
256,192,13000,1,0,0:0:0:0:
402,192,13000,1,0,0:0:0:0:
109,192,13075,1,0,0:0:0:0:
36,192,13075,1,0,0:0:0:0:
402,192,13150,1,0,0:0:0:0:
256,192,13150,1,0,0:0:0:0:
475,192,13225,128,0,13375:0:0:0:0:
182,192,13225,1,0,0:0:0:0:
256,192,13375,1,0,0:0:0:0:
109,192,13375,1,0,0:0:0:0:
402,192,13375,1,0,0:0:0:0:
402,192,13525,128,0,13675:0:0:0:0:
109,192,13525,1,0,0:0:0:0:
256,192,13525,1,0,0:0:0:0:
36,192,13675,1,0,0:0:0:0:
182,192,13675,1,0,0:0:0:0:
475,192,13675,1,0,0:0:0:0:
329,192,13750,1,0,0:0:0:0:
256,192,13750,1,0,0:0:0:0:
109,192,13825,1,0,0:0:0:0:
402,192,13825,1,0,0:0:0:0:
182,192,13900,1,0,0:0:0:0:
256,192,13900,1,0,0:0:0:0:
402,192,13975,1,0,0:0:0:0:
475,192,13975,1,0,0:0:0:0:
329,192,13975,1,0,0:0:0:0:
36,192,13975,1,0,0:0:0:0:
36,192,14125,1,0,0:0:0:0:
329,192,14125,1,0,0:0:0:0:
109,192,14200,1,0,0:0:0:0:
256,192,14200,1,0,0:0:0:0:
475,192,14275,1,0,0:0:0:0:
402,192,14275,1,0,0:0:0:0:
256,192,14350,1,0,0:0:0:0:
109,192,14350,1,0,0:0:0:0:
329,192,14425,1,0,0:0:0:0:
36,192,14425,128,0,14575:0:0:0:0:
109,192,14575,1,0,0:0:0:0:
256,192,14575,1,0,0:0:0:0:
402,192,14575,1,0,0:0:0:0:
109,192,14725,128,0,14875:0:0:0:0:
402,192,14725,1,0,0:0:0:0:
256,192,14725,1,0,0:0:0:0:
329,192,14875,1,0,0:0:0:0:
475,192,14875,1,0,0:0:0:0:
36,192,14875,1,0,0:0:0:0:
256,192,14950,1,0,0:0:0:0:
109,192,14950,1,0,0:0:0:0:
329,192,15025,1,0,0:0:0:0:
182,192,15025,1,0,0:0:0:0:
256,192,15100,1,0,0:0:0:0:
402,192,15100,1,0,0:0:0:0:
475,192,15175,1,0,0:0:0:0:
36,192,15175,1,0,0:0:0:0:
109,192,15175,128,0,15625:0:0:0:0:
329,192,15175,128,0,15325:0:0:0:0:
182,192,15325,128,0,15625:0:0:0:0:
256,192,15325,1,0,0:0:0:0:
36,192,15475,128,0,16225:0:0:0:0:
475,192,15475,1,0,0:0:0:0:
402,192,15475,128,0,15625:0:0:0:0:
256,192,15625,128,0,16000:0:0:0:0:
329,192,15625,1,0,0:0:0:0:
109,192,15775,128,0,16150:0:0:0:0:
182,192,15775,128,0,16075:0:0:0:0:
475,192,15775,1,0,0:0:0:0:
402,192,15775,128,0,16000:0:0:0:0:
475,192,16075,128,0,16150:0:0:0:0:
329,192,16075,1,0,0:0:0:0:
402,192,16150,128,0,16225:0:0:0:0:
256,192,16150,1,0,0:0:0:0:
329,192,16225,128,0,16300:0:0:0:0:
182,192,16225,1,0,0:0:0:0:
256,192,16300,128,0,16375:0:0:0:0:
109,192,16300,1,0,0:0:0:0:
329,192,16375,1,0,0:0:0:0:
402,192,16375,1,0,0:0:0:0:
475,192,16375,1,0,0:0:0:0:
36,192,16375,1,0,0:0:0:0:
182,192,16375,1,0,0:0:0:0:
182,192,16525,1,0,0:0:0:0:
402,192,16525,1,0,0:0:0:0:
256,192,16600,1,0,0:0:0:0:
475,192,16600,1,0,0:0:0:0:
36,192,16675,1,0,0:0:0:0:
109,192,16675,1,0,0:0:0:0:
475,192,16750,1,0,0:0:0:0:
256,192,16750,1,0,0:0:0:0:
182,192,16825,1,0,0:0:0:0:
402,192,16825,128,0,16975:0:0:0:0:
329,192,16975,1,0,0:0:0:0:
182,192,16975,1,0,0:0:0:0:
36,192,16975,1,0,0:0:0:0:
329,192,17125,128,0,17275:0:0:0:0:
36,192,17125,1,0,0:0:0:0:
182,192,17125,1,0,0:0:0:0:
182,192,17275,1,0,0:0:0:0:
36,192,17275,1,0,0:0:0:0:
475,192,17275,1,0,0:0:0:0:
256,192,17350,1,0,0:0:0:0:
329,192,17350,1,0,0:0:0:0:
475,192,17425,1,0,0:0:0:0:
36,192,17425,1,0,0:0:0:0:
256,192,17500,1,0,0:0:0:0:
182,192,17500,1,0,0:0:0:0:
109,192,17575,1,0,0:0:0:0:
36,192,17575,1,0,0:0:0:0:
329,192,17575,1,0,0:0:0:0:
475,192,17575,1,0,0:0:0:0:
329,192,17725,1,0,0:0:0:0:
109,192,17725,1,0,0:0:0:0:
256,192,17800,1,0,0:0:0:0:
36,192,17800,1,0,0:0:0:0:
475,192,17875,1,0,0:0:0:0:
402,192,17875,1,0,0:0:0:0:
36,192,17950,1,0,0:0:0:0:
256,192,17950,1,0,0:0:0:0:
329,192,18025,1,0,0:0:0:0:
109,192,18025,128,0,18175:0:0:0:0:
182,192,18175,1,0,0:0:0:0:
329,192,18175,1,0,0:0:0:0:
475,192,18175,1,0,0:0:0:0:
182,192,18325,128,0,18475:0:0:0:0:
475,192,18325,1,0,0:0:0:0:
329,192,18325,1,0,0:0:0:0:
329,192,18475,1,0,0:0:0:0:
475,192,18475,1,0,0:0:0:0:
36,192,18475,1,0,0:0:0:0:
256,192,18550,1,0,0:0:0:0:
182,192,18550,1,0,0:0:0:0:
36,192,18625,1,0,0:0:0:0:
475,192,18625,1,0,0:0:0:0:
256,192,18700,1,0,0:0:0:0:
329,192,18700,1,0,0:0:0:0:
402,192,18775,1,0,0:0:0:0:
475,192,18775,1,0,0:0:0:0:
182,192,18775,1,0,0:0:0:0:
36,192,18775,1,0,0:0:0:0:
402,192,18925,1,0,0:0:0:0:
182,192,18925,1,0,0:0:0:0:
475,192,19000,1,0,0:0:0:0:
256,192,19000,1,0,0:0:0:0:
109,192,19075,1,0,0:0:0:0:
36,192,19075,1,0,0:0:0:0:
256,192,19150,1,0,0:0:0:0:
475,192,19150,1,0,0:0:0:0:
402,192,19225,128,0,19375:0:0:0:0:
182,192,19225,1,0,0:0:0:0:
36,192,19375,1,0,0:0:0:0:
182,192,19375,1,0,0:0:0:0:
329,192,19375,1,0,0:0:0:0:
182,192,19525,1,0,0:0:0:0:
36,192,19525,1,0,0:0:0:0:
329,192,19525,128,0,19675:0:0:0:0:
475,192,19675,1,0,0:0:0:0:
36,192,19675,1,0,0:0:0:0:
182,192,19675,1,0,0:0:0:0:
109,192,19750,1,0,0:0:0:0:
256,192,19750,1,0,0:0:0:0:
402,192,19750,1,0,0:0:0:0:
329,192,19825,1,0,0:0:0:0:
475,192,19825,1,0,0:0:0:0:
36,192,19825,1,0,0:0:0:0:
182,192,19975,1,0,0:0:0:0:
36,192,19975,1,0,0:0:0:0:
109,192,19975,1,0,0:0:0:0:
475,192,19975,1,0,0:0:0:0:
329,192,19975,128,0,20425:0:0:0:0:
182,192,20125,128,0,20275:0:0:0:0:
36,192,20125,128,0,20275:0:0:0:0:
475,192,20125,1,0,0:0:0:0:
402,192,20200,1,0,0:0:0:0:
109,192,20275,1,0,0:0:0:0:
256,192,20275,1,0,0:0:0:0:
475,192,20275,128,0,20725:0:0:0:0:
109,192,20425,128,0,20575:0:0:0:0:
256,192,20425,128,0,20575:0:0:0:0:
36,192,20575,1,0,0:0:0:0:
182,192,20575,1,0,0:0:0:0:
329,192,20575,1,0,0:0:0:0:
109,192,20650,1,0,0:0:0:0:
256,192,20650,1,0,0:0:0:0:
329,192,20725,1,0,0:0:0:0:
182,192,20725,128,0,21100:0:0:0:0:
36,192,20725,128,0,21100:0:0:0:0:
475,192,20800,1,0,0:0:0:0:
256,192,20875,1,0,0:0:0:0:
402,192,20875,1,0,0:0:0:0:
109,192,20875,1,0,0:0:0:0:
475,192,20950,1,0,0:0:0:0:
329,192,21025,1,0,0:0:0:0:
256,192,21100,1,0,0:0:0:0:
182,192,21175,1,0,0:0:0:0:
109,192,21175,1,0,0:0:0:0:
36,192,21175,1,0,0:0:0:0:
475,192,21175,128,0,21250:0:0:0:0:
402,192,21325,128,0,21400:0:0:0:0:
182,192,21325,1,0,0:0:0:0:
329,192,21475,128,0,21550:0:0:0:0:
182,192,21475,1,0,0:0:0:0:
36,192,21475,1,0,0:0:0:0:
475,192,21625,128,0,21700:0:0:0:0:
402,192,21775,128,0,21850:0:0:0:0:
36,192,21775,1,0,0:0:0:0:
182,192,21775,1,0,0:0:0:0:
329,192,21925,128,0,22000:0:0:0:0:
109,192,21925,1,0,0:0:0:0:
36,192,21925,1,0,0:0:0:0:
256,192,22000,1,0,0:0:0:0:
182,192,22000,1,0,0:0:0:0:
475,192,22075,128,0,22150:0:0:0:0:
109,192,22075,1,0,0:0:0:0:
36,192,22075,1,0,0:0:0:0:
402,192,22225,128,0,22300:0:0:0:0:
182,192,22225,1,0,0:0:0:0:
36,192,22225,1,0,0:0:0:0:
329,192,22375,128,0,22450:0:0:0:0:
475,192,22525,128,0,22600:0:0:0:0:
182,192,22525,1,0,0:0:0:0:
36,192,22525,1,0,0:0:0:0:
402,192,22675,128,0,22750:0:0:0:0:
256,192,22675,1,0,0:0:0:0:
109,192,22675,1,0,0:0:0:0:
36,192,22750,1,0,0:0:0:0:
329,192,22825,128,0,22900:0:0:0:0:
182,192,22825,1,0,0:0:0:0:
109,192,22900,1,0,0:0:0:0:
475,192,22975,128,0,23050:0:0:0:0:
256,192,22975,1,0,0:0:0:0:
109,192,23050,1,0,0:0:0:0:
182,192,23125,1,0,0:0:0:0:
329,192,23125,1,0,0:0:0:0:
256,192,23275,128,0,23575:0:0:0:0:
329,192,23575,1,0,0:0:0:0:
475,192,23575,1,0,0:0:0:0:
36,192,23575,128,0,23650:0:0:0:0:
109,192,23725,128,0,23800:0:0:0:0:
329,192,23725,1,0,0:0:0:0:
182,192,23875,128,0,23950:0:0:0:0:
329,192,23875,1,0,0:0:0:0:
475,192,23875,1,0,0:0:0:0:
36,192,24025,128,0,24100:0:0:0:0:
109,192,24175,128,0,24250:0:0:0:0:
475,192,24175,1,0,0:0:0:0:
329,192,24175,1,0,0:0:0:0:
182,192,24325,128,0,24400:0:0:0:0:
402,192,24325,1,0,0:0:0:0:
475,192,24325,1,0,0:0:0:0:
256,192,24400,1,0,0:0:0:0:
329,192,24400,1,0,0:0:0:0:
36,192,24475,128,0,24550:0:0:0:0:
402,192,24475,1,0,0:0:0:0:
475,192,24475,1,0,0:0:0:0:
109,192,24625,128,0,24700:0:0:0:0:
329,192,24625,1,0,0:0:0:0:
475,192,24625,1,0,0:0:0:0:
182,192,24775,128,0,24850:0:0:0:0:
36,192,24925,128,0,25000:0:0:0:0:
329,192,24925,1,0,0:0:0:0:
475,192,24925,1,0,0:0:0:0:
109,192,25075,128,0,25150:0:0:0:0:
256,192,25075,1,0,0:0:0:0:
402,192,25075,1,0,0:0:0:0:
475,192,25150,1,0,0:0:0:0:
182,192,25225,128,0,25300:0:0:0:0:
329,192,25225,1,0,0:0:0:0:
402,192,25300,1,0,0:0:0:0:
36,192,25375,128,0,25450:0:0:0:0:
256,192,25375,1,0,0:0:0:0:
402,192,25450,1,0,0:0:0:0:
329,192,25525,1,0,0:0:0:0:
182,192,25525,1,0,0:0:0:0:
109,192,25600,1,0,0:0:0:0:
256,192,25675,1,0,0:0:0:0:
329,192,25975,1,0,0:0:0:0:
475,192,25975,1,0,0:0:0:0:
36,192,25975,128,0,26050:0:0:0:0:
109,192,26050,128,0,26125:0:0:0:0:
402,192,26125,1,0,0:0:0:0:
182,192,26125,128,0,26200:0:0:0:0:
475,192,26200,1,0,0:0:0:0:
256,192,26200,128,0,26275:0:0:0:0:
36,192,26275,1,0,0:0:0:0:
109,192,26275,128,0,26350:0:0:0:0:
182,192,26350,128,0,26425:0:0:0:0:
256,192,26425,128,0,26500:0:0:0:0:
36,192,26500,1,0,0:0:0:0:
329,192,26500,128,0,26575:0:0:0:0:
182,192,26575,128,0,26650:0:0:0:0:
36,192,26650,1,0,0:0:0:0:
256,192,26650,128,0,26725:0:0:0:0:
109,192,26725,1,0,0:0:0:0:
329,192,26725,128,0,26800:0:0:0:0:
182,192,26800,1,0,0:0:0:0:
402,192,26800,128,0,26875:0:0:0:0:
36,192,26875,1,0,0:0:0:0:
256,192,26875,128,0,26950:0:0:0:0:
475,192,26875,1,0,0:0:0:0:
109,192,26950,1,0,0:0:0:0:
329,192,26950,128,0,27025:0:0:0:0:
182,192,27025,1,0,0:0:0:0:
402,192,27025,128,0,27100:0:0:0:0:
256,192,27100,1,0,0:0:0:0:
475,192,27100,128,0,27175:0:0:0:0:
329,192,27175,1,0,0:0:0:0:
182,192,27175,1,0,0:0:0:0:
109,192,27175,1,0,0:0:0:0:
36,192,27175,1,0,0:0:0:0:
36,192,27325,1,0,0:0:0:0:
329,192,27325,1,0,0:0:0:0:
475,192,27400,1,0,0:0:0:0:
109,192,27400,1,0,0:0:0:0:
402,192,27400,1,0,0:0:0:0:
256,192,27475,1,0,0:0:0:0:
475,192,27550,1,0,0:0:0:0:
402,192,27550,1,0,0:0:0:0:
329,192,27625,1,0,0:0:0:0:
36,192,27625,1,0,0:0:0:0:
109,192,27625,1,0,0:0:0:0:
182,192,27700,1,0,0:0:0:0:
475,192,27775,1,0,0:0:0:0:
402,192,27775,1,0,0:0:0:0:
329,192,27850,1,0,0:0:0:0:
109,192,27850,1,0,0:0:0:0:
36,192,27850,1,0,0:0:0:0:
256,192,27925,1,0,0:0:0:0:
402,192,27925,1,0,0:0:0:0:
182,192,28000,1,0,0:0:0:0:
475,192,28075,1,0,0:0:0:0:
109,192,28075,1,0,0:0:0:0:
329,192,28075,1,0,0:0:0:0:
36,192,28075,1,0,0:0:0:0:
402,192,28225,1,0,0:0:0:0:
182,192,28225,1,0,0:0:0:0:
256,192,28225,1,0,0:0:0:0:
109,192,28225,1,0,0:0:0:0:
182,192,28375,1,0,0:0:0:0:
329,192,28375,1,0,0:0:0:0:
475,192,28375,1,0,0:0:0:0:
36,192,28375,1,0,0:0:0:0:
475,192,28525,1,0,0:0:0:0:
182,192,28525,1,0,0:0:0:0:
109,192,28600,1,0,0:0:0:0:
402,192,28600,1,0,0:0:0:0:
36,192,28600,1,0,0:0:0:0:
256,192,28675,1,0,0:0:0:0:
36,192,28750,1,0,0:0:0:0:
109,192,28750,1,0,0:0:0:0:
402,192,28825,1,0,0:0:0:0:
475,192,28825,1,0,0:0:0:0:
182,192,28825,1,0,0:0:0:0:
329,192,28900,1,0,0:0:0:0:
36,192,28975,1,0,0:0:0:0:
109,192,28975,1,0,0:0:0:0:
182,192,29050,1,0,0:0:0:0:
402,192,29050,1,0,0:0:0:0:
475,192,29050,1,0,0:0:0:0:
256,192,29125,1,0,0:0:0:0:
109,192,29125,1,0,0:0:0:0:
329,192,29200,1,0,0:0:0:0:
36,192,29275,1,0,0:0:0:0:
402,192,29275,1,0,0:0:0:0:
182,192,29275,1,0,0:0:0:0:
475,192,29275,1,0,0:0:0:0:
109,192,29425,1,0,0:0:0:0:
329,192,29425,1,0,0:0:0:0:
256,192,29425,1,0,0:0:0:0:
402,192,29425,1,0,0:0:0:0:
329,192,29575,1,0,0:0:0:0:
182,192,29575,1,0,0:0:0:0:
36,192,29575,1,0,0:0:0:0:
475,192,29575,1,0,0:0:0:0:
36,192,29725,1,0,0:0:0:0:
329,192,29725,1,0,0:0:0:0:
402,192,29800,1,0,0:0:0:0:
109,192,29800,1,0,0:0:0:0:
475,192,29800,1,0,0:0:0:0:
256,192,29875,1,0,0:0:0:0:
475,192,29950,1,0,0:0:0:0:
402,192,29950,1,0,0:0:0:0:
182,192,30025,1,0,0:0:0:0:
36,192,30025,1,0,0:0:0:0:
329,192,30025,1,0,0:0:0:0:
256,192,30100,1,0,0:0:0:0:
475,192,30175,1,0,0:0:0:0:
402,192,30175,1,0,0:0:0:0:
329,192,30250,1,0,0:0:0:0:
182,192,30250,1,0,0:0:0:0:
36,192,30250,1,0,0:0:0:0:
256,192,30325,1,0,0:0:0:0:
402,192,30325,1,0,0:0:0:0:
182,192,30400,1,0,0:0:0:0:
475,192,30475,1,0,0:0:0:0:
109,192,30475,1,0,0:0:0:0:
329,192,30475,1,0,0:0:0:0:
36,192,30475,1,0,0:0:0:0:
402,192,30625,1,0,0:0:0:0:
182,192,30625,1,0,0:0:0:0:
256,192,30625,1,0,0:0:0:0:
109,192,30625,1,0,0:0:0:0:
329,192,30775,128,0,30925:0:0:0:0:
256,192,30775,1,0,0:0:0:0:
182,192,30775,128,0,31075:0:0:0:0:
36,192,30925,128,0,31075:0:0:0:0:
475,192,30925,1,0,0:0:0:0:
109,192,30925,1,0,0:0:0:0:
402,192,31075,128,0,31225:0:0:0:0:
256,192,31075,128,0,31375:0:0:0:0:
329,192,31075,1,0,0:0:0:0:
475,192,31225,1,0,0:0:0:0:
109,192,31225,128,0,31375:0:0:0:0:
182,192,31225,1,0,0:0:0:0:
402,192,31375,1,0,0:0:0:0:
36,192,31375,1,0,0:0:0:0:
475,192,31375,1,0,0:0:0:0:
109,192,31450,1,0,0:0:0:0:
329,192,31450,1,0,0:0:0:0:
475,192,31525,1,0,0:0:0:0:
182,192,31525,1,0,0:0:0:0:
402,192,31525,1,0,0:0:0:0:
36,192,31600,1,0,0:0:0:0:
329,192,31600,1,0,0:0:0:0:
109,192,31600,1,0,0:0:0:0:
402,192,31675,1,0,0:0:0:0:
182,192,31675,1,0,0:0:0:0:
475,192,31675,1,0,0:0:0:0:
256,192,31675,1,0,0:0:0:0:
36,192,31825,1,0,0:0:0:0:
329,192,31825,1,0,0:0:0:0:
109,192,31825,1,0,0:0:0:0:
256,192,31825,1,0,0:0:0:0:
182,192,31975,1,0,0:0:0:0:
36,192,31975,1,0,0:0:0:0:
475,192,31975,1,0,0:0:0:0:
329,192,31975,1,0,0:0:0:0:
36,192,32125,1,0,0:0:0:0:
329,192,32125,1,0,0:0:0:0:
109,192,32200,1,0,0:0:0:0:
475,192,32200,1,0,0:0:0:0:
402,192,32200,1,0,0:0:0:0:
256,192,32275,1,0,0:0:0:0:
475,192,32350,1,0,0:0:0:0:
402,192,32350,1,0,0:0:0:0:
329,192,32425,1,0,0:0:0:0:
36,192,32425,1,0,0:0:0:0:
109,192,32425,1,0,0:0:0:0:
182,192,32500,1,0,0:0:0:0:
475,192,32575,1,0,0:0:0:0:
402,192,32575,1,0,0:0:0:0:
36,192,32650,1,0,0:0:0:0:
329,192,32650,1,0,0:0:0:0:
109,192,32650,1,0,0:0:0:0:
402,192,32725,1,0,0:0:0:0:
256,192,32725,1,0,0:0:0:0:
182,192,32800,1,0,0:0:0:0:
329,192,32875,1,0,0:0:0:0:
109,192,32875,1,0,0:0:0:0:
475,192,32875,1,0,0:0:0:0:
36,192,32875,1,0,0:0:0:0:
256,192,33025,1,0,0:0:0:0:
109,192,33025,1,0,0:0:0:0:
182,192,33025,1,0,0:0:0:0:
402,192,33025,1,0,0:0:0:0:
36,192,33175,1,0,0:0:0:0:
182,192,33175,1,0,0:0:0:0:
475,192,33175,1,0,0:0:0:0:
329,192,33175,1,0,0:0:0:0:
109,192,33325,1,0,0:0:0:0:
36,192,33325,1,0,0:0:0:0:
182,192,33400,1,0,0:0:0:0:
256,192,33400,1,0,0:0:0:0:
475,192,33475,1,0,0:0:0:0:
329,192,33475,1,0,0:0:0:0:
402,192,33475,1,0,0:0:0:0:
182,192,33550,1,0,0:0:0:0:
109,192,33550,1,0,0:0:0:0:
402,192,33625,1,0,0:0:0:0:
329,192,33625,1,0,0:0:0:0:
109,192,33700,1,0,0:0:0:0:
36,192,33700,1,0,0:0:0:0:
256,192,33775,1,0,0:0:0:0:
329,192,33775,128,0,34075:0:0:0:0:
182,192,33775,128,0,33925:0:0:0:0:
36,192,33925,1,0,0:0:0:0:
402,192,33925,1,0,0:0:0:0:
475,192,33925,128,0,34075:0:0:0:0:
256,192,34075,128,0,34375:0:0:0:0:
109,192,34075,128,0,34225:0:0:0:0:
182,192,34075,1,0,0:0:0:0:
402,192,34225,128,0,34375:0:0:0:0:
329,192,34225,1,0,0:0:0:0:
36,192,34225,1,0,0:0:0:0:
182,192,34375,1,0,0:0:0:0:
36,192,34375,1,0,0:0:0:0:
475,192,34375,128,0,35500:0:0:0:0:
182,192,34525,1,0,0:0:0:0:
109,192,34675,1,0,0:0:0:0:
256,192,34675,1,0,0:0:0:0:
36,192,34675,1,0,0:0:0:0:
182,192,34750,1,0,0:0:0:0:
402,192,34750,1,0,0:0:0:0:
329,192,34825,1,0,0:0:0:0:
109,192,34825,1,0,0:0:0:0:
36,192,34900,1,0,0:0:0:0:
256,192,34900,1,0,0:0:0:0:
329,192,34975,1,0,0:0:0:0:
402,192,34975,1,0,0:0:0:0:
36,192,35050,1,0,0:0:0:0:
109,192,35050,1,0,0:0:0:0:
256,192,35125,1,0,0:0:0:0:
329,192,35125,1,0,0:0:0:0:
182,192,35200,1,0,0:0:0:0:
109,192,35200,1,0,0:0:0:0:
402,192,35275,1,0,0:0:0:0:
36,192,35275,1,0,0:0:0:0:
329,192,35275,1,0,0:0:0:0:
182,192,35350,1,0,0:0:0:0:
256,192,35350,1,0,0:0:0:0:
36,192,35425,1,0,0:0:0:0:
109,192,35425,1,0,0:0:0:0:
256,192,35500,1,0,0:0:0:0:
329,192,35500,1,0,0:0:0:0:
36,192,35575,1,0,0:0:0:0:
182,192,35575,1,0,0:0:0:0:
109,192,35575,1,0,0:0:0:0:
475,192,35575,1,0,0:0:0:0:
109,192,35725,1,0,0:0:0:0:
182,192,35725,1,0,0:0:0:0:
256,192,35725,1,0,0:0:0:0:
402,192,35725,1,0,0:0:0:0:
182,192,35875,1,0,0:0:0:0:
256,192,35875,1,0,0:0:0:0:
329,192,35875,1,0,0:0:0:0:
109,192,36025,1,0,0:0:0:0:
256,192,36025,1,0,0:0:0:0:
329,192,36025,1,0,0:0:0:0:
402,192,36025,1,0,0:0:0:0:
329,192,36175,128,0,36700:0:0:0:0:
36,192,36175,128,0,36700:0:0:0:0:
182,192,36175,128,0,36700:0:0:0:0:
402,192,36175,1,0,0:0:0:0:
475,192,36175,1,0,0:0:0:0:
256,192,36475,1,0,0:0:0:0:
475,192,36475,1,0,0:0:0:0:
402,192,36475,1,0,0:0:0:0:
109,192,36475,1,0,0:0:0:0:
475,192,36625,1,0,0:0:0:0:
402,192,36625,1,0,0:0:0:0:
402,192,36700,1,0,0:0:0:0:
475,192,36700,1,0,0:0:0:0:
182,192,36775,1,0,0:0:0:0:
329,192,36775,1,0,0:0:0:0:
256,192,36775,1,0,0:0:0:0:
36,192,36775,1,0,0:0:0:0:
109,192,36775,1,0,0:0:0:0:
36,192,36925,1,0,0:0:0:0:
329,192,36925,1,0,0:0:0:0:
109,192,37000,1,0,0:0:0:0:
256,192,37000,1,0,0:0:0:0:
182,192,37075,1,0,0:0:0:0:
402,192,37075,1,0,0:0:0:0:
475,192,37075,1,0,0:0:0:0:
329,192,37150,1,0,0:0:0:0:
36,192,37225,1,0,0:0:0:0:
182,192,37225,1,0,0:0:0:0:
329,192,37300,1,0,0:0:0:0:
475,192,37300,1,0,0:0:0:0:
256,192,37375,1,0,0:0:0:0:
109,192,37375,1,0,0:0:0:0:
36,192,37375,1,0,0:0:0:0:
109,192,37525,1,0,0:0:0:0:
256,192,37525,1,0,0:0:0:0:
402,192,37525,1,0,0:0:0:0:
182,192,37675,1,0,0:0:0:0:
329,192,37675,1,0,0:0:0:0:
475,192,37675,1,0,0:0:0:0:
109,192,37750,1,0,0:0:0:0:
36,192,37750,1,0,0:0:0:0:
402,192,37825,1,0,0:0:0:0:
256,192,37825,1,0,0:0:0:0:
182,192,37900,1,0,0:0:0:0:
109,192,37900,1,0,0:0:0:0:
402,192,37975,1,0,0:0:0:0:
36,192,37975,1,0,0:0:0:0:
475,192,37975,1,0,0:0:0:0:
256,192,37975,1,0,0:0:0:0:
329,192,37975,1,0,0:0:0:0:
256,192,38125,1,0,0:0:0:0:
36,192,38125,1,0,0:0:0:0:
109,192,38200,1,0,0:0:0:0:
329,192,38200,1,0,0:0:0:0:
182,192,38275,1,0,0:0:0:0:
402,192,38275,1,0,0:0:0:0:
475,192,38275,1,0,0:0:0:0:
36,192,38350,1,0,0:0:0:0:
329,192,38425,1,0,0:0:0:0:
402,192,38425,1,0,0:0:0:0:
182,192,38500,1,0,0:0:0:0:
109,192,38500,1,0,0:0:0:0:
256,192,38575,1,0,0:0:0:0:
475,192,38575,1,0,0:0:0:0:
36,192,38575,1,0,0:0:0:0:
402,192,38650,1,0,0:0:0:0:
329,192,38725,1,0,0:0:0:0:
109,192,38725,1,0,0:0:0:0:
36,192,38725,1,0,0:0:0:0:
329,192,38875,1,0,0:0:0:0:
36,192,38875,1,0,0:0:0:0:
182,192,38875,1,0,0:0:0:0:
475,192,38950,1,0,0:0:0:0:
402,192,38950,1,0,0:0:0:0:
109,192,39025,1,0,0:0:0:0:
256,192,39025,1,0,0:0:0:0:
329,192,39100,1,0,0:0:0:0:
402,192,39100,1,0,0:0:0:0:
256,192,39175,1,0,0:0:0:0:
182,192,39175,1,0,0:0:0:0:
109,192,39175,1,0,0:0:0:0:
36,192,39175,1,0,0:0:0:0:
475,192,39175,1,0,0:0:0:0:
475,192,39325,1,0,0:0:0:0:
109,192,39325,1,0,0:0:0:0:
402,192,39400,1,0,0:0:0:0:
182,192,39400,1,0,0:0:0:0:
329,192,39475,1,0,0:0:0:0:
36,192,39475,1,0,0:0:0:0:
256,192,39475,1,0,0:0:0:0:
475,192,39550,1,0,0:0:0:0:
182,192,39625,1,0,0:0:0:0:
109,192,39625,1,0,0:0:0:0:
329,192,39700,1,0,0:0:0:0:
402,192,39700,1,0,0:0:0:0:
256,192,39775,1,0,0:0:0:0:
36,192,39775,1,0,0:0:0:0:
182,192,39775,1,0,0:0:0:0:
475,192,39775,1,0,0:0:0:0:
256,192,39925,1,0,0:0:0:0:
329,192,39925,1,0,0:0:0:0:
475,192,39925,1,0,0:0:0:0:
36,192,39925,1,0,0:0:0:0:
182,192,40075,1,0,0:0:0:0:
402,192,40075,1,0,0:0:0:0:
475,192,40075,1,0,0:0:0:0:
109,192,40150,1,0,0:0:0:0:
329,192,40150,1,0,0:0:0:0:
36,192,40225,1,0,0:0:0:0:
402,192,40225,1,0,0:0:0:0:
256,192,40225,1,0,0:0:0:0:
109,192,40300,1,0,0:0:0:0:
475,192,40300,1,0,0:0:0:0:
329,192,40375,128,0,40525:0:0:0:0:
256,192,40375,1,0,0:0:0:0:
182,192,40375,128,0,40675:0:0:0:0:
36,192,40525,128,0,40675:0:0:0:0:
475,192,40525,1,0,0:0:0:0:
109,192,40525,1,0,0:0:0:0:
402,192,40675,128,0,40825:0:0:0:0:
256,192,40675,128,0,40975:0:0:0:0:
329,192,40675,1,0,0:0:0:0:
475,192,40825,1,0,0:0:0:0:
109,192,40825,128,0,40975:0:0:0:0:
182,192,40825,1,0,0:0:0:0:
36,192,40975,1,0,0:0:0:0:
402,192,40975,1,0,0:0:0:0:
329,192,40975,128,0,41275:0:0:0:0:
475,192,40975,128,0,41275:0:0:0:0:
109,192,41050,1,0,0:0:0:0:
182,192,41125,1,0,0:0:0:0:
36,192,41200,1,0,0:0:0:0:
109,192,41275,1,0,0:0:0:0:
256,192,41275,1,0,0:0:0:0:
402,192,41275,1,0,0:0:0:0:
182,192,41350,1,0,0:0:0:0:
36,192,41350,1,0,0:0:0:0:
329,192,41425,1,0,0:0:0:0:
475,192,41425,1,0,0:0:0:0:
256,192,41500,1,0,0:0:0:0:
109,192,41500,1,0,0:0:0:0:
36,192,41575,1,0,0:0:0:0:
182,192,41575,1,0,0:0:0:0:
329,192,41575,1,0,0:0:0:0:
402,192,41575,1,0,0:0:0:0:
475,192,41575,1,0,0:0:0:0:
256,192,41725,1,0,0:0:0:0:
402,192,41725,1,0,0:0:0:0:
475,192,41800,1,0,0:0:0:0:
182,192,41800,1,0,0:0:0:0:
329,192,41875,1,0,0:0:0:0:
109,192,41875,1,0,0:0:0:0:
36,192,41875,1,0,0:0:0:0:
182,192,41950,1,0,0:0:0:0:
402,192,42025,1,0,0:0:0:0:
256,192,42025,1,0,0:0:0:0:
109,192,42100,1,0,0:0:0:0:
36,192,42100,1,0,0:0:0:0:
182,192,42175,1,0,0:0:0:0:
329,192,42175,1,0,0:0:0:0:
475,192,42175,1,0,0:0:0:0:
329,192,42325,1,0,0:0:0:0:
182,192,42325,1,0,0:0:0:0:
36,192,42325,1,0,0:0:0:0:
329,192,42475,1,0,0:0:0:0:
36,192,42475,1,0,0:0:0:0:
182,192,42475,1,0,0:0:0:0:
475,192,42550,1,0,0:0:0:0:
402,192,42550,1,0,0:0:0:0:
109,192,42625,1,0,0:0:0:0:
256,192,42625,1,0,0:0:0:0:
329,192,42700,1,0,0:0:0:0:
402,192,42700,1,0,0:0:0:0:
256,192,42775,1,0,0:0:0:0:
182,192,42775,1,0,0:0:0:0:
36,192,42775,1,0,0:0:0:0:
109,192,42775,1,0,0:0:0:0:
475,192,42775,1,0,0:0:0:0:
109,192,42925,1,0,0:0:0:0:
256,192,42925,1,0,0:0:0:0:
36,192,43000,1,0,0:0:0:0:
329,192,43000,1,0,0:0:0:0:
402,192,43075,1,0,0:0:0:0:
475,192,43075,1,0,0:0:0:0:
182,192,43075,1,0,0:0:0:0:
329,192,43150,1,0,0:0:0:0:
109,192,43225,1,0,0:0:0:0:
256,192,43225,1,0,0:0:0:0:
475,192,43300,1,0,0:0:0:0:
402,192,43300,1,0,0:0:0:0:
329,192,43375,1,0,0:0:0:0:
36,192,43375,1,0,0:0:0:0:
182,192,43375,1,0,0:0:0:0:
329,192,43525,1,0,0:0:0:0:
182,192,43525,1,0,0:0:0:0:
475,192,43525,1,0,0:0:0:0:
329,192,43675,1,0,0:0:0:0:
475,192,43675,1,0,0:0:0:0:
182,192,43675,1,0,0:0:0:0:
109,192,43750,1,0,0:0:0:0:
36,192,43750,1,0,0:0:0:0:
256,192,43825,1,0,0:0:0:0:
402,192,43825,1,0,0:0:0:0:
109,192,43900,1,0,0:0:0:0:
182,192,43900,1,0,0:0:0:0:
36,192,43975,1,0,0:0:0:0:
256,192,43975,1,0,0:0:0:0:
329,192,43975,1,0,0:0:0:0:
402,192,43975,1,0,0:0:0:0:
475,192,43975,1,0,0:0:0:0:
36,192,44125,1,0,0:0:0:0:
329,192,44125,1,0,0:0:0:0:
109,192,44200,1,0,0:0:0:0:
402,192,44200,1,0,0:0:0:0:
182,192,44275,1,0,0:0:0:0:
256,192,44275,1,0,0:0:0:0:
475,192,44275,1,0,0:0:0:0:
36,192,44350,1,0,0:0:0:0:
329,192,44425,1,0,0:0:0:0:
402,192,44425,1,0,0:0:0:0:
182,192,44500,1,0,0:0:0:0:
109,192,44500,1,0,0:0:0:0:
256,192,44575,1,0,0:0:0:0:
475,192,44575,1,0,0:0:0:0:
36,192,44575,1,0,0:0:0:0:
402,192,44725,1,0,0:0:0:0:
109,192,44725,1,0,0:0:0:0:
256,192,44725,1,0,0:0:0:0:
329,192,44875,1,0,0:0:0:0:
475,192,44875,1,0,0:0:0:0:
182,192,44875,1,0,0:0:0:0:
109,192,44950,1,0,0:0:0:0:
256,192,44950,1,0,0:0:0:0:
402,192,44950,1,0,0:0:0:0:
329,192,45025,1,0,0:0:0:0:
182,192,45025,1,0,0:0:0:0:
36,192,45025,1,0,0:0:0:0:
329,192,45175,1,0,0:0:0:0:
475,192,45175,1,0,0:0:0:0:
402,192,45175,1,0,0:0:0:0:
36,192,45175,1,0,0:0:0:0:
182,192,45175,128,0,45625:0:0:0:0:
329,192,45325,128,0,45475:0:0:0:0:
475,192,45325,128,0,45475:0:0:0:0:
36,192,45325,1,0,0:0:0:0:
109,192,45400,1,0,0:0:0:0:
402,192,45475,1,0,0:0:0:0:
256,192,45475,1,0,0:0:0:0:
36,192,45475,128,0,45925:0:0:0:0:
402,192,45625,128,0,45775:0:0:0:0:
256,192,45625,128,0,45775:0:0:0:0:
475,192,45775,1,0,0:0:0:0:
329,192,45775,1,0,0:0:0:0:
182,192,45775,1,0,0:0:0:0:
402,192,45850,1,0,0:0:0:0:
256,192,45850,1,0,0:0:0:0:
182,192,45925,1,0,0:0:0:0:
329,192,45925,128,0,46300:0:0:0:0:
475,192,45925,128,0,46300:0:0:0:0:
36,192,46000,1,0,0:0:0:0:
256,192,46075,1,0,0:0:0:0:
109,192,46075,1,0,0:0:0:0:
402,192,46075,1,0,0:0:0:0:
36,192,46150,1,0,0:0:0:0:
182,192,46225,1,0,0:0:0:0:
256,192,46300,1,0,0:0:0:0:
329,192,46375,1,0,0:0:0:0:
402,192,46375,1,0,0:0:0:0:
475,192,46375,1,0,0:0:0:0:
36,192,46375,128,0,46450:0:0:0:0:
109,192,46525,128,0,46600:0:0:0:0:
329,192,46525,1,0,0:0:0:0:
182,192,46675,128,0,46750:0:0:0:0:
329,192,46675,1,0,0:0:0:0:
475,192,46675,1,0,0:0:0:0:
36,192,46825,128,0,46900:0:0:0:0:
109,192,46975,128,0,47050:0:0:0:0:
475,192,46975,1,0,0:0:0:0:
329,192,46975,1,0,0:0:0:0:
182,192,47125,128,0,47200:0:0:0:0:
402,192,47125,1,0,0:0:0:0:
475,192,47125,1,0,0:0:0:0:
256,192,47200,1,0,0:0:0:0:
329,192,47200,1,0,0:0:0:0:
36,192,47275,128,0,47350:0:0:0:0:
402,192,47275,1,0,0:0:0:0:
475,192,47275,1,0,0:0:0:0:
109,192,47425,128,0,47500:0:0:0:0:
329,192,47425,1,0,0:0:0:0:
475,192,47425,1,0,0:0:0:0:
182,192,47575,128,0,47650:0:0:0:0:
36,192,47725,128,0,47800:0:0:0:0:
329,192,47725,1,0,0:0:0:0:
475,192,47725,1,0,0:0:0:0:
109,192,47875,128,0,47950:0:0:0:0:
256,192,47875,1,0,0:0:0:0:
402,192,47875,1,0,0:0:0:0:
475,192,47950,1,0,0:0:0:0:
182,192,48025,128,0,48100:0:0:0:0:
329,192,48025,1,0,0:0:0:0:
402,192,48100,1,0,0:0:0:0:
36,192,48175,128,0,48250:0:0:0:0:
256,192,48175,1,0,0:0:0:0:
402,192,48250,1,0,0:0:0:0:
329,192,48325,1,0,0:0:0:0:
182,192,48325,1,0,0:0:0:0:
256,192,48475,128,0,48775:0:0:0:0:
182,192,48775,1,0,0:0:0:0:
36,192,48775,1,0,0:0:0:0:
475,192,48775,128,0,48850:0:0:0:0:
402,192,48925,128,0,49000:0:0:0:0:
182,192,48925,1,0,0:0:0:0:
329,192,49075,128,0,49150:0:0:0:0:
182,192,49075,1,0,0:0:0:0:
36,192,49075,1,0,0:0:0:0:
475,192,49225,128,0,49300:0:0:0:0:
402,192,49375,128,0,49450:0:0:0:0:
36,192,49375,1,0,0:0:0:0:
182,192,49375,1,0,0:0:0:0:
329,192,49525,128,0,49600:0:0:0:0:
109,192,49525,1,0,0:0:0:0:
36,192,49525,1,0,0:0:0:0:
256,192,49600,1,0,0:0:0:0:
182,192,49600,1,0,0:0:0:0:
475,192,49675,128,0,49750:0:0:0:0:
109,192,49675,1,0,0:0:0:0:
36,192,49675,1,0,0:0:0:0:
402,192,49825,128,0,49900:0:0:0:0:
182,192,49825,1,0,0:0:0:0:
36,192,49825,1,0,0:0:0:0:
329,192,49975,128,0,50050:0:0:0:0:
475,192,50125,128,0,50200:0:0:0:0:
182,192,50125,1,0,0:0:0:0:
36,192,50125,1,0,0:0:0:0:
402,192,50275,128,0,50350:0:0:0:0:
256,192,50275,1,0,0:0:0:0:
109,192,50275,1,0,0:0:0:0:
36,192,50350,1,0,0:0:0:0:
329,192,50425,128,0,50500:0:0:0:0:
182,192,50425,1,0,0:0:0:0:
109,192,50500,1,0,0:0:0:0:
475,192,50575,128,0,50650:0:0:0:0:
256,192,50575,1,0,0:0:0:0:
109,192,50650,1,0,0:0:0:0:
182,192,50725,1,0,0:0:0:0:
329,192,50725,1,0,0:0:0:0:
402,192,50800,1,0,0:0:0:0:
256,192,50875,1,0,0:0:0:0:
402,192,51175,1,0,0:0:0:0:
475,192,51175,1,0,0:0:0:0:
36,192,51175,128,0,51250:0:0:0:0:
109,192,51250,128,0,51325:0:0:0:0:
329,192,51250,1,0,0:0:0:0:
256,192,51325,128,0,51400:0:0:0:0:
402,192,51325,1,0,0:0:0:0:
475,192,51400,1,0,0:0:0:0:
182,192,51400,128,0,51475:0:0:0:0:
36,192,51475,1,0,0:0:0:0:
109,192,51475,128,0,51550:0:0:0:0:
329,192,51475,1,0,0:0:0:0:
182,192,51550,128,0,51625:0:0:0:0:
329,192,51625,128,0,51700:0:0:0:0:
475,192,51625,1,0,0:0:0:0:
256,192,51700,128,0,51775:0:0:0:0:
36,192,51700,1,0,0:0:0:0:
182,192,51775,128,0,51850:0:0:0:0:
36,192,51850,1,0,0:0:0:0:
256,192,51850,128,0,51925:0:0:0:0:
109,192,51925,1,0,0:0:0:0:
402,192,51925,128,0,52000:0:0:0:0:
182,192,52000,1,0,0:0:0:0:
329,192,52000,128,0,52075:0:0:0:0:
36,192,52075,1,0,0:0:0:0:
256,192,52075,128,0,52150:0:0:0:0:
475,192,52075,1,0,0:0:0:0:
329,192,52150,128,0,52225:0:0:0:0:
182,192,52225,1,0,0:0:0:0:
475,192,52225,128,0,52300:0:0:0:0:
36,192,52225,1,0,0:0:0:0:
402,192,52300,128,0,52375:0:0:0:0:
329,192,52375,1,0,0:0:0:0:
475,192,52375,1,0,0:0:0:0:
256,192,52375,1,0,0:0:0:0:
109,192,52375,1,0,0:0:0:0:
36,192,52375,1,0,0:0:0:0:
182,192,52525,1,0,0:0:0:0:
402,192,52525,1,0,0:0:0:0:
109,192,52600,1,0,0:0:0:0:
36,192,52600,1,0,0:0:0:0:
329,192,52600,1,0,0:0:0:0:
475,192,52600,1,0,0:0:0:0:
256,192,52675,1,0,0:0:0:0:
109,192,52750,1,0,0:0:0:0:
36,192,52750,1,0,0:0:0:0:
329,192,52825,1,0,0:0:0:0:
475,192,52825,1,0,0:0:0:0:
256,192,52900,1,0,0:0:0:0:
109,192,52900,1,0,0:0:0:0:
36,192,52900,1,0,0:0:0:0:
402,192,52900,1,0,0:0:0:0:
475,192,52975,1,0,0:0:0:0:
182,192,53050,1,0,0:0:0:0:
36,192,53050,1,0,0:0:0:0:
109,192,53125,1,0,0:0:0:0:
256,192,53125,1,0,0:0:0:0:
402,192,53125,1,0,0:0:0:0:
475,192,53125,1,0,0:0:0:0:
329,192,53200,1,0,0:0:0:0:
182,192,53275,1,0,0:0:0:0:
36,192,53275,1,0,0:0:0:0:
109,192,53275,1,0,0:0:0:0:
475,192,53275,1,0,0:0:0:0:
402,192,53275,1,0,0:0:0:0:
329,192,53425,1,0,0:0:0:0:
475,192,53425,1,0,0:0:0:0:
36,192,53425,1,0,0:0:0:0:
109,192,53425,1,0,0:0:0:0:
402,192,53575,1,0,0:0:0:0:
475,192,53575,1,0,0:0:0:0:
256,192,53575,1,0,0:0:0:0:
182,192,53575,1,0,0:0:0:0:
36,192,53575,1,0,0:0:0:0:
109,192,53725,1,0,0:0:0:0:
329,192,53725,1,0,0:0:0:0:
182,192,53800,1,0,0:0:0:0:
36,192,53800,1,0,0:0:0:0:
402,192,53800,1,0,0:0:0:0:
475,192,53800,1,0,0:0:0:0:
256,192,53875,1,0,0:0:0:0:
475,192,53950,1,0,0:0:0:0:
402,192,53950,1,0,0:0:0:0:
36,192,54025,1,0,0:0:0:0:
182,192,54025,1,0,0:0:0:0:
475,192,54100,1,0,0:0:0:0:
109,192,54100,1,0,0:0:0:0:
256,192,54100,1,0,0:0:0:0:
402,192,54100,1,0,0:0:0:0:
36,192,54175,1,0,0:0:0:0:
475,192,54250,1,0,0:0:0:0:
329,192,54250,1,0,0:0:0:0:
109,192,54325,1,0,0:0:0:0:
36,192,54325,1,0,0:0:0:0:
402,192,54325,1,0,0:0:0:0:
256,192,54325,1,0,0:0:0:0:
182,192,54400,1,0,0:0:0:0:
36,192,54475,1,0,0:0:0:0:
109,192,54475,1,0,0:0:0:0:
402,192,54475,1,0,0:0:0:0:
329,192,54475,1,0,0:0:0:0:
475,192,54475,1,0,0:0:0:0:
475,192,54625,1,0,0:0:0:0:
182,192,54625,1,0,0:0:0:0:
36,192,54625,1,0,0:0:0:0:
256,192,54625,1,0,0:0:0:0:
402,192,54625,1,0,0:0:0:0:
329,192,54775,1,0,0:0:0:0:
475,192,54775,1,0,0:0:0:0:
256,192,54775,1,0,0:0:0:0:
109,192,54775,1,0,0:0:0:0:
36,192,54775,1,0,0:0:0:0:
182,192,54925,1,0,0:0:0:0:
329,192,54925,1,0,0:0:0:0:
109,192,55000,1,0,0:0:0:0:
36,192,55000,1,0,0:0:0:0:
402,192,55000,1,0,0:0:0:0:
475,192,55000,1,0,0:0:0:0:
256,192,55075,1,0,0:0:0:0:
182,192,55150,1,0,0:0:0:0:
36,192,55150,1,0,0:0:0:0:
402,192,55225,1,0,0:0:0:0:
475,192,55225,1,0,0:0:0:0:
182,192,55300,1,0,0:0:0:0:
109,192,55300,1,0,0:0:0:0:
36,192,55300,1,0,0:0:0:0:
329,192,55300,1,0,0:0:0:0:
475,192,55375,1,0,0:0:0:0:
109,192,55450,1,0,0:0:0:0:
36,192,55450,1,0,0:0:0:0:
182,192,55525,1,0,0:0:0:0:
329,192,55525,1,0,0:0:0:0:
402,192,55525,1,0,0:0:0:0:
475,192,55525,1,0,0:0:0:0:
36,192,55600,1,0,0:0:0:0:
109,192,55675,1,0,0:0:0:0:
256,192,55675,1,0,0:0:0:0:
402,192,55675,1,0,0:0:0:0:
475,192,55675,1,0,0:0:0:0:
402,192,55825,1,0,0:0:0:0:
256,192,55825,1,0,0:0:0:0:
109,192,55825,1,0,0:0:0:0:
36,192,55825,1,0,0:0:0:0:
36,192,55975,1,0,0:0:0:0:
402,192,55975,1,0,0:0:0:0:
475,192,55975,1,0,0:0:0:0:
256,192,55975,1,0,0:0:0:0:
329,192,55975,1,0,0:0:0:0:
109,192,56050,1,0,0:0:0:0:
329,192,56125,1,0,0:0:0:0:
402,192,56125,1,0,0:0:0:0:
182,192,56125,1,0,0:0:0:0:
475,192,56200,1,0,0:0:0:0:
109,192,56275,1,0,0:0:0:0:
256,192,56275,1,0,0:0:0:0:
329,192,56275,1,0,0:0:0:0:
402,192,56350,1,0,0:0:0:0:
182,192,56425,1,0,0:0:0:0:
256,192,56425,1,0,0:0:0:0:
36,192,56425,1,0,0:0:0:0:
329,192,56500,1,0,0:0:0:0:
182,192,56575,1,0,0:0:0:0:
36,192,56575,1,0,0:0:0:0:
475,192,56575,1,0,0:0:0:0:
109,192,56650,1,0,0:0:0:0:
256,192,56650,1,0,0:0:0:0:
402,192,56650,1,0,0:0:0:0:
329,192,56725,1,0,0:0:0:0:
475,192,56725,1,0,0:0:0:0:
36,192,56725,1,0,0:0:0:0:
182,192,56800,1,0,0:0:0:0:
256,192,56875,1,0,0:0:0:0:
402,192,56875,1,0,0:0:0:0:
475,192,56875,1,0,0:0:0:0:
109,192,56875,1,0,0:0:0:0:
36,192,56875,1,0,0:0:0:0:
36,192,57025,1,0,0:0:0:0:
182,192,57025,1,0,0:0:0:0:
256,192,57025,1,0,0:0:0:0:
329,192,57025,1,0,0:0:0:0:
475,192,57025,1,0,0:0:0:0:
182,192,57175,1,0,0:0:0:0:
36,192,57175,1,0,0:0:0:0:
256,192,57175,1,0,0:0:0:0:
402,192,57175,1,0,0:0:0:0:
475,192,57175,1,0,0:0:0:0:
329,192,57325,1,0,0:0:0:0:
182,192,57325,1,0,0:0:0:0:
402,192,57400,1,0,0:0:0:0:
475,192,57400,1,0,0:0:0:0:
109,192,57400,1,0,0:0:0:0:
36,192,57400,1,0,0:0:0:0:
256,192,57475,1,0,0:0:0:0:
329,192,57550,1,0,0:0:0:0:
475,192,57550,1,0,0:0:0:0:
109,192,57625,1,0,0:0:0:0:
36,192,57625,1,0,0:0:0:0:
329,192,57700,1,0,0:0:0:0:
402,192,57700,1,0,0:0:0:0:
475,192,57700,1,0,0:0:0:0:
182,192,57700,1,0,0:0:0:0:
36,192,57775,1,0,0:0:0:0:
402,192,57850,1,0,0:0:0:0:
475,192,57850,1,0,0:0:0:0:
329,192,57925,1,0,0:0:0:0:
182,192,57925,1,0,0:0:0:0:
109,192,57925,1,0,0:0:0:0:
36,192,57925,1,0,0:0:0:0:
475,192,58000,1,0,0:0:0:0:
402,192,58075,1,0,0:0:0:0:
256,192,58075,1,0,0:0:0:0:
109,192,58075,1,0,0:0:0:0:
36,192,58075,1,0,0:0:0:0:
109,192,58225,1,0,0:0:0:0:
256,192,58225,1,0,0:0:0:0:
402,192,58225,1,0,0:0:0:0:
475,192,58225,1,0,0:0:0:0:
182,192,58375,1,0,0:0:0:0:
329,192,58375,1,0,0:0:0:0:
402,192,58375,1,0,0:0:0:0:
475,192,58375,1,0,0:0:0:0:
36,192,58375,1,0,0:0:0:0:
182,192,58525,1,0,0:0:0:0:
36,192,58525,1,0,0:0:0:0:
109,192,58600,1,0,0:0:0:0:
256,192,58600,1,0,0:0:0:0:
182,192,58675,1,0,0:0:0:0:
329,192,58675,1,0,0:0:0:0:
475,192,58675,1,0,0:0:0:0:
36,192,58750,1,0,0:0:0:0:
109,192,58750,1,0,0:0:0:0:
256,192,58825,1,0,0:0:0:0:
475,192,58825,1,0,0:0:0:0:
402,192,58825,1,0,0:0:0:0:
182,192,58900,1,0,0:0:0:0:
109,192,58900,1,0,0:0:0:0:
329,192,58975,1,0,0:0:0:0:
402,192,58975,1,0,0:0:0:0:
475,192,58975,1,0,0:0:0:0:
36,192,58975,1,0,0:0:0:0:
256,192,58975,1,0,0:0:0:0:
109,192,59050,1,0,0:0:0:0:
182,192,59125,1,0,0:0:0:0:
256,192,59125,1,0,0:0:0:0:
329,192,59125,1,0,0:0:0:0:
475,192,59125,1,0,0:0:0:0:
36,192,59200,1,0,0:0:0:0:
109,192,59275,1,0,0:0:0:0:
182,192,59275,1,0,0:0:0:0:
256,192,59275,1,0,0:0:0:0:
402,192,59275,1,0,0:0:0:0:
475,192,59350,1,0,0:0:0:0:
182,192,59425,1,0,0:0:0:0:
109,192,59425,1,0,0:0:0:0:
36,192,59425,1,0,0:0:0:0:
329,192,59425,1,0,0:0:0:0:
402,192,59500,1,0,0:0:0:0:
256,192,59575,1,0,0:0:0:0:
182,192,59575,1,0,0:0:0:0:
109,192,59575,1,0,0:0:0:0:
36,192,59575,1,0,0:0:0:0:
475,192,59575,1,0,0:0:0:0:
109,192,59800,1,0,0:0:0:0:
36,192,59800,1,0,0:0:0:0:
256,192,59800,1,0,0:0:0:0:
329,192,59875,1,0,0:0:0:0:
402,192,59875,1,0,0:0:0:0:
475,192,59875,1,0,0:0:0:0:
182,192,59875,1,0,0:0:0:0:
182,192,60025,1,0,0:0:0:0:
109,192,60025,1,0,0:0:0:0:
36,192,60025,1,0,0:0:0:0:
256,192,60025,1,0,0:0:0:0:
475,192,60025,1,0,0:0:0:0:
256,192,60175,1,0,0:0:0:0:
329,192,60175,1,0,0:0:0:0:
402,192,60175,1,0,0:0:0:0:
36,192,60175,1,0,0:0:0:0:
109,192,60175,1,0,0:0:0:0:
402,192,60475,1,0,0:0:0:0:
256,192,60475,1,0,0:0:0:0:
109,192,60475,1,0,0:0:0:0:
36,192,60475,1,0,0:0:0:0:
475,192,60625,1,0,0:0:0:0:
329,192,60625,1,0,0:0:0:0:
256,192,60625,1,0,0:0:0:0:
402,192,60625,1,0,0:0:0:0:
36,192,60775,1,0,0:0:0:0:
109,192,60775,1,0,0:0:0:0:
182,192,60775,1,0,0:0:0:0:
475,192,60775,128,0,61300:0:0:0:0:
182,192,60925,1,0,0:0:0:0:
109,192,60925,1,0,0:0:0:0:
36,192,60925,1,0,0:0:0:0:
402,192,60925,128,0,61150:0:0:0:0:
109,192,61075,1,0,0:0:0:0:
36,192,61075,1,0,0:0:0:0:
182,192,61075,1,0,0:0:0:0:
329,192,61075,128,0,61675:0:0:0:0:
402,192,61225,128,0,61675:0:0:0:0:
182,192,61375,1,0,0:0:0:0:
109,192,61375,1,0,0:0:0:0:
36,192,61375,1,0,0:0:0:0:
475,192,61375,128,0,61675:0:0:0:0:
182,192,61675,1,0,0:0:0:0:
109,192,61675,1,0,0:0:0:0:
36,192,61675,1,0,0:0:0:0:
329,192,61750,1,0,0:0:0:0:
402,192,61750,1,0,0:0:0:0:
475,192,61750,1,0,0:0:0:0:
182,192,61825,1,0,0:0:0:0:
109,192,61825,1,0,0:0:0:0:
36,192,61825,1,0,0:0:0:0:
329,192,61900,1,0,0:0:0:0:
402,192,61900,1,0,0:0:0:0:
475,192,61900,1,0,0:0:0:0:
475,192,61975,1,0,0:0:0:0:
402,192,61975,1,0,0:0:0:0:
329,192,61975,1,0,0:0:0:0:
182,192,61975,1,0,0:0:0:0:
36,192,61975,1,0,0:0:0:0:
109,192,62050,1,0,0:0:0:0:
475,192,62125,128,0,62275:0:0:0:0:
329,192,62125,1,0,0:0:0:0:
256,192,62200,1,0,0:0:0:0:
182,192,62275,1,0,0:0:0:0:
36,192,62275,1,0,0:0:0:0:
109,192,62275,1,0,0:0:0:0:
402,192,62350,1,0,0:0:0:0:
182,192,62425,128,0,62575:0:0:0:0:
36,192,62425,1,0,0:0:0:0:
402,192,62500,1,0,0:0:0:0:
329,192,62575,1,0,0:0:0:0:
475,192,62575,1,0,0:0:0:0:
109,192,62650,1,0,0:0:0:0:
329,192,62725,128,0,62875:0:0:0:0:
475,192,62725,1,0,0:0:0:0:
256,192,62800,1,0,0:0:0:0:
36,192,62875,1,0,0:0:0:0:
182,192,62875,1,0,0:0:0:0:
109,192,62875,1,0,0:0:0:0:
402,192,62950,1,0,0:0:0:0:
36,192,63025,128,0,63175:0:0:0:0:
182,192,63025,1,0,0:0:0:0:
256,192,63100,1,0,0:0:0:0:
329,192,63175,1,0,0:0:0:0:
402,192,63175,1,0,0:0:0:0:
182,192,63325,1,0,0:0:0:0:
109,192,63325,1,0,0:0:0:0:
36,192,63400,1,0,0:0:0:0:
256,192,63400,1,0,0:0:0:0:
182,192,63475,1,0,0:0:0:0:
109,192,63475,1,0,0:0:0:0:
109,192,63625,1,0,0:0:0:0:
36,192,63625,1,0,0:0:0:0:
402,192,63625,1,0,0:0:0:0:
329,192,63700,1,0,0:0:0:0:
109,192,63775,1,0,0:0:0:0:
182,192,63775,1,0,0:0:0:0:
475,192,63775,1,0,0:0:0:0:
402,192,63850,1,0,0:0:0:0:
256,192,63925,1,0,0:0:0:0:
182,192,63925,1,0,0:0:0:0:
36,192,63925,1,0,0:0:0:0:
256,192,64075,1,0,0:0:0:0:
36,192,64375,1,0,0:0:0:0:
109,192,64375,1,0,0:0:0:0:
182,192,64375,1,0,0:0:0:0:
329,192,64375,1,0,0:0:0:0:
475,192,64375,1,0,0:0:0:0:
402,192,64450,1,0,0:0:0:0:
36,192,64525,128,0,64675:0:0:0:0:
182,192,64525,1,0,0:0:0:0:
256,192,64600,1,0,0:0:0:0:
329,192,64675,1,0,0:0:0:0:
475,192,64675,1,0,0:0:0:0:
402,192,64675,1,0,0:0:0:0:
109,192,64750,1,0,0:0:0:0:
329,192,64825,128,0,64975:0:0:0:0:
475,192,64825,1,0,0:0:0:0:
109,192,64900,1,0,0:0:0:0:
182,192,64975,1,0,0:0:0:0:
36,192,64975,1,0,0:0:0:0:
402,192,65050,1,0,0:0:0:0:
182,192,65125,128,0,65275:0:0:0:0:
36,192,65125,1,0,0:0:0:0:
256,192,65200,1,0,0:0:0:0:
475,192,65275,1,0,0:0:0:0:
329,192,65275,1,0,0:0:0:0:
402,192,65275,1,0,0:0:0:0:
109,192,65350,1,0,0:0:0:0:
475,192,65425,128,0,65575:0:0:0:0:
329,192,65425,1,0,0:0:0:0:
256,192,65500,1,0,0:0:0:0:
182,192,65575,1,0,0:0:0:0:
36,192,65575,1,0,0:0:0:0:
182,192,65650,1,0,0:0:0:0:
329,192,65650,1,0,0:0:0:0:
475,192,65650,1,0,0:0:0:0:
182,192,65800,1,0,0:0:0:0:
329,192,65800,1,0,0:0:0:0:
329,192,65875,1,0,0:0:0:0:
475,192,65875,1,0,0:0:0:0:
36,192,65875,1,0,0:0:0:0:
36,192,66025,1,0,0:0:0:0:
329,192,66025,1,0,0:0:0:0:
402,192,66100,1,0,0:0:0:0:
109,192,66100,1,0,0:0:0:0:
182,192,66175,1,0,0:0:0:0:
475,192,66175,1,0,0:0:0:0:
256,192,66175,1,0,0:0:0:0:
256,192,66325,1,0,0:0:0:0:
182,192,66325,1,0,0:0:0:0:
475,192,66325,1,0,0:0:0:0:
109,192,66400,1,0,0:0:0:0:
36,192,66400,1,0,0:0:0:0:
402,192,66400,1,0,0:0:0:0:
182,192,66475,1,0,0:0:0:0:
256,192,66475,1,0,0:0:0:0:
475,192,66475,1,0,0:0:0:0:
329,192,66550,1,0,0:0:0:0:
109,192,66550,1,0,0:0:0:0:
36,192,66550,1,0,0:0:0:0:
402,192,66625,1,0,0:0:0:0:
475,192,66625,1,0,0:0:0:0:
182,192,66625,1,0,0:0:0:0:
109,192,66700,1,0,0:0:0:0:
36,192,66700,1,0,0:0:0:0:
256,192,66700,1,0,0:0:0:0:
402,192,66775,128,0,67975:0:0:0:0:
475,192,66775,1,0,0:0:0:0:
329,192,66775,1,0,0:0:0:0:
182,192,66775,128,0,67900:0:0:0:0:
256,192,66925,1,0,0:0:0:0:
36,192,67075,1,0,0:0:0:0:
109,192,67075,1,0,0:0:0:0:
475,192,67075,1,0,0:0:0:0:
329,192,67225,1,0,0:0:0:0:
256,192,67300,1,0,0:0:0:0:
36,192,67375,1,0,0:0:0:0:
475,192,67375,1,0,0:0:0:0:
329,192,67450,1,0,0:0:0:0:
109,192,67525,1,0,0:0:0:0:
256,192,67600,1,0,0:0:0:0:
329,192,67675,1,0,0:0:0:0:
36,192,67675,1,0,0:0:0:0:
475,192,67675,1,0,0:0:0:0:
329,192,67825,1,0,0:0:0:0:
36,192,67825,1,0,0:0:0:0:
109,192,67900,1,0,0:0:0:0:
256,192,67900,1,0,0:0:0:0:
475,192,67975,1,0,0:0:0:0:
182,192,67975,128,0,68050:0:0:0:0:
36,192,67975,128,0,68050:0:0:0:0:
182,192,68125,1,0,0:0:0:0:
36,192,68125,1,0,0:0:0:0:
402,192,68275,1,0,0:0:0:0:
256,192,68275,128,0,68350:0:0:0:0:
109,192,68275,128,0,68350:0:0:0:0:
109,192,68425,1,0,0:0:0:0:
256,192,68425,1,0,0:0:0:0:
182,192,68575,128,0,68650:0:0:0:0:
329,192,68575,128,0,68650:0:0:0:0:
475,192,68575,1,0,0:0:0:0:
182,192,68725,1,0,0:0:0:0:
329,192,68725,1,0,0:0:0:0:
256,192,68875,128,0,68950:0:0:0:0:
402,192,68875,128,0,68950:0:0:0:0:
36,192,68875,1,0,0:0:0:0:
256,192,69175,1,0,0:0:0:0:
36,192,69175,1,0,0:0:0:0:
402,192,69175,1,0,0:0:0:0:
475,192,69175,1,0,0:0:0:0:
329,192,69175,1,0,0:0:0:0:
182,192,69250,1,0,0:0:0:0:
109,192,69250,1,0,0:0:0:0:
402,192,69325,1,0,0:0:0:0:
329,192,69325,1,0,0:0:0:0:
182,192,69400,1,0,0:0:0:0:
109,192,69400,1,0,0:0:0:0:
256,192,69475,1,0,0:0:0:0:
475,192,69475,1,0,0:0:0:0:
36,192,69475,1,0,0:0:0:0:
402,192,69475,1,0,0:0:0:0:
182,192,69550,1,0,0:0:0:0:
329,192,69550,1,0,0:0:0:0:
36,192,69625,1,0,0:0:0:0:
475,192,69625,1,0,0:0:0:0:
109,192,69625,1,0,0:0:0:0:
256,192,69700,1,0,0:0:0:0:
402,192,69700,1,0,0:0:0:0:
109,192,69775,1,0,0:0:0:0:
36,192,69775,1,0,0:0:0:0:
475,192,69775,1,0,0:0:0:0:
182,192,69775,1,0,0:0:0:0:
329,192,69850,1,0,0:0:0:0:
256,192,69850,1,0,0:0:0:0:
109,192,69925,1,0,0:0:0:0:
402,192,69925,1,0,0:0:0:0:
256,192,70000,1,0,0:0:0:0:
182,192,70000,1,0,0:0:0:0:
329,192,70075,1,0,0:0:0:0:
36,192,70075,1,0,0:0:0:0:
109,192,70075,1,0,0:0:0:0:
475,192,70075,1,0,0:0:0:0:
182,192,70150,1,0,0:0:0:0:
402,192,70150,1,0,0:0:0:0:
256,192,70225,1,0,0:0:0:0:
475,192,70225,1,0,0:0:0:0:
36,192,70225,1,0,0:0:0:0:
109,192,70300,1,0,0:0:0:0:
329,192,70300,1,0,0:0:0:0:
182,192,70375,1,0,0:0:0:0:
256,192,70375,1,0,0:0:0:0:
475,192,70375,1,0,0:0:0:0:
402,192,70375,1,0,0:0:0:0:
36,192,70375,1,0,0:0:0:0:
475,192,70525,1,0,0:0:0:0:
256,192,70525,1,0,0:0:0:0:
256,192,70600,1,0,0:0:0:0:
475,192,70600,1,0,0:0:0:0:
402,192,70675,1,0,0:0:0:0:
182,192,70675,1,0,0:0:0:0:
36,192,70675,1,0,0:0:0:0:
329,192,70825,1,0,0:0:0:0:
475,192,70825,1,0,0:0:0:0:
182,192,70825,1,0,0:0:0:0:
329,192,70900,1,0,0:0:0:0:
182,192,70900,1,0,0:0:0:0:
109,192,70900,1,0,0:0:0:0:
36,192,70900,1,0,0:0:0:0:
256,192,71050,1,0,0:0:0:0:
182,192,71050,1,0,0:0:0:0:
109,192,71050,1,0,0:0:0:0:
475,192,71050,1,0,0:0:0:0:
36,192,71125,1,0,0:0:0:0:
402,192,71125,1,0,0:0:0:0:
329,192,71200,1,0,0:0:0:0:
256,192,71200,1,0,0:0:0:0:
182,192,71200,1,0,0:0:0:0:
475,192,71200,1,0,0:0:0:0:
182,192,71275,1,0,0:0:0:0:
109,192,71275,1,0,0:0:0:0:
36,192,71275,1,0,0:0:0:0:
329,192,71275,1,0,0:0:0:0:
36,192,71425,1,0,0:0:0:0:
475,192,71425,1,0,0:0:0:0:
109,192,71462,1,0,0:0:0:0:
402,192,71462,1,0,0:0:0:0:
182,192,71500,1,0,0:0:0:0:
329,192,71500,1,0,0:0:0:0:
256,192,71537,1,0,0:0:0:0:
475,192,71575,1,0,0:0:0:0:
109,192,71575,1,0,0:0:0:0:
36,192,71575,1,0,0:0:0:0:
402,192,71575,1,0,0:0:0:0:
36,192,72175,1,0,0:0:0:0:
329,192,72175,1,0,0:0:0:0:
109,192,72400,1,0,0:0:0:0:
402,192,72400,1,0,0:0:0:0:
182,192,72625,1,0,0:0:0:0:
475,192,72625,1,0,0:0:0:0:
182,192,72775,1,0,0:0:0:0:
475,192,72775,1,0,0:0:0:0:
109,192,73375,1,0,0:0:0:0:
402,192,73375,1,0,0:0:0:0:
182,192,73600,1,0,0:0:0:0:
475,192,73600,1,0,0:0:0:0:
329,192,73825,1,0,0:0:0:0:
36,192,73825,1,0,0:0:0:0:
36,192,73975,1,0,0:0:0:0:
329,192,73975,1,0,0:0:0:0:
182,192,74125,1,0,0:0:0:0:
182,192,74275,1,0,0:0:0:0:
182,192,74425,1,0,0:0:0:0:
109,192,74575,1,0,0:0:0:0:
402,192,74575,1,0,0:0:0:0:
256,192,74725,1,0,0:0:0:0:
256,192,74875,1,0,0:0:0:0:
256,192,75025,1,0,0:0:0:0:
182,192,75175,1,0,0:0:0:0:
475,192,75175,1,0,0:0:0:0:
329,192,75325,1,0,0:0:0:0:
182,192,75475,1,0,0:0:0:0:
329,192,75625,1,0,0:0:0:0:
182,192,75775,1,0,0:0:0:0:
329,192,75925,1,0,0:0:0:0:
182,192,76075,1,0,0:0:0:0:
36,192,76075,1,0,0:0:0:0:
329,192,76225,1,0,0:0:0:0:
36,192,76375,1,0,0:0:0:0:
402,192,76375,1,0,0:0:0:0:
475,192,76375,1,0,0:0:0:0:
109,192,76375,1,0,0:0:0:0:
256,192,76375,1,0,0:0:0:0:
475,192,76975,1,0,0:0:0:0:
182,192,76975,1,0,0:0:0:0:
475,192,77200,1,0,0:0:0:0:
182,192,77200,1,0,0:0:0:0:
329,192,77425,1,0,0:0:0:0:
36,192,77425,1,0,0:0:0:0:
329,192,77575,1,0,0:0:0:0:
36,192,77575,1,0,0:0:0:0:
329,192,78175,1,0,0:0:0:0:
36,192,78175,1,0,0:0:0:0:
402,192,78400,1,0,0:0:0:0:
109,192,78400,1,0,0:0:0:0:
182,192,78625,1,0,0:0:0:0:
475,192,78625,1,0,0:0:0:0:
475,192,78775,1,0,0:0:0:0:
182,192,78775,1,0,0:0:0:0:
329,192,78925,1,0,0:0:0:0:
329,192,79075,1,0,0:0:0:0:
329,192,79225,1,0,0:0:0:0:
402,192,79375,1,0,0:0:0:0:
109,192,79375,1,0,0:0:0:0:
256,192,79525,1,0,0:0:0:0:
256,192,79675,1,0,0:0:0:0:
256,192,79825,1,0,0:0:0:0:
329,192,79975,1,0,0:0:0:0:
36,192,79975,1,0,0:0:0:0:
329,192,80125,1,0,0:0:0:0:
182,192,80275,1,0,0:0:0:0:
182,192,80425,1,0,0:0:0:0:
109,192,80575,1,0,0:0:0:0:
402,192,80575,1,0,0:0:0:0:
402,192,80725,1,0,0:0:0:0:
182,192,80875,1,0,0:0:0:0:
475,192,80875,1,0,0:0:0:0:
182,192,81025,1,0,0:0:0:0:
256,192,81175,1,0,0:0:0:0:
402,192,81175,1,0,0:0:0:0:
475,192,81175,1,0,0:0:0:0:
109,192,81175,1,0,0:0:0:0:
36,192,81175,1,0,0:0:0:0:
36,192,81775,1,0,0:0:0:0:
329,192,81775,1,0,0:0:0:0:
109,192,82000,1,0,0:0:0:0:
402,192,82000,1,0,0:0:0:0:
182,192,82225,1,0,0:0:0:0:
475,192,82225,1,0,0:0:0:0:
182,192,82375,1,0,0:0:0:0:
475,192,82375,1,0,0:0:0:0:
109,192,82975,1,0,0:0:0:0:
402,192,82975,1,0,0:0:0:0:
182,192,83200,1,0,0:0:0:0:
475,192,83200,1,0,0:0:0:0:
329,192,83425,1,0,0:0:0:0:
36,192,83425,1,0,0:0:0:0:
36,192,83575,1,0,0:0:0:0:
329,192,83575,1,0,0:0:0:0:
182,192,83725,1,0,0:0:0:0:
182,192,83875,1,0,0:0:0:0:
475,192,83875,1,0,0:0:0:0:
182,192,84025,1,0,0:0:0:0:
475,192,84175,1,0,0:0:0:0:
36,192,84175,1,0,0:0:0:0:
329,192,84325,1,0,0:0:0:0:
329,192,84475,1,0,0:0:0:0:
182,192,84475,1,0,0:0:0:0:
329,192,84625,1,0,0:0:0:0:
256,192,84775,1,0,0:0:0:0:
475,192,84775,1,0,0:0:0:0:
36,192,84775,1,0,0:0:0:0:
329,192,84925,1,0,0:0:0:0:
182,192,85075,1,0,0:0:0:0:
329,192,85225,1,0,0:0:0:0:
182,192,85375,1,0,0:0:0:0:
329,192,85525,1,0,0:0:0:0:
182,192,85675,1,0,0:0:0:0:
329,192,85825,1,0,0:0:0:0:
256,192,85975,1,0,0:0:0:0:
402,192,85975,1,0,0:0:0:0:
475,192,85975,1,0,0:0:0:0:
109,192,85975,1,0,0:0:0:0:
36,192,85975,1,0,0:0:0:0:
182,192,86050,1,0,0:0:0:0:
329,192,86050,1,0,0:0:0:0:
402,192,86125,1,0,0:0:0:0:
475,192,86125,1,0,0:0:0:0:
36,192,86125,1,0,0:0:0:0:
109,192,86200,1,0,0:0:0:0:
256,192,86200,1,0,0:0:0:0:
329,192,86275,1,0,0:0:0:0:
475,192,86275,1,0,0:0:0:0:
182,192,86350,1,0,0:0:0:0:
36,192,86350,1,0,0:0:0:0:
329,192,86425,1,0,0:0:0:0:
475,192,86425,1,0,0:0:0:0:
182,192,86500,1,0,0:0:0:0:
36,192,86500,1,0,0:0:0:0:
402,192,86575,1,0,0:0:0:0:
475,192,86575,1,0,0:0:0:0:
256,192,86575,1,0,0:0:0:0:
182,192,86650,1,0,0:0:0:0:
329,192,86650,1,0,0:0:0:0:
109,192,86725,1,0,0:0:0:0:
475,192,86725,1,0,0:0:0:0:
36,192,86725,1,0,0:0:0:0:
256,192,86800,1,0,0:0:0:0:
402,192,86800,1,0,0:0:0:0:
109,192,86875,1,0,0:0:0:0:
182,192,86875,1,0,0:0:0:0:
329,192,86950,1,0,0:0:0:0:
402,192,86950,1,0,0:0:0:0:
182,192,87025,1,0,0:0:0:0:
109,192,87025,1,0,0:0:0:0:
329,192,87100,1,0,0:0:0:0:
402,192,87100,1,0,0:0:0:0:
256,192,87175,1,0,0:0:0:0:
475,192,87175,1,0,0:0:0:0:
36,192,87175,1,0,0:0:0:0:
182,192,87250,1,0,0:0:0:0:
329,192,87250,1,0,0:0:0:0:
475,192,87325,1,0,0:0:0:0:
36,192,87325,1,0,0:0:0:0:
402,192,87325,1,0,0:0:0:0:
109,192,87400,1,0,0:0:0:0:
256,192,87400,1,0,0:0:0:0:
329,192,87475,1,0,0:0:0:0:
475,192,87475,1,0,0:0:0:0:
36,192,87550,1,0,0:0:0:0:
182,192,87550,1,0,0:0:0:0:
475,192,87625,1,0,0:0:0:0:
329,192,87625,1,0,0:0:0:0:
36,192,87700,1,0,0:0:0:0:
182,192,87700,1,0,0:0:0:0:
256,192,87775,1,0,0:0:0:0:
402,192,87775,1,0,0:0:0:0:
475,192,87775,1,0,0:0:0:0:
182,192,87850,1,0,0:0:0:0:
329,192,87850,1,0,0:0:0:0:
109,192,87925,1,0,0:0:0:0:
475,192,87925,1,0,0:0:0:0:
36,192,87925,1,0,0:0:0:0:
256,192,88000,1,0,0:0:0:0:
402,192,88000,1,0,0:0:0:0:
182,192,88075,1,0,0:0:0:0:
109,192,88075,1,0,0:0:0:0:
329,192,88150,1,0,0:0:0:0:
402,192,88150,1,0,0:0:0:0:
182,192,88225,1,0,0:0:0:0:
109,192,88225,1,0,0:0:0:0:
329,192,88300,1,0,0:0:0:0:
402,192,88300,1,0,0:0:0:0:
256,192,88375,1,0,0:0:0:0:
475,192,88375,1,0,0:0:0:0:
182,192,88412,1,0,0:0:0:0:
109,192,88450,1,0,0:0:0:0:
36,192,88487,1,0,0:0:0:0:
329,192,88525,1,0,0:0:0:0:
402,192,88525,1,0,0:0:0:0:
182,192,88600,1,0,0:0:0:0:
109,192,88600,1,0,0:0:0:0:
256,192,88675,1,0,0:0:0:0:
475,192,88675,1,0,0:0:0:0:
36,192,88675,1,0,0:0:0:0:
109,192,88750,1,0,0:0:0:0:
402,192,88750,1,0,0:0:0:0:
182,192,88825,1,0,0:0:0:0:
329,192,88825,1,0,0:0:0:0:
109,192,88900,1,0,0:0:0:0:
402,192,88900,1,0,0:0:0:0:
36,192,88975,1,0,0:0:0:0:
256,192,88975,1,0,0:0:0:0:
329,192,89012,1,0,0:0:0:0:
402,192,89050,1,0,0:0:0:0:
475,192,89087,1,0,0:0:0:0:
109,192,89125,1,0,0:0:0:0:
182,192,89125,1,0,0:0:0:0:
402,192,89200,1,0,0:0:0:0:
329,192,89200,1,0,0:0:0:0:
256,192,89275,1,0,0:0:0:0:
36,192,89275,1,0,0:0:0:0:
475,192,89275,1,0,0:0:0:0:
402,192,89350,1,0,0:0:0:0:
109,192,89350,1,0,0:0:0:0:
182,192,89425,1,0,0:0:0:0:
329,192,89425,1,0,0:0:0:0:
256,192,89500,1,0,0:0:0:0:
402,192,89575,1,0,0:0:0:0:
36,192,89575,1,0,0:0:0:0:
109,192,89575,1,0,0:0:0:0:
475,192,89575,1,0,0:0:0:0:
256,192,89612,1,0,0:0:0:0:
182,192,89650,1,0,0:0:0:0:
109,192,89687,1,0,0:0:0:0:
329,192,89725,1,0,0:0:0:0:
402,192,89725,1,0,0:0:0:0:
182,192,89800,1,0,0:0:0:0:
109,192,89800,1,0,0:0:0:0:
402,192,89875,1,0,0:0:0:0:
475,192,89875,1,0,0:0:0:0:
36,192,89875,1,0,0:0:0:0:
256,192,89912,1,0,0:0:0:0:
329,192,89950,1,0,0:0:0:0:
402,192,89987,1,0,0:0:0:0:
109,192,90025,1,0,0:0:0:0:
36,192,90025,1,0,0:0:0:0:
475,192,90025,1,0,0:0:0:0:
182,192,90100,1,0,0:0:0:0:
256,192,90100,1,0,0:0:0:0:
329,192,90100,1,0,0:0:0:0:
402,192,90175,1,0,0:0:0:0:
475,192,90175,1,0,0:0:0:0:
36,192,90175,1,0,0:0:0:0:
109,192,90212,1,0,0:0:0:0:
329,192,90250,1,0,0:0:0:0:
256,192,90287,1,0,0:0:0:0:
182,192,90325,1,0,0:0:0:0:
109,192,90362,1,0,0:0:0:0:
402,192,90400,1,0,0:0:0:0:
329,192,90437,1,0,0:0:0:0:
256,192,90475,1,0,0:0:0:0:
475,192,90475,1,0,0:0:0:0:
36,192,90475,1,0,0:0:0:0:
109,192,90512,1,0,0:0:0:0:
182,192,90550,1,0,0:0:0:0:
402,192,90587,1,0,0:0:0:0:
329,192,90625,1,0,0:0:0:0:
256,192,90662,1,0,0:0:0:0:
182,192,90700,1,0,0:0:0:0:
109,192,90737,1,0,0:0:0:0:
256,192,90775,1,0,0:0:0:0:
402,192,90775,1,0,0:0:0:0:
256,192,90925,1,0,0:0:0:0:
402,192,90925,1,0,0:0:0:0:
109,192,91000,1,0,0:0:0:0:
36,192,91000,1,0,0:0:0:0:
329,192,91075,1,0,0:0:0:0:
475,192,91075,1,0,0:0:0:0:
182,192,91150,1,0,0:0:0:0:
329,192,91225,1,0,0:0:0:0:
109,192,91300,1,0,0:0:0:0:
36,192,91300,1,0,0:0:0:0:
256,192,91375,1,0,0:0:0:0:
109,192,91450,1,0,0:0:0:0:
36,192,91450,1,0,0:0:0:0:
182,192,91525,1,0,0:0:0:0:
329,192,91525,1,0,0:0:0:0:
402,192,91600,1,0,0:0:0:0:
475,192,91600,1,0,0:0:0:0:
256,192,91675,128,0,91975:0:0:0:0:
109,192,91975,1,0,0:0:0:0:
36,192,91975,1,0,0:0:0:0:
329,192,91975,1,0,0:0:0:0:
475,192,91975,1,0,0:0:0:0:
109,192,92050,1,0,0:0:0:0:
36,192,92050,1,0,0:0:0:0:
256,192,92125,1,0,0:0:0:0:
329,192,92125,1,0,0:0:0:0:
475,192,92125,1,0,0:0:0:0:
329,192,92200,1,0,0:0:0:0:
256,192,92200,1,0,0:0:0:0:
182,192,92275,1,0,0:0:0:0:
109,192,92275,1,0,0:0:0:0:
36,192,92275,1,0,0:0:0:0:
475,192,92275,1,0,0:0:0:0:
402,192,92350,1,0,0:0:0:0:
256,192,92425,1,0,0:0:0:0:
109,192,92425,1,0,0:0:0:0:
329,192,92500,1,0,0:0:0:0:
475,192,92500,1,0,0:0:0:0:
36,192,92500,1,0,0:0:0:0:
182,192,92575,1,0,0:0:0:0:
402,192,92575,1,0,0:0:0:0:
256,192,92650,1,0,0:0:0:0:
475,192,92650,1,0,0:0:0:0:
329,192,92725,1,0,0:0:0:0:
109,192,92725,1,0,0:0:0:0:
36,192,92725,1,0,0:0:0:0:
182,192,92800,1,0,0:0:0:0:
402,192,92800,1,0,0:0:0:0:
475,192,92800,1,0,0:0:0:0:
329,192,92875,1,0,0:0:0:0:
402,192,92912,1,0,0:0:0:0:
36,192,92912,1,0,0:0:0:0:
109,192,92950,1,0,0:0:0:0:
475,192,92950,1,0,0:0:0:0:
182,192,93025,1,0,0:0:0:0:
109,192,93062,1,0,0:0:0:0:
475,192,93062,1,0,0:0:0:0:
36,192,93100,1,0,0:0:0:0:
402,192,93100,1,0,0:0:0:0:
256,192,93175,1,0,0:0:0:0:
329,192,93175,1,0,0:0:0:0:
182,192,93175,1,0,0:0:0:0:
109,192,93250,1,0,0:0:0:0:
36,192,93250,1,0,0:0:0:0:
475,192,93250,1,0,0:0:0:0:
402,192,93325,1,0,0:0:0:0:
256,192,93325,1,0,0:0:0:0:
182,192,93400,1,0,0:0:0:0:
329,192,93400,1,0,0:0:0:0:
36,192,93400,1,0,0:0:0:0:
475,192,93475,1,0,0:0:0:0:
402,192,93512,1,0,0:0:0:0:
329,192,93550,1,0,0:0:0:0:
256,192,93587,1,0,0:0:0:0:
182,192,93625,1,0,0:0:0:0:
36,192,93625,1,0,0:0:0:0:
329,192,93700,1,0,0:0:0:0:
475,192,93700,1,0,0:0:0:0:
402,192,93700,1,0,0:0:0:0:
36,192,93775,1,0,0:0:0:0:
109,192,93775,1,0,0:0:0:0:
182,192,93850,1,0,0:0:0:0:
256,192,93850,1,0,0:0:0:0:
329,192,93850,1,0,0:0:0:0:
402,192,93925,1,0,0:0:0:0:
475,192,93925,1,0,0:0:0:0:
109,192,94000,1,0,0:0:0:0:
36,192,94000,1,0,0:0:0:0:
329,192,94075,1,0,0:0:0:0:
475,192,94075,1,0,0:0:0:0:
402,192,94075,1,0,0:0:0:0:
256,192,94150,1,0,0:0:0:0:
109,192,94150,1,0,0:0:0:0:
36,192,94150,1,0,0:0:0:0:
329,192,94225,1,0,0:0:0:0:
182,192,94225,1,0,0:0:0:0:
402,192,94300,1,0,0:0:0:0:
256,192,94300,1,0,0:0:0:0:
329,192,94375,1,0,0:0:0:0:
182,192,94375,1,0,0:0:0:0:
36,192,94375,1,0,0:0:0:0:
256,192,94450,1,0,0:0:0:0:
402,192,94450,1,0,0:0:0:0:
36,192,94525,1,0,0:0:0:0:
475,192,94525,1,0,0:0:0:0:
109,192,94525,1,0,0:0:0:0:
256,192,94600,1,0,0:0:0:0:
182,192,94600,1,0,0:0:0:0:
329,192,94600,1,0,0:0:0:0:
475,192,94675,1,0,0:0:0:0:
36,192,94675,1,0,0:0:0:0:
402,192,94712,1,0,0:0:0:0:
329,192,94750,1,0,0:0:0:0:
109,192,94750,1,0,0:0:0:0:
256,192,94787,1,0,0:0:0:0:
182,192,94825,1,0,0:0:0:0:
475,192,94825,1,0,0:0:0:0:
402,192,94900,1,0,0:0:0:0:
109,192,94900,1,0,0:0:0:0:
329,192,94975,1,0,0:0:0:0:
36,192,94975,1,0,0:0:0:0:
109,192,95050,1,0,0:0:0:0:
182,192,95125,1,0,0:0:0:0:
402,192,95125,1,0,0:0:0:0:
475,192,95125,1,0,0:0:0:0:
256,192,95162,1,0,0:0:0:0:
329,192,95200,1,0,0:0:0:0:
36,192,95200,1,0,0:0:0:0:
182,192,95275,1,0,0:0:0:0:
402,192,95275,1,0,0:0:0:0:
475,192,95275,1,0,0:0:0:0:
256,192,95350,1,0,0:0:0:0:
109,192,95350,1,0,0:0:0:0:
36,192,95350,1,0,0:0:0:0:
329,192,95425,1,0,0:0:0:0:
475,192,95425,1,0,0:0:0:0:
182,192,95500,1,0,0:0:0:0:
36,192,95500,1,0,0:0:0:0:
329,192,95575,1,0,0:0:0:0:
475,192,95575,1,0,0:0:0:0:
256,192,95650,1,0,0:0:0:0:
402,192,95650,1,0,0:0:0:0:
182,192,95725,1,0,0:0:0:0:
329,192,95725,1,0,0:0:0:0:
109,192,95800,1,0,0:0:0:0:
256,192,95800,1,0,0:0:0:0:
329,192,95875,1,0,0:0:0:0:
402,192,95875,1,0,0:0:0:0:
475,192,95875,1,0,0:0:0:0:
182,192,95950,1,0,0:0:0:0:
109,192,95950,1,0,0:0:0:0:
36,192,95950,1,0,0:0:0:0:
256,192,96025,1,0,0:0:0:0:
402,192,96025,1,0,0:0:0:0:
329,192,96100,1,0,0:0:0:0:
475,192,96100,1,0,0:0:0:0:
182,192,96175,1,0,0:0:0:0:
36,192,96175,1,0,0:0:0:0:
109,192,96250,1,0,0:0:0:0:
256,192,96250,1,0,0:0:0:0:
182,192,96325,1,0,0:0:0:0:
329,192,96325,1,0,0:0:0:0:
402,192,96325,1,0,0:0:0:0:
475,192,96325,1,0,0:0:0:0:
109,192,96400,1,0,0:0:0:0:
36,192,96400,1,0,0:0:0:0:
256,192,96475,1,0,0:0:0:0:
109,192,96550,1,0,0:0:0:0:
36,192,96550,1,0,0:0:0:0:
329,192,96550,1,0,0:0:0:0:
475,192,96550,1,0,0:0:0:0:
182,192,96625,1,0,0:0:0:0:
256,192,96662,1,0,0:0:0:0:
329,192,96700,1,0,0:0:0:0:
36,192,96700,1,0,0:0:0:0:
402,192,96737,1,0,0:0:0:0:
109,192,96775,1,0,0:0:0:0:
182,192,96775,1,0,0:0:0:0:
475,192,96775,1,0,0:0:0:0:
329,192,96850,1,0,0:0:0:0:
256,192,96850,1,0,0:0:0:0:
36,192,96850,1,0,0:0:0:0:
182,192,96925,1,0,0:0:0:0:
402,192,96925,1,0,0:0:0:0:
475,192,96925,1,0,0:0:0:0:
256,192,97000,1,0,0:0:0:0:
109,192,97000,1,0,0:0:0:0:
36,192,97000,1,0,0:0:0:0:
329,192,97075,1,0,0:0:0:0:
182,192,97075,1,0,0:0:0:0:
475,192,97075,1,0,0:0:0:0:
256,192,97150,1,0,0:0:0:0:
402,192,97150,1,0,0:0:0:0:
109,192,97225,1,0,0:0:0:0:
475,192,97225,1,0,0:0:0:0:
182,192,97300,1,0,0:0:0:0:
36,192,97300,1,0,0:0:0:0:
329,192,97300,1,0,0:0:0:0:
256,192,97375,1,0,0:0:0:0:
402,192,97375,1,0,0:0:0:0:
329,192,97450,1,0,0:0:0:0:
475,192,97450,1,0,0:0:0:0:
182,192,97525,1,0,0:0:0:0:
109,192,97525,1,0,0:0:0:0:
36,192,97525,1,0,0:0:0:0:
256,192,97600,1,0,0:0:0:0:
402,192,97600,1,0,0:0:0:0:
475,192,97600,1,0,0:0:0:0:
182,192,97675,1,0,0:0:0:0:
329,192,97675,1,0,0:0:0:0:
109,192,97693,1,0,0:0:0:0:
36,192,97712,1,0,0:0:0:0:
475,192,97750,1,0,0:0:0:0:
182,192,97825,1,0,0:0:0:0:
402,192,97825,1,0,0:0:0:0:
109,192,97843,1,0,0:0:0:0:
36,192,97862,1,0,0:0:0:0:
329,192,97900,1,0,0:0:0:0:
256,192,97975,1,0,0:0:0:0:
182,192,97975,1,0,0:0:0:0:
475,192,97975,1,0,0:0:0:0:
109,192,98050,1,0,0:0:0:0:
36,192,98050,1,0,0:0:0:0:
402,192,98050,1,0,0:0:0:0:
256,192,98125,1,0,0:0:0:0:
329,192,98125,1,0,0:0:0:0:
182,192,98200,1,0,0:0:0:0:
36,192,98200,1,0,0:0:0:0:
329,192,98275,1,0,0:0:0:0:
109,192,98275,1,0,0:0:0:0:
402,192,98312,1,0,0:0:0:0:
475,192,98350,1,0,0:0:0:0:
182,192,98350,1,0,0:0:0:0:
256,192,98387,1,0,0:0:0:0:
329,192,98425,1,0,0:0:0:0:
36,192,98425,1,0,0:0:0:0:
109,192,98500,1,0,0:0:0:0:
402,192,98500,1,0,0:0:0:0:
182,192,98575,1,0,0:0:0:0:
475,192,98575,1,0,0:0:0:0:
109,192,98650,1,0,0:0:0:0:
36,192,98650,1,0,0:0:0:0:
256,192,98650,1,0,0:0:0:0:
402,192,98650,1,0,0:0:0:0:
329,192,98725,1,0,0:0:0:0:
182,192,98800,1,0,0:0:0:0:
475,192,98800,1,0,0:0:0:0:
256,192,98875,1,0,0:0:0:0:
36,192,98875,1,0,0:0:0:0:
109,192,98875,1,0,0:0:0:0:
329,192,98950,1,0,0:0:0:0:
402,192,98950,1,0,0:0:0:0:
475,192,98950,1,0,0:0:0:0:
182,192,99025,1,0,0:0:0:0:
36,192,99025,1,0,0:0:0:0:
256,192,99100,1,0,0:0:0:0:
402,192,99100,1,0,0:0:0:0:
329,192,99175,1,0,0:0:0:0:
475,192,99175,1,0,0:0:0:0:
36,192,99175,1,0,0:0:0:0:
182,192,99250,1,0,0:0:0:0:
256,192,99250,1,0,0:0:0:0:
109,192,99250,1,0,0:0:0:0:
475,192,99325,1,0,0:0:0:0:
36,192,99325,1,0,0:0:0:0:
402,192,99325,1,0,0:0:0:0:
329,192,99400,1,0,0:0:0:0:
256,192,99400,1,0,0:0:0:0:
182,192,99475,1,0,0:0:0:0:
36,192,99475,1,0,0:0:0:0:
475,192,99475,1,0,0:0:0:0:
402,192,99475,1,0,0:0:0:0:
256,192,99550,1,0,0:0:0:0:
109,192,99550,1,0,0:0:0:0:
182,192,99625,1,0,0:0:0:0:
329,192,99625,1,0,0:0:0:0:
256,192,99700,1,0,0:0:0:0:
402,192,99700,1,0,0:0:0:0:
475,192,99775,1,0,0:0:0:0:
182,192,99775,1,0,0:0:0:0:
109,192,99850,1,0,0:0:0:0:
402,192,99850,1,0,0:0:0:0:
36,192,99850,1,0,0:0:0:0:
256,192,99925,1,0,0:0:0:0:
329,192,99962,1,0,0:0:0:0:
402,192,100000,1,0,0:0:0:0:
475,192,100037,1,0,0:0:0:0:
182,192,100075,1,0,0:0:0:0:
109,192,100075,1,0,0:0:0:0:
36,192,100075,1,0,0:0:0:0:
329,192,100150,1,0,0:0:0:0:
402,192,100150,1,0,0:0:0:0:
475,192,100150,1,0,0:0:0:0:
256,192,100225,1,0,0:0:0:0:
109,192,100225,1,0,0:0:0:0:
182,192,100300,1,0,0:0:0:0:
36,192,100300,1,0,0:0:0:0:
329,192,100375,1,0,0:0:0:0:
475,192,100375,1,0,0:0:0:0:
402,192,100450,1,0,0:0:0:0:
256,192,100450,1,0,0:0:0:0:
329,192,100525,1,0,0:0:0:0:
182,192,100525,1,0,0:0:0:0:
36,192,100562,1,0,0:0:0:0:
109,192,100600,1,0,0:0:0:0:
402,192,100600,1,0,0:0:0:0:
256,192,100675,1,0,0:0:0:0:
475,192,100675,1,0,0:0:0:0:
329,192,100675,1,0,0:0:0:0:
182,192,100750,1,0,0:0:0:0:
109,192,100750,1,0,0:0:0:0:
36,192,100750,1,0,0:0:0:0:
475,192,100825,1,0,0:0:0:0:
256,192,100825,1,0,0:0:0:0:
402,192,100900,1,0,0:0:0:0:
182,192,100900,1,0,0:0:0:0:
109,192,100975,1,0,0:0:0:0:
329,192,100975,1,0,0:0:0:0:
36,192,100975,1,0,0:0:0:0:
256,192,101050,1,0,0:0:0:0:
402,192,101050,1,0,0:0:0:0:
475,192,101050,1,0,0:0:0:0:
182,192,101125,1,0,0:0:0:0:
109,192,101125,1,0,0:0:0:0:
36,192,101125,1,0,0:0:0:0:
329,192,101200,1,0,0:0:0:0:
475,192,101200,1,0,0:0:0:0:
182,192,101275,1,0,0:0:0:0:
36,192,101275,1,0,0:0:0:0:
329,192,101350,1,0,0:0:0:0:
402,192,101350,1,0,0:0:0:0:
475,192,101350,1,0,0:0:0:0:
256,192,101387,1,0,0:0:0:0:
182,192,101425,1,0,0:0:0:0:
109,192,101462,1,0,0:0:0:0:
329,192,101500,1,0,0:0:0:0:
402,192,101537,1,0,0:0:0:0:
182,192,101575,1,0,0:0:0:0:
109,192,101575,1,0,0:0:0:0:
36,192,101575,1,0,0:0:0:0:
475,192,101575,1,0,0:0:0:0:
256,192,101650,1,0,0:0:0:0:
329,192,101650,1,0,0:0:0:0:
402,192,101650,1,0,0:0:0:0:
109,192,101725,1,0,0:0:0:0:
36,192,101725,1,0,0:0:0:0:
475,192,101725,1,0,0:0:0:0:
182,192,101800,1,0,0:0:0:0:
256,192,101800,1,0,0:0:0:0:
329,192,101800,1,0,0:0:0:0:
402,192,101875,1,0,0:0:0:0:
36,192,101875,1,0,0:0:0:0:
475,192,101875,1,0,0:0:0:0:
329,192,101950,1,0,0:0:0:0:
182,192,101950,1,0,0:0:0:0:
256,192,102025,1,0,0:0:0:0:
109,192,102100,1,0,0:0:0:0:
475,192,102100,1,0,0:0:0:0:
36,192,102100,1,0,0:0:0:0:
182,192,102175,1,0,0:0:0:0:
402,192,102175,1,0,0:0:0:0:
256,192,102250,1,0,0:0:0:0:
36,192,102250,1,0,0:0:0:0:
329,192,102325,1,0,0:0:0:0:
475,192,102325,1,0,0:0:0:0:
256,192,102400,1,0,0:0:0:0:
36,192,102400,1,0,0:0:0:0:
182,192,102475,1,0,0:0:0:0:
329,192,102475,1,0,0:0:0:0:
402,192,102493,1,0,0:0:0:0:
475,192,102512,1,0,0:0:0:0:
109,192,102550,1,0,0:0:0:0:
329,192,102625,1,0,0:0:0:0:
36,192,102625,1,0,0:0:0:0:
402,192,102643,1,0,0:0:0:0:
475,192,102662,1,0,0:0:0:0:
36,192,102775,1,0,0:0:0:0:
329,192,102775,1,0,0:0:0:0:
256,192,102775,1,0,0:0:0:0:
109,192,102850,1,0,0:0:0:0:
475,192,102850,1,0,0:0:0:0:
402,192,102850,1,0,0:0:0:0:
182,192,102925,1,0,0:0:0:0:
256,192,102925,1,0,0:0:0:0:
475,192,103000,1,0,0:0:0:0:
329,192,103000,1,0,0:0:0:0:
402,192,103075,1,0,0:0:0:0:
182,192,103075,1,0,0:0:0:0:
109,192,103112,1,0,0:0:0:0:
329,192,103150,1,0,0:0:0:0:
36,192,103150,1,0,0:0:0:0:
256,192,103187,1,0,0:0:0:0:
475,192,103225,1,0,0:0:0:0:
182,192,103225,1,0,0:0:0:0:
109,192,103300,1,0,0:0:0:0:
402,192,103300,1,0,0:0:0:0:
36,192,103375,1,0,0:0:0:0:
329,192,103375,1,0,0:0:0:0:
256,192,103450,1,0,0:0:0:0:
109,192,103450,1,0,0:0:0:0:
402,192,103450,1,0,0:0:0:0:
475,192,103450,1,0,0:0:0:0:
182,192,103525,1,0,0:0:0:0:
36,192,103600,1,0,0:0:0:0:
329,192,103600,1,0,0:0:0:0:
402,192,103675,1,0,0:0:0:0:
475,192,103675,1,0,0:0:0:0:
256,192,103675,1,0,0:0:0:0:
36,192,103750,1,0,0:0:0:0:
109,192,103750,1,0,0:0:0:0:
182,192,103750,1,0,0:0:0:0:
475,192,103825,1,0,0:0:0:0:
329,192,103825,1,0,0:0:0:0:
109,192,103900,1,0,0:0:0:0:
256,192,103900,1,0,0:0:0:0:
475,192,103975,1,0,0:0:0:0:
36,192,103975,1,0,0:0:0:0:
182,192,103975,1,0,0:0:0:0:
402,192,104050,1,0,0:0:0:0:
256,192,104050,1,0,0:0:0:0:
329,192,104050,1,0,0:0:0:0:
109,192,104125,1,0,0:0:0:0:
475,192,104125,1,0,0:0:0:0:
36,192,104125,1,0,0:0:0:0:
256,192,104200,1,0,0:0:0:0:
182,192,104200,1,0,0:0:0:0:
36,192,104275,1,0,0:0:0:0:
109,192,104275,1,0,0:0:0:0:
329,192,104275,1,0,0:0:0:0:
475,192,104275,1,0,0:0:0:0:
402,192,104350,1,0,0:0:0:0:
256,192,104350,1,0,0:0:0:0:
182,192,104425,1,0,0:0:0:0:
329,192,104425,1,0,0:0:0:0:
109,192,104500,1,0,0:0:0:0:
256,192,104500,1,0,0:0:0:0:
329,192,104575,1,0,0:0:0:0:
36,192,104575,1,0,0:0:0:0:
475,192,104650,1,0,0:0:0:0:
109,192,104650,1,0,0:0:0:0:
402,192,104650,1,0,0:0:0:0:
256,192,104725,1,0,0:0:0:0:
182,192,104762,1,0,0:0:0:0:
109,192,104800,1,0,0:0:0:0:
36,192,104837,1,0,0:0:0:0:
475,192,104875,1,0,0:0:0:0:
402,192,104875,1,0,0:0:0:0:
329,192,104875,1,0,0:0:0:0:
36,192,104950,1,0,0:0:0:0:
109,192,104950,1,0,0:0:0:0:
182,192,104950,1,0,0:0:0:0:
402,192,105025,1,0,0:0:0:0:
256,192,105025,1,0,0:0:0:0:
475,192,105100,1,0,0:0:0:0:
329,192,105100,1,0,0:0:0:0:
36,192,105175,1,0,0:0:0:0:
182,192,105175,1,0,0:0:0:0:
256,192,105250,1,0,0:0:0:0:
109,192,105250,1,0,0:0:0:0:
329,192,105325,1,0,0:0:0:0:
182,192,105325,1,0,0:0:0:0:
475,192,105362,1,0,0:0:0:0:
109,192,105400,1,0,0:0:0:0:
402,192,105400,1,0,0:0:0:0:
182,192,105475,1,0,0:0:0:0:
36,192,105475,1,0,0:0:0:0:
256,192,105475,1,0,0:0:0:0:
475,192,105550,1,0,0:0:0:0:
402,192,105550,1,0,0:0:0:0:
329,192,105550,1,0,0:0:0:0:
256,192,105625,1,0,0:0:0:0:
36,192,105625,1,0,0:0:0:0:
329,192,105700,1,0,0:0:0:0:
109,192,105700,1,0,0:0:0:0:
475,192,105775,1,0,0:0:0:0:
182,192,105775,1,0,0:0:0:0:
402,192,105775,1,0,0:0:0:0:
36,192,105850,1,0,0:0:0:0:
109,192,105850,1,0,0:0:0:0:
256,192,105850,1,0,0:0:0:0:
475,192,105925,1,0,0:0:0:0:
402,192,105925,1,0,0:0:0:0:
329,192,105925,1,0,0:0:0:0:
36,192,106000,1,0,0:0:0:0:
182,192,106000,1,0,0:0:0:0:
475,192,106075,1,0,0:0:0:0:
329,192,106075,1,0,0:0:0:0:
36,192,106150,1,0,0:0:0:0:
109,192,106150,1,0,0:0:0:0:
182,192,106150,1,0,0:0:0:0:
256,192,106187,1,0,0:0:0:0:
329,192,106225,1,0,0:0:0:0:
402,192,106262,1,0,0:0:0:0:
182,192,106300,1,0,0:0:0:0:
109,192,106337,1,0,0:0:0:0:
329,192,106375,1,0,0:0:0:0:
402,192,106375,1,0,0:0:0:0:
475,192,106375,1,0,0:0:0:0:
36,192,106375,1,0,0:0:0:0:
256,192,106450,1,0,0:0:0:0:
182,192,106450,1,0,0:0:0:0:
109,192,106450,1,0,0:0:0:0:
402,192,106525,1,0,0:0:0:0:
475,192,106525,1,0,0:0:0:0:
36,192,106525,1,0,0:0:0:0:
329,192,106600,1,0,0:0:0:0:
256,192,106600,1,0,0:0:0:0:
182,192,106600,1,0,0:0:0:0:
109,192,106675,1,0,0:0:0:0:
475,192,106675,1,0,0:0:0:0:
36,192,106675,1,0,0:0:0:0:
182,192,106750,1,0,0:0:0:0:
329,192,106750,1,0,0:0:0:0:
256,192,106825,1,0,0:0:0:0:
402,192,106900,1,0,0:0:0:0:
36,192,106900,1,0,0:0:0:0:
475,192,106900,1,0,0:0:0:0:
329,192,106975,1,0,0:0:0:0:
109,192,106975,1,0,0:0:0:0:
256,192,107050,1,0,0:0:0:0:
475,192,107050,1,0,0:0:0:0:
182,192,107125,1,0,0:0:0:0:
36,192,107125,1,0,0:0:0:0:
256,192,107200,1,0,0:0:0:0:
475,192,107200,1,0,0:0:0:0:
329,192,107275,1,0,0:0:0:0:
182,192,107275,1,0,0:0:0:0:
109,192,107293,1,0,0:0:0:0:
36,192,107312,1,0,0:0:0:0:
402,192,107350,1,0,0:0:0:0:
182,192,107425,1,0,0:0:0:0:
475,192,107425,1,0,0:0:0:0:
109,192,107443,1,0,0:0:0:0:
36,192,107462,1,0,0:0:0:0:
475,192,107575,1,0,0:0:0:0:
182,192,107575,1,0,0:0:0:0:
256,192,107575,1,0,0:0:0:0:
402,192,107650,1,0,0:0:0:0:
36,192,107650,1,0,0:0:0:0:
109,192,107650,1,0,0:0:0:0:
329,192,107725,1,0,0:0:0:0:
256,192,107725,1,0,0:0:0:0:
36,192,107800,1,0,0:0:0:0:
182,192,107800,1,0,0:0:0:0:
109,192,107875,1,0,0:0:0:0:
329,192,107875,1,0,0:0:0:0:
402,192,107912,1,0,0:0:0:0:
182,192,107950,1,0,0:0:0:0:
475,192,107950,1,0,0:0:0:0:
256,192,107987,1,0,0:0:0:0:
36,192,108025,1,0,0:0:0:0:
329,192,108025,1,0,0:0:0:0:
402,192,108100,1,0,0:0:0:0:
109,192,108100,1,0,0:0:0:0:
475,192,108175,1,0,0:0:0:0:
182,192,108175,1,0,0:0:0:0:
256,192,108250,1,0,0:0:0:0:
402,192,108250,1,0,0:0:0:0:
109,192,108250,1,0,0:0:0:0:
36,192,108250,1,0,0:0:0:0:
329,192,108325,1,0,0:0:0:0:
475,192,108400,1,0,0:0:0:0:
182,192,108400,1,0,0:0:0:0:
109,192,108475,1,0,0:0:0:0:
36,192,108475,1,0,0:0:0:0:
256,192,108475,1,0,0:0:0:0:
475,192,108550,1,0,0:0:0:0:
402,192,108550,1,0,0:0:0:0:
329,192,108550,1,0,0:0:0:0:
36,192,108625,1,0,0:0:0:0:
182,192,108625,1,0,0:0:0:0:
402,192,108700,1,0,0:0:0:0:
256,192,108700,1,0,0:0:0:0:
36,192,108775,1,0,0:0:0:0:
475,192,108775,1,0,0:0:0:0:
329,192,108775,1,0,0:0:0:0:
109,192,108850,1,0,0:0:0:0:
256,192,108850,1,0,0:0:0:0:
182,192,108850,1,0,0:0:0:0:
402,192,108925,1,0,0:0:0:0:
36,192,108925,1,0,0:0:0:0:
475,192,108925,1,0,0:0:0:0:
256,192,109000,1,0,0:0:0:0:
329,192,109000,1,0,0:0:0:0:
475,192,109075,1,0,0:0:0:0:
402,192,109075,1,0,0:0:0:0:
182,192,109075,1,0,0:0:0:0:
36,192,109075,1,0,0:0:0:0:
109,192,109150,1,0,0:0:0:0:
256,192,109150,1,0,0:0:0:0:
329,192,109225,1,0,0:0:0:0:
182,192,109225,1,0,0:0:0:0:
402,192,109300,1,0,0:0:0:0:
256,192,109300,1,0,0:0:0:0:
182,192,109375,1,0,0:0:0:0:
475,192,109375,1,0,0:0:0:0:
36,192,109450,1,0,0:0:0:0:
402,192,109450,1,0,0:0:0:0:
109,192,109450,1,0,0:0:0:0:
256,192,109525,1,0,0:0:0:0:
329,192,109562,1,0,0:0:0:0:
402,192,109600,1,0,0:0:0:0:
475,192,109637,1,0,0:0:0:0:
36,192,109675,1,0,0:0:0:0:
109,192,109675,1,0,0:0:0:0:
182,192,109675,1,0,0:0:0:0:
475,192,109750,1,0,0:0:0:0:
402,192,109750,1,0,0:0:0:0:
329,192,109750,1,0,0:0:0:0:
182,192,109825,1,0,0:0:0:0:
256,192,109825,1,0,0:0:0:0:
36,192,109900,1,0,0:0:0:0:
109,192,109900,1,0,0:0:0:0:
475,192,109975,1,0,0:0:0:0:
256,192,109975,1,0,0:0:0:0:
182,192,110050,1,0,0:0:0:0:
402,192,110050,1,0,0:0:0:0:
109,192,110125,1,0,0:0:0:0:
329,192,110125,1,0,0:0:0:0:
182,192,110162,1,0,0:0:0:0:
256,192,110200,1,0,0:0:0:0:
36,192,110200,1,0,0:0:0:0:
329,192,110275,1,0,0:0:0:0:
402,192,110275,1,0,0:0:0:0:
475,192,110275,1,0,0:0:0:0:
36,192,110350,1,0,0:0:0:0:
109,192,110350,1,0,0:0:0:0:
182,192,110350,1,0,0:0:0:0:
256,192,110425,1,0,0:0:0:0:
475,192,110425,1,0,0:0:0:0:
182,192,110500,1,0,0:0:0:0:
402,192,110500,1,0,0:0:0:0:
36,192,110575,1,0,0:0:0:0:
329,192,110575,1,0,0:0:0:0:
109,192,110575,1,0,0:0:0:0:
475,192,110650,1,0,0:0:0:0:
402,192,110650,1,0,0:0:0:0:
256,192,110650,1,0,0:0:0:0:
36,192,110725,1,0,0:0:0:0:
109,192,110725,1,0,0:0:0:0:
182,192,110725,1,0,0:0:0:0:
475,192,110800,1,0,0:0:0:0:
329,192,110800,1,0,0:0:0:0:
36,192,110875,1,0,0:0:0:0:
182,192,110875,1,0,0:0:0:0:
475,192,110950,1,0,0:0:0:0:
402,192,110950,1,0,0:0:0:0:
329,192,110950,1,0,0:0:0:0:
256,192,110987,1,0,0:0:0:0:
182,192,111025,1,0,0:0:0:0:
109,192,111062,1,0,0:0:0:0:
329,192,111100,1,0,0:0:0:0:
402,192,111137,1,0,0:0:0:0:
36,192,111175,1,0,0:0:0:0:
475,192,111175,1,0,0:0:0:0:
182,192,111175,1,0,0:0:0:0:
109,192,111175,1,0,0:0:0:0:
402,192,111250,1,0,0:0:0:0:
329,192,111250,1,0,0:0:0:0:
256,192,111250,1,0,0:0:0:0:
475,192,111325,1,0,0:0:0:0:
36,192,111325,1,0,0:0:0:0:
109,192,111325,1,0,0:0:0:0:
329,192,111400,1,0,0:0:0:0:
256,192,111400,1,0,0:0:0:0:
182,192,111400,1,0,0:0:0:0:
475,192,111475,1,0,0:0:0:0:
36,192,111475,1,0,0:0:0:0:
402,192,111475,1,0,0:0:0:0:
182,192,111550,1,0,0:0:0:0:
329,192,111550,1,0,0:0:0:0:
256,192,111625,1,0,0:0:0:0:
36,192,111700,1,0,0:0:0:0:
475,192,111700,1,0,0:0:0:0:
109,192,111700,1,0,0:0:0:0:
402,192,111775,1,0,0:0:0:0:
182,192,111775,1,0,0:0:0:0:
36,192,111850,1,0,0:0:0:0:
256,192,111850,1,0,0:0:0:0:
475,192,111925,1,0,0:0:0:0:
329,192,111925,1,0,0:0:0:0:
36,192,112000,1,0,0:0:0:0:
256,192,112000,1,0,0:0:0:0:
329,192,112075,1,0,0:0:0:0:
182,192,112075,1,0,0:0:0:0:
402,192,112093,1,0,0:0:0:0:
475,192,112112,1,0,0:0:0:0:
109,192,112150,1,0,0:0:0:0:
36,192,112225,1,0,0:0:0:0:
329,192,112225,1,0,0:0:0:0:
402,192,112243,1,0,0:0:0:0:
475,192,112262,1,0,0:0:0:0:
256,192,112375,1,0,0:0:0:0:
329,192,112375,1,0,0:0:0:0:
36,192,112375,1,0,0:0:0:0:
402,192,112450,1,0,0:0:0:0:
475,192,112450,1,0,0:0:0:0:
109,192,112450,1,0,0:0:0:0:
256,192,112525,1,0,0:0:0:0:
182,192,112525,1,0,0:0:0:0:
329,192,112600,1,0,0:0:0:0:
475,192,112600,1,0,0:0:0:0:
182,192,112675,1,0,0:0:0:0:
402,192,112675,1,0,0:0:0:0:
109,192,112712,1,0,0:0:0:0:
36,192,112750,1,0,0:0:0:0:
329,192,112750,1,0,0:0:0:0:
256,192,112787,1,0,0:0:0:0:
182,192,112825,1,0,0:0:0:0:
475,192,112825,1,0,0:0:0:0:
402,192,112900,1,0,0:0:0:0:
109,192,112900,1,0,0:0:0:0:
329,192,112975,1,0,0:0:0:0:
36,192,112975,1,0,0:0:0:0:
402,192,113050,1,0,0:0:0:0:
475,192,113050,1,0,0:0:0:0:
256,192,113050,1,0,0:0:0:0:
109,192,113050,1,0,0:0:0:0:
182,192,113125,1,0,0:0:0:0:
329,192,113200,1,0,0:0:0:0:
36,192,113200,1,0,0:0:0:0:
256,192,113275,1,0,0:0:0:0:
475,192,113275,1,0,0:0:0:0:
402,192,113275,1,0,0:0:0:0:
182,192,113350,1,0,0:0:0:0:
109,192,113350,1,0,0:0:0:0:
36,192,113350,1,0,0:0:0:0:
329,192,113425,1,0,0:0:0:0:
475,192,113425,1,0,0:0:0:0:
256,192,113500,1,0,0:0:0:0:
109,192,113500,1,0,0:0:0:0:
182,192,113575,1,0,0:0:0:0:
36,192,113575,1,0,0:0:0:0:
475,192,113575,1,0,0:0:0:0:
329,192,113650,1,0,0:0:0:0:
256,192,113650,1,0,0:0:0:0:
402,192,113650,1,0,0:0:0:0:
36,192,113725,1,0,0:0:0:0:
475,192,113725,1,0,0:0:0:0:
109,192,113725,1,0,0:0:0:0:
182,192,113800,1,0,0:0:0:0:
256,192,113800,1,0,0:0:0:0:
329,192,113875,1,0,0:0:0:0:
475,192,113875,1,0,0:0:0:0:
36,192,113875,1,0,0:0:0:0:
109,192,113875,1,0,0:0:0:0:
256,192,113950,1,0,0:0:0:0:
402,192,113950,1,0,0:0:0:0:
329,192,114025,1,0,0:0:0:0:
182,192,114025,1,0,0:0:0:0:
256,192,114100,1,0,0:0:0:0:
109,192,114100,1,0,0:0:0:0:
36,192,114175,1,0,0:0:0:0:
329,192,114175,1,0,0:0:0:0:
402,192,114250,1,0,0:0:0:0:
109,192,114250,1,0,0:0:0:0:
475,192,114250,1,0,0:0:0:0:
256,192,114325,1,0,0:0:0:0:
182,192,114362,1,0,0:0:0:0:
109,192,114400,1,0,0:0:0:0:
36,192,114437,1,0,0:0:0:0:
329,192,114475,1,0,0:0:0:0:
402,192,114475,1,0,0:0:0:0:
475,192,114475,1,0,0:0:0:0:
182,192,114550,1,0,0:0:0:0:
109,192,114550,1,0,0:0:0:0:
36,192,114550,1,0,0:0:0:0:
256,192,114625,1,0,0:0:0:0:
402,192,114625,1,0,0:0:0:0:
329,192,114700,1,0,0:0:0:0:
475,192,114700,1,0,0:0:0:0:
256,192,114775,1,0,0:0:0:0:
36,192,114775,1,0,0:0:0:0:
109,192,114850,1,0,0:0:0:0:
329,192,114850,1,0,0:0:0:0:
182,192,114925,1,0,0:0:0:0:
402,192,114925,1,0,0:0:0:0:
329,192,114962,1,0,0:0:0:0:
475,192,115000,1,0,0:0:0:0:
256,192,115000,1,0,0:0:0:0:
109,192,115075,1,0,0:0:0:0:
36,192,115075,1,0,0:0:0:0:
182,192,115075,1,0,0:0:0:0:
329,192,115150,1,0,0:0:0:0:
402,192,115150,1,0,0:0:0:0:
475,192,115150,1,0,0:0:0:0:
36,192,115225,1,0,0:0:0:0:
256,192,115225,1,0,0:0:0:0:
109,192,115300,1,0,0:0:0:0:
329,192,115300,1,0,0:0:0:0:
402,192,115375,1,0,0:0:0:0:
182,192,115375,1,0,0:0:0:0:
475,192,115375,1,0,0:0:0:0:
256,192,115450,1,0,0:0:0:0:
109,192,115450,1,0,0:0:0:0:
36,192,115450,1,0,0:0:0:0:
329,192,115525,1,0,0:0:0:0:
402,192,115525,1,0,0:0:0:0:
475,192,115525,1,0,0:0:0:0:
182,192,115600,1,0,0:0:0:0:
36,192,115600,1,0,0:0:0:0:
329,192,115675,1,0,0:0:0:0:
475,192,115675,1,0,0:0:0:0:
182,192,115750,1,0,0:0:0:0:
109,192,115750,1,0,0:0:0:0:
36,192,115750,1,0,0:0:0:0:
256,192,115787,1,0,0:0:0:0:
329,192,115825,1,0,0:0:0:0:
402,192,115862,1,0,0:0:0:0:
182,192,115900,1,0,0:0:0:0:
109,192,115937,1,0,0:0:0:0:
475,192,115975,1,0,0:0:0:0:
36,192,115975,1,0,0:0:0:0:
329,192,115975,1,0,0:0:0:0:
402,192,115975,1,0,0:0:0:0:
109,192,116050,1,0,0:0:0:0:
182,192,116050,1,0,0:0:0:0:
256,192,116050,1,0,0:0:0:0:
36,192,116125,1,0,0:0:0:0:
475,192,116125,1,0,0:0:0:0:
402,192,116125,1,0,0:0:0:0:
182,192,116200,1,0,0:0:0:0:
256,192,116200,1,0,0:0:0:0:
329,192,116200,1,0,0:0:0:0:
36,192,116275,1,0,0:0:0:0:
475,192,116275,1,0,0:0:0:0:
109,192,116275,1,0,0:0:0:0:
329,192,116350,1,0,0:0:0:0:
182,192,116350,1,0,0:0:0:0:
256,192,116425,1,0,0:0:0:0:
475,192,116500,1,0,0:0:0:0:
36,192,116500,1,0,0:0:0:0:
402,192,116500,1,0,0:0:0:0:
109,192,116575,1,0,0:0:0:0:
329,192,116575,1,0,0:0:0:0:
475,192,116650,1,0,0:0:0:0:
256,192,116650,1,0,0:0:0:0:
36,192,116725,1,0,0:0:0:0:
182,192,116725,1,0,0:0:0:0:
475,192,116800,1,0,0:0:0:0:
256,192,116800,1,0,0:0:0:0:
182,192,116875,1,0,0:0:0:0:
329,192,116875,1,0,0:0:0:0:
109,192,116893,1,0,0:0:0:0:
36,192,116912,1,0,0:0:0:0:
402,192,116950,1,0,0:0:0:0:
475,192,117025,1,0,0:0:0:0:
182,192,117025,1,0,0:0:0:0:
109,192,117043,1,0,0:0:0:0:
36,192,117062,1,0,0:0:0:0:
256,192,117175,1,0,0:0:0:0:
182,192,117175,1,0,0:0:0:0:
475,192,117175,1,0,0:0:0:0:
109,192,117250,1,0,0:0:0:0:
36,192,117250,1,0,0:0:0:0:
402,192,117250,1,0,0:0:0:0:
256,192,117325,1,0,0:0:0:0:
329,192,117325,1,0,0:0:0:0:
182,192,117400,1,0,0:0:0:0:
36,192,117400,1,0,0:0:0:0:
329,192,117475,1,0,0:0:0:0:
109,192,117475,1,0,0:0:0:0:
402,192,117512,1,0,0:0:0:0:
475,192,117550,1,0,0:0:0:0:
182,192,117550,1,0,0:0:0:0:
256,192,117587,1,0,0:0:0:0:
329,192,117625,1,0,0:0:0:0:
36,192,117625,1,0,0:0:0:0:
109,192,117700,1,0,0:0:0:0:
402,192,117700,1,0,0:0:0:0:
182,192,117775,1,0,0:0:0:0:
475,192,117775,1,0,0:0:0:0:
109,192,117850,1,0,0:0:0:0:
36,192,117850,1,0,0:0:0:0:
256,192,117850,1,0,0:0:0:0:
402,192,117850,1,0,0:0:0:0:
329,192,117925,1,0,0:0:0:0:
182,192,118000,1,0,0:0:0:0:
475,192,118000,1,0,0:0:0:0:
256,192,118075,1,0,0:0:0:0:
36,192,118075,1,0,0:0:0:0:
109,192,118075,1,0,0:0:0:0:
329,192,118150,1,0,0:0:0:0:
402,192,118150,1,0,0:0:0:0:
475,192,118150,1,0,0:0:0:0:
182,192,118225,1,0,0:0:0:0:
36,192,118225,1,0,0:0:0:0:
256,192,118300,1,0,0:0:0:0:
402,192,118300,1,0,0:0:0:0:
329,192,118375,1,0,0:0:0:0:
475,192,118375,1,0,0:0:0:0:
36,192,118375,1,0,0:0:0:0:
182,192,118450,1,0,0:0:0:0:
256,192,118450,1,0,0:0:0:0:
109,192,118450,1,0,0:0:0:0:
475,192,118525,1,0,0:0:0:0:
36,192,118525,1,0,0:0:0:0:
402,192,118525,1,0,0:0:0:0:
329,192,118600,1,0,0:0:0:0:
256,192,118600,1,0,0:0:0:0:
182,192,118675,1,0,0:0:0:0:
36,192,118675,1,0,0:0:0:0:
475,192,118675,1,0,0:0:0:0:
402,192,118675,1,0,0:0:0:0:
256,192,118750,1,0,0:0:0:0:
109,192,118750,1,0,0:0:0:0:
182,192,118825,1,0,0:0:0:0:
329,192,118825,1,0,0:0:0:0:
256,192,118900,1,0,0:0:0:0:
402,192,118900,1,0,0:0:0:0:
475,192,118975,1,0,0:0:0:0:
182,192,118975,1,0,0:0:0:0:
109,192,119050,1,0,0:0:0:0:
402,192,119050,1,0,0:0:0:0:
36,192,119050,1,0,0:0:0:0:
256,192,119125,1,0,0:0:0:0:
329,192,119162,1,0,0:0:0:0:
402,192,119200,1,0,0:0:0:0:
475,192,119237,1,0,0:0:0:0:
182,192,119275,1,0,0:0:0:0:
109,192,119275,1,0,0:0:0:0:
36,192,119275,1,0,0:0:0:0:
329,192,119350,1,0,0:0:0:0:
402,192,119350,1,0,0:0:0:0:
475,192,119350,1,0,0:0:0:0:
256,192,119425,1,0,0:0:0:0:
109,192,119425,1,0,0:0:0:0:
182,192,119500,1,0,0:0:0:0:
36,192,119500,1,0,0:0:0:0:
256,192,119575,1,0,0:0:0:0:
475,192,119575,1,0,0:0:0:0:
402,192,119650,1,0,0:0:0:0:
182,192,119650,1,0,0:0:0:0:
329,192,119725,1,0,0:0:0:0:
109,192,119725,1,0,0:0:0:0:
182,192,119762,1,0,0:0:0:0:
36,192,119800,1,0,0:0:0:0:
256,192,119800,1,0,0:0:0:0:
475,192,119875,1,0,0:0:0:0:
402,192,119875,1,0,0:0:0:0:
329,192,119875,1,0,0:0:0:0:
182,192,119950,1,0,0:0:0:0:
109,192,119950,1,0,0:0:0:0:
36,192,119950,1,0,0:0:0:0:
475,192,120025,1,0,0:0:0:0:
256,192,120025,1,0,0:0:0:0:
402,192,120100,1,0,0:0:0:0:
182,192,120100,1,0,0:0:0:0:
109,192,120175,1,0,0:0:0:0:
329,192,120175,1,0,0:0:0:0:
36,192,120175,1,0,0:0:0:0:
256,192,120250,1,0,0:0:0:0:
402,192,120250,1,0,0:0:0:0:
475,192,120250,1,0,0:0:0:0:
182,192,120325,1,0,0:0:0:0:
109,192,120325,1,0,0:0:0:0:
36,192,120325,1,0,0:0:0:0:
329,192,120400,1,0,0:0:0:0:
475,192,120400,1,0,0:0:0:0:
182,192,120475,1,0,0:0:0:0:
36,192,120475,1,0,0:0:0:0:
329,192,120550,1,0,0:0:0:0:
402,192,120550,1,0,0:0:0:0:
475,192,120550,1,0,0:0:0:0:
256,192,120587,1,0,0:0:0:0:
182,192,120625,1,0,0:0:0:0:
109,192,120662,1,0,0:0:0:0:
329,192,120700,1,0,0:0:0:0:
402,192,120737,1,0,0:0:0:0:
182,192,120775,1,0,0:0:0:0:
109,192,120775,1,0,0:0:0:0:
36,192,120775,1,0,0:0:0:0:
475,192,120775,1,0,0:0:0:0:
256,192,120850,1,0,0:0:0:0:
329,192,120850,1,0,0:0:0:0:
402,192,120850,1,0,0:0:0:0:
109,192,120925,1,0,0:0:0:0:
36,192,120925,1,0,0:0:0:0:
475,192,120925,1,0,0:0:0:0:
182,192,121000,1,0,0:0:0:0:
256,192,121000,1,0,0:0:0:0:
329,192,121000,1,0,0:0:0:0:
402,192,121075,1,0,0:0:0:0:
36,192,121075,1,0,0:0:0:0:
475,192,121075,1,0,0:0:0:0:
329,192,121150,1,0,0:0:0:0:
182,192,121150,1,0,0:0:0:0:
256,192,121225,1,0,0:0:0:0:
109,192,121300,1,0,0:0:0:0:
475,192,121300,1,0,0:0:0:0:
36,192,121300,1,0,0:0:0:0:
182,192,121375,1,0,0:0:0:0:
402,192,121375,1,0,0:0:0:0:
256,192,121450,1,0,0:0:0:0:
36,192,121450,1,0,0:0:0:0:
329,192,121525,1,0,0:0:0:0:
475,192,121525,1,0,0:0:0:0:
256,192,121600,1,0,0:0:0:0:
36,192,121600,1,0,0:0:0:0:
182,192,121675,1,0,0:0:0:0:
329,192,121675,1,0,0:0:0:0:
402,192,121693,1,0,0:0:0:0:
475,192,121712,1,0,0:0:0:0:
109,192,121750,1,0,0:0:0:0:
329,192,121825,1,0,0:0:0:0:
36,192,121825,1,0,0:0:0:0:
402,192,121843,1,0,0:0:0:0:
475,192,121862,1,0,0:0:0:0:
36,192,121975,1,0,0:0:0:0:
329,192,121975,1,0,0:0:0:0:
256,192,121975,1,0,0:0:0:0:
109,192,122050,1,0,0:0:0:0:
475,192,122050,1,0,0:0:0:0:
402,192,122050,1,0,0:0:0:0:
182,192,122125,1,0,0:0:0:0:
256,192,122125,1,0,0:0:0:0:
475,192,122200,1,0,0:0:0:0:
329,192,122200,1,0,0:0:0:0:
402,192,122275,1,0,0:0:0:0:
182,192,122275,1,0,0:0:0:0:
109,192,122312,1,0,0:0:0:0:
329,192,122350,1,0,0:0:0:0:
36,192,122350,1,0,0:0:0:0:
256,192,122387,1,0,0:0:0:0:
475,192,122425,1,0,0:0:0:0:
182,192,122425,1,0,0:0:0:0:
109,192,122500,1,0,0:0:0:0:
402,192,122500,1,0,0:0:0:0:
36,192,122575,1,0,0:0:0:0:
329,192,122575,1,0,0:0:0:0:
256,192,122650,1,0,0:0:0:0:
109,192,122650,1,0,0:0:0:0:
402,192,122650,1,0,0:0:0:0:
475,192,122650,1,0,0:0:0:0:
182,192,122725,1,0,0:0:0:0:
36,192,122800,1,0,0:0:0:0:
329,192,122800,1,0,0:0:0:0:
402,192,122875,1,0,0:0:0:0:
475,192,122875,1,0,0:0:0:0:
256,192,122875,1,0,0:0:0:0:
36,192,122950,1,0,0:0:0:0:
109,192,122950,1,0,0:0:0:0:
182,192,122950,1,0,0:0:0:0:
475,192,123025,1,0,0:0:0:0:
329,192,123025,1,0,0:0:0:0:
109,192,123100,1,0,0:0:0:0:
256,192,123100,1,0,0:0:0:0:
475,192,123175,1,0,0:0:0:0:
36,192,123175,1,0,0:0:0:0:
182,192,123175,1,0,0:0:0:0:
402,192,123250,1,0,0:0:0:0:
256,192,123250,1,0,0:0:0:0:
329,192,123250,1,0,0:0:0:0:
109,192,123325,1,0,0:0:0:0:
475,192,123325,1,0,0:0:0:0:
36,192,123325,1,0,0:0:0:0:
256,192,123400,1,0,0:0:0:0:
182,192,123400,1,0,0:0:0:0:
36,192,123475,1,0,0:0:0:0:
109,192,123475,1,0,0:0:0:0:
329,192,123475,1,0,0:0:0:0:
475,192,123475,1,0,0:0:0:0:
402,192,123550,1,0,0:0:0:0:
256,192,123550,1,0,0:0:0:0:
182,192,123625,1,0,0:0:0:0:
329,192,123625,1,0,0:0:0:0:
109,192,123700,1,0,0:0:0:0:
256,192,123700,1,0,0:0:0:0:
329,192,123775,1,0,0:0:0:0:
36,192,123775,1,0,0:0:0:0:
475,192,123850,1,0,0:0:0:0:
109,192,123850,1,0,0:0:0:0:
402,192,123850,1,0,0:0:0:0:
256,192,123925,1,0,0:0:0:0:
182,192,123962,1,0,0:0:0:0:
109,192,124000,1,0,0:0:0:0:
36,192,124037,1,0,0:0:0:0:
475,192,124075,1,0,0:0:0:0:
402,192,124075,1,0,0:0:0:0:
329,192,124075,1,0,0:0:0:0:
36,192,124150,1,0,0:0:0:0:
109,192,124150,1,0,0:0:0:0:
182,192,124150,1,0,0:0:0:0:
402,192,124225,1,0,0:0:0:0:
256,192,124225,1,0,0:0:0:0:
475,192,124300,1,0,0:0:0:0:
329,192,124300,1,0,0:0:0:0:
36,192,124375,1,0,0:0:0:0:
256,192,124375,1,0,0:0:0:0:
329,192,124450,1,0,0:0:0:0:
109,192,124450,1,0,0:0:0:0:
402,192,124525,1,0,0:0:0:0:
182,192,124525,1,0,0:0:0:0:
329,192,124562,1,0,0:0:0:0:
256,192,124600,1,0,0:0:0:0:
475,192,124600,1,0,0:0:0:0:
182,192,124675,1,0,0:0:0:0:
109,192,124675,1,0,0:0:0:0:
36,192,124675,1,0,0:0:0:0:
475,192,124750,1,0,0:0:0:0:
402,192,124750,1,0,0:0:0:0:
329,192,124750,1,0,0:0:0:0:
256,192,124825,1,0,0:0:0:0:
36,192,124825,1,0,0:0:0:0:
329,192,124900,1,0,0:0:0:0:
109,192,124900,1,0,0:0:0:0:
475,192,124975,1,0,0:0:0:0:
182,192,124975,1,0,0:0:0:0:
402,192,124975,1,0,0:0:0:0:
36,192,125050,1,0,0:0:0:0:
109,192,125050,1,0,0:0:0:0:
256,192,125050,1,0,0:0:0:0:
475,192,125125,1,0,0:0:0:0:
402,192,125125,1,0,0:0:0:0:
329,192,125125,1,0,0:0:0:0:
36,192,125200,1,0,0:0:0:0:
182,192,125200,1,0,0:0:0:0:
475,192,125275,1,0,0:0:0:0:
329,192,125275,1,0,0:0:0:0:
36,192,125350,1,0,0:0:0:0:
109,192,125350,1,0,0:0:0:0:
182,192,125350,1,0,0:0:0:0:
256,192,125387,1,0,0:0:0:0:
329,192,125425,1,0,0:0:0:0:
402,192,125462,1,0,0:0:0:0:
182,192,125500,1,0,0:0:0:0:
109,192,125537,1,0,0:0:0:0:
402,192,125575,1,0,0:0:0:0:
36,192,125575,1,0,0:0:0:0:
329,192,125575,1,0,0:0:0:0:
475,192,125575,1,0,0:0:0:0:
256,192,125650,1,0,0:0:0:0:
182,192,125650,1,0,0:0:0:0:
109,192,125650,1,0,0:0:0:0:
402,192,125725,1,0,0:0:0:0:
475,192,125725,1,0,0:0:0:0:
36,192,125725,1,0,0:0:0:0:
256,192,125800,1,0,0:0:0:0:
182,192,125800,1,0,0:0:0:0:
329,192,125800,1,0,0:0:0:0:
36,192,125875,1,0,0:0:0:0:
475,192,125875,1,0,0:0:0:0:
109,192,125875,1,0,0:0:0:0:
182,192,125950,1,0,0:0:0:0:
402,192,125950,1,0,0:0:0:0:
329,192,126025,1,0,0:0:0:0:
109,192,126025,1,0,0:0:0:0:
36,192,126025,1,0,0:0:0:0:
475,192,126100,1,0,0:0:0:0:
256,192,126100,1,0,0:0:0:0:
402,192,126175,1,0,0:0:0:0:
109,192,126175,1,0,0:0:0:0:
182,192,126175,1,0,0:0:0:0:
36,192,126250,1,0,0:0:0:0:
329,192,126250,1,0,0:0:0:0:
182,192,126325,1,0,0:0:0:0:
475,192,126325,1,0,0:0:0:0:
256,192,126325,1,0,0:0:0:0:
109,192,126400,1,0,0:0:0:0:
402,192,126400,1,0,0:0:0:0:
256,192,126475,1,0,0:0:0:0:
36,192,126475,1,0,0:0:0:0:
182,192,126475,1,0,0:0:0:0:
329,192,126550,1,0,0:0:0:0:
475,192,126550,1,0,0:0:0:0:
402,192,126550,1,0,0:0:0:0:
182,192,126625,1,0,0:0:0:0:
36,192,126625,1,0,0:0:0:0:
109,192,126625,1,0,0:0:0:0:
256,192,126700,1,0,0:0:0:0:
402,192,126700,1,0,0:0:0:0:
475,192,126700,1,0,0:0:0:0:
182,192,126775,1,0,0:0:0:0:
109,192,126775,1,0,0:0:0:0:
36,192,126775,1,0,0:0:0:0:
329,192,126850,1,0,0:0:0:0:
402,192,126850,1,0,0:0:0:0:
475,192,126850,1,0,0:0:0:0:
109,192,126925,1,0,0:0:0:0:
36,192,126925,1,0,0:0:0:0:
256,192,126925,1,0,0:0:0:0:
475,192,127000,1,0,0:0:0:0:
182,192,127000,1,0,0:0:0:0:
256,192,127075,1,0,0:0:0:0:
36,192,127075,1,0,0:0:0:0:
402,192,127075,1,0,0:0:0:0:
109,192,127150,1,0,0:0:0:0:
329,192,127150,1,0,0:0:0:0:
182,192,127225,1,0,0:0:0:0:
402,192,127225,1,0,0:0:0:0:
475,192,127225,1,0,0:0:0:0:
256,192,127300,1,0,0:0:0:0:
36,192,127300,1,0,0:0:0:0:
109,192,127375,1,0,0:0:0:0:
329,192,127375,1,0,0:0:0:0:
402,192,127375,1,0,0:0:0:0:
475,192,127450,1,0,0:0:0:0:
182,192,127450,1,0,0:0:0:0:
256,192,127525,1,0,0:0:0:0:
36,192,127525,1,0,0:0:0:0:
329,192,127525,1,0,0:0:0:0:
402,192,127600,1,0,0:0:0:0:
109,192,127600,1,0,0:0:0:0:
329,192,127675,1,0,0:0:0:0:
475,192,127675,1,0,0:0:0:0:
256,192,127675,1,0,0:0:0:0:
182,192,127750,1,0,0:0:0:0:
109,192,127750,1,0,0:0:0:0:
36,192,127750,1,0,0:0:0:0:
329,192,127825,1,0,0:0:0:0:
402,192,127825,1,0,0:0:0:0:
475,192,127825,1,0,0:0:0:0:
109,192,127900,1,0,0:0:0:0:
36,192,127900,1,0,0:0:0:0:
256,192,127900,1,0,0:0:0:0:
475,192,127975,1,0,0:0:0:0:
329,192,127975,1,0,0:0:0:0:
402,192,127975,1,0,0:0:0:0:
182,192,128050,1,0,0:0:0:0:
109,192,128050,1,0,0:0:0:0:
36,192,128050,1,0,0:0:0:0:
329,192,128125,1,0,0:0:0:0:
402,192,128125,1,0,0:0:0:0:
475,192,128125,1,0,0:0:0:0:
109,192,128200,1,0,0:0:0:0:
256,192,128200,1,0,0:0:0:0:
36,192,128200,1,0,0:0:0:0:
329,192,128275,1,0,0:0:0:0:
182,192,128275,1,0,0:0:0:0:
475,192,128275,1,0,0:0:0:0:
402,192,128350,1,0,0:0:0:0:
109,192,128350,1,0,0:0:0:0:
182,192,128425,1,0,0:0:0:0:
329,192,128425,1,0,0:0:0:0:
36,192,128425,1,0,0:0:0:0:
256,192,128500,5,0,0:0:0:0:
475,192,128500,1,0,0:0:0:0:
109,192,128575,1,0,0:0:0:0:
402,192,128575,1,0,0:0:0:0:
182,192,128575,1,0,0:0:0:0:
329,192,128650,1,0,0:0:0:0:
36,192,128650,1,0,0:0:0:0:
475,192,128725,1,0,0:0:0:0:
256,192,128725,1,0,0:0:0:0:
182,192,128725,1,0,0:0:0:0:
109,192,128800,1,0,0:0:0:0:
402,192,128800,1,0,0:0:0:0:
182,192,128875,1,0,0:0:0:0:
475,192,128875,1,0,0:0:0:0:
36,192,128875,1,0,0:0:0:0:
256,192,128875,1,0,0:0:0:0:
329,192,128875,1,0,0:0:0:0:
182,192,129025,1,0,0:0:0:0:
36,192,129025,1,0,0:0:0:0:
402,192,129025,1,0,0:0:0:0:
329,192,129025,1,0,0:0:0:0:
109,192,129025,1,0,0:0:0:0:
182,192,129325,1,0,0:0:0:0:
109,192,129325,1,0,0:0:0:0:
36,192,129325,1,0,0:0:0:0:
329,192,129325,1,0,0:0:0:0:
402,192,129325,1,0,0:0:0:0:
256,192,129625,5,0,0:0:0:0:
329,192,129625,1,0,0:0:0:0:
402,192,129625,1,0,0:0:0:0:
36,192,129625,1,0,0:0:0:0:
109,192,129625,1,0,0:0:0:0:
109,192,129775,1,0,0:0:0:0:
182,192,129775,1,0,0:0:0:0:
256,192,129775,1,0,0:0:0:0:
402,192,129775,1,0,0:0:0:0:
475,192,129925,1,0,0:0:0:0:
182,192,129925,1,0,0:0:0:0:
256,192,129925,1,0,0:0:0:0:
329,192,129925,1,0,0:0:0:0:
36,192,129962,1,0,0:0:0:0:
109,192,130000,1,0,0:0:0:0:
182,192,130037,1,0,0:0:0:0:
256,192,130075,1,0,0:0:0:0:
329,192,130075,1,0,0:0:0:0:
402,192,130075,1,0,0:0:0:0:
475,192,130075,1,0,0:0:0:0:
182,192,130375,128,0,131275:0:0:0:0:
109,192,130375,128,0,130900:0:0:0:0:
329,192,130375,1,0,0:0:0:0:
475,192,130375,1,0,0:0:0:0:
36,192,130375,128,0,131275:0:0:0:0:
329,192,130675,1,0,0:0:0:0:
475,192,130675,1,0,0:0:0:0:
402,192,130675,1,0,0:0:0:0:
109,192,130975,128,0,131275:0:0:0:0:
329,192,130975,1,0,0:0:0:0:
475,192,130975,1,0,0:0:0:0:
329,192,131275,1,0,0:0:0:0:
475,192,131275,1,0,0:0:0:0:
402,192,131275,1,0,0:0:0:0:
182,192,131425,128,0,131500:0:0:0:0:
36,192,131425,128,0,131500:0:0:0:0:
256,192,131500,128,0,131575:0:0:0:0:
109,192,131500,128,0,131575:0:0:0:0:
182,192,131575,128,0,131650:0:0:0:0:
329,192,131575,128,0,131650:0:0:0:0:
475,192,131575,128,0,131650:0:0:0:0:
402,192,131575,1,0,0:0:0:0:
36,192,131725,1,0,0:0:0:0:
109,192,131875,128,0,131950:0:0:0:0:
256,192,131875,128,0,131950:0:0:0:0:
402,192,131875,128,0,131950:0:0:0:0:
475,192,131875,1,0,0:0:0:0:
36,192,132025,1,0,0:0:0:0:
402,192,132175,1,0,0:0:0:0:
182,192,132175,128,0,132250:0:0:0:0:
329,192,132175,128,0,132250:0:0:0:0:
475,192,132175,128,0,132250:0:0:0:0:
256,192,132475,1,0,0:0:0:0:
182,192,132775,1,0,0:0:0:0:
36,192,132775,1,0,0:0:0:0:
329,192,132775,1,0,0:0:0:0:
475,192,132775,1,0,0:0:0:0:
402,192,132775,1,0,0:0:0:0:
182,192,132925,1,0,0:0:0:0:
36,192,132925,1,0,0:0:0:0:
329,192,132925,1,0,0:0:0:0:
182,192,133000,128,0,133075:0:0:0:0:
329,192,133000,128,0,133075:0:0:0:0:
36,192,133000,128,0,133075:0:0:0:0:
109,192,133075,128,0,133150:0:0:0:0:
256,192,133075,128,0,133150:0:0:0:0:
402,192,133075,128,0,133150:0:0:0:0:
182,192,133225,128,0,133300:0:0:0:0:
329,192,133225,128,0,133300:0:0:0:0:
475,192,133225,128,0,133300:0:0:0:0:
329,192,133375,128,0,133450:0:0:0:0:
182,192,133375,128,0,133450:0:0:0:0:
36,192,133375,128,0,133450:0:0:0:0:
402,192,133525,1,0,0:0:0:0:
329,192,133575,1,0,0:0:0:0:
475,192,133625,128,0,133825:0:0:0:0:
256,192,133625,1,0,0:0:0:0:
109,192,133675,1,0,0:0:0:0:
36,192,133675,1,0,0:0:0:0:
402,192,133675,128,0,133825:0:0:0:0:
329,192,133725,128,0,133825:0:0:0:0:
256,192,133825,128,0,133900:0:0:0:0:
109,192,133825,128,0,133900:0:0:0:0:
182,192,133975,128,0,134050:0:0:0:0:
329,192,133975,128,0,134050:0:0:0:0:
475,192,133975,128,0,134050:0:0:0:0:
402,192,133975,1,0,0:0:0:0:
36,192,134125,1,0,0:0:0:0:
109,192,134275,128,0,134350:0:0:0:0:
256,192,134275,128,0,134350:0:0:0:0:
402,192,134275,128,0,134350:0:0:0:0:
475,192,134275,1,0,0:0:0:0:
36,192,134425,1,0,0:0:0:0:
182,192,134575,128,0,134650:0:0:0:0:
329,192,134575,128,0,134650:0:0:0:0:
475,192,134575,128,0,134650:0:0:0:0:
402,192,134575,1,0,0:0:0:0:
256,192,134875,128,0,135175:0:0:0:0:
182,192,135175,128,0,135325:0:0:0:0:
329,192,135175,128,0,135325:0:0:0:0:
36,192,135175,128,0,135325:0:0:0:0:
109,192,135175,1,0,0:0:0:0:
475,192,135325,1,0,0:0:0:0:
402,192,135325,1,0,0:0:0:0:
256,192,135400,1,0,0:0:0:0:
109,192,135400,1,0,0:0:0:0:
36,192,135400,1,0,0:0:0:0:
256,192,135475,128,0,135550:0:0:0:0:
109,192,135475,128,0,135550:0:0:0:0:
36,192,135475,128,0,135550:0:0:0:0:
109,192,135625,128,0,135700:0:0:0:0:
182,192,135625,128,0,135700:0:0:0:0:
329,192,135625,128,0,135700:0:0:0:0:
182,192,135775,128,0,135850:0:0:0:0:
256,192,135775,128,0,135850:0:0:0:0:
402,192,135775,128,0,135850:0:0:0:0:
402,192,135925,128,0,136000:0:0:0:0:
256,192,135925,128,0,136000:0:0:0:0:
329,192,135962,128,0,136037:0:0:0:0:
402,192,136075,128,0,136150:0:0:0:0:
109,192,136075,1,0,0:0:0:0:
36,192,136075,1,0,0:0:0:0:
475,192,136112,128,0,136187:0:0:0:0:
329,192,136112,128,0,136187:0:0:0:0:
36,192,136225,128,0,136300:0:0:0:0:
182,192,136225,128,0,136300:0:0:0:0:
109,192,136300,128,0,136375:0:0:0:0:
256,192,136300,128,0,136375:0:0:0:0:
182,192,136375,128,0,136450:0:0:0:0:
329,192,136375,128,0,136450:0:0:0:0:
475,192,136375,128,0,136450:0:0:0:0:
402,192,136375,1,0,0:0:0:0:
36,192,136525,1,0,0:0:0:0:
109,192,136675,128,0,136750:0:0:0:0:
256,192,136675,128,0,136750:0:0:0:0:
402,192,136675,128,0,136750:0:0:0:0:
475,192,136675,1,0,0:0:0:0:
36,192,136825,1,0,0:0:0:0:
329,192,136975,128,0,137050:0:0:0:0:
182,192,136975,128,0,137050:0:0:0:0:
475,192,136975,128,0,137050:0:0:0:0:
402,192,136975,1,0,0:0:0:0:
256,192,137275,1,0,0:0:0:0:
329,192,137575,1,0,0:0:0:0:
475,192,137575,1,0,0:0:0:0:
182,192,137575,1,0,0:0:0:0:
36,192,137575,1,0,0:0:0:0:
109,192,137575,1,0,0:0:0:0:
329,192,137725,1,0,0:0:0:0:
475,192,137725,1,0,0:0:0:0:
182,192,137725,1,0,0:0:0:0:
329,192,137800,128,0,137875:0:0:0:0:
182,192,137800,128,0,137875:0:0:0:0:
475,192,137800,128,0,137875:0:0:0:0:
402,192,137875,128,0,137950:0:0:0:0:
256,192,137875,128,0,137950:0:0:0:0:
109,192,137875,128,0,137950:0:0:0:0:
329,192,138025,128,0,138100:0:0:0:0:
182,192,138025,128,0,138100:0:0:0:0:
36,192,138025,128,0,138100:0:0:0:0:
475,192,138175,1,0,0:0:0:0:
36,192,138175,1,0,0:0:0:0:
256,192,138175,128,0,138325:0:0:0:0:
182,192,138212,128,0,138287:0:0:0:0:
329,192,138250,128,0,138362:0:0:0:0:
402,192,138287,128,0,138400:0:0:0:0:
109,192,138325,128,0,138400:0:0:0:0:
182,192,138362,128,0,138437:0:0:0:0:
256,192,138400,128,0,138475:0:0:0:0:
36,192,138475,1,0,0:0:0:0:
329,192,138475,128,0,138550:0:0:0:0:
475,192,138475,128,0,138550:0:0:0:0:
109,192,138475,1,0,0:0:0:0:
402,192,138475,128,0,138550:0:0:0:0:
256,192,138625,128,0,138700:0:0:0:0:
402,192,138625,128,0,138700:0:0:0:0:
475,192,138625,128,0,138700:0:0:0:0:
475,192,138775,128,0,138850:0:0:0:0:
329,192,138775,128,0,138850:0:0:0:0:
182,192,138775,128,0,138850:0:0:0:0:
402,192,138775,1,0,0:0:0:0:
36,192,138925,1,0,0:0:0:0:
256,192,139075,128,0,139150:0:0:0:0:
402,192,139075,128,0,139150:0:0:0:0:
475,192,139075,1,0,0:0:0:0:
109,192,139075,128,0,139150:0:0:0:0:
36,192,139225,1,0,0:0:0:0:
475,192,139375,128,0,139450:0:0:0:0:
182,192,139375,128,0,139450:0:0:0:0:
402,192,139375,1,0,0:0:0:0:
329,192,139375,128,0,139450:0:0:0:0:
256,192,139525,1,0,0:0:0:0:
109,192,139525,1,0,0:0:0:0:
36,192,139525,1,0,0:0:0:0:
256,192,139675,1,0,0:0:0:0:
36,192,139675,1,0,0:0:0:0:
109,192,139675,1,0,0:0:0:0:
182,192,139975,1,0,0:0:0:0:
36,192,139975,1,0,0:0:0:0:
329,192,139975,1,0,0:0:0:0:
475,192,139975,1,0,0:0:0:0:
256,192,140050,1,0,0:0:0:0:
402,192,140050,1,0,0:0:0:0:
329,192,140125,1,0,0:0:0:0:
182,192,140125,1,0,0:0:0:0:
109,192,140200,1,0,0:0:0:0:
402,192,140200,1,0,0:0:0:0:
256,192,140275,1,0,0:0:0:0:
36,192,140275,1,0,0:0:0:0:
475,192,140275,1,0,0:0:0:0:
329,192,140350,1,0,0:0:0:0:
109,192,140350,1,0,0:0:0:0:
402,192,140425,1,0,0:0:0:0:
182,192,140425,1,0,0:0:0:0:
256,192,140500,1,0,0:0:0:0:
475,192,140500,1,0,0:0:0:0:
329,192,140575,1,0,0:0:0:0:
109,192,140575,1,0,0:0:0:0:
36,192,140575,1,0,0:0:0:0:
182,192,140650,1,0,0:0:0:0:
402,192,140650,1,0,0:0:0:0:
256,192,140725,1,0,0:0:0:0:
36,192,140725,1,0,0:0:0:0:
329,192,140800,1,0,0:0:0:0:
109,192,140800,1,0,0:0:0:0:
256,192,140875,1,0,0:0:0:0:
182,192,140875,1,0,0:0:0:0:
475,192,140875,1,0,0:0:0:0:
109,192,140950,1,0,0:0:0:0:
36,192,140950,1,0,0:0:0:0:
256,192,141025,1,0,0:0:0:0:
329,192,141025,1,0,0:0:0:0:
475,192,141025,1,0,0:0:0:0:
182,192,141100,1,0,0:0:0:0:
109,192,141100,1,0,0:0:0:0:
36,192,141175,1,0,0:0:0:0:
329,192,141175,1,0,0:0:0:0:
475,192,141175,1,0,0:0:0:0:
256,192,141250,1,0,0:0:0:0:
402,192,141250,1,0,0:0:0:0:
329,192,141325,1,0,0:0:0:0:
182,192,141325,1,0,0:0:0:0:
109,192,141400,1,0,0:0:0:0:
402,192,141400,1,0,0:0:0:0:
256,192,141475,1,0,0:0:0:0:
36,192,141475,1,0,0:0:0:0:
475,192,141475,1,0,0:0:0:0:
329,192,141550,1,0,0:0:0:0:
109,192,141550,1,0,0:0:0:0:
402,192,141625,1,0,0:0:0:0:
182,192,141625,1,0,0:0:0:0:
256,192,141700,1,0,0:0:0:0:
475,192,141700,1,0,0:0:0:0:
329,192,141775,1,0,0:0:0:0:
109,192,141775,1,0,0:0:0:0:
36,192,141775,1,0,0:0:0:0:
182,192,141850,1,0,0:0:0:0:
402,192,141850,1,0,0:0:0:0:
256,192,141925,1,0,0:0:0:0:
36,192,141925,1,0,0:0:0:0:
329,192,142000,1,0,0:0:0:0:
109,192,142000,1,0,0:0:0:0:
256,192,142075,1,0,0:0:0:0:
182,192,142075,1,0,0:0:0:0:
475,192,142075,1,0,0:0:0:0:
109,192,142150,1,0,0:0:0:0:
36,192,142150,1,0,0:0:0:0:
256,192,142225,1,0,0:0:0:0:
329,192,142225,1,0,0:0:0:0:
475,192,142225,1,0,0:0:0:0:
182,192,142300,1,0,0:0:0:0:
109,192,142300,1,0,0:0:0:0:
329,192,142375,1,0,0:0:0:0:
475,192,142375,1,0,0:0:0:0:
36,192,142375,1,0,0:0:0:0:
402,192,142450,1,0,0:0:0:0:
256,192,142450,1,0,0:0:0:0:
182,192,142525,1,0,0:0:0:0:
329,192,142525,1,0,0:0:0:0:
402,192,142600,1,0,0:0:0:0:
109,192,142600,1,0,0:0:0:0:
475,192,142675,1,0,0:0:0:0:
36,192,142675,1,0,0:0:0:0:
256,192,142675,1,0,0:0:0:0:
109,192,142750,1,0,0:0:0:0:
329,192,142750,1,0,0:0:0:0:
182,192,142825,1,0,0:0:0:0:
402,192,142825,1,0,0:0:0:0:
475,192,142900,1,0,0:0:0:0:
256,192,142900,1,0,0:0:0:0:
36,192,142975,1,0,0:0:0:0:
109,192,142975,1,0,0:0:0:0:
329,192,142975,1,0,0:0:0:0:
402,192,143050,1,0,0:0:0:0:
182,192,143050,1,0,0:0:0:0:
36,192,143125,1,0,0:0:0:0:
256,192,143125,1,0,0:0:0:0:
109,192,143200,1,0,0:0:0:0:
329,192,143200,1,0,0:0:0:0:
475,192,143275,1,0,0:0:0:0:
182,192,143275,1,0,0:0:0:0:
256,192,143275,1,0,0:0:0:0:
36,192,143350,1,0,0:0:0:0:
109,192,143350,1,0,0:0:0:0:
329,192,143425,1,0,0:0:0:0:
256,192,143425,1,0,0:0:0:0:
475,192,143425,1,0,0:0:0:0:
109,192,143500,1,0,0:0:0:0:
182,192,143500,1,0,0:0:0:0:
36,192,143575,1,0,0:0:0:0:
256,192,143575,1,0,0:0:0:0:
475,192,143575,1,0,0:0:0:0:
329,192,143650,1,0,0:0:0:0:
182,192,143650,1,0,0:0:0:0:
109,192,143725,1,0,0:0:0:0:
402,192,143725,1,0,0:0:0:0:
329,192,143800,1,0,0:0:0:0:
182,192,143800,1,0,0:0:0:0:
256,192,143875,1,0,0:0:0:0:
475,192,143875,1,0,0:0:0:0:
36,192,143875,1,0,0:0:0:0:
109,192,143950,1,0,0:0:0:0:
402,192,143950,1,0,0:0:0:0:
329,192,144025,1,0,0:0:0:0:
182,192,144025,1,0,0:0:0:0:
109,192,144100,1,0,0:0:0:0:
402,192,144100,1,0,0:0:0:0:
475,192,144175,1,0,0:0:0:0:
256,192,144175,1,0,0:0:0:0:
36,192,144175,1,0,0:0:0:0:
182,192,144250,1,0,0:0:0:0:
329,192,144250,1,0,0:0:0:0:
402,192,144325,1,0,0:0:0:0:
109,192,144325,1,0,0:0:0:0:
329,192,144400,1,0,0:0:0:0:
182,192,144400,1,0,0:0:0:0:
475,192,144475,1,0,0:0:0:0:
256,192,144475,1,0,0:0:0:0:
36,192,144475,1,0,0:0:0:0:
329,192,144550,1,0,0:0:0:0:
109,192,144550,1,0,0:0:0:0:
182,192,144625,1,0,0:0:0:0:
475,192,144625,1,0,0:0:0:0:
402,192,144625,1,0,0:0:0:0:
109,192,144700,1,0,0:0:0:0:
256,192,144700,1,0,0:0:0:0:
329,192,144775,1,0,0:0:0:0:
182,192,144775,1,0,0:0:0:0:
36,192,144775,1,0,0:0:0:0:
256,192,144850,1,0,0:0:0:0:
402,192,144850,1,0,0:0:0:0:
182,192,144925,1,0,0:0:0:0:
329,192,144925,1,0,0:0:0:0:
402,192,145000,1,0,0:0:0:0:
109,192,145000,1,0,0:0:0:0:
256,192,145075,1,0,0:0:0:0:
475,192,145075,1,0,0:0:0:0:
36,192,145075,1,0,0:0:0:0:
182,192,145150,1,0,0:0:0:0:
402,192,145150,1,0,0:0:0:0:
109,192,145225,1,0,0:0:0:0:
329,192,145225,1,0,0:0:0:0:
256,192,145300,1,0,0:0:0:0:
36,192,145300,1,0,0:0:0:0:
182,192,145375,1,0,0:0:0:0:
402,192,145375,1,0,0:0:0:0:
475,192,145375,1,0,0:0:0:0:
329,192,145450,1,0,0:0:0:0:
109,192,145450,1,0,0:0:0:0:
256,192,145525,1,0,0:0:0:0:
475,192,145525,1,0,0:0:0:0:
182,192,145600,1,0,0:0:0:0:
402,192,145600,1,0,0:0:0:0:
256,192,145675,1,0,0:0:0:0:
329,192,145675,1,0,0:0:0:0:
36,192,145675,1,0,0:0:0:0:
402,192,145750,1,0,0:0:0:0:
475,192,145750,1,0,0:0:0:0:
256,192,145825,1,0,0:0:0:0:
182,192,145825,1,0,0:0:0:0:
36,192,145825,1,0,0:0:0:0:
329,192,145900,1,0,0:0:0:0:
402,192,145900,1,0,0:0:0:0:
475,192,145975,1,0,0:0:0:0:
182,192,145975,1,0,0:0:0:0:
36,192,145975,1,0,0:0:0:0:
256,192,146050,1,0,0:0:0:0:
109,192,146050,1,0,0:0:0:0:
182,192,146125,1,0,0:0:0:0:
329,192,146125,1,0,0:0:0:0:
402,192,146200,1,0,0:0:0:0:
109,192,146200,1,0,0:0:0:0:
256,192,146275,1,0,0:0:0:0:
475,192,146275,1,0,0:0:0:0:
36,192,146275,1,0,0:0:0:0:
182,192,146350,1,0,0:0:0:0:
402,192,146350,1,0,0:0:0:0:
109,192,146425,1,0,0:0:0:0:
329,192,146425,1,0,0:0:0:0:
256,192,146500,1,0,0:0:0:0:
36,192,146500,1,0,0:0:0:0:
182,192,146575,1,0,0:0:0:0:
402,192,146575,1,0,0:0:0:0:
475,192,146575,1,0,0:0:0:0:
329,192,146650,1,0,0:0:0:0:
109,192,146650,1,0,0:0:0:0:
256,192,146725,1,0,0:0:0:0:
475,192,146725,1,0,0:0:0:0:
182,192,146800,1,0,0:0:0:0:
402,192,146800,1,0,0:0:0:0:
256,192,146875,1,0,0:0:0:0:
329,192,146875,1,0,0:0:0:0:
36,192,146875,1,0,0:0:0:0:
402,192,146950,1,0,0:0:0:0:
475,192,146950,1,0,0:0:0:0:
256,192,147025,1,0,0:0:0:0:
182,192,147025,1,0,0:0:0:0:
36,192,147025,1,0,0:0:0:0:
329,192,147100,1,0,0:0:0:0:
402,192,147100,1,0,0:0:0:0:
475,192,147175,1,0,0:0:0:0:
182,192,147175,1,0,0:0:0:0:
36,192,147175,1,0,0:0:0:0:
256,192,147250,1,0,0:0:0:0:
109,192,147250,1,0,0:0:0:0:
182,192,147325,1,0,0:0:0:0:
329,192,147325,1,0,0:0:0:0:
402,192,147400,1,0,0:0:0:0:
109,192,147400,1,0,0:0:0:0:
256,192,147475,1,0,0:0:0:0:
475,192,147475,1,0,0:0:0:0:
36,192,147475,1,0,0:0:0:0:
182,192,147550,1,0,0:0:0:0:
402,192,147550,1,0,0:0:0:0:
109,192,147625,1,0,0:0:0:0:
329,192,147625,1,0,0:0:0:0:
256,192,147700,1,0,0:0:0:0:
36,192,147700,1,0,0:0:0:0:
182,192,147775,1,0,0:0:0:0:
402,192,147775,1,0,0:0:0:0:
475,192,147775,1,0,0:0:0:0:
329,192,147850,1,0,0:0:0:0:
109,192,147850,1,0,0:0:0:0:
256,192,147925,1,0,0:0:0:0:
475,192,147925,1,0,0:0:0:0:
182,192,148000,1,0,0:0:0:0:
402,192,148000,1,0,0:0:0:0:
256,192,148075,1,0,0:0:0:0:
329,192,148075,1,0,0:0:0:0:
36,192,148075,1,0,0:0:0:0:
402,192,148150,1,0,0:0:0:0:
475,192,148150,1,0,0:0:0:0:
256,192,148225,1,0,0:0:0:0:
182,192,148225,1,0,0:0:0:0:
36,192,148225,1,0,0:0:0:0:
329,192,148300,1,0,0:0:0:0:
402,192,148300,1,0,0:0:0:0:
475,192,148375,1,0,0:0:0:0:
182,192,148375,1,0,0:0:0:0:
36,192,148375,1,0,0:0:0:0:
256,192,148450,1,0,0:0:0:0:
109,192,148450,1,0,0:0:0:0:
182,192,148525,1,0,0:0:0:0:
329,192,148525,1,0,0:0:0:0:
402,192,148600,1,0,0:0:0:0:
109,192,148600,1,0,0:0:0:0:
256,192,148675,1,0,0:0:0:0:
475,192,148675,1,0,0:0:0:0:
36,192,148675,1,0,0:0:0:0:
182,192,148750,1,0,0:0:0:0:
402,192,148750,1,0,0:0:0:0:
109,192,148825,1,0,0:0:0:0:
329,192,148825,1,0,0:0:0:0:
256,192,148900,1,0,0:0:0:0:
36,192,148900,1,0,0:0:0:0:
182,192,148975,1,0,0:0:0:0:
402,192,148975,1,0,0:0:0:0:
475,192,148975,1,0,0:0:0:0:
329,192,149050,1,0,0:0:0:0:
109,192,149050,1,0,0:0:0:0:
256,192,149125,1,0,0:0:0:0:
475,192,149125,1,0,0:0:0:0:
182,192,149200,1,0,0:0:0:0:
402,192,149200,1,0,0:0:0:0:
256,192,149275,1,0,0:0:0:0:
329,192,149275,1,0,0:0:0:0:
36,192,149275,1,0,0:0:0:0:
402,192,149350,1,0,0:0:0:0:
475,192,149350,1,0,0:0:0:0:
256,192,149425,1,0,0:0:0:0:
182,192,149425,1,0,0:0:0:0:
36,192,149425,1,0,0:0:0:0:
329,192,149500,1,0,0:0:0:0:
402,192,149500,1,0,0:0:0:0:
36,192,149575,128,0,149725:0:0:0:0:
109,192,149575,128,0,149725:0:0:0:0:
182,192,149575,128,0,149650:0:0:0:0:
256,192,149575,128,0,149650:0:0:0:0:
256,192,149725,1,0,0:0:0:0:
182,192,149725,1,0,0:0:0:0:
329,192,149762,1,0,0:0:0:0:
109,192,149800,1,0,0:0:0:0:
36,192,149800,1,0,0:0:0:0:
182,192,149837,1,0,0:0:0:0:
475,192,149875,1,0,0:0:0:0:
256,192,149875,1,0,0:0:0:0:
402,192,149875,1,0,0:0:0:0:
402,192,150025,1,0,0:0:0:0:
329,192,150100,1,0,0:0:0:0:
109,192,150175,1,0,0:0:0:0:
36,192,150175,1,0,0:0:0:0:
475,192,150175,1,0,0:0:0:0:
402,192,150250,1,0,0:0:0:0:
256,192,150250,1,0,0:0:0:0:
182,192,150250,1,0,0:0:0:0:
329,192,150325,1,0,0:0:0:0:
475,192,150325,1,0,0:0:0:0:
36,192,150325,1,0,0:0:0:0:
109,192,150400,1,0,0:0:0:0:
182,192,150400,1,0,0:0:0:0:
36,192,150475,128,0,150625:0:0:0:0:
256,192,150475,1,0,0:0:0:0:
402,192,150625,128,0,150700:0:0:0:0:
475,192,150625,128,0,150700:0:0:0:0:
256,192,150625,128,0,150700:0:0:0:0:
182,192,150775,1,0,0:0:0:0:
109,192,150775,1,0,0:0:0:0:
36,192,150775,1,0,0:0:0:0:
329,192,150775,1,0,0:0:0:0:
475,192,150775,1,0,0:0:0:0:
182,192,150925,1,0,0:0:0:0:
329,192,150925,1,0,0:0:0:0:
182,192,151000,1,0,0:0:0:0:
402,192,151000,1,0,0:0:0:0:
256,192,151075,1,0,0:0:0:0:
475,192,151075,1,0,0:0:0:0:
109,192,151075,1,0,0:0:0:0:
36,192,151075,1,0,0:0:0:0:
36,192,151225,1,0,0:0:0:0:
182,192,151225,1,0,0:0:0:0:
36,192,151300,1,0,0:0:0:0:
182,192,151300,1,0,0:0:0:0:
402,192,151375,1,0,0:0:0:0:
475,192,151375,1,0,0:0:0:0:
329,192,151375,1,0,0:0:0:0:
256,192,151450,1,0,0:0:0:0:
109,192,151450,1,0,0:0:0:0:
402,192,151525,1,0,0:0:0:0:
329,192,151600,1,0,0:0:0:0:
182,192,151600,1,0,0:0:0:0:
256,192,151675,128,0,151750:0:0:0:0:
475,192,151675,128,0,151750:0:0:0:0:
36,192,151675,1,0,0:0:0:0:
402,192,151825,128,0,151900:0:0:0:0:
475,192,151825,128,0,151900:0:0:0:0:
109,192,151825,1,0,0:0:0:0:
182,192,151900,1,0,0:0:0:0:
256,192,151975,1,0,0:0:0:0:
402,192,151975,1,0,0:0:0:0:
475,192,151975,1,0,0:0:0:0:
329,192,151975,1,0,0:0:0:0:
36,192,151975,128,0,155575:0:0:0:0:
109,192,152012,128,0,152875:0:0:0:0:
182,192,152050,128,0,152875:0:0:0:0:
256,192,152275,1,0,0:0:0:0:
475,192,152275,1,0,0:0:0:0:
402,192,152275,1,0,0:0:0:0:
402,192,152425,1,0,0:0:0:0:
329,192,152575,1,0,0:0:0:0:
402,192,152650,1,0,0:0:0:0:
256,192,152725,1,0,0:0:0:0:
329,192,152800,1,0,0:0:0:0:
475,192,152875,1,0,0:0:0:0:
256,192,152875,128,0,152950:0:0:0:0:
402,192,152875,128,0,152950:0:0:0:0:
182,192,153025,128,0,153100:0:0:0:0:
329,192,153025,128,0,153100:0:0:0:0:
256,192,153175,1,0,0:0:0:0:
182,192,153212,1,0,0:0:0:0:
329,192,153250,1,0,0:0:0:0:
402,192,153287,1,0,0:0:0:0:
109,192,153325,1,0,0:0:0:0:
182,192,153362,1,0,0:0:0:0:
329,192,153400,1,0,0:0:0:0:
256,192,153437,1,0,0:0:0:0:
402,192,153475,1,0,0:0:0:0:
475,192,153475,1,0,0:0:0:0:
109,192,153775,1,0,0:0:0:0:
109,192,153850,1,0,0:0:0:0:
109,192,153925,128,0,154075:0:0:0:0:
256,192,154075,128,0,154150:0:0:0:0:
402,192,154075,128,0,154150:0:0:0:0:
475,192,154075,128,0,154150:0:0:0:0:
182,192,154375,1,0,0:0:0:0:
329,192,154375,1,0,0:0:0:0:
182,192,154525,1,0,0:0:0:0:
329,192,154525,1,0,0:0:0:0:
402,192,154675,1,0,0:0:0:0:
109,192,154675,1,0,0:0:0:0:
475,192,154712,1,0,0:0:0:0:
329,192,154750,1,0,0:0:0:0:
256,192,154787,1,0,0:0:0:0:
109,192,154825,1,0,0:0:0:0:
182,192,154825,1,0,0:0:0:0:
329,192,154900,1,0,0:0:0:0:
402,192,154900,1,0,0:0:0:0:
182,192,154975,1,0,0:0:0:0:
329,192,155050,1,0,0:0:0:0:
256,192,155125,1,0,0:0:0:0:
109,192,155125,1,0,0:0:0:0:
402,192,155125,1,0,0:0:0:0:
329,192,155275,128,0,155575:0:0:0:0:
109,192,155275,1,0,0:0:0:0:
182,192,155312,1,0,0:0:0:0:
109,192,155425,128,0,155575:0:0:0:0:
182,192,155462,128,0,155575:0:0:0:0:
256,192,155575,1,0,0:0:0:0:
475,192,155575,1,0,0:0:0:0:
329,192,155725,1,0,0:0:0:0:
402,192,155875,1,0,0:0:0:0:
475,192,155875,1,0,0:0:0:0:
256,192,155875,1,0,0:0:0:0:
36,192,155875,1,0,0:0:0:0:
182,192,156025,1,0,0:0:0:0:
329,192,156100,1,0,0:0:0:0:
36,192,156175,1,0,0:0:0:0:
475,192,156175,1,0,0:0:0:0:
182,192,156250,1,0,0:0:0:0:
329,192,156250,1,0,0:0:0:0:
256,192,156325,1,0,0:0:0:0:
109,192,156325,1,0,0:0:0:0:
402,192,156325,1,0,0:0:0:0:
256,192,156475,1,0,0:0:0:0:
36,192,156775,1,0,0:0:0:0:
109,192,156775,1,0,0:0:0:0:
402,192,156775,1,0,0:0:0:0:
475,192,156775,1,0,0:0:0:0:
182,192,156775,1,0,0:0:0:0:
256,192,156850,1,0,0:0:0:0:
329,192,156850,1,0,0:0:0:0:
109,192,156925,1,0,0:0:0:0:
36,192,156925,1,0,0:0:0:0:
475,192,156925,1,0,0:0:0:0:
256,192,157000,1,0,0:0:0:0:
329,192,157000,1,0,0:0:0:0:
182,192,157075,1,0,0:0:0:0:
475,192,157075,1,0,0:0:0:0:
36,192,157075,1,0,0:0:0:0:
109,192,157150,1,0,0:0:0:0:
256,192,157150,1,0,0:0:0:0:
182,192,157225,1,0,0:0:0:0:
329,192,157225,1,0,0:0:0:0:
475,192,157225,1,0,0:0:0:0:
109,192,157300,1,0,0:0:0:0:
36,192,157300,1,0,0:0:0:0:
402,192,157375,128,0,157450:0:0:0:0:
256,192,157375,128,0,157450:0:0:0:0:
329,192,157375,1,0,0:0:0:0:
182,192,157450,1,0,0:0:0:0:
109,192,157450,1,0,0:0:0:0:
36,192,157525,1,0,0:0:0:0:
475,192,157525,1,0,0:0:0:0:
329,192,157600,128,0,157675:0:0:0:0:
182,192,157600,128,0,157675:0:0:0:0:
109,192,157675,1,0,0:0:0:0:
402,192,157675,1,0,0:0:0:0:
36,192,157675,1,0,0:0:0:0:
475,192,157675,1,0,0:0:0:0:
256,192,157825,128,0,157900:0:0:0:0:
109,192,157825,128,0,157900:0:0:0:0:
475,192,157975,1,0,0:0:0:0:
402,192,157975,1,0,0:0:0:0:
109,192,157975,1,0,0:0:0:0:
36,192,157975,1,0,0:0:0:0:
329,192,157975,1,0,0:0:0:0:
256,192,158050,1,0,0:0:0:0:
182,192,158050,1,0,0:0:0:0:
402,192,158125,1,0,0:0:0:0:
475,192,158125,1,0,0:0:0:0:
36,192,158125,1,0,0:0:0:0:
256,192,158200,1,0,0:0:0:0:
182,192,158200,1,0,0:0:0:0:
329,192,158275,1,0,0:0:0:0:
36,192,158275,1,0,0:0:0:0:
475,192,158275,1,0,0:0:0:0:
402,192,158350,1,0,0:0:0:0:
256,192,158350,1,0,0:0:0:0:
329,192,158425,1,0,0:0:0:0:
182,192,158425,1,0,0:0:0:0:
36,192,158425,1,0,0:0:0:0:
402,192,158500,1,0,0:0:0:0:
475,192,158500,1,0,0:0:0:0:
109,192,158575,128,0,158650:0:0:0:0:
256,192,158575,128,0,158650:0:0:0:0:
182,192,158575,1,0,0:0:0:0:
329,192,158650,1,0,0:0:0:0:
402,192,158650,1,0,0:0:0:0:
475,192,158725,1,0,0:0:0:0:
36,192,158725,1,0,0:0:0:0:
182,192,158800,128,0,158875:0:0:0:0:
329,192,158800,128,0,158875:0:0:0:0:
402,192,158875,1,0,0:0:0:0:
109,192,158875,1,0,0:0:0:0:
475,192,158875,1,0,0:0:0:0:
36,192,158875,1,0,0:0:0:0:
402,192,159025,128,0,159100:0:0:0:0:
256,192,159025,128,0,159100:0:0:0:0:
36,192,159175,1,0,0:0:0:0:
402,192,159175,1,0,0:0:0:0:
475,192,159175,1,0,0:0:0:0:
256,192,159175,1,0,0:0:0:0:
109,192,159212,1,0,0:0:0:0:
182,192,159250,1,0,0:0:0:0:
329,192,159250,1,0,0:0:0:0:
256,192,159287,1,0,0:0:0:0:
402,192,159325,1,0,0:0:0:0:
475,192,159325,1,0,0:0:0:0:
36,192,159325,1,0,0:0:0:0:
109,192,159362,1,0,0:0:0:0:
329,192,159400,1,0,0:0:0:0:
182,192,159400,1,0,0:0:0:0:
256,192,159475,1,0,0:0:0:0:
475,192,159475,1,0,0:0:0:0:
402,192,159475,1,0,0:0:0:0:
109,192,159475,1,0,0:0:0:0:
36,192,159475,1,0,0:0:0:0:
109,192,159775,1,0,0:0:0:0:
256,192,159775,1,0,0:0:0:0:
36,192,159775,1,0,0:0:0:0:
475,192,159775,1,0,0:0:0:0:
402,192,159812,1,0,0:0:0:0:
329,192,159850,1,0,0:0:0:0:
182,192,159850,1,0,0:0:0:0:
256,192,159887,1,0,0:0:0:0:
475,192,159925,1,0,0:0:0:0:
36,192,159925,1,0,0:0:0:0:
109,192,159925,1,0,0:0:0:0:
402,192,159962,1,0,0:0:0:0:
182,192,160000,1,0,0:0:0:0:
329,192,160000,1,0,0:0:0:0:
256,192,160075,1,0,0:0:0:0:
109,192,160075,1,0,0:0:0:0:
36,192,160075,1,0,0:0:0:0:
402,192,160075,1,0,0:0:0:0:
475,192,160075,1,0,0:0:0:0:
256,192,160375,1,0,0:0:0:0:
475,192,160375,1,0,0:0:0:0:
402,192,160375,1,0,0:0:0:0:
109,192,160375,1,0,0:0:0:0:
36,192,160375,1,0,0:0:0:0:
182,192,160450,1,0,0:0:0:0:
329,192,160450,1,0,0:0:0:0:
256,192,160525,1,0,0:0:0:0:
109,192,160525,1,0,0:0:0:0:
402,192,160525,1,0,0:0:0:0:
36,192,160600,1,0,0:0:0:0:
475,192,160600,1,0,0:0:0:0:
182,192,160675,1,0,0:0:0:0:
402,192,160675,1,0,0:0:0:0:
256,192,160712,1,0,0:0:0:0:
109,192,160750,1,0,0:0:0:0:
329,192,160750,1,0,0:0:0:0:
36,192,160787,1,0,0:0:0:0:
256,192,160825,1,0,0:0:0:0:
475,192,160825,1,0,0:0:0:0:
329,192,160862,1,0,0:0:0:0:
402,192,160900,1,0,0:0:0:0:
182,192,160900,1,0,0:0:0:0:
109,192,160937,1,0,0:0:0:0:
36,192,160975,1,0,0:0:0:0:
475,192,160975,1,0,0:0:0:0:
402,192,161012,1,0,0:0:0:0:
329,192,161050,1,0,0:0:0:0:
109,192,161050,1,0,0:0:0:0:
182,192,161087,1,0,0:0:0:0:
256,192,161125,1,0,0:0:0:0:
329,192,161162,1,0,0:0:0:0:
402,192,161200,1,0,0:0:0:0:
182,192,161200,1,0,0:0:0:0:
109,192,161237,1,0,0:0:0:0:
36,192,161275,1,0,0:0:0:0:
475,192,161275,1,0,0:0:0:0:
402,192,161312,1,0,0:0:0:0:
329,192,161350,1,0,0:0:0:0:
109,192,161350,1,0,0:0:0:0:
182,192,161387,1,0,0:0:0:0:
256,192,161425,1,0,0:0:0:0:
329,192,161462,1,0,0:0:0:0:
402,192,161500,1,0,0:0:0:0:
182,192,161500,1,0,0:0:0:0:
109,192,161537,1,0,0:0:0:0:
475,192,161575,1,0,0:0:0:0:
36,192,161575,1,0,0:0:0:0:
256,192,161575,1,0,0:0:0:0:
182,192,161612,1,0,0:0:0:0:
329,192,161650,1,0,0:0:0:0:
109,192,161687,1,0,0:0:0:0:
256,192,161725,1,0,0:0:0:0:
402,192,161762,1,0,0:0:0:0:
182,192,161800,1,0,0:0:0:0:
329,192,161837,1,0,0:0:0:0:
36,192,161875,1,0,0:0:0:0:
109,192,161875,1,0,0:0:0:0:
475,192,161950,1,0,0:0:0:0:
402,192,161950,1,0,0:0:0:0:
109,192,162025,1,0,0:0:0:0:
36,192,162025,1,0,0:0:0:0:
329,192,162100,1,0,0:0:0:0:
402,192,162100,1,0,0:0:0:0:
109,192,162175,1,0,0:0:0:0:
36,192,162175,1,0,0:0:0:0:
256,192,162250,1,0,0:0:0:0:
329,192,162250,1,0,0:0:0:0:
36,192,162325,1,0,0:0:0:0:
475,192,162325,1,0,0:0:0:0:
256,192,162400,1,0,0:0:0:0:
182,192,162400,1,0,0:0:0:0:
402,192,162475,1,0,0:0:0:0:
475,192,162475,1,0,0:0:0:0:
182,192,162550,1,0,0:0:0:0:
109,192,162550,1,0,0:0:0:0:
402,192,162625,1,0,0:0:0:0:
475,192,162625,1,0,0:0:0:0:
109,192,162700,1,0,0:0:0:0:
36,192,162700,1,0,0:0:0:0:
329,192,162775,1,0,0:0:0:0:
402,192,162775,1,0,0:0:0:0:
475,192,162775,1,0,0:0:0:0:
182,192,162775,1,0,0:0:0:0:
109,192,162850,1,0,0:0:0:0:
256,192,162850,1,0,0:0:0:0:
402,192,162925,1,0,0:0:0:0:
475,192,162925,1,0,0:0:0:0:
329,192,163000,1,0,0:0:0:0:
256,192,163000,1,0,0:0:0:0:
182,192,163075,1,0,0:0:0:0:
109,192,163075,1,0,0:0:0:0:
36,192,163075,1,0,0:0:0:0:
475,192,163075,1,0,0:0:0:0:
256,192,163150,1,0,0:0:0:0:
402,192,163150,1,0,0:0:0:0:
36,192,163225,1,0,0:0:0:0:
109,192,163225,1,0,0:0:0:0:
182,192,163300,1,0,0:0:0:0:
256,192,163300,1,0,0:0:0:0:
329,192,163375,1,0,0:0:0:0:
475,192,163375,1,0,0:0:0:0:
402,192,163375,1,0,0:0:0:0:
36,192,163375,1,0,0:0:0:0:
109,192,163450,1,0,0:0:0:0:
256,192,163450,1,0,0:0:0:0:
402,192,163525,1,0,0:0:0:0:
475,192,163525,1,0,0:0:0:0:
256,192,163600,1,0,0:0:0:0:
329,192,163600,1,0,0:0:0:0:
182,192,163675,1,0,0:0:0:0:
109,192,163675,1,0,0:0:0:0:
36,192,163675,1,0,0:0:0:0:
475,192,163675,1,0,0:0:0:0:
256,192,163750,1,0,0:0:0:0:
402,192,163750,1,0,0:0:0:0:
109,192,163825,1,0,0:0:0:0:
36,192,163825,1,0,0:0:0:0:
329,192,163862,1,0,0:0:0:0:
256,192,163900,1,0,0:0:0:0:
402,192,163900,1,0,0:0:0:0:
182,192,163937,1,0,0:0:0:0:
36,192,163975,1,0,0:0:0:0:
329,192,163975,1,0,0:0:0:0:
475,192,163975,1,0,0:0:0:0:
109,192,163975,1,0,0:0:0:0:
182,192,164050,1,0,0:0:0:0:
256,192,164050,1,0,0:0:0:0:
329,192,164125,1,0,0:0:0:0:
402,192,164125,1,0,0:0:0:0:
256,192,164200,1,0,0:0:0:0:
109,192,164200,1,0,0:0:0:0:
402,192,164275,1,0,0:0:0:0:
475,192,164275,1,0,0:0:0:0:
182,192,164275,1,0,0:0:0:0:
36,192,164275,1,0,0:0:0:0:
329,192,164350,1,0,0:0:0:0:
256,192,164350,1,0,0:0:0:0:
109,192,164425,1,0,0:0:0:0:
182,192,164425,1,0,0:0:0:0:
402,192,164500,1,0,0:0:0:0:
256,192,164500,1,0,0:0:0:0:
475,192,164575,1,0,0:0:0:0:
36,192,164575,1,0,0:0:0:0:
329,192,164575,1,0,0:0:0:0:
109,192,164575,1,0,0:0:0:0:
256,192,164612,1,0,0:0:0:0:
182,192,164650,1,0,0:0:0:0:
402,192,164687,1,0,0:0:0:0:
329,192,164725,1,0,0:0:0:0:
256,192,164762,1,0,0:0:0:0:
182,192,164800,1,0,0:0:0:0:
109,192,164837,1,0,0:0:0:0:
329,192,164875,1,0,0:0:0:0:
475,192,164912,1,0,0:0:0:0:
256,192,164950,1,0,0:0:0:0:
402,192,164987,1,0,0:0:0:0:
182,192,165025,1,0,0:0:0:0:
329,192,165062,1,0,0:0:0:0:
109,192,165100,1,0,0:0:0:0:
256,192,165137,1,0,0:0:0:0:
329,192,165175,1,0,0:0:0:0:
402,192,165175,1,0,0:0:0:0:
475,192,165175,1,0,0:0:0:0:
182,192,165175,1,0,0:0:0:0:
36,192,165175,1,0,0:0:0:0:
182,192,165325,1,0,0:0:0:0:
36,192,165325,1,0,0:0:0:0:
475,192,165325,1,0,0:0:0:0:
256,192,165400,1,0,0:0:0:0:
402,192,165400,1,0,0:0:0:0:
329,192,165400,1,0,0:0:0:0:
109,192,165475,1,0,0:0:0:0:
36,192,165475,1,0,0:0:0:0:
256,192,165550,1,0,0:0:0:0:
329,192,165550,1,0,0:0:0:0:
402,192,165550,1,0,0:0:0:0:
182,192,165625,1,0,0:0:0:0:
475,192,165625,1,0,0:0:0:0:
36,192,165625,1,0,0:0:0:0:
256,192,165700,1,0,0:0:0:0:
109,192,165700,1,0,0:0:0:0:
182,192,165775,1,0,0:0:0:0:
329,192,165775,1,0,0:0:0:0:
402,192,165775,1,0,0:0:0:0:
475,192,165775,1,0,0:0:0:0:
36,192,165850,1,0,0:0:0:0:
109,192,165925,1,0,0:0:0:0:
256,192,165925,1,0,0:0:0:0:
329,192,165925,1,0,0:0:0:0:
402,192,165925,1,0,0:0:0:0:
475,192,166000,1,0,0:0:0:0:
182,192,166075,1,0,0:0:0:0:
256,192,166075,1,0,0:0:0:0:
329,192,166075,1,0,0:0:0:0:
36,192,166075,1,0,0:0:0:0:
402,192,166150,1,0,0:0:0:0:
256,192,166225,1,0,0:0:0:0:
182,192,166225,1,0,0:0:0:0:
109,192,166225,1,0,0:0:0:0:
475,192,166225,1,0,0:0:0:0:
329,192,166300,1,0,0:0:0:0:
256,192,166375,1,0,0:0:0:0:
402,192,166375,1,0,0:0:0:0:
475,192,166375,1,0,0:0:0:0:
109,192,166375,1,0,0:0:0:0:
36,192,166375,1,0,0:0:0:0:
329,192,166525,1,0,0:0:0:0:
475,192,166525,1,0,0:0:0:0:
36,192,166525,1,0,0:0:0:0:
256,192,166600,1,0,0:0:0:0:
109,192,166600,1,0,0:0:0:0:
182,192,166600,1,0,0:0:0:0:
402,192,166675,1,0,0:0:0:0:
475,192,166675,1,0,0:0:0:0:
329,192,166750,1,0,0:0:0:0:
256,192,166750,1,0,0:0:0:0:
182,192,166750,1,0,0:0:0:0:
402,192,166825,1,0,0:0:0:0:
36,192,166825,1,0,0:0:0:0:
109,192,166875,1,0,0:0:0:0:
475,192,166875,1,0,0:0:0:0:
182,192,166925,1,0,0:0:0:0:
329,192,166925,1,0,0:0:0:0:
256,192,166975,1,0,0:0:0:0:
402,192,166975,1,0,0:0:0:0:
475,192,166975,1,0,0:0:0:0:
36,192,166975,1,0,0:0:0:0:
182,192,167050,1,0,0:0:0:0:
109,192,167125,1,0,0:0:0:0:
256,192,167125,1,0,0:0:0:0:
402,192,167125,1,0,0:0:0:0:
475,192,167125,1,0,0:0:0:0:
329,192,167200,1,0,0:0:0:0:
182,192,167275,1,0,0:0:0:0:
475,192,167275,1,0,0:0:0:0:
402,192,167275,1,0,0:0:0:0:
36,192,167275,1,0,0:0:0:0:
256,192,167350,1,0,0:0:0:0:
402,192,167425,1,0,0:0:0:0:
36,192,167425,1,0,0:0:0:0:
475,192,167425,1,0,0:0:0:0:
109,192,167425,1,0,0:0:0:0:
182,192,167500,1,0,0:0:0:0:
256,192,167575,1,0,0:0:0:0:
109,192,167575,1,0,0:0:0:0:
36,192,167575,1,0,0:0:0:0:
402,192,167575,1,0,0:0:0:0:
475,192,167575,1,0,0:0:0:0:
182,192,167725,1,0,0:0:0:0:
36,192,167725,1,0,0:0:0:0:
329,192,167725,1,0,0:0:0:0:
475,192,167800,1,0,0:0:0:0:
256,192,167800,1,0,0:0:0:0:
402,192,167800,1,0,0:0:0:0:
109,192,167875,1,0,0:0:0:0:
36,192,167875,1,0,0:0:0:0:
256,192,167950,1,0,0:0:0:0:
475,192,167950,1,0,0:0:0:0:
402,192,167950,1,0,0:0:0:0:
182,192,168025,1,0,0:0:0:0:
36,192,168025,1,0,0:0:0:0:
329,192,168025,1,0,0:0:0:0:
256,192,168100,1,0,0:0:0:0:
109,192,168100,1,0,0:0:0:0:
182,192,168175,1,0,0:0:0:0:
402,192,168175,1,0,0:0:0:0:
475,192,168175,1,0,0:0:0:0:
329,192,168175,1,0,0:0:0:0:
256,192,168250,1,0,0:0:0:0:
182,192,168325,1,0,0:0:0:0:
109,192,168325,1,0,0:0:0:0:
36,192,168325,1,0,0:0:0:0:
329,192,168325,1,0,0:0:0:0:
256,192,168400,1,0,0:0:0:0:
329,192,168475,1,0,0:0:0:0:
402,192,168475,1,0,0:0:0:0:
475,192,168475,1,0,0:0:0:0:
36,192,168475,1,0,0:0:0:0:
109,192,168475,1,0,0:0:0:0:
256,192,168550,1,0,0:0:0:0:
182,192,168625,1,0,0:0:0:0:
109,192,168625,1,0,0:0:0:0:
36,192,168625,1,0,0:0:0:0:
475,192,168625,1,0,0:0:0:0:
256,192,168700,1,0,0:0:0:0:
329,192,168775,1,0,0:0:0:0:
402,192,168775,1,0,0:0:0:0:
475,192,168775,1,0,0:0:0:0:
109,192,168775,1,0,0:0:0:0:
36,192,168775,1,0,0:0:0:0:
36,192,168925,1,0,0:0:0:0:
182,192,168925,1,0,0:0:0:0:
475,192,168925,1,0,0:0:0:0:
109,192,169000,1,0,0:0:0:0:
256,192,169000,1,0,0:0:0:0:
402,192,169000,1,0,0:0:0:0:
329,192,169075,1,0,0:0:0:0:
182,192,169075,1,0,0:0:0:0:
36,192,169075,1,0,0:0:0:0:
475,192,169075,1,0,0:0:0:0:
36,192,169225,1,0,0:0:0:0:
475,192,169225,1,0,0:0:0:0:
402,192,169275,1,0,0:0:0:0:
109,192,169275,1,0,0:0:0:0:
329,192,169325,1,0,0:0:0:0:
182,192,169325,1,0,0:0:0:0:
475,192,169375,1,0,0:0:0:0:
402,192,169375,1,0,0:0:0:0:
36,192,169375,1,0,0:0:0:0:
256,192,169375,128,0,169825:0:0:0:0:
182,192,169450,1,0,0:0:0:0:
329,192,169525,128,0,169825:0:0:0:0:
109,192,169525,1,0,0:0:0:0:
36,192,169600,1,0,0:0:0:0:
182,192,169675,128,0,169975:0:0:0:0:
402,192,169675,1,0,0:0:0:0:
475,192,169675,1,0,0:0:0:0:
109,192,169675,1,0,0:0:0:0:
402,192,169825,1,0,0:0:0:0:
329,192,169900,1,0,0:0:0:0:
256,192,169975,1,0,0:0:0:0:
402,192,169975,1,0,0:0:0:0:
475,192,169975,1,0,0:0:0:0:
109,192,169975,1,0,0:0:0:0:
36,192,169975,1,0,0:0:0:0:
329,192,170125,1,0,0:0:0:0:
475,192,170125,1,0,0:0:0:0:
36,192,170125,1,0,0:0:0:0:
256,192,170200,1,0,0:0:0:0:
109,192,170200,1,0,0:0:0:0:
182,192,170200,1,0,0:0:0:0:
402,192,170275,1,0,0:0:0:0:
475,192,170275,1,0,0:0:0:0:
256,192,170350,1,0,0:0:0:0:
182,192,170350,1,0,0:0:0:0:
109,192,170350,1,0,0:0:0:0:
329,192,170425,1,0,0:0:0:0:
36,192,170425,1,0,0:0:0:0:
475,192,170425,1,0,0:0:0:0:
256,192,170500,1,0,0:0:0:0:
402,192,170500,1,0,0:0:0:0:
329,192,170575,1,0,0:0:0:0:
182,192,170575,1,0,0:0:0:0:
109,192,170575,1,0,0:0:0:0:
36,192,170575,1,0,0:0:0:0:
475,192,170650,1,0,0:0:0:0:
402,192,170725,1,0,0:0:0:0:
256,192,170725,1,0,0:0:0:0:
182,192,170725,1,0,0:0:0:0:
109,192,170725,1,0,0:0:0:0:
36,192,170800,1,0,0:0:0:0:
329,192,170875,1,0,0:0:0:0:
256,192,170875,1,0,0:0:0:0:
182,192,170875,1,0,0:0:0:0:
475,192,170875,1,0,0:0:0:0:
109,192,170950,1,0,0:0:0:0:
256,192,171025,1,0,0:0:0:0:
329,192,171025,1,0,0:0:0:0:
402,192,171025,1,0,0:0:0:0:
36,192,171025,1,0,0:0:0:0:
182,192,171100,1,0,0:0:0:0:
256,192,171175,1,0,0:0:0:0:
109,192,171175,1,0,0:0:0:0:
36,192,171175,1,0,0:0:0:0:
402,192,171175,1,0,0:0:0:0:
475,192,171175,1,0,0:0:0:0:
182,192,171325,1,0,0:0:0:0:
36,192,171325,1,0,0:0:0:0:
475,192,171325,1,0,0:0:0:0:
256,192,171400,1,0,0:0:0:0:
402,192,171400,1,0,0:0:0:0:
329,192,171400,1,0,0:0:0:0:
109,192,171475,1,0,0:0:0:0:
36,192,171475,1,0,0:0:0:0:
182,192,171550,1,0,0:0:0:0:
256,192,171550,1,0,0:0:0:0:
329,192,171550,1,0,0:0:0:0:
109,192,171625,1,0,0:0:0:0:
475,192,171625,1,0,0:0:0:0:
402,192,171675,1,0,0:0:0:0:
36,192,171675,1,0,0:0:0:0:
329,192,171725,1,0,0:0:0:0:
182,192,171725,1,0,0:0:0:0:
256,192,171775,1,0,0:0:0:0:
109,192,171775,1,0,0:0:0:0:
36,192,171775,1,0,0:0:0:0:
475,192,171775,1,0,0:0:0:0:
329,192,171850,1,0,0:0:0:0:
402,192,171925,1,0,0:0:0:0:
256,192,171925,1,0,0:0:0:0:
109,192,171925,1,0,0:0:0:0:
36,192,171925,1,0,0:0:0:0:
182,192,172000,1,0,0:0:0:0:
329,192,172075,1,0,0:0:0:0:
36,192,172075,1,0,0:0:0:0:
109,192,172075,1,0,0:0:0:0:
475,192,172075,1,0,0:0:0:0:
256,192,172150,1,0,0:0:0:0:
109,192,172225,1,0,0:0:0:0:
475,192,172225,1,0,0:0:0:0:
36,192,172225,1,0,0:0:0:0:
402,192,172225,1,0,0:0:0:0:
329,192,172300,1,0,0:0:0:0:
256,192,172375,1,0,0:0:0:0:
402,192,172375,1,0,0:0:0:0:
475,192,172375,1,0,0:0:0:0:
109,192,172375,1,0,0:0:0:0:
36,192,172375,1,0,0:0:0:0:
329,192,172525,1,0,0:0:0:0:
475,192,172525,1,0,0:0:0:0:
182,192,172525,1,0,0:0:0:0:
36,192,172600,1,0,0:0:0:0:
256,192,172600,1,0,0:0:0:0:
109,192,172600,1,0,0:0:0:0:
402,192,172675,1,0,0:0:0:0:
475,192,172675,1,0,0:0:0:0:
256,192,172750,1,0,0:0:0:0:
36,192,172750,1,0,0:0:0:0:
109,192,172750,1,0,0:0:0:0:
329,192,172825,1,0,0:0:0:0:
475,192,172825,1,0,0:0:0:0:
182,192,172825,1,0,0:0:0:0:
256,192,172900,1,0,0:0:0:0:
402,192,172900,1,0,0:0:0:0:
329,192,172975,1,0,0:0:0:0:
109,192,172975,1,0,0:0:0:0:
36,192,172975,1,0,0:0:0:0:
182,192,172975,1,0,0:0:0:0:
256,192,173050,1,0,0:0:0:0:
329,192,173125,1,0,0:0:0:0:
402,192,173125,1,0,0:0:0:0:
475,192,173125,1,0,0:0:0:0:
182,192,173125,1,0,0:0:0:0:
256,192,173200,1,0,0:0:0:0:
182,192,173275,1,0,0:0:0:0:
109,192,173275,1,0,0:0:0:0:
36,192,173275,1,0,0:0:0:0:
475,192,173275,1,0,0:0:0:0:
402,192,173275,1,0,0:0:0:0:
256,192,173350,1,0,0:0:0:0:
329,192,173425,1,0,0:0:0:0:
402,192,173425,1,0,0:0:0:0:
475,192,173425,1,0,0:0:0:0:
36,192,173425,1,0,0:0:0:0:
256,192,173500,1,0,0:0:0:0:
182,192,173575,1,0,0:0:0:0:
109,192,173575,1,0,0:0:0:0:
36,192,173575,1,0,0:0:0:0:
402,192,173575,1,0,0:0:0:0:
475,192,173575,1,0,0:0:0:0:
475,192,173725,1,0,0:0:0:0:
329,192,173725,1,0,0:0:0:0:
36,192,173725,1,0,0:0:0:0:
402,192,173800,1,0,0:0:0:0:
256,192,173800,1,0,0:0:0:0:
109,192,173800,1,0,0:0:0:0:
182,192,173875,1,0,0:0:0:0:
329,192,173875,1,0,0:0:0:0:
475,192,173875,1,0,0:0:0:0:
36,192,173875,1,0,0:0:0:0:
475,192,174025,1,0,0:0:0:0:
36,192,174025,1,0,0:0:0:0:
109,192,174075,1,0,0:0:0:0:
329,192,174075,1,0,0:0:0:0:
182,192,174125,1,0,0:0:0:0:
402,192,174125,1,0,0:0:0:0:
36,192,174175,1,0,0:0:0:0:
109,192,174175,1,0,0:0:0:0:
475,192,174175,1,0,0:0:0:0:
256,192,174175,1,0,0:0:0:0:
329,192,174250,1,0,0:0:0:0:
256,192,174325,1,0,0:0:0:0:
36,192,174325,1,0,0:0:0:0:
475,192,174325,1,0,0:0:0:0:
182,192,174400,1,0,0:0:0:0:
109,192,174475,1,0,0:0:0:0:
402,192,174475,1,0,0:0:0:0:
36,192,174475,1,0,0:0:0:0:
256,192,174475,1,0,0:0:0:0:
475,192,174475,1,0,0:0:0:0:
256,192,174625,1,0,0:0:0:0:
402,192,174775,1,0,0:0:0:0:
475,192,174775,1,0,0:0:0:0:
36,192,174775,1,0,0:0:0:0:
182,192,174775,1,0,0:0:0:0:
109,192,174775,1,0,0:0:0:0:
329,192,174775,1,0,0:0:0:0:
475,192,174925,1,0,0:0:0:0:
36,192,174925,1,0,0:0:0:0:
182,192,174925,1,0,0:0:0:0:
329,192,175000,1,0,0:0:0:0:
402,192,175000,1,0,0:0:0:0:
256,192,175000,1,0,0:0:0:0:
36,192,175075,1,0,0:0:0:0:
109,192,175075,1,0,0:0:0:0:
402,192,175150,1,0,0:0:0:0:
329,192,175150,1,0,0:0:0:0:
256,192,175150,1,0,0:0:0:0:
36,192,175225,1,0,0:0:0:0:
475,192,175225,1,0,0:0:0:0:
182,192,175225,1,0,0:0:0:0:
109,192,175300,1,0,0:0:0:0:
256,192,175300,1,0,0:0:0:0:
402,192,175375,1,0,0:0:0:0:
475,192,175375,1,0,0:0:0:0:
182,192,175375,1,0,0:0:0:0:
329,192,175375,1,0,0:0:0:0:
36,192,175450,1,0,0:0:0:0:
329,192,175525,1,0,0:0:0:0:
402,192,175525,1,0,0:0:0:0:
109,192,175525,1,0,0:0:0:0:
256,192,175525,1,0,0:0:0:0:
475,192,175600,1,0,0:0:0:0:
329,192,175675,1,0,0:0:0:0:
36,192,175675,1,0,0:0:0:0:
182,192,175675,1,0,0:0:0:0:
256,192,175675,1,0,0:0:0:0:
402,192,175750,1,0,0:0:0:0:
109,192,175825,1,0,0:0:0:0:
475,192,175825,1,0,0:0:0:0:
256,192,175825,1,0,0:0:0:0:
182,192,175825,1,0,0:0:0:0:
329,192,175900,1,0,0:0:0:0:
109,192,175975,1,0,0:0:0:0:
36,192,175975,1,0,0:0:0:0:
475,192,175975,1,0,0:0:0:0:
256,192,175975,1,0,0:0:0:0:
402,192,175975,1,0,0:0:0:0:
36,192,176125,1,0,0:0:0:0:
475,192,176125,1,0,0:0:0:0:
329,192,176125,1,0,0:0:0:0:
182,192,176200,1,0,0:0:0:0:
109,192,176200,1,0,0:0:0:0:
256,192,176200,1,0,0:0:0:0:
475,192,176275,1,0,0:0:0:0:
402,192,176275,1,0,0:0:0:0:
182,192,176350,1,0,0:0:0:0:
256,192,176350,1,0,0:0:0:0:
329,192,176350,1,0,0:0:0:0:
36,192,176425,1,0,0:0:0:0:
402,192,176425,1,0,0:0:0:0:
475,192,176475,1,0,0:0:0:0:
182,192,176475,1,0,0:0:0:0:
329,192,176525,1,0,0:0:0:0:
109,192,176525,1,0,0:0:0:0:
475,192,176575,1,0,0:0:0:0:
36,192,176575,1,0,0:0:0:0:
256,192,176575,1,0,0:0:0:0:
402,192,176575,1,0,0:0:0:0:
182,192,176650,1,0,0:0:0:0:
402,192,176725,1,0,0:0:0:0:
475,192,176725,1,0,0:0:0:0:
109,192,176725,1,0,0:0:0:0:
256,192,176725,1,0,0:0:0:0:
329,192,176800,1,0,0:0:0:0:
402,192,176875,1,0,0:0:0:0:
36,192,176875,1,0,0:0:0:0:
182,192,176875,1,0,0:0:0:0:
475,192,176875,1,0,0:0:0:0:
256,192,176950,1,0,0:0:0:0:
475,192,177025,1,0,0:0:0:0:
109,192,177025,1,0,0:0:0:0:
402,192,177025,1,0,0:0:0:0:
36,192,177025,1,0,0:0:0:0:
182,192,177100,1,0,0:0:0:0:
402,192,177175,1,0,0:0:0:0:
475,192,177175,1,0,0:0:0:0:
36,192,177175,1,0,0:0:0:0:
256,192,177175,1,0,0:0:0:0:
109,192,177175,1,0,0:0:0:0:
329,192,177325,1,0,0:0:0:0:
36,192,177325,1,0,0:0:0:0:
182,192,177325,1,0,0:0:0:0:
402,192,177400,1,0,0:0:0:0:
256,192,177400,1,0,0:0:0:0:
475,192,177400,1,0,0:0:0:0:
36,192,177475,1,0,0:0:0:0:
109,192,177475,1,0,0:0:0:0:
402,192,177550,1,0,0:0:0:0:
475,192,177550,1,0,0:0:0:0:
256,192,177550,1,0,0:0:0:0:
329,192,177625,1,0,0:0:0:0:
36,192,177625,1,0,0:0:0:0:
182,192,177625,1,0,0:0:0:0:
109,192,177700,1,0,0:0:0:0:
256,192,177700,1,0,0:0:0:0:
475,192,177775,1,0,0:0:0:0:
329,192,177775,1,0,0:0:0:0:
182,192,177775,1,0,0:0:0:0:
402,192,177775,1,0,0:0:0:0:
256,192,177850,1,0,0:0:0:0:
36,192,177925,1,0,0:0:0:0:
329,192,177925,1,0,0:0:0:0:
182,192,177925,1,0,0:0:0:0:
109,192,177925,1,0,0:0:0:0:
402,192,178000,1,0,0:0:0:0:
36,192,178075,1,0,0:0:0:0:
109,192,178075,1,0,0:0:0:0:
475,192,178075,1,0,0:0:0:0:
182,192,178075,1,0,0:0:0:0:
329,192,178075,1,0,0:0:0:0:
256,192,178150,1,0,0:0:0:0:
402,192,178150,1,0,0:0:0:0:
36,192,178225,1,0,0:0:0:0:
475,192,178225,1,0,0:0:0:0:
182,192,178225,1,0,0:0:0:0:
256,192,178300,1,0,0:0:0:0:
109,192,178300,1,0,0:0:0:0:
36,192,178375,1,0,0:0:0:0:
475,192,178375,1,0,0:0:0:0:
329,192,178375,1,0,0:0:0:0:
402,192,178375,1,0,0:0:0:0:
182,192,178375,1,0,0:0:0:0:
475,192,178525,1,0,0:0:0:0:
182,192,178525,1,0,0:0:0:0:
36,192,178525,1,0,0:0:0:0:
402,192,178600,1,0,0:0:0:0:
256,192,178600,1,0,0:0:0:0:
109,192,178600,1,0,0:0:0:0:
36,192,178675,1,0,0:0:0:0:
475,192,178675,1,0,0:0:0:0:
329,192,178675,1,0,0:0:0:0:
182,192,178675,1,0,0:0:0:0:
109,192,178825,1,0,0:0:0:0:
475,192,178825,1,0,0:0:0:0:
402,192,178875,1,0,0:0:0:0:
182,192,178875,1,0,0:0:0:0:
329,192,178925,1,0,0:0:0:0:
36,192,178925,1,0,0:0:0:0:
475,192,178975,1,0,0:0:0:0:
256,192,178975,128,0,179425:0:0:0:0:
109,192,178975,1,0,0:0:0:0:
182,192,178975,1,0,0:0:0:0:
329,192,179050,1,0,0:0:0:0:
402,192,179125,1,0,0:0:0:0:
182,192,179125,128,0,179425:0:0:0:0:
475,192,179200,1,0,0:0:0:0:
36,192,179275,1,0,0:0:0:0:
402,192,179275,1,0,0:0:0:0:
329,192,179275,128,0,179575:0:0:0:0:
109,192,179275,1,0,0:0:0:0:
109,192,179425,1,0,0:0:0:0:
182,192,179500,1,0,0:0:0:0:
256,192,179575,1,0,0:0:0:0:
109,192,179575,1,0,0:0:0:0:
36,192,179575,1,0,0:0:0:0:
402,192,179575,1,0,0:0:0:0:
475,192,179575,1,0,0:0:0:0:
109,192,179725,1,0,0:0:0:0:
182,192,179725,1,0,0:0:0:0:
329,192,179725,1,0,0:0:0:0:
402,192,179800,1,0,0:0:0:0:
475,192,179800,1,0,0:0:0:0:
256,192,179800,1,0,0:0:0:0:
109,192,179875,1,0,0:0:0:0:
36,192,179875,1,0,0:0:0:0:
256,192,179950,1,0,0:0:0:0:
402,192,179950,1,0,0:0:0:0:
475,192,179950,1,0,0:0:0:0:
109,192,180025,1,0,0:0:0:0:
329,192,180025,1,0,0:0:0:0:
36,192,180025,1,0,0:0:0:0:
182,192,180100,1,0,0:0:0:0:
402,192,180100,1,0,0:0:0:0:
256,192,180175,1,0,0:0:0:0:
475,192,180175,1,0,0:0:0:0:
36,192,180175,1,0,0:0:0:0:
109,192,180175,1,0,0:0:0:0:
329,192,180250,1,0,0:0:0:0:
256,192,180325,1,0,0:0:0:0:
402,192,180325,1,0,0:0:0:0:
475,192,180325,1,0,0:0:0:0:
36,192,180325,1,0,0:0:0:0:
182,192,180400,1,0,0:0:0:0:
256,192,180475,1,0,0:0:0:0:
109,192,180475,1,0,0:0:0:0:
36,192,180475,1,0,0:0:0:0:
475,192,180475,1,0,0:0:0:0:
402,192,180475,1,0,0:0:0:0:
329,192,180550,1,0,0:0:0:0:
402,192,180625,1,0,0:0:0:0:
475,192,180625,1,0,0:0:0:0:
256,192,180625,1,0,0:0:0:0:
36,192,180625,1,0,0:0:0:0:
182,192,180700,1,0,0:0:0:0:
256,192,180775,1,0,0:0:0:0:
109,192,180775,1,0,0:0:0:0:
402,192,180775,1,0,0:0:0:0:
36,192,180775,1,0,0:0:0:0:
475,192,180775,1,0,0:0:0:0:
182,192,180925,1,0,0:0:0:0:
402,192,180925,1,0,0:0:0:0:
329,192,180925,1,0,0:0:0:0:
256,192,181000,1,0,0:0:0:0:
109,192,181000,1,0,0:0:0:0:
36,192,181000,1,0,0:0:0:0:
475,192,181075,1,0,0:0:0:0:
402,192,181075,1,0,0:0:0:0:
329,192,181075,1,0,0:0:0:0:
182,192,181150,1,0,0:0:0:0:
256,192,181225,1,0,0:0:0:0:
109,192,181225,1,0,0:0:0:0:
402,192,181275,1,0,0:0:0:0:
36,192,181275,1,0,0:0:0:0:
329,192,181325,1,0,0:0:0:0:
182,192,181325,1,0,0:0:0:0:
36,192,181375,1,0,0:0:0:0:
256,192,181375,1,0,0:0:0:0:
475,192,181375,1,0,0:0:0:0:
109,192,181375,1,0,0:0:0:0:
402,192,181450,1,0,0:0:0:0:
329,192,181525,1,0,0:0:0:0:
256,192,181525,1,0,0:0:0:0:
36,192,181525,1,0,0:0:0:0:
182,192,181525,1,0,0:0:0:0:
475,192,181600,1,0,0:0:0:0:
402,192,181675,1,0,0:0:0:0:
329,192,181675,1,0,0:0:0:0:
256,192,181675,1,0,0:0:0:0:
109,192,181675,1,0,0:0:0:0:
182,192,181675,1,0,0:0:0:0:
36,192,181750,1,0,0:0:0:0:
182,192,181825,1,0,0:0:0:0:
329,192,181825,1,0,0:0:0:0:
402,192,181825,1,0,0:0:0:0:
475,192,181825,1,0,0:0:0:0:
109,192,181900,1,0,0:0:0:0:
256,192,181975,128,0,182050:0:0:0:0:
329,192,181975,128,0,182050:0:0:0:0:
402,192,181975,128,0,182050:0:0:0:0:
36,192,181975,128,0,183175:0:0:0:0:
475,192,181975,128,0,182050:0:0:0:0:
182,192,182125,1,0,0:0:0:0:
109,192,182125,1,0,0:0:0:0:
329,192,182200,1,0,0:0:0:0:
402,192,182200,1,0,0:0:0:0:
109,192,182275,1,0,0:0:0:0:
329,192,182350,1,0,0:0:0:0:
402,192,182350,1,0,0:0:0:0:
182,192,182425,1,0,0:0:0:0:
109,192,182425,1,0,0:0:0:0:
256,192,182500,1,0,0:0:0:0:
402,192,182500,1,0,0:0:0:0:
329,192,182575,1,0,0:0:0:0:
475,192,182575,1,0,0:0:0:0:
109,192,182575,1,0,0:0:0:0:
182,192,182575,1,0,0:0:0:0:
256,192,182650,1,0,0:0:0:0:
402,192,182725,1,0,0:0:0:0:
475,192,182725,1,0,0:0:0:0:
182,192,182725,1,0,0:0:0:0:
109,192,182725,1,0,0:0:0:0:
329,192,182800,1,0,0:0:0:0:
256,192,182875,1,0,0:0:0:0:
109,192,182875,1,0,0:0:0:0:
402,192,182875,1,0,0:0:0:0:
475,192,182875,1,0,0:0:0:0:
329,192,182950,1,0,0:0:0:0:
182,192,182950,1,0,0:0:0:0:
256,192,183025,1,0,0:0:0:0:
402,192,183025,1,0,0:0:0:0:
109,192,183100,1,0,0:0:0:0:
182,192,183175,1,0,0:0:0:0:
329,192,183175,1,0,0:0:0:0:
475,192,183175,1,0,0:0:0:0:
402,192,183175,1,0,0:0:0:0:
182,192,183250,1,0,0:0:0:0:
36,192,183250,1,0,0:0:0:0:
475,192,183325,1,0,0:0:0:0:
402,192,183325,1,0,0:0:0:0:
36,192,183325,1,0,0:0:0:0:
256,192,183325,1,0,0:0:0:0:
256,192,183475,1,0,0:0:0:0:
109,192,183475,1,0,0:0:0:0:
402,192,183475,1,0,0:0:0:0:
475,192,183475,1,0,0:0:0:0:
475,192,183625,1,0,0:0:0:0:
329,192,183625,1,0,0:0:0:0:
182,192,183625,1,0,0:0:0:0:
475,192,183700,1,0,0:0:0:0:
109,192,183700,1,0,0:0:0:0:
36,192,183700,1,0,0:0:0:0:
256,192,183700,1,0,0:0:0:0:
256,192,183850,1,0,0:0:0:0:
109,192,183850,1,0,0:0:0:0:
36,192,183850,1,0,0:0:0:0:
402,192,183850,1,0,0:0:0:0:
475,192,184000,1,0,0:0:0:0:
182,192,184000,1,0,0:0:0:0:
256,192,184000,1,0,0:0:0:0:
109,192,184075,1,0,0:0:0:0:
36,192,184075,1,0,0:0:0:0:
402,192,184075,1,0,0:0:0:0:
256,192,184075,1,0,0:0:0:0:
182,192,184225,1,0,0:0:0:0:
329,192,184225,1,0,0:0:0:0:
402,192,184225,1,0,0:0:0:0:
475,192,184225,1,0,0:0:0:0:
182,192,184375,1,0,0:0:0:0:
109,192,184375,1,0,0:0:0:0:
36,192,184375,1,0,0:0:0:0:
402,192,184375,1,0,0:0:0:0:
475,192,184375,1,0,0:0:0:0:
329,192,184375,1,0,0:0:0:0:
182,192,184525,1,0,0:0:0:0:
36,192,184525,1,0,0:0:0:0:
475,192,184525,1,0,0:0:0:0:
256,192,184600,1,0,0:0:0:0:
402,192,184600,1,0,0:0:0:0:
329,192,184600,1,0,0:0:0:0:
109,192,184675,1,0,0:0:0:0:
36,192,184675,1,0,0:0:0:0:
256,192,184750,1,0,0:0:0:0:
329,192,184750,1,0,0:0:0:0:
402,192,184750,1,0,0:0:0:0:
182,192,184825,1,0,0:0:0:0:
475,192,184825,1,0,0:0:0:0:
36,192,184825,1,0,0:0:0:0:
256,192,184900,1,0,0:0:0:0:
109,192,184900,1,0,0:0:0:0:
182,192,184975,1,0,0:0:0:0:
329,192,184975,1,0,0:0:0:0:
402,192,184975,1,0,0:0:0:0:
475,192,184975,1,0,0:0:0:0:
36,192,185050,1,0,0:0:0:0:
109,192,185125,1,0,0:0:0:0:
256,192,185125,1,0,0:0:0:0:
329,192,185125,1,0,0:0:0:0:
402,192,185125,1,0,0:0:0:0:
475,192,185200,1,0,0:0:0:0:
182,192,185275,1,0,0:0:0:0:
256,192,185275,1,0,0:0:0:0:
329,192,185275,1,0,0:0:0:0:
36,192,185275,1,0,0:0:0:0:
402,192,185350,1,0,0:0:0:0:
256,192,185425,1,0,0:0:0:0:
182,192,185425,1,0,0:0:0:0:
109,192,185425,1,0,0:0:0:0:
475,192,185425,1,0,0:0:0:0:
329,192,185500,1,0,0:0:0:0:
256,192,185575,1,0,0:0:0:0:
402,192,185575,1,0,0:0:0:0:
475,192,185575,1,0,0:0:0:0:
109,192,185575,1,0,0:0:0:0:
36,192,185575,1,0,0:0:0:0:
329,192,185725,1,0,0:0:0:0:
475,192,185725,1,0,0:0:0:0:
36,192,185725,1,0,0:0:0:0:
256,192,185800,1,0,0:0:0:0:
109,192,185800,1,0,0:0:0:0:
182,192,185800,1,0,0:0:0:0:
402,192,185875,1,0,0:0:0:0:
475,192,185875,1,0,0:0:0:0:
329,192,185950,1,0,0:0:0:0:
256,192,185950,1,0,0:0:0:0:
182,192,185950,1,0,0:0:0:0:
402,192,186025,1,0,0:0:0:0:
36,192,186025,1,0,0:0:0:0:
109,192,186075,1,0,0:0:0:0:
475,192,186075,1,0,0:0:0:0:
182,192,186125,1,0,0:0:0:0:
329,192,186125,1,0,0:0:0:0:
256,192,186175,1,0,0:0:0:0:
402,192,186175,1,0,0:0:0:0:
475,192,186175,1,0,0:0:0:0:
36,192,186175,1,0,0:0:0:0:
182,192,186250,1,0,0:0:0:0:
109,192,186325,1,0,0:0:0:0:
256,192,186325,1,0,0:0:0:0:
402,192,186325,1,0,0:0:0:0:
475,192,186325,1,0,0:0:0:0:
329,192,186400,1,0,0:0:0:0:
182,192,186475,1,0,0:0:0:0:
475,192,186475,1,0,0:0:0:0:
402,192,186475,1,0,0:0:0:0:
36,192,186475,1,0,0:0:0:0:
256,192,186550,1,0,0:0:0:0:
402,192,186625,1,0,0:0:0:0:
36,192,186625,1,0,0:0:0:0:
475,192,186625,1,0,0:0:0:0:
109,192,186625,1,0,0:0:0:0:
182,192,186700,1,0,0:0:0:0:
256,192,186775,1,0,0:0:0:0:
109,192,186775,1,0,0:0:0:0:
36,192,186775,1,0,0:0:0:0:
402,192,186775,1,0,0:0:0:0:
475,192,186775,1,0,0:0:0:0:
182,192,186925,1,0,0:0:0:0:
36,192,186925,1,0,0:0:0:0:
329,192,186925,1,0,0:0:0:0:
475,192,187000,1,0,0:0:0:0:
256,192,187000,1,0,0:0:0:0:
402,192,187000,1,0,0:0:0:0:
109,192,187075,1,0,0:0:0:0:
36,192,187075,1,0,0:0:0:0:
256,192,187150,1,0,0:0:0:0:
475,192,187150,1,0,0:0:0:0:
402,192,187150,1,0,0:0:0:0:
182,192,187225,1,0,0:0:0:0:
36,192,187225,1,0,0:0:0:0:
329,192,187225,1,0,0:0:0:0:
256,192,187300,1,0,0:0:0:0:
109,192,187300,1,0,0:0:0:0:
182,192,187375,1,0,0:0:0:0:
402,192,187375,1,0,0:0:0:0:
475,192,187375,1,0,0:0:0:0:
329,192,187375,1,0,0:0:0:0:
256,192,187450,1,0,0:0:0:0:
475,192,187525,1,0,0:0:0:0:
109,192,187525,1,0,0:0:0:0:
36,192,187525,1,0,0:0:0:0:
329,192,187525,1,0,0:0:0:0:
182,192,187600,1,0,0:0:0:0:
256,192,187675,1,0,0:0:0:0:
475,192,187675,1,0,0:0:0:0:
36,192,187675,1,0,0:0:0:0:
109,192,187675,1,0,0:0:0:0:
329,192,187750,1,0,0:0:0:0:
182,192,187750,1,0,0:0:0:0:
256,192,187825,1,0,0:0:0:0:
36,192,187825,1,0,0:0:0:0:
475,192,187825,1,0,0:0:0:0:
109,192,187900,1,0,0:0:0:0:
329,192,187900,1,0,0:0:0:0:
402,192,187975,1,0,0:0:0:0:
475,192,187975,1,0,0:0:0:0:
182,192,187975,1,0,0:0:0:0:
36,192,187975,1,0,0:0:0:0:
256,192,187975,1,0,0:0:0:0:
36,192,188125,1,0,0:0:0:0:
182,192,188125,1,0,0:0:0:0:
475,192,188125,1,0,0:0:0:0:
109,192,188200,1,0,0:0:0:0:
256,192,188200,1,0,0:0:0:0:
402,192,188200,1,0,0:0:0:0:
329,192,188275,1,0,0:0:0:0:
182,192,188275,1,0,0:0:0:0:
36,192,188275,1,0,0:0:0:0:
475,192,188275,1,0,0:0:0:0:
36,192,188425,1,0,0:0:0:0:
475,192,188425,1,0,0:0:0:0:
402,192,188475,1,0,0:0:0:0:
109,192,188475,1,0,0:0:0:0:
329,192,188525,1,0,0:0:0:0:
182,192,188525,1,0,0:0:0:0:
475,192,188575,1,0,0:0:0:0:
402,192,188575,1,0,0:0:0:0:
36,192,188575,1,0,0:0:0:0:
256,192,188575,128,0,189025:0:0:0:0:
182,192,188650,1,0,0:0:0:0:
329,192,188725,128,0,189025:0:0:0:0:
109,192,188725,1,0,0:0:0:0:
36,192,188800,1,0,0:0:0:0:
182,192,188875,128,0,189175:0:0:0:0:
402,192,188875,1,0,0:0:0:0:
475,192,188875,1,0,0:0:0:0:
109,192,188875,1,0,0:0:0:0:
402,192,189025,1,0,0:0:0:0:
329,192,189100,1,0,0:0:0:0:
256,192,189175,1,0,0:0:0:0:
402,192,189175,1,0,0:0:0:0:
475,192,189175,1,0,0:0:0:0:
109,192,189175,1,0,0:0:0:0:
36,192,189175,1,0,0:0:0:0:
329,192,189325,1,0,0:0:0:0:
475,192,189325,1,0,0:0:0:0:
36,192,189325,1,0,0:0:0:0:
256,192,189400,1,0,0:0:0:0:
109,192,189400,1,0,0:0:0:0:
182,192,189400,1,0,0:0:0:0:
402,192,189475,1,0,0:0:0:0:
475,192,189475,1,0,0:0:0:0:
256,192,189550,1,0,0:0:0:0:
182,192,189550,1,0,0:0:0:0:
109,192,189550,1,0,0:0:0:0:
329,192,189625,1,0,0:0:0:0:
36,192,189625,1,0,0:0:0:0:
475,192,189625,1,0,0:0:0:0:
256,192,189700,1,0,0:0:0:0:
402,192,189700,1,0,0:0:0:0:
329,192,189775,1,0,0:0:0:0:
182,192,189775,1,0,0:0:0:0:
109,192,189775,1,0,0:0:0:0:
36,192,189775,1,0,0:0:0:0:
475,192,189850,1,0,0:0:0:0:
402,192,189925,1,0,0:0:0:0:
256,192,189925,1,0,0:0:0:0:
182,192,189925,1,0,0:0:0:0:
109,192,189925,1,0,0:0:0:0:
36,192,190000,1,0,0:0:0:0:
329,192,190075,1,0,0:0:0:0:
256,192,190075,1,0,0:0:0:0:
182,192,190075,1,0,0:0:0:0:
475,192,190075,1,0,0:0:0:0:
109,192,190150,1,0,0:0:0:0:
256,192,190225,1,0,0:0:0:0:
329,192,190225,1,0,0:0:0:0:
402,192,190225,1,0,0:0:0:0:
36,192,190225,1,0,0:0:0:0:
182,192,190300,1,0,0:0:0:0:
256,192,190375,1,0,0:0:0:0:
109,192,190375,1,0,0:0:0:0:
36,192,190375,1,0,0:0:0:0:
402,192,190375,1,0,0:0:0:0:
475,192,190375,1,0,0:0:0:0:
182,192,190525,1,0,0:0:0:0:
36,192,190525,1,0,0:0:0:0:
475,192,190525,1,0,0:0:0:0:
256,192,190600,1,0,0:0:0:0:
402,192,190600,1,0,0:0:0:0:
329,192,190600,1,0,0:0:0:0:
109,192,190675,1,0,0:0:0:0:
36,192,190675,1,0,0:0:0:0:
182,192,190750,1,0,0:0:0:0:
256,192,190750,1,0,0:0:0:0:
329,192,190750,1,0,0:0:0:0:
109,192,190825,1,0,0:0:0:0:
475,192,190825,1,0,0:0:0:0:
402,192,190875,1,0,0:0:0:0:
36,192,190875,1,0,0:0:0:0:
329,192,190925,1,0,0:0:0:0:
182,192,190925,1,0,0:0:0:0:
256,192,190975,1,0,0:0:0:0:
109,192,190975,1,0,0:0:0:0:
36,192,190975,1,0,0:0:0:0:
475,192,190975,1,0,0:0:0:0:
329,192,191050,1,0,0:0:0:0:
402,192,191125,1,0,0:0:0:0:
256,192,191125,1,0,0:0:0:0:
109,192,191125,1,0,0:0:0:0:
36,192,191125,1,0,0:0:0:0:
182,192,191200,1,0,0:0:0:0:
329,192,191275,1,0,0:0:0:0:
36,192,191275,1,0,0:0:0:0:
109,192,191275,1,0,0:0:0:0:
475,192,191275,1,0,0:0:0:0:
256,192,191350,1,0,0:0:0:0:
109,192,191425,1,0,0:0:0:0:
475,192,191425,1,0,0:0:0:0:
36,192,191425,1,0,0:0:0:0:
402,192,191425,1,0,0:0:0:0:
329,192,191500,1,0,0:0:0:0:
256,192,191575,1,0,0:0:0:0:
402,192,191575,1,0,0:0:0:0:
475,192,191575,1,0,0:0:0:0:
109,192,191575,1,0,0:0:0:0:
36,192,191575,1,0,0:0:0:0:
329,192,191725,1,0,0:0:0:0:
475,192,191725,1,0,0:0:0:0:
182,192,191725,1,0,0:0:0:0:
36,192,191800,1,0,0:0:0:0:
256,192,191800,1,0,0:0:0:0:
109,192,191800,1,0,0:0:0:0:
402,192,191875,1,0,0:0:0:0:
475,192,191875,1,0,0:0:0:0:
256,192,191950,1,0,0:0:0:0:
36,192,191950,1,0,0:0:0:0:
109,192,191950,1,0,0:0:0:0:
329,192,192025,1,0,0:0:0:0:
475,192,192025,1,0,0:0:0:0:
182,192,192025,1,0,0:0:0:0:
256,192,192100,1,0,0:0:0:0:
402,192,192100,1,0,0:0:0:0:
329,192,192175,1,0,0:0:0:0:
109,192,192175,1,0,0:0:0:0:
36,192,192175,1,0,0:0:0:0:
182,192,192175,1,0,0:0:0:0:
256,192,192250,1,0,0:0:0:0:
329,192,192325,1,0,0:0:0:0:
402,192,192325,1,0,0:0:0:0:
475,192,192325,1,0,0:0:0:0:
182,192,192325,1,0,0:0:0:0:
256,192,192400,1,0,0:0:0:0:
182,192,192475,1,0,0:0:0:0:
109,192,192475,1,0,0:0:0:0:
36,192,192475,1,0,0:0:0:0:
475,192,192475,1,0,0:0:0:0:
402,192,192475,1,0,0:0:0:0:
256,192,192550,1,0,0:0:0:0:
329,192,192625,1,0,0:0:0:0:
402,192,192625,1,0,0:0:0:0:
475,192,192625,1,0,0:0:0:0:
36,192,192625,1,0,0:0:0:0:
256,192,192700,1,0,0:0:0:0:
182,192,192775,1,0,0:0:0:0:
109,192,192775,1,0,0:0:0:0:
36,192,192775,1,0,0:0:0:0:
402,192,192775,1,0,0:0:0:0:
475,192,192775,1,0,0:0:0:0:
475,192,192925,1,0,0:0:0:0:
329,192,192925,1,0,0:0:0:0:
36,192,192925,1,0,0:0:0:0:
402,192,193000,1,0,0:0:0:0:
256,192,193000,1,0,0:0:0:0:
109,192,193000,1,0,0:0:0:0:
182,192,193075,1,0,0:0:0:0:
329,192,193075,1,0,0:0:0:0:
475,192,193075,1,0,0:0:0:0:
36,192,193075,1,0,0:0:0:0:
475,192,193225,1,0,0:0:0:0:
36,192,193225,1,0,0:0:0:0:
109,192,193275,1,0,0:0:0:0:
329,192,193275,1,0,0:0:0:0:
182,192,193325,1,0,0:0:0:0:
402,192,193325,1,0,0:0:0:0:
36,192,193375,1,0,0:0:0:0:
109,192,193375,1,0,0:0:0:0:
475,192,193375,1,0,0:0:0:0:
256,192,193375,1,0,0:0:0:0:
329,192,193450,1,0,0:0:0:0:
256,192,193525,1,0,0:0:0:0:
36,192,193525,1,0,0:0:0:0:
475,192,193525,1,0,0:0:0:0:
182,192,193600,1,0,0:0:0:0:
109,192,193675,1,0,0:0:0:0:
402,192,193675,1,0,0:0:0:0:
36,192,193675,1,0,0:0:0:0:
256,192,193675,1,0,0:0:0:0:
475,192,193675,1,0,0:0:0:0:
256,192,193825,1,0,0:0:0:0:
109,192,193975,1,0,0:0:0:0:
36,192,193975,1,0,0:0:0:0:
475,192,193975,1,0,0:0:0:0:
182,192,193975,1,0,0:0:0:0:
402,192,193975,1,0,0:0:0:0:
329,192,193975,1,0,0:0:0:0:
36,192,194125,1,0,0:0:0:0:
402,192,194125,1,0,0:0:0:0:
182,192,194125,1,0,0:0:0:0:
256,192,194200,1,0,0:0:0:0:
109,192,194200,1,0,0:0:0:0:
329,192,194200,1,0,0:0:0:0:
475,192,194275,1,0,0:0:0:0:
402,192,194275,1,0,0:0:0:0:
109,192,194350,1,0,0:0:0:0:
329,192,194350,1,0,0:0:0:0:
256,192,194350,1,0,0:0:0:0:
475,192,194425,1,0,0:0:0:0:
36,192,194425,1,0,0:0:0:0:
182,192,194425,1,0,0:0:0:0:
402,192,194500,1,0,0:0:0:0:
256,192,194500,1,0,0:0:0:0:
109,192,194575,1,0,0:0:0:0:
36,192,194575,1,0,0:0:0:0:
329,192,194575,1,0,0:0:0:0:
182,192,194575,1,0,0:0:0:0:
475,192,194650,1,0,0:0:0:0:
182,192,194725,1,0,0:0:0:0:
109,192,194725,1,0,0:0:0:0:
402,192,194725,1,0,0:0:0:0:
256,192,194725,1,0,0:0:0:0:
36,192,194800,1,0,0:0:0:0:
182,192,194875,1,0,0:0:0:0:
475,192,194875,1,0,0:0:0:0:
329,192,194875,1,0,0:0:0:0:
256,192,194875,1,0,0:0:0:0:
109,192,194950,1,0,0:0:0:0:
402,192,195025,1,0,0:0:0:0:
36,192,195025,1,0,0:0:0:0:
256,192,195025,1,0,0:0:0:0:
329,192,195025,1,0,0:0:0:0:
182,192,195100,1,0,0:0:0:0:
402,192,195175,1,0,0:0:0:0:
475,192,195175,1,0,0:0:0:0:
36,192,195175,1,0,0:0:0:0:
256,192,195175,1,0,0:0:0:0:
109,192,195175,1,0,0:0:0:0:
402,192,195325,1,0,0:0:0:0:
36,192,195325,1,0,0:0:0:0:
182,192,195325,1,0,0:0:0:0:
329,192,195400,1,0,0:0:0:0:
475,192,195400,1,0,0:0:0:0:
256,192,195400,1,0,0:0:0:0:
36,192,195475,1,0,0:0:0:0:
109,192,195475,1,0,0:0:0:0:
402,192,195550,1,0,0:0:0:0:
256,192,195550,1,0,0:0:0:0:
182,192,195550,1,0,0:0:0:0:
475,192,195625,1,0,0:0:0:0:
109,192,195625,1,0,0:0:0:0:
36,192,195675,1,0,0:0:0:0:
329,192,195675,1,0,0:0:0:0:
182,192,195725,1,0,0:0:0:0:
402,192,195725,1,0,0:0:0:0:
36,192,195775,1,0,0:0:0:0:
475,192,195775,1,0,0:0:0:0:
256,192,195775,1,0,0:0:0:0:
109,192,195775,1,0,0:0:0:0:
329,192,195850,1,0,0:0:0:0:
109,192,195925,1,0,0:0:0:0:
36,192,195925,1,0,0:0:0:0:
402,192,195925,1,0,0:0:0:0:
256,192,195925,1,0,0:0:0:0:
182,192,196000,1,0,0:0:0:0:
109,192,196075,1,0,0:0:0:0:
475,192,196075,1,0,0:0:0:0:
329,192,196075,1,0,0:0:0:0:
36,192,196075,1,0,0:0:0:0:
256,192,196150,1,0,0:0:0:0:
36,192,196225,1,0,0:0:0:0:
402,192,196225,1,0,0:0:0:0:
182,192,196225,1,0,0:0:0:0:
475,192,196225,1,0,0:0:0:0:
329,192,196300,1,0,0:0:0:0:
109,192,196375,1,0,0:0:0:0:
36,192,196375,1,0,0:0:0:0:
475,192,196375,1,0,0:0:0:0:
256,192,196375,1,0,0:0:0:0:
402,192,196375,1,0,0:0:0:0:
182,192,196525,1,0,0:0:0:0:
475,192,196525,1,0,0:0:0:0:
329,192,196525,1,0,0:0:0:0:
109,192,196600,1,0,0:0:0:0:
256,192,196600,1,0,0:0:0:0:
36,192,196600,1,0,0:0:0:0:
475,192,196675,1,0,0:0:0:0:
402,192,196675,1,0,0:0:0:0:
109,192,196750,1,0,0:0:0:0:
36,192,196750,1,0,0:0:0:0:
256,192,196750,1,0,0:0:0:0:
182,192,196825,1,0,0:0:0:0:
475,192,196825,1,0,0:0:0:0:
329,192,196825,1,0,0:0:0:0:
402,192,196900,1,0,0:0:0:0:
256,192,196900,1,0,0:0:0:0:
36,192,196975,1,0,0:0:0:0:
182,192,196975,1,0,0:0:0:0:
329,192,196975,1,0,0:0:0:0:
109,192,196975,1,0,0:0:0:0:
256,192,197050,1,0,0:0:0:0:
475,192,197125,1,0,0:0:0:0:
109,192,197125,1,0,0:0:0:0:
329,192,197125,1,0,0:0:0:0:
402,192,197125,1,0,0:0:0:0:
256,192,197200,1,0,0:0:0:0:
475,192,197275,1,0,0:0:0:0:
402,192,197275,1,0,0:0:0:0:
36,192,197275,1,0,0:0:0:0:
182,192,197275,1,0,0:0:0:0:
109,192,197275,1,0,0:0:0:0:
256,192,197350,1,0,0:0:0:0:
475,192,197425,1,0,0:0:0:0:
36,192,197425,1,0,0:0:0:0:
329,192,197425,1,0,0:0:0:0:
402,192,197425,1,0,0:0:0:0:
109,192,197500,1,0,0:0:0:0:
402,192,197575,1,0,0:0:0:0:
475,192,197575,1,0,0:0:0:0:
36,192,197575,1,0,0:0:0:0:
182,192,197575,1,0,0:0:0:0:
256,192,197575,1,0,0:0:0:0:
36,192,197725,1,0,0:0:0:0:
329,192,197725,1,0,0:0:0:0:
475,192,197725,1,0,0:0:0:0:
109,192,197800,1,0,0:0:0:0:
256,192,197800,1,0,0:0:0:0:
402,192,197800,1,0,0:0:0:0:
475,192,197875,1,0,0:0:0:0:
36,192,197875,1,0,0:0:0:0:
182,192,197875,1,0,0:0:0:0:
329,192,197875,1,0,0:0:0:0:
36,192,198025,1,0,0:0:0:0:
475,192,198025,1,0,0:0:0:0:
329,192,198075,1,0,0:0:0:0:
109,192,198075,1,0,0:0:0:0:
402,192,198125,1,0,0:0:0:0:
182,192,198125,1,0,0:0:0:0:
475,192,198175,1,0,0:0:0:0:
256,192,198175,1,0,0:0:0:0:
36,192,198175,1,0,0:0:0:0:
109,192,198175,1,0,0:0:0:0:
329,192,198250,1,0,0:0:0:0:
475,192,198325,1,0,0:0:0:0:
36,192,198325,1,0,0:0:0:0:
256,192,198325,1,0,0:0:0:0:
182,192,198400,1,0,0:0:0:0:
256,192,198475,1,0,0:0:0:0:
475,192,198475,1,0,0:0:0:0:
36,192,198475,1,0,0:0:0:0:
109,192,198475,1,0,0:0:0:0:
402,192,198475,1,0,0:0:0:0:
256,192,198625,1,0,0:0:0:0:
109,192,198625,1,0,0:0:0:0:
402,192,198625,1,0,0:0:0:0:
402,192,198775,1,0,0:0:0:0:
475,192,198775,1,0,0:0:0:0:
36,192,198775,1,0,0:0:0:0:
182,192,198775,1,0,0:0:0:0:
256,192,198775,1,0,0:0:0:0:
329,192,198850,1,0,0:0:0:0:
109,192,198850,1,0,0:0:0:0:
256,192,198925,1,0,0:0:0:0:
475,192,198925,1,0,0:0:0:0:
402,192,199000,1,0,0:0:0:0:
329,192,199000,1,0,0:0:0:0:
109,192,199000,1,0,0:0:0:0:
36,192,199000,1,0,0:0:0:0:
256,192,199075,1,0,0:0:0:0:
475,192,199075,1,0,0:0:0:0:
182,192,199150,1,0,0:0:0:0:
402,192,199150,1,0,0:0:0:0:
329,192,199225,1,0,0:0:0:0:
256,192,199225,1,0,0:0:0:0:
109,192,199225,1,0,0:0:0:0:
36,192,199225,1,0,0:0:0:0:
402,192,199300,1,0,0:0:0:0:
475,192,199300,1,0,0:0:0:0:
256,192,199375,1,0,0:0:0:0:
109,192,199375,1,0,0:0:0:0:
36,192,199375,1,0,0:0:0:0:
182,192,199375,1,0,0:0:0:0:
402,192,199450,1,0,0:0:0:0:
475,192,199450,1,0,0:0:0:0:
329,192,199525,1,0,0:0:0:0:
182,192,199525,1,0,0:0:0:0:
109,192,199525,1,0,0:0:0:0:
256,192,199525,1,0,0:0:0:0:
36,192,199600,1,0,0:0:0:0:
475,192,199600,1,0,0:0:0:0:
402,192,199675,1,0,0:0:0:0:
329,192,199675,1,0,0:0:0:0:
256,192,199675,1,0,0:0:0:0:
182,192,199675,1,0,0:0:0:0:
36,192,199750,1,0,0:0:0:0:
109,192,199750,1,0,0:0:0:0:
256,192,199825,1,0,0:0:0:0:
329,192,199825,1,0,0:0:0:0:
402,192,199825,1,0,0:0:0:0:
475,192,199825,1,0,0:0:0:0:
182,192,199900,1,0,0:0:0:0:
109,192,199900,1,0,0:0:0:0:
36,192,199975,1,0,0:0:0:0:
475,192,199975,1,0,0:0:0:0:
329,192,199975,1,0,0:0:0:0:
256,192,199975,1,0,0:0:0:0:
182,192,200050,1,0,0:0:0:0:
402,192,200050,1,0,0:0:0:0:
256,192,200125,1,0,0:0:0:0:
36,192,200125,1,0,0:0:0:0:
109,192,200200,1,0,0:0:0:0:
182,192,200200,1,0,0:0:0:0:
402,192,200200,1,0,0:0:0:0:
475,192,200200,1,0,0:0:0:0:
256,192,200275,1,0,0:0:0:0:
36,192,200275,1,0,0:0:0:0:
329,192,200350,1,0,0:0:0:0:
109,192,200350,1,0,0:0:0:0:
256,192,200425,1,0,0:0:0:0:
402,192,200425,1,0,0:0:0:0:
475,192,200425,1,0,0:0:0:0:
182,192,200475,1,0,0:0:0:0:
36,192,200525,1,0,0:0:0:0:
109,192,200525,1,0,0:0:0:0:
256,192,200575,1,0,0:0:0:0:
402,192,200575,1,0,0:0:0:0:
475,192,200575,1,0,0:0:0:0:
329,192,200575,1,0,0:0:0:0:
109,192,200650,1,0,0:0:0:0:
36,192,200650,1,0,0:0:0:0:
182,192,200725,1,0,0:0:0:0:
329,192,200725,1,0,0:0:0:0:
402,192,200725,1,0,0:0:0:0:
256,192,200725,1,0,0:0:0:0:
475,192,200800,1,0,0:0:0:0:
36,192,200800,1,0,0:0:0:0:
109,192,200875,1,0,0:0:0:0:
182,192,200875,1,0,0:0:0:0:
256,192,200875,1,0,0:0:0:0:
329,192,200875,1,0,0:0:0:0:
475,192,200950,1,0,0:0:0:0:
402,192,200950,1,0,0:0:0:0:
256,192,201025,1,0,0:0:0:0:
182,192,201025,1,0,0:0:0:0:
109,192,201025,1,0,0:0:0:0:
36,192,201025,1,0,0:0:0:0:
329,192,201100,1,0,0:0:0:0:
402,192,201100,1,0,0:0:0:0:
475,192,201175,128,0,202375:0:0:0:0:
36,192,201175,128,0,201250:0:0:0:0:
109,192,201175,128,0,201250:0:0:0:0:
256,192,201175,128,0,201250:0:0:0:0:
182,192,201175,128,0,201250:0:0:0:0:
402,192,201325,1,0,0:0:0:0:
329,192,201325,1,0,0:0:0:0:
182,192,201400,1,0,0:0:0:0:
36,192,201400,1,0,0:0:0:0:
402,192,201475,1,0,0:0:0:0:
256,192,201475,1,0,0:0:0:0:
182,192,201550,1,0,0:0:0:0:
36,192,201550,1,0,0:0:0:0:
402,192,201625,1,0,0:0:0:0:
329,192,201625,1,0,0:0:0:0:
109,192,201700,1,0,0:0:0:0:
256,192,201700,1,0,0:0:0:0:
402,192,201775,1,0,0:0:0:0:
329,192,201775,1,0,0:0:0:0:
182,192,201775,1,0,0:0:0:0:
36,192,201775,1,0,0:0:0:0:
256,192,201850,1,0,0:0:0:0:
329,192,201925,1,0,0:0:0:0:
402,192,201925,1,0,0:0:0:0:
109,192,201925,1,0,0:0:0:0:
36,192,201925,1,0,0:0:0:0:
182,192,202000,1,0,0:0:0:0:
109,192,202075,1,0,0:0:0:0:
36,192,202075,1,0,0:0:0:0:
256,192,202075,1,0,0:0:0:0:
402,192,202075,1,0,0:0:0:0:
329,192,202150,1,0,0:0:0:0:
182,192,202150,1,0,0:0:0:0:
109,192,202225,1,0,0:0:0:0:
256,192,202225,1,0,0:0:0:0:
36,192,202225,1,0,0:0:0:0:
402,192,202300,1,0,0:0:0:0:
36,192,202375,1,0,0:0:0:0:
109,192,202375,1,0,0:0:0:0:
329,192,202375,1,0,0:0:0:0:
182,192,202375,1,0,0:0:0:0:
475,192,202450,5,0,0:0:0:0:
329,192,202450,1,0,0:0:0:0:
475,192,202525,1,0,0:0:0:0:
256,192,202525,1,0,0:0:0:0:
36,192,202525,1,0,0:0:0:0:
109,192,202525,1,0,0:0:0:0:
109,192,202675,1,0,0:0:0:0:
36,192,202675,1,0,0:0:0:0:
256,192,202675,1,0,0:0:0:0:
402,192,202675,1,0,0:0:0:0:
329,192,202825,1,0,0:0:0:0:
182,192,202825,1,0,0:0:0:0:
36,192,202825,1,0,0:0:0:0:
475,192,202900,1,0,0:0:0:0:
256,192,202900,1,0,0:0:0:0:
36,192,202900,1,0,0:0:0:0:
402,192,202900,1,0,0:0:0:0:
475,192,203050,1,0,0:0:0:0:
109,192,203050,1,0,0:0:0:0:
256,192,203050,1,0,0:0:0:0:
402,192,203050,1,0,0:0:0:0:
256,192,203200,1,0,0:0:0:0:
329,192,203200,1,0,0:0:0:0:
36,192,203200,1,0,0:0:0:0:
109,192,203275,1,0,0:0:0:0:
256,192,203275,1,0,0:0:0:0:
402,192,203275,1,0,0:0:0:0:
475,192,203275,1,0,0:0:0:0:
109,192,203425,1,0,0:0:0:0:
36,192,203425,1,0,0:0:0:0:
329,192,203425,1,0,0:0:0:0:
256,192,203425,1,0,0:0:0:0:
475,192,203425,1,0,0:0:0:0:
36,192,203575,5,0,0:0:0:0:
475,192,203575,1,0,0:0:0:0:
402,192,203575,1,0,0:0:0:0:
329,192,203575,1,0,0:0:0:0:
182,192,203575,1,0,0:0:0:0:
109,192,203575,1,0,0:0:0:0:
256,192,203575,1,0,0:0:0:0:
182,192,203725,1,0,0:0:0:0:
402,192,203800,1,0,0:0:0:0:
36,192,203875,1,0,0:0:0:0:
109,192,203875,1,0,0:0:0:0:
256,192,203950,1,0,0:0:0:0:
475,192,204025,1,0,0:0:0:0:
402,192,204175,1,0,0:0:0:0:
36,192,204175,1,0,0:0:0:0:
182,192,204175,1,0,0:0:0:0:
329,192,204325,1,0,0:0:0:0:
109,192,204475,1,0,0:0:0:0:
36,192,204475,1,0,0:0:0:0:
256,192,204475,1,0,0:0:0:0:
402,192,204625,1,0,0:0:0:0:
329,192,204775,1,0,0:0:0:0:
109,192,204775,1,0,0:0:0:0:
36,192,204775,1,0,0:0:0:0:
475,192,204775,1,0,0:0:0:0:
182,192,204925,1,0,0:0:0:0:
402,192,205000,1,0,0:0:0:0:
36,192,205075,1,0,0:0:0:0:
109,192,205075,1,0,0:0:0:0:
256,192,205150,1,0,0:0:0:0:
475,192,205225,1,0,0:0:0:0:
402,192,205375,1,0,0:0:0:0:
36,192,205375,1,0,0:0:0:0:
182,192,205375,1,0,0:0:0:0:
329,192,205525,1,0,0:0:0:0:
36,192,205675,1,0,0:0:0:0:
109,192,205675,1,0,0:0:0:0:
256,192,205675,1,0,0:0:0:0:
402,192,205825,1,0,0:0:0:0:
475,192,205975,1,0,0:0:0:0:
109,192,205975,1,0,0:0:0:0:
36,192,205975,1,0,0:0:0:0:
329,192,205975,1,0,0:0:0:0:
182,192,206125,1,0,0:0:0:0:
402,192,206200,1,0,0:0:0:0:
36,192,206275,1,0,0:0:0:0:
109,192,206275,1,0,0:0:0:0:
256,192,206350,1,0,0:0:0:0:
475,192,206425,1,0,0:0:0:0:
402,192,206575,1,0,0:0:0:0:
36,192,206575,1,0,0:0:0:0:
182,192,206575,1,0,0:0:0:0:
329,192,206725,1,0,0:0:0:0:
109,192,206875,1,0,0:0:0:0:
36,192,206875,1,0,0:0:0:0:
256,192,206875,1,0,0:0:0:0:
402,192,207025,1,0,0:0:0:0:
109,192,207175,1,0,0:0:0:0:
36,192,207175,1,0,0:0:0:0:
256,192,207175,1,0,0:0:0:0:
182,192,207325,1,0,0:0:0:0:
402,192,207400,1,0,0:0:0:0:
36,192,207475,1,0,0:0:0:0:
109,192,207475,1,0,0:0:0:0:
256,192,207550,1,0,0:0:0:0:
475,192,207625,1,0,0:0:0:0:
402,192,207775,1,0,0:0:0:0:
36,192,207775,1,0,0:0:0:0:
182,192,207775,1,0,0:0:0:0:
109,192,207925,1,0,0:0:0:0:
36,192,208075,1,0,0:0:0:0:
256,192,208075,1,0,0:0:0:0:
329,192,208075,128,0,208375:0:0:0:0:
475,192,208375,128,0,208825:0:0:0:0:
36,192,208375,1,0,0:0:0:0:
182,192,208375,1,0,0:0:0:0:
402,192,208375,1,0,0:0:0:0:
36,192,208675,1,0,0:0:0:0:
256,192,208675,1,0,0:0:0:0:
402,192,208825,1,0,0:0:0:0:
182,192,208825,1,0,0:0:0:0:
329,192,208975,1,0,0:0:0:0:
36,192,208975,1,0,0:0:0:0:
109,192,208975,1,0,0:0:0:0:
475,192,208975,1,0,0:0:0:0:
256,192,209125,1,0,0:0:0:0:
402,192,209125,1,0,0:0:0:0:
182,192,209275,1,0,0:0:0:0:
36,192,209275,1,0,0:0:0:0:
475,192,209275,1,0,0:0:0:0:
329,192,209275,1,0,0:0:0:0:
256,192,209425,1,0,0:0:0:0:
109,192,209425,1,0,0:0:0:0:
329,192,209575,1,0,0:0:0:0:
36,192,209575,1,0,0:0:0:0:
182,192,209575,1,0,0:0:0:0:
402,192,209575,1,0,0:0:0:0:
329,192,209800,1,0,0:0:0:0:
36,192,209875,1,0,0:0:0:0:
109,192,209875,1,0,0:0:0:0:
475,192,210025,1,0,0:0:0:0:
256,192,210025,1,0,0:0:0:0:
402,192,210175,1,0,0:0:0:0:
36,192,210175,1,0,0:0:0:0:
329,192,210175,1,0,0:0:0:0:
182,192,210175,1,0,0:0:0:0:
256,192,210325,1,0,0:0:0:0:
109,192,210325,1,0,0:0:0:0:
329,192,210475,1,0,0:0:0:0:
36,192,210475,1,0,0:0:0:0:
182,192,210475,1,0,0:0:0:0:
475,192,210475,1,0,0:0:0:0:
402,192,210625,1,0,0:0:0:0:
256,192,210625,1,0,0:0:0:0:
475,192,210775,1,0,0:0:0:0:
109,192,210775,1,0,0:0:0:0:
36,192,210775,1,0,0:0:0:0:
329,192,210775,1,0,0:0:0:0:
182,192,210925,1,0,0:0:0:0:
329,192,211075,1,0,0:0:0:0:
36,192,211075,1,0,0:0:0:0:
256,192,211075,1,0,0:0:0:0:
402,192,211225,1,0,0:0:0:0:
256,192,211375,1,0,0:0:0:0:
36,192,211375,1,0,0:0:0:0:
475,192,211375,1,0,0:0:0:0:
182,192,211525,1,0,0:0:0:0:
402,192,211675,1,0,0:0:0:0:
36,192,211675,1,0,0:0:0:0:
109,192,211675,1,0,0:0:0:0:
475,192,211825,1,0,0:0:0:0:
109,192,211975,128,0,212125:0:0:0:0:
182,192,211975,128,0,212125:0:0:0:0:
36,192,211975,128,0,212125:0:0:0:0:
402,192,212125,1,0,0:0:0:0:
329,192,212162,1,0,0:0:0:0:
256,192,212200,1,0,0:0:0:0:
182,192,212237,1,0,0:0:0:0:
475,192,212275,128,0,212575:0:0:0:0:
109,192,212275,1,0,0:0:0:0:
182,192,212575,1,0,0:0:0:0:
109,192,212575,1,0,0:0:0:0:
182,192,212650,1,0,0:0:0:0:
109,192,212650,1,0,0:0:0:0:
329,192,212725,1,0,0:0:0:0:
402,192,212725,1,0,0:0:0:0:
329,192,212800,1,0,0:0:0:0:
402,192,212800,1,0,0:0:0:0:
36,192,212875,128,0,213025:0:0:0:0:
109,192,212875,128,0,213025:0:0:0:0:
475,192,213025,128,0,213175:0:0:0:0:
402,192,213100,128,0,213175:0:0:0:0:
182,192,213175,1,0,0:0:0:0:
329,192,213175,1,0,0:0:0:0:
256,192,213175,1,0,0:0:0:0:
36,192,213175,1,0,0:0:0:0:
109,192,213175,1,0,0:0:0:0:
402,192,213325,1,0,0:0:0:0:
182,192,213325,1,0,0:0:0:0:
256,192,213400,1,0,0:0:0:0:
475,192,213475,1,0,0:0:0:0:
329,192,213475,1,0,0:0:0:0:
36,192,213475,1,0,0:0:0:0:
109,192,213475,1,0,0:0:0:0:
182,192,213550,1,0,0:0:0:0:
256,192,213625,1,0,0:0:0:0:
402,192,213625,1,0,0:0:0:0:
109,192,213775,1,0,0:0:0:0:
329,192,213775,1,0,0:0:0:0:
36,192,213775,1,0,0:0:0:0:
475,192,213775,1,0,0:0:0:0:
256,192,213925,1,0,0:0:0:0:
402,192,213925,1,0,0:0:0:0:
109,192,213925,1,0,0:0:0:0:
329,192,214075,1,0,0:0:0:0:
475,192,214075,1,0,0:0:0:0:
36,192,214075,1,0,0:0:0:0:
182,192,214075,1,0,0:0:0:0:
256,192,214225,1,0,0:0:0:0:
109,192,214225,1,0,0:0:0:0:
475,192,214225,1,0,0:0:0:0:
402,192,214375,1,0,0:0:0:0:
182,192,214375,1,0,0:0:0:0:
36,192,214375,1,0,0:0:0:0:
329,192,214375,1,0,0:0:0:0:
109,192,214375,1,0,0:0:0:0:
256,192,214525,1,0,0:0:0:0:
475,192,214525,1,0,0:0:0:0:
182,192,214600,1,0,0:0:0:0:
109,192,214675,1,0,0:0:0:0:
36,192,214675,1,0,0:0:0:0:
402,192,214675,1,0,0:0:0:0:
329,192,214675,1,0,0:0:0:0:
256,192,214750,1,0,0:0:0:0:
182,192,214825,1,0,0:0:0:0:
475,192,214825,1,0,0:0:0:0:
329,192,214975,1,0,0:0:0:0:
36,192,214975,1,0,0:0:0:0:
402,192,214975,1,0,0:0:0:0:
109,192,214975,1,0,0:0:0:0:
256,192,215125,1,0,0:0:0:0:
475,192,215125,1,0,0:0:0:0:
329,192,215125,1,0,0:0:0:0:
109,192,215275,1,0,0:0:0:0:
36,192,215275,1,0,0:0:0:0:
182,192,215275,1,0,0:0:0:0:
402,192,215275,1,0,0:0:0:0:
182,192,215425,1,0,0:0:0:0:
475,192,215425,1,0,0:0:0:0:
256,192,215425,1,0,0:0:0:0:
329,192,215575,1,0,0:0:0:0:
109,192,215575,1,0,0:0:0:0:
36,192,215575,1,0,0:0:0:0:
402,192,215575,1,0,0:0:0:0:
256,192,215575,1,0,0:0:0:0:
475,192,215725,1,0,0:0:0:0:
182,192,215725,1,0,0:0:0:0:
256,192,215800,1,0,0:0:0:0:
109,192,215875,1,0,0:0:0:0:
329,192,215875,1,0,0:0:0:0:
36,192,215875,1,0,0:0:0:0:
402,192,215875,1,0,0:0:0:0:
182,192,215950,1,0,0:0:0:0:
256,192,216025,1,0,0:0:0:0:
475,192,216025,1,0,0:0:0:0:
182,192,216175,1,0,0:0:0:0:
402,192,216175,1,0,0:0:0:0:
36,192,216175,1,0,0:0:0:0:
329,192,216175,1,0,0:0:0:0:
36,192,216325,1,0,0:0:0:0:
256,192,216325,1,0,0:0:0:0:
329,192,216475,1,0,0:0:0:0:
109,192,216475,1,0,0:0:0:0:
402,192,216475,1,0,0:0:0:0:
182,192,216475,1,0,0:0:0:0:
402,192,216625,1,0,0:0:0:0:
475,192,216625,1,0,0:0:0:0:
256,192,216625,1,0,0:0:0:0:
329,192,216775,1,0,0:0:0:0:
256,192,216775,1,0,0:0:0:0:
182,192,216775,1,0,0:0:0:0:
36,192,216775,1,0,0:0:0:0:
109,192,216925,1,0,0:0:0:0:
402,192,216925,1,0,0:0:0:0:
329,192,217000,1,0,0:0:0:0:
182,192,217075,1,0,0:0:0:0:
475,192,217075,1,0,0:0:0:0:
36,192,217075,1,0,0:0:0:0:
256,192,217075,1,0,0:0:0:0:
402,192,217150,1,0,0:0:0:0:
109,192,217225,1,0,0:0:0:0:
329,192,217225,1,0,0:0:0:0:
256,192,217375,1,0,0:0:0:0:
475,192,217375,1,0,0:0:0:0:
36,192,217375,1,0,0:0:0:0:
402,192,217375,1,0,0:0:0:0:
182,192,217525,1,0,0:0:0:0:
109,192,217525,1,0,0:0:0:0:
256,192,217525,1,0,0:0:0:0:
475,192,217675,1,0,0:0:0:0:
402,192,217675,1,0,0:0:0:0:
36,192,217675,1,0,0:0:0:0:
329,192,217675,128,0,217975:0:0:0:0:
182,192,217825,1,0,0:0:0:0:
109,192,217825,1,0,0:0:0:0:
402,192,217975,1,0,0:0:0:0:
256,192,217975,1,0,0:0:0:0:
475,192,217975,128,0,218425:0:0:0:0:
109,192,217975,1,0,0:0:0:0:
36,192,217975,1,0,0:0:0:0:
182,192,218125,1,0,0:0:0:0:
109,192,218275,1,0,0:0:0:0:
329,192,218275,1,0,0:0:0:0:
36,192,218275,1,0,0:0:0:0:
256,192,218275,1,0,0:0:0:0:
256,192,218425,1,0,0:0:0:0:
402,192,218425,1,0,0:0:0:0:
182,192,218425,1,0,0:0:0:0:
109,192,218575,1,0,0:0:0:0:
329,192,218575,1,0,0:0:0:0:
36,192,218575,1,0,0:0:0:0:
475,192,218575,1,0,0:0:0:0:
109,192,218725,1,0,0:0:0:0:
256,192,218725,1,0,0:0:0:0:
402,192,218725,1,0,0:0:0:0:
182,192,218725,1,0,0:0:0:0:
329,192,218875,1,0,0:0:0:0:
475,192,218875,1,0,0:0:0:0:
36,192,218875,1,0,0:0:0:0:
182,192,218875,1,0,0:0:0:0:
256,192,219025,1,0,0:0:0:0:
329,192,219025,1,0,0:0:0:0:
109,192,219025,1,0,0:0:0:0:
402,192,219025,1,0,0:0:0:0:
182,192,219175,1,0,0:0:0:0:
402,192,219175,1,0,0:0:0:0:
36,192,219175,1,0,0:0:0:0:
475,192,219175,1,0,0:0:0:0:
109,192,219175,1,0,0:0:0:0:
256,192,219325,1,0,0:0:0:0:
329,192,219400,1,0,0:0:0:0:
109,192,219475,1,0,0:0:0:0:
402,192,219475,1,0,0:0:0:0:
475,192,219475,1,0,0:0:0:0:
182,192,219475,1,0,0:0:0:0:
256,192,219625,1,0,0:0:0:0:
475,192,219625,1,0,0:0:0:0:
329,192,219625,1,0,0:0:0:0:
36,192,219625,1,0,0:0:0:0:
182,192,219775,1,0,0:0:0:0:
329,192,219775,1,0,0:0:0:0:
402,192,219775,1,0,0:0:0:0:
109,192,219775,1,0,0:0:0:0:
182,192,219925,1,0,0:0:0:0:
256,192,219925,1,0,0:0:0:0:
475,192,219925,1,0,0:0:0:0:
36,192,219925,1,0,0:0:0:0:
329,192,220075,1,0,0:0:0:0:
36,192,220075,1,0,0:0:0:0:
109,192,220075,1,0,0:0:0:0:
402,192,220075,1,0,0:0:0:0:
475,192,220225,1,0,0:0:0:0:
182,192,220225,1,0,0:0:0:0:
402,192,220225,1,0,0:0:0:0:
256,192,220225,1,0,0:0:0:0:
109,192,220375,128,0,220525:0:0:0:0:
182,192,220525,128,0,220675:0:0:0:0:
329,192,220675,128,0,220825:0:0:0:0:
402,192,220825,128,0,220975:0:0:0:0:
109,192,220975,128,0,221125:0:0:0:0:
36,192,221125,128,0,221275:0:0:0:0:
402,192,221275,128,0,221425:0:0:0:0:
475,192,221425,128,0,221575:0:0:0:0:
182,192,221575,1,0,0:0:0:0:
402,192,221575,128,0,221875:0:0:0:0:
182,192,221725,1,0,0:0:0:0:
109,192,221800,1,0,0:0:0:0:
36,192,221875,1,0,0:0:0:0:
329,192,221875,128,0,221950:0:0:0:0:
182,192,221950,128,0,222025:0:0:0:0:
329,192,222025,128,0,222100:0:0:0:0:
36,192,222100,1,0,0:0:0:0:
182,192,222100,128,0,222175:0:0:0:0:
256,192,222175,128,0,222250:0:0:0:0:
475,192,222250,1,0,0:0:0:0:
109,192,222250,128,0,222325:0:0:0:0:
402,192,222325,1,0,0:0:0:0:
256,192,222325,128,0,222400:0:0:0:0:
329,192,222400,1,0,0:0:0:0:
109,192,222400,128,0,222475:0:0:0:0:
475,192,222475,128,0,222700:0:0:0:0:
182,192,222475,128,0,222550:0:0:0:0:
36,192,222550,128,0,222625:0:0:0:0:
329,192,222625,128,0,222700:0:0:0:0:
182,192,222625,128,0,222700:0:0:0:0:
36,192,222700,128,0,222775:0:0:0:0:
402,192,222775,1,0,0:0:0:0:
475,192,222775,1,0,0:0:0:0:
182,192,222775,1,0,0:0:0:0:
109,192,222775,1,0,0:0:0:0:
256,192,222775,1,0,0:0:0:0:
329,192,222775,1,0,0:0:0:0:
475,192,222925,1,0,0:0:0:0:
329,192,222925,1,0,0:0:0:0:
182,192,222925,1,0,0:0:0:0:
109,192,223000,1,0,0:0:0:0:
36,192,223000,1,0,0:0:0:0:
475,192,223075,1,0,0:0:0:0:
402,192,223075,1,0,0:0:0:0:
182,192,223075,1,0,0:0:0:0:
256,192,223075,1,0,0:0:0:0:
329,192,223075,1,0,0:0:0:0:
329,192,223225,1,0,0:0:0:0:
36,192,223225,1,0,0:0:0:0:
182,192,223225,1,0,0:0:0:0:
256,192,223300,1,0,0:0:0:0:
109,192,223300,1,0,0:0:0:0:
475,192,223375,1,0,0:0:0:0:
402,192,223375,1,0,0:0:0:0:
329,192,223375,1,0,0:0:0:0:
182,192,223375,1,0,0:0:0:0:
256,192,223450,1,0,0:0:0:0:
109,192,223450,1,0,0:0:0:0:
475,192,223525,1,0,0:0:0:0:
402,192,223525,1,0,0:0:0:0:
36,192,223525,1,0,0:0:0:0:
182,192,223600,1,0,0:0:0:0:
329,192,223600,1,0,0:0:0:0:
402,192,223675,1,0,0:0:0:0:
475,192,223675,1,0,0:0:0:0:
109,192,223675,1,0,0:0:0:0:
256,192,223675,1,0,0:0:0:0:
36,192,223675,1,0,0:0:0:0:
402,192,223825,1,0,0:0:0:0:
329,192,223825,1,0,0:0:0:0:
182,192,223825,1,0,0:0:0:0:
109,192,223900,1,0,0:0:0:0:
256,192,223900,1,0,0:0:0:0:
36,192,223975,1,0,0:0:0:0:
475,192,223975,1,0,0:0:0:0:
329,192,224125,1,0,0:0:0:0:
182,192,224125,1,0,0:0:0:0:
475,192,224275,1,0,0:0:0:0:
256,192,224275,1,0,0:0:0:0:
402,192,224275,1,0,0:0:0:0:
182,192,224425,1,0,0:0:0:0:
329,192,224425,1,0,0:0:0:0:
109,192,224500,1,0,0:0:0:0:
36,192,224500,1,0,0:0:0:0:
475,192,224575,1,0,0:0:0:0:
256,192,224575,1,0,0:0:0:0:
402,192,224575,1,0,0:0:0:0:
475,192,224725,1,0,0:0:0:0:
256,192,224725,1,0,0:0:0:0:
402,192,224725,1,0,0:0:0:0:
36,192,224875,128,0,224950:0:0:0:0:
182,192,225175,1,0,0:0:0:0:
109,192,225175,1,0,0:0:0:0:
36,192,225175,1,0,0:0:0:0:
475,192,225175,1,0,0:0:0:0:
402,192,225175,1,0,0:0:0:0:
329,192,225250,1,0,0:0:0:0:
256,192,225250,1,0,0:0:0:0:
109,192,225325,1,0,0:0:0:0:
475,192,225325,1,0,0:0:0:0:
402,192,225325,1,0,0:0:0:0:
182,192,225475,1,0,0:0:0:0:
36,192,225475,1,0,0:0:0:0:
475,192,225475,1,0,0:0:0:0:
402,192,225475,1,0,0:0:0:0:
256,192,225475,1,0,0:0:0:0:
109,192,225625,1,0,0:0:0:0:
475,192,225625,1,0,0:0:0:0:
329,192,225625,1,0,0:0:0:0:
256,192,225700,1,0,0:0:0:0:
402,192,225700,1,0,0:0:0:0:
109,192,225775,1,0,0:0:0:0:
182,192,225775,1,0,0:0:0:0:
36,192,225775,1,0,0:0:0:0:
329,192,225775,1,0,0:0:0:0:
256,192,225850,1,0,0:0:0:0:
402,192,225850,1,0,0:0:0:0:
36,192,225925,1,0,0:0:0:0:
182,192,225925,1,0,0:0:0:0:
475,192,225925,1,0,0:0:0:0:
329,192,226000,1,0,0:0:0:0:
256,192,226000,1,0,0:0:0:0:
36,192,226075,1,0,0:0:0:0:
109,192,226075,1,0,0:0:0:0:
475,192,226075,1,0,0:0:0:0:
402,192,226075,1,0,0:0:0:0:
182,192,226075,1,0,0:0:0:0:
402,192,226225,128,0,226525:0:0:0:0:
256,192,226225,128,0,226525:0:0:0:0:
109,192,226225,128,0,226525:0:0:0:0:
329,192,226525,128,0,226675:0:0:0:0:
182,192,226525,128,0,226675:0:0:0:0:
36,192,226525,128,0,226675:0:0:0:0:
256,192,226675,128,0,226825:0:0:0:0:
402,192,226675,128,0,226825:0:0:0:0:
109,192,226675,128,0,226825:0:0:0:0:
475,192,226825,128,0,226975:0:0:0:0:
329,192,226825,128,0,226975:0:0:0:0:
182,192,226825,128,0,226975:0:0:0:0:
402,192,226975,128,0,227275:0:0:0:0:
256,192,226975,128,0,227350:0:0:0:0:
109,192,226975,128,0,227425:0:0:0:0:
402,192,227425,1,0,0:0:0:0:
329,192,227425,1,0,0:0:0:0:
256,192,227500,1,0,0:0:0:0:
182,192,227500,1,0,0:0:0:0:
402,192,227575,128,0,227800:0:0:0:0:
475,192,227575,128,0,227800:0:0:0:0:
329,192,227575,1,0,0:0:0:0:
109,192,227575,1,0,0:0:0:0:
36,192,227575,1,0,0:0:0:0:
256,192,227725,1,0,0:0:0:0:
182,192,227725,1,0,0:0:0:0:
109,192,227800,1,0,0:0:0:0:
36,192,227875,1,0,0:0:0:0:
329,192,227875,1,0,0:0:0:0:
402,192,227875,128,0,227950:0:0:0:0:
475,192,227875,128,0,227950:0:0:0:0:
182,192,227875,1,0,0:0:0:0:
256,192,228025,1,0,0:0:0:0:
109,192,228025,1,0,0:0:0:0:
402,192,228025,128,0,228100:0:0:0:0:
475,192,228025,128,0,228100:0:0:0:0:
182,192,228100,1,0,0:0:0:0:
36,192,228175,1,0,0:0:0:0:
329,192,228175,1,0,0:0:0:0:
402,192,228175,128,0,228550:0:0:0:0:
475,192,228175,128,0,228550:0:0:0:0:
182,192,228250,1,0,0:0:0:0:
329,192,228325,1,0,0:0:0:0:
109,192,228325,1,0,0:0:0:0:
256,192,228400,1,0,0:0:0:0:
182,192,228475,1,0,0:0:0:0:
36,192,228475,1,0,0:0:0:0:
109,192,228475,1,0,0:0:0:0:
402,192,228625,128,0,228700:0:0:0:0:
329,192,228625,128,0,228700:0:0:0:0:
475,192,228625,128,0,228700:0:0:0:0:
182,192,228625,1,0,0:0:0:0:
36,192,228775,128,0,228850:0:0:0:0:
329,192,228775,128,0,228850:0:0:0:0:
402,192,228775,128,0,228850:0:0:0:0:
256,192,228775,128,0,228850:0:0:0:0:
109,192,228775,1,0,0:0:0:0:
329,192,228925,128,0,229000:0:0:0:0:
109,192,228925,128,0,229000:0:0:0:0:
256,192,228925,128,0,229000:0:0:0:0:
402,192,228925,128,0,229000:0:0:0:0:
36,192,229075,128,0,229150:0:0:0:0:
475,192,229075,1,0,0:0:0:0:
256,192,229075,128,0,229150:0:0:0:0:
329,192,229075,128,0,229150:0:0:0:0:
182,192,229075,128,0,229150:0:0:0:0:
475,192,229225,128,0,229300:0:0:0:0:
256,192,229225,128,0,229300:0:0:0:0:
182,192,229225,128,0,229300:0:0:0:0:
329,192,229225,128,0,229300:0:0:0:0:
182,192,229375,128,0,229581:0:0:0:0:
329,192,229375,128,0,229543:0:0:0:0:
256,192,229375,128,0,229562:0:0:0:0:
402,192,229375,128,0,229525:0:0:0:0:
109,192,229375,128,0,229600:0:0:0:0:
256,192,229675,128,0,229843:0:0:0:0:
329,192,229675,128,0,229825:0:0:0:0:
109,192,229675,128,0,229881:0:0:0:0:
36,192,229675,128,0,229900:0:0:0:0:
182,192,229675,128,0,229862:0:0:0:0:
36,192,229975,1,0,0:0:0:0:
402,192,229975,1,0,0:0:0:0:
475,192,229975,1,0,0:0:0:0:
109,192,230000,1,0,0:0:0:0:
182,192,230025,1,0,0:0:0:0:
256,192,230050,1,0,0:0:0:0:
329,192,230075,1,0,0:0:0:0:
402,192,230100,1,0,0:0:0:0:
475,192,230125,1,0,0:0:0:0:
36,192,230162,1,0,0:0:0:0:
109,192,230200,1,0,0:0:0:0:
182,192,230237,1,0,0:0:0:0:
329,192,230275,1,0,0:0:0:0:
402,192,230312,1,0,0:0:0:0:
475,192,230350,1,0,0:0:0:0:
256,192,230375,1,0,0:0:0:0:
182,192,230425,1,0,0:0:0:0:
109,192,230475,1,0,0:0:0:0:
36,192,230525,1,0,0:0:0:0:
475,192,230575,1,0,0:0:0:0:
402,192,230575,1,0,0:0:0:0:
475,192,230650,1,0,0:0:0:0:
402,192,230650,1,0,0:0:0:0:
109,192,230725,1,0,0:0:0:0:
36,192,230725,1,0,0:0:0:0:
36,192,230800,1,0,0:0:0:0:
109,192,230800,1,0,0:0:0:0:
329,192,230875,1,0,0:0:0:0:
182,192,230875,1,0,0:0:0:0:
256,192,231025,1,0,0:0:0:0:
402,192,231025,1,0,0:0:0:0:
109,192,231025,1,0,0:0:0:0:
109,192,231175,1,0,0:0:0:0:
329,192,231175,1,0,0:0:0:0:
475,192,231175,1,0,0:0:0:0:
36,192,231175,1,0,0:0:0:0:
182,192,231175,1,0,0:0:0:0:
256,192,231175,1,0,0:0:0:0:
36,192,231325,1,0,0:0:0:0:
182,192,231325,1,0,0:0:0:0:
475,192,231325,1,0,0:0:0:0:
329,192,231325,1,0,0:0:0:0:
256,192,231325,1,0,0:0:0:0:
109,192,231325,1,0,0:0:0:0:
256,192,231475,1,0,0:0:0:0:
109,192,231475,1,0,0:0:0:0:
36,192,231475,1,0,0:0:0:0:
475,192,231475,1,0,0:0:0:0:
329,192,231475,1,0,0:0:0:0:
182,192,231475,1,0,0:0:0:0:
256,192,231775,1,0,0:0:0:0:
329,192,231775,1,0,0:0:0:0:
475,192,231775,1,0,0:0:0:0:
36,192,231775,1,0,0:0:0:0:
182,192,231775,1,0,0:0:0:0:
109,192,231775,1,0,0:0:0:0:
182,192,231925,1,0,0:0:0:0:
182,192,232000,1,0,0:0:0:0:
109,192,232075,1,0,0:0:0:0:
402,192,232075,1,0,0:0:0:0:
256,192,232075,128,0,232225:0:0:0:0:
36,192,232075,1,0,0:0:0:0:
475,192,232075,1,0,0:0:0:0:
329,192,232225,1,0,0:0:0:0:
402,192,232225,1,0,0:0:0:0:
475,192,232225,1,0,0:0:0:0:
182,192,232225,1,0,0:0:0:0:
109,192,232225,1,0,0:0:0:0:
36,192,232225,1,0,0:0:0:0:
329,192,232375,1,0,0:0:0:0:
475,192,232375,1,0,0:0:0:0:
402,192,232375,1,0,0:0:0:0:
36,192,232375,1,0,0:0:0:0:
109,192,232375,1,0,0:0:0:0:
182,192,232375,1,0,0:0:0:0:
402,192,232525,1,0,0:0:0:0:
329,192,232525,1,0,0:0:0:0:
475,192,232525,1,0,0:0:0:0:
182,192,232525,1,0,0:0:0:0:
109,192,232525,1,0,0:0:0:0:
36,192,232525,1,0,0:0:0:0:
475,192,232675,1,0,0:0:0:0:
402,192,232675,1,0,0:0:0:0:
329,192,232675,1,0,0:0:0:0:
36,192,232675,1,0,0:0:0:0:
182,192,232675,1,0,0:0:0:0:
109,192,232675,1,0,0:0:0:0:
329,192,232825,1,0,0:0:0:0:
402,192,232825,1,0,0:0:0:0:
475,192,232825,1,0,0:0:0:0:
109,192,232825,1,0,0:0:0:0:
36,192,232825,1,0,0:0:0:0:
182,192,232825,1,0,0:0:0:0:
182,192,232975,1,0,0:0:0:0:
109,192,232975,1,0,0:0:0:0:
36,192,232975,1,0,0:0:0:0:
475,192,232975,1,0,0:0:0:0:
402,192,232975,1,0,0:0:0:0:
329,192,232975,1,0,0:0:0:0:
329,192,233050,1,0,0:0:0:0:
256,192,233125,128,0,233275:0:0:0:0:
475,192,233275,1,0,0:0:0:0:
36,192,233275,1,0,0:0:0:0:
109,192,233275,128,0,233575:0:0:0:0:
402,192,233275,1,0,0:0:0:0:
329,192,233575,1,0,0:0:0:0:
402,192,233575,1,0,0:0:0:0:
475,192,233575,1,0,0:0:0:0:
36,192,233575,1,0,0:0:0:0:
182,192,233575,1,0,0:0:0:0:
256,192,233575,1,0,0:0:0:0:
256,192,233725,1,0,0:0:0:0:
475,192,233725,1,0,0:0:0:0:
402,192,233725,1,0,0:0:0:0:
36,192,233725,1,0,0:0:0:0:
182,192,233725,1,0,0:0:0:0:
329,192,233725,1,0,0:0:0:0:
402,192,233875,1,0,0:0:0:0:
475,192,233875,1,0,0:0:0:0:
329,192,233875,1,0,0:0:0:0:
36,192,233875,1,0,0:0:0:0:
182,192,233875,1,0,0:0:0:0:
256,192,233875,1,0,0:0:0:0:
256,192,234175,1,0,0:0:0:0:
402,192,234175,1,0,0:0:0:0:
475,192,234175,1,0,0:0:0:0:
36,192,234175,1,0,0:0:0:0:
182,192,234175,1,0,0:0:0:0:
329,192,234175,1,0,0:0:0:0:
329,192,234475,1,0,0:0:0:0:
475,192,234475,1,0,0:0:0:0:
402,192,234475,1,0,0:0:0:0:
36,192,234475,1,0,0:0:0:0:
182,192,234475,1,0,0:0:0:0:
256,192,234475,1,0,0:0:0:0:
329,192,234775,1,0,0:0:0:0:
402,192,234775,1,0,0:0:0:0:
475,192,234775,1,0,0:0:0:0:
36,192,234775,1,0,0:0:0:0:
182,192,234775,1,0,0:0:0:0:
256,192,234775,1,0,0:0:0:0:
256,192,235075,1,0,0:0:0:0:
402,192,235075,1,0,0:0:0:0:
475,192,235075,1,0,0:0:0:0:
36,192,235075,1,0,0:0:0:0:
182,192,235075,1,0,0:0:0:0:
329,192,235075,1,0,0:0:0:0:
182,192,235225,1,0,0:0:0:0:
256,192,235225,1,0,0:0:0:0:
36,192,235225,1,0,0:0:0:0:
475,192,235225,1,0,0:0:0:0:
402,192,235225,1,0,0:0:0:0:
329,192,235225,1,0,0:0:0:0:
329,192,235375,1,0,0:0:0:0:
402,192,235375,1,0,0:0:0:0:
475,192,235375,1,0,0:0:0:0:
36,192,235375,1,0,0:0:0:0:
182,192,235375,1,0,0:0:0:0:
256,192,235375,1,0,0:0:0:0:
109,192,235525,1,0,0:0:0:0:
36,192,235562,1,0,0:0:0:0:
256,192,235600,1,0,0:0:0:0:
182,192,235637,1,0,0:0:0:0:
402,192,235675,1,0,0:0:0:0:
329,192,235712,1,0,0:0:0:0:
182,192,235750,1,0,0:0:0:0:
109,192,235787,1,0,0:0:0:0:
329,192,235825,1,0,0:0:0:0:
256,192,235862,1,0,0:0:0:0:
475,192,235900,1,0,0:0:0:0:
402,192,235937,1,0,0:0:0:0:
182,192,235975,1,0,0:0:0:0:
329,192,235975,1,0,0:0:0:0:
36,192,235975,1,0,0:0:0:0:
109,192,235975,1,0,0:0:0:0:
36,192,236125,1,0,0:0:0:0:
256,192,236125,1,0,0:0:0:0:
182,192,236125,1,0,0:0:0:0:
329,192,236200,1,0,0:0:0:0:
402,192,236200,1,0,0:0:0:0:
475,192,236200,1,0,0:0:0:0:
182,192,236275,1,0,0:0:0:0:
109,192,236275,1,0,0:0:0:0:
256,192,236350,1,0,0:0:0:0:
329,192,236350,1,0,0:0:0:0:
36,192,236350,1,0,0:0:0:0:
182,192,236425,1,0,0:0:0:0:
475,192,236425,1,0,0:0:0:0:
402,192,236425,1,0,0:0:0:0:
109,192,236425,1,0,0:0:0:0:
329,192,236500,1,0,0:0:0:0:
475,192,236575,1,0,0:0:0:0:
256,192,236575,1,0,0:0:0:0:
36,192,236575,1,0,0:0:0:0:
109,192,236575,1,0,0:0:0:0:
182,192,236725,1,0,0:0:0:0:
329,192,236725,1,0,0:0:0:0:
402,192,236725,1,0,0:0:0:0:
256,192,236800,1,0,0:0:0:0:
475,192,236875,1,0,0:0:0:0:
402,192,236875,1,0,0:0:0:0:
109,192,236875,1,0,0:0:0:0:
36,192,236875,1,0,0:0:0:0:
329,192,236950,1,0,0:0:0:0:
182,192,236950,1,0,0:0:0:0:
256,192,236950,1,0,0:0:0:0:
36,192,237025,128,0,237325:0:0:0:0:
475,192,237025,1,0,0:0:0:0:
402,192,237025,1,0,0:0:0:0:
109,192,237025,1,0,0:0:0:0:
475,192,237175,1,0,0:0:0:0:
182,192,237175,1,0,0:0:0:0:
329,192,237175,1,0,0:0:0:0:
402,192,237325,1,0,0:0:0:0:
256,192,237325,1,0,0:0:0:0:
109,192,237325,1,0,0:0:0:0:
329,192,237400,1,0,0:0:0:0:
182,192,237400,1,0,0:0:0:0:
475,192,237400,1,0,0:0:0:0:
36,192,237475,1,0,0:0:0:0:
109,192,237475,1,0,0:0:0:0:
402,192,237475,1,0,0:0:0:0:
256,192,237475,1,0,0:0:0:0:
329,192,237625,1,0,0:0:0:0:
402,192,237625,1,0,0:0:0:0:
182,192,237625,1,0,0:0:0:0:
109,192,237700,1,0,0:0:0:0:
475,192,237775,1,0,0:0:0:0:
256,192,237775,1,0,0:0:0:0:
36,192,237775,1,0,0:0:0:0:
329,192,237775,1,0,0:0:0:0:
402,192,237925,1,0,0:0:0:0:
182,192,237925,1,0,0:0:0:0:
256,192,237925,1,0,0:0:0:0:
109,192,238000,1,0,0:0:0:0:
402,192,238075,1,0,0:0:0:0:
475,192,238075,1,0,0:0:0:0:
182,192,238075,1,0,0:0:0:0:
36,192,238075,1,0,0:0:0:0:
256,192,238150,1,0,0:0:0:0:
109,192,238150,1,0,0:0:0:0:
329,192,238150,1,0,0:0:0:0:
402,192,238225,1,0,0:0:0:0:
475,192,238225,1,0,0:0:0:0:
182,192,238225,1,0,0:0:0:0:
256,192,238300,1,0,0:0:0:0:
329,192,238375,1,0,0:0:0:0:
36,192,238375,1,0,0:0:0:0:
109,192,238375,1,0,0:0:0:0:
475,192,238375,1,0,0:0:0:0:
182,192,238525,1,0,0:0:0:0:
402,192,238525,1,0,0:0:0:0:
109,192,238525,1,0,0:0:0:0:
329,192,238600,1,0,0:0:0:0:
256,192,238600,1,0,0:0:0:0:
475,192,238600,1,0,0:0:0:0:
36,192,238675,1,0,0:0:0:0:
402,192,238675,1,0,0:0:0:0:
182,192,238750,1,0,0:0:0:0:
109,192,238750,1,0,0:0:0:0:
329,192,238750,1,0,0:0:0:0:
256,192,238825,1,0,0:0:0:0:
402,192,238825,1,0,0:0:0:0:
475,192,238825,1,0,0:0:0:0:
36,192,238900,1,0,0:0:0:0:
329,192,238900,1,0,0:0:0:0:
109,192,238900,1,0,0:0:0:0:
182,192,238975,1,0,0:0:0:0:
475,192,238975,1,0,0:0:0:0:
256,192,238975,1,0,0:0:0:0:
402,192,238975,1,0,0:0:0:0:
329,192,239125,1,0,0:0:0:0:
36,192,239125,1,0,0:0:0:0:
109,192,239125,1,0,0:0:0:0:
256,192,239200,1,0,0:0:0:0:
182,192,239275,1,0,0:0:0:0:
475,192,239275,1,0,0:0:0:0:
402,192,239275,1,0,0:0:0:0:
36,192,239275,1,0,0:0:0:0:
329,192,239425,1,0,0:0:0:0:
109,192,239425,1,0,0:0:0:0:
475,192,239425,1,0,0:0:0:0:
182,192,239500,1,0,0:0:0:0:
36,192,239575,1,0,0:0:0:0:
402,192,239575,1,0,0:0:0:0:
256,192,239575,1,0,0:0:0:0:
475,192,239575,1,0,0:0:0:0:
182,192,239725,1,0,0:0:0:0:
109,192,239725,1,0,0:0:0:0:
402,192,239725,1,0,0:0:0:0:
256,192,239800,1,0,0:0:0:0:
329,192,239875,1,0,0:0:0:0:
475,192,239875,1,0,0:0:0:0:
36,192,239875,1,0,0:0:0:0:
402,192,239875,1,0,0:0:0:0:
182,192,240025,1,0,0:0:0:0:
109,192,240025,1,0,0:0:0:0:
256,192,240025,1,0,0:0:0:0:
329,192,240100,1,0,0:0:0:0:
402,192,240175,1,0,0:0:0:0:
475,192,240175,128,0,240475:0:0:0:0:
36,192,240175,1,0,0:0:0:0:
109,192,240175,1,0,0:0:0:0:
329,192,240325,1,0,0:0:0:0:
182,192,240325,1,0,0:0:0:0:
109,192,240400,1,0,0:0:0:0:
256,192,240475,1,0,0:0:0:0:
402,192,240475,1,0,0:0:0:0:
36,192,240475,1,0,0:0:0:0:
329,192,240475,1,0,0:0:0:0:
109,192,240550,1,0,0:0:0:0:
182,192,240550,1,0,0:0:0:0:
475,192,240550,1,0,0:0:0:0:
36,192,240625,1,0,0:0:0:0:
329,192,240625,1,0,0:0:0:0:
402,192,240625,1,0,0:0:0:0:
109,192,240700,1,0,0:0:0:0:
182,192,240700,1,0,0:0:0:0:
256,192,240700,1,0,0:0:0:0:
475,192,240775,1,0,0:0:0:0:
402,192,240775,1,0,0:0:0:0:
36,192,240775,1,0,0:0:0:0:
329,192,240775,1,0,0:0:0:0:
329,192,240925,1,0,0:0:0:0:
182,192,240925,1,0,0:0:0:0:
109,192,240925,1,0,0:0:0:0:
402,192,241000,1,0,0:0:0:0:
256,192,241000,1,0,0:0:0:0:
475,192,241000,1,0,0:0:0:0:
329,192,241075,1,0,0:0:0:0:
182,192,241075,1,0,0:0:0:0:
109,192,241150,1,0,0:0:0:0:
256,192,241150,1,0,0:0:0:0:
36,192,241150,1,0,0:0:0:0:
402,192,241225,1,0,0:0:0:0:
329,192,241225,1,0,0:0:0:0:
182,192,241225,1,0,0:0:0:0:
475,192,241225,1,0,0:0:0:0:
109,192,241300,1,0,0:0:0:0:
475,192,241375,1,0,0:0:0:0:
329,192,241375,1,0,0:0:0:0:
36,192,241375,1,0,0:0:0:0:
256,192,241375,1,0,0:0:0:0:
402,192,241525,1,0,0:0:0:0:
109,192,241525,1,0,0:0:0:0:
256,192,241525,1,0,0:0:0:0:
475,192,241600,1,0,0:0:0:0:
109,192,241675,1,0,0:0:0:0:
182,192,241675,1,0,0:0:0:0:
329,192,241675,1,0,0:0:0:0:
36,192,241675,1,0,0:0:0:0:
402,192,241750,1,0,0:0:0:0:
475,192,241750,1,0,0:0:0:0:
256,192,241750,1,0,0:0:0:0:
182,192,241825,1,0,0:0:0:0:
329,192,241825,1,0,0:0:0:0:
36,192,241825,1,0,0:0:0:0:
402,192,241900,1,0,0:0:0:0:
256,192,241900,1,0,0:0:0:0:
109,192,241900,1,0,0:0:0:0:
182,192,241975,1,0,0:0:0:0:
329,192,241975,1,0,0:0:0:0:
36,192,241975,1,0,0:0:0:0:
475,192,241975,1,0,0:0:0:0:
109,192,242125,1,0,0:0:0:0:
256,192,242125,1,0,0:0:0:0:
475,192,242125,1,0,0:0:0:0:
36,192,242200,1,0,0:0:0:0:
329,192,242200,1,0,0:0:0:0:
182,192,242200,1,0,0:0:0:0:
256,192,242275,1,0,0:0:0:0:
402,192,242275,1,0,0:0:0:0:
329,192,242350,1,0,0:0:0:0:
475,192,242350,1,0,0:0:0:0:
182,192,242350,1,0,0:0:0:0:
36,192,242425,1,0,0:0:0:0:
402,192,242425,1,0,0:0:0:0:
109,192,242425,1,0,0:0:0:0:
256,192,242425,1,0,0:0:0:0:
182,192,242500,1,0,0:0:0:0:
402,192,242575,1,0,0:0:0:0:
475,192,242575,1,0,0:0:0:0:
36,192,242575,1,0,0:0:0:0:
329,192,242575,1,0,0:0:0:0:
329,192,242725,1,0,0:0:0:0:
109,192,242725,1,0,0:0:0:0:
182,192,242725,1,0,0:0:0:0:
402,192,242800,1,0,0:0:0:0:
109,192,242875,1,0,0:0:0:0:
36,192,242875,1,0,0:0:0:0:
475,192,242875,1,0,0:0:0:0:
256,192,242875,1,0,0:0:0:0:
402,192,243025,1,0,0:0:0:0:
329,192,243025,1,0,0:0:0:0:
182,192,243025,1,0,0:0:0:0:
256,192,243100,1,0,0:0:0:0:
109,192,243100,1,0,0:0:0:0:
36,192,243100,1,0,0:0:0:0:
475,192,243175,1,0,0:0:0:0:
329,192,243175,1,0,0:0:0:0:
182,192,243175,1,0,0:0:0:0:
402,192,243175,1,0,0:0:0:0:
256,192,243325,1,0,0:0:0:0:
109,192,243325,1,0,0:0:0:0:
402,192,243325,1,0,0:0:0:0:
475,192,243400,1,0,0:0:0:0:
182,192,243475,1,0,0:0:0:0:
109,192,243475,1,0,0:0:0:0:
329,192,243475,1,0,0:0:0:0:
36,192,243475,1,0,0:0:0:0:
402,192,243625,1,0,0:0:0:0:
256,192,243625,1,0,0:0:0:0:
182,192,243625,1,0,0:0:0:0:
109,192,243700,1,0,0:0:0:0:
36,192,243775,1,0,0:0:0:0:
475,192,243775,1,0,0:0:0:0:
402,192,243775,1,0,0:0:0:0:
329,192,243775,1,0,0:0:0:0:
256,192,243925,1,0,0:0:0:0:
36,192,243925,1,0,0:0:0:0:
329,192,243925,1,0,0:0:0:0:
109,192,244000,1,0,0:0:0:0:
182,192,244075,1,0,0:0:0:0:
475,192,244075,1,0,0:0:0:0:
402,192,244075,1,0,0:0:0:0:
256,192,244075,1,0,0:0:0:0:
329,192,244150,1,0,0:0:0:0:
109,192,244150,1,0,0:0:0:0:
36,192,244150,1,0,0:0:0:0:
182,192,244225,1,0,0:0:0:0:
402,192,244225,1,0,0:0:0:0:
475,192,244225,1,0,0:0:0:0:
256,192,244300,1,0,0:0:0:0:
36,192,244375,1,0,0:0:0:0:
475,192,244375,1,0,0:0:0:0:
329,192,244375,1,0,0:0:0:0:
109,192,244375,1,0,0:0:0:0:
109,192,244525,1,0,0:0:0:0:
182,192,244525,1,0,0:0:0:0:
402,192,244525,1,0,0:0:0:0:
256,192,244600,1,0,0:0:0:0:
329,192,244600,1,0,0:0:0:0:
36,192,244600,1,0,0:0:0:0:
182,192,244675,1,0,0:0:0:0:
402,192,244675,1,0,0:0:0:0:
475,192,244675,1,0,0:0:0:0:
109,192,244675,1,0,0:0:0:0:
256,192,244825,1,0,0:0:0:0:
36,192,244825,1,0,0:0:0:0:
329,192,244825,1,0,0:0:0:0:
182,192,244900,1,0,0:0:0:0:
36,192,244975,1,0,0:0:0:0:
475,192,244975,1,0,0:0:0:0:
329,192,244975,1,0,0:0:0:0:
109,192,244975,1,0,0:0:0:0:
402,192,245050,1,0,0:0:0:0:
256,192,245050,1,0,0:0:0:0:
182,192,245050,1,0,0:0:0:0:
475,192,245125,1,0,0:0:0:0:
329,192,245125,1,0,0:0:0:0:
36,192,245125,1,0,0:0:0:0:
109,192,245200,1,0,0:0:0:0:
329,192,245275,1,0,0:0:0:0:
402,192,245275,1,0,0:0:0:0:
475,192,245275,1,0,0:0:0:0:
182,192,245275,1,0,0:0:0:0:
402,192,245425,1,0,0:0:0:0:
256,192,245425,1,0,0:0:0:0:
109,192,245425,1,0,0:0:0:0:
475,192,245575,1,0,0:0:0:0:
182,192,245575,1,0,0:0:0:0:
36,192,245575,1,0,0:0:0:0:
256,192,245575,1,0,0:0:0:0:
329,192,245575,1,0,0:0:0:0:
329,192,245725,1,0,0:0:0:0:
109,192,245725,1,0,0:0:0:0:
182,192,245725,1,0,0:0:0:0:
402,192,245800,1,0,0:0:0:0:
256,192,245800,1,0,0:0:0:0:
36,192,245800,1,0,0:0:0:0:
109,192,245875,1,0,0:0:0:0:
329,192,245875,1,0,0:0:0:0:
475,192,245875,1,0,0:0:0:0:
182,192,245875,1,0,0:0:0:0:
256,192,246025,1,0,0:0:0:0:
109,192,246025,1,0,0:0:0:0:
402,192,246025,1,0,0:0:0:0:
329,192,246100,1,0,0:0:0:0:
256,192,246175,1,0,0:0:0:0:
36,192,246175,1,0,0:0:0:0:
182,192,246175,1,0,0:0:0:0:
475,192,246175,1,0,0:0:0:0:
402,192,246250,1,0,0:0:0:0:
109,192,246250,1,0,0:0:0:0:
329,192,246250,1,0,0:0:0:0:
475,192,246325,1,0,0:0:0:0:
182,192,246325,1,0,0:0:0:0:
109,192,246400,1,0,0:0:0:0:
256,192,246400,1,0,0:0:0:0:
329,192,246400,1,0,0:0:0:0:
475,192,246475,1,0,0:0:0:0:
182,192,246475,1,0,0:0:0:0:
36,192,246475,1,0,0:0:0:0:
402,192,246475,1,0,0:0:0:0:
109,192,246625,1,0,0:0:0:0:
329,192,246625,1,0,0:0:0:0:
256,192,246625,1,0,0:0:0:0:
402,192,246700,1,0,0:0:0:0:
475,192,246775,1,0,0:0:0:0:
36,192,246775,1,0,0:0:0:0:
182,192,246775,1,0,0:0:0:0:
329,192,246775,1,0,0:0:0:0:
109,192,246925,1,0,0:0:0:0:
402,192,246925,1,0,0:0:0:0:
256,192,246925,1,0,0:0:0:0:
182,192,247000,1,0,0:0:0:0:
329,192,247000,1,0,0:0:0:0:
36,192,247000,1,0,0:0:0:0:
256,192,247075,1,0,0:0:0:0:
475,192,247075,1,0,0:0:0:0:
329,192,247150,1,0,0:0:0:0:
182,192,247150,1,0,0:0:0:0:
109,192,247150,1,0,0:0:0:0:
402,192,247225,1,0,0:0:0:0:
256,192,247225,1,0,0:0:0:0:
36,192,247225,1,0,0:0:0:0:
475,192,247225,1,0,0:0:0:0:
182,192,247300,1,0,0:0:0:0:
329,192,247375,1,0,0:0:0:0:
36,192,247375,1,0,0:0:0:0:
109,192,247375,1,0,0:0:0:0:
256,192,247375,1,0,0:0:0:0:
402,192,247450,1,0,0:0:0:0:
182,192,247450,1,0,0:0:0:0:
475,192,247450,1,0,0:0:0:0:
329,192,247525,1,0,0:0:0:0:
36,192,247525,1,0,0:0:0:0:
402,192,247600,1,0,0:0:0:0:
109,192,247600,1,0,0:0:0:0:
256,192,247600,1,0,0:0:0:0:
475,192,247675,1,0,0:0:0:0:
36,192,247675,1,0,0:0:0:0:
182,192,247675,1,0,0:0:0:0:
329,192,247675,1,0,0:0:0:0:
109,192,247825,1,0,0:0:0:0:
402,192,247825,1,0,0:0:0:0:
329,192,247825,1,0,0:0:0:0:
256,192,247900,1,0,0:0:0:0:
475,192,247975,1,0,0:0:0:0:
402,192,247975,1,0,0:0:0:0:
36,192,247975,1,0,0:0:0:0:
182,192,247975,1,0,0:0:0:0:
329,192,248125,1,0,0:0:0:0:
36,192,248125,1,0,0:0:0:0:
109,192,248125,1,0,0:0:0:0:
182,192,248200,1,0,0:0:0:0:
402,192,248200,1,0,0:0:0:0:
475,192,248200,1,0,0:0:0:0:
256,192,248275,1,0,0:0:0:0:
329,192,248275,1,0,0:0:0:0:
402,192,248350,1,0,0:0:0:0:
109,192,248350,1,0,0:0:0:0:
36,192,248350,1,0,0:0:0:0:
182,192,248425,1,0,0:0:0:0:
256,192,248425,1,0,0:0:0:0:
329,192,248425,1,0,0:0:0:0:
475,192,248425,1,0,0:0:0:0:
109,192,248500,1,0,0:0:0:0:
329,192,248575,1,0,0:0:0:0:
182,192,248575,1,0,0:0:0:0:
36,192,248575,1,0,0:0:0:0:
402,192,248575,1,0,0:0:0:0:
109,192,248650,1,0,0:0:0:0:
475,192,248650,1,0,0:0:0:0:
256,192,248650,1,0,0:0:0:0:
329,192,248725,1,0,0:0:0:0:
182,192,248725,1,0,0:0:0:0:
256,192,248800,1,0,0:0:0:0:
36,192,248800,1,0,0:0:0:0:
402,192,248800,1,0,0:0:0:0:
109,192,248875,1,0,0:0:0:0:
475,192,248875,1,0,0:0:0:0:
182,192,248875,1,0,0:0:0:0:
329,192,248875,1,0,0:0:0:0:
256,192,249025,1,0,0:0:0:0:
402,192,249025,1,0,0:0:0:0:
36,192,249025,1,0,0:0:0:0:
182,192,249100,1,0,0:0:0:0:
329,192,249175,1,0,0:0:0:0:
109,192,249175,1,0,0:0:0:0:
36,192,249175,1,0,0:0:0:0:
475,192,249175,1,0,0:0:0:0:
329,192,249325,1,0,0:0:0:0:
182,192,249325,1,0,0:0:0:0:
402,192,249325,1,0,0:0:0:0:
109,192,249400,1,0,0:0:0:0:
402,192,249475,1,0,0:0:0:0:
36,192,249475,1,0,0:0:0:0:
475,192,249475,1,0,0:0:0:0:
256,192,249475,1,0,0:0:0:0:
329,192,249625,1,0,0:0:0:0:
109,192,249625,1,0,0:0:0:0:
256,192,249625,1,0,0:0:0:0:
402,192,249700,1,0,0:0:0:0:
182,192,249775,1,0,0:0:0:0:
475,192,249775,1,0,0:0:0:0:
329,192,249775,1,0,0:0:0:0:
36,192,249775,1,0,0:0:0:0:
256,192,249850,1,0,0:0:0:0:
109,192,249850,1,0,0:0:0:0:
402,192,249850,1,0,0:0:0:0:
182,192,249925,1,0,0:0:0:0:
36,192,249925,1,0,0:0:0:0:
329,192,249925,1,0,0:0:0:0:
109,192,250000,1,0,0:0:0:0:
475,192,250075,1,0,0:0:0:0:
402,192,250075,1,0,0:0:0:0:
182,192,250075,1,0,0:0:0:0:
256,192,250075,1,0,0:0:0:0:
109,192,250225,1,0,0:0:0:0:
36,192,250225,1,0,0:0:0:0:
329,192,250225,1,0,0:0:0:0:
256,192,250300,1,0,0:0:0:0:
402,192,250375,1,0,0:0:0:0:
475,192,250375,1,0,0:0:0:0:
36,192,250375,1,0,0:0:0:0:
182,192,250375,1,0,0:0:0:0:
329,192,250525,1,0,0:0:0:0:
256,192,250525,1,0,0:0:0:0:
109,192,250525,1,0,0:0:0:0:
402,192,250600,1,0,0:0:0:0:
182,192,250600,1,0,0:0:0:0:
36,192,250600,1,0,0:0:0:0:
475,192,250675,1,0,0:0:0:0:
256,192,250675,1,0,0:0:0:0:
109,192,250750,1,0,0:0:0:0:
329,192,250750,1,0,0:0:0:0:
36,192,250750,1,0,0:0:0:0:
182,192,250825,1,0,0:0:0:0:
475,192,250825,1,0,0:0:0:0:
402,192,250825,1,0,0:0:0:0:
256,192,250825,1,0,0:0:0:0:
109,192,250900,1,0,0:0:0:0:
402,192,250975,1,0,0:0:0:0:
256,192,250975,1,0,0:0:0:0:
329,192,250975,1,0,0:0:0:0:
36,192,250975,1,0,0:0:0:0:
475,192,251050,1,0,0:0:0:0:
109,192,251050,1,0,0:0:0:0:
182,192,251050,1,0,0:0:0:0:
329,192,251125,1,0,0:0:0:0:
36,192,251125,1,0,0:0:0:0:
182,192,251200,1,0,0:0:0:0:
402,192,251200,1,0,0:0:0:0:
256,192,251200,1,0,0:0:0:0:
475,192,251275,1,0,0:0:0:0:
36,192,251275,1,0,0:0:0:0:
109,192,251275,1,0,0:0:0:0:
329,192,251275,1,0,0:0:0:0:
402,192,251425,1,0,0:0:0:0:
256,192,251425,1,0,0:0:0:0:
182,192,251425,1,0,0:0:0:0:
109,192,251500,1,0,0:0:0:0:
475,192,251575,1,0,0:0:0:0:
182,192,251575,1,0,0:0:0:0:
36,192,251575,1,0,0:0:0:0:
329,192,251575,1,0,0:0:0:0:
475,192,251725,1,0,0:0:0:0:
402,192,251725,1,0,0:0:0:0:
256,192,251725,1,0,0:0:0:0:
329,192,251800,1,0,0:0:0:0:
182,192,251800,1,0,0:0:0:0:
109,192,251800,1,0,0:0:0:0:
36,192,251875,1,0,0:0:0:0:
475,192,251875,1,0,0:0:0:0:
256,192,251875,1,0,0:0:0:0:
402,192,251875,1,0,0:0:0:0:
329,192,251950,1,0,0:0:0:0:
182,192,251950,1,0,0:0:0:0:
109,192,251950,1,0,0:0:0:0:
256,192,252025,1,0,0:0:0:0:
475,192,252025,1,0,0:0:0:0:
36,192,252025,1,0,0:0:0:0:
402,192,252100,1,0,0:0:0:0:
182,192,252100,1,0,0:0:0:0:
329,192,252100,1,0,0:0:0:0:
109,192,252175,1,0,0:0:0:0:
256,192,252175,1,0,0:0:0:0:
36,192,252175,1,0,0:0:0:0:
475,192,252175,1,0,0:0:0:0:
329,192,252325,1,0,0:0:0:0:
109,192,252325,1,0,0:0:0:0:
182,192,252325,1,0,0:0:0:0:
402,192,252400,1,0,0:0:0:0:
36,192,252475,1,0,0:0:0:0:
475,192,252475,1,0,0:0:0:0:
256,192,252475,1,0,0:0:0:0:
109,192,252475,1,0,0:0:0:0:
182,192,252625,1,0,0:0:0:0:
329,192,252625,1,0,0:0:0:0:
402,192,252625,1,0,0:0:0:0:
109,192,252700,1,0,0:0:0:0:
475,192,252775,1,0,0:0:0:0:
329,192,252775,1,0,0:0:0:0:
256,192,252775,128,0,253675:0:0:0:0:
182,192,252775,1,0,0:0:0:0:
36,192,252775,1,0,0:0:0:0:
109,192,252925,1,0,0:0:0:0:
402,192,252925,1,0,0:0:0:0:
329,192,253000,1,0,0:0:0:0:
36,192,253075,1,0,0:0:0:0:
182,192,253075,1,0,0:0:0:0:
402,192,253075,1,0,0:0:0:0:
109,192,253225,1,0,0:0:0:0:
475,192,253225,1,0,0:0:0:0:
182,192,253300,1,0,0:0:0:0:
402,192,253375,1,0,0:0:0:0:
36,192,253375,1,0,0:0:0:0:
109,192,253375,1,0,0:0:0:0:
182,192,253525,1,0,0:0:0:0:
329,192,253525,1,0,0:0:0:0:
402,192,253600,1,0,0:0:0:0:
475,192,253675,1,0,0:0:0:0:
182,192,253675,1,0,0:0:0:0:
36,192,253675,1,0,0:0:0:0:
329,192,253675,1,0,0:0:0:0:
475,192,253975,128,0,254125:0:0:0:0:
329,192,253975,128,0,254125:0:0:0:0:
256,192,254125,128,0,254275:0:0:0:0:
402,192,254125,128,0,254275:0:0:0:0:
329,192,254275,128,0,254425:0:0:0:0:
182,192,254275,128,0,254425:0:0:0:0:
109,192,254425,128,0,254575:0:0:0:0:
256,192,254425,128,0,254575:0:0:0:0:
182,192,254575,128,0,255175:0:0:0:0:
36,192,254575,128,0,255175:0:0:0:0:
329,192,254725,128,0,254800:0:0:0:0:
475,192,254800,128,0,254875:0:0:0:0:
329,192,254875,128,0,254950:0:0:0:0:
475,192,254950,128,0,255025:0:0:0:0:
329,192,255025,128,0,255100:0:0:0:0:
475,192,255100,128,0,255175:0:0:0:0:
256,192,255175,128,0,255625:0:0:0:0:
109,192,255175,1,0,0:0:0:0:
402,192,255175,1,0,0:0:0:0:
329,192,255175,1,0,0:0:0:0:
182,192,255325,1,0,0:0:0:0:
36,192,255475,1,0,0:0:0:0:
109,192,255493,1,0,0:0:0:0:
182,192,255512,1,0,0:0:0:0:
36,192,255625,128,0,255775:0:0:0:0:
475,192,255625,1,0,0:0:0:0:
402,192,255643,1,0,0:0:0:0:
329,192,255662,1,0,0:0:0:0:
109,192,255775,128,0,255925:0:0:0:0:
256,192,255775,1,0,0:0:0:0:
402,192,255850,1,0,0:0:0:0:
475,192,255925,1,0,0:0:0:0:
36,192,255925,1,0,0:0:0:0:
256,192,255925,1,0,0:0:0:0:
182,192,256000,128,0,256150:0:0:0:0:
475,192,256075,1,0,0:0:0:0:
402,192,256093,1,0,0:0:0:0:
329,192,256112,1,0,0:0:0:0:
36,192,256150,1,0,0:0:0:0:
109,192,256225,128,0,256375:0:0:0:0:
256,192,256225,1,0,0:0:0:0:
329,192,256243,1,0,0:0:0:0:
402,192,256262,1,0,0:0:0:0:
182,192,256375,1,0,0:0:0:0:
475,192,256375,128,0,256675:0:0:0:0:
256,192,256412,1,0,0:0:0:0:
329,192,256450,1,0,0:0:0:0:
402,192,256487,1,0,0:0:0:0:
36,192,256525,1,0,0:0:0:0:
109,192,256562,1,0,0:0:0:0:
182,192,256600,1,0,0:0:0:0:
256,192,256637,1,0,0:0:0:0:
36,192,256675,1,0,0:0:0:0:
329,192,256675,128,0,256825:0:0:0:0:
402,192,256675,1,0,0:0:0:0:
475,192,256825,1,0,0:0:0:0:
182,192,256825,1,0,0:0:0:0:
402,192,256900,1,0,0:0:0:0:
329,192,256975,128,0,257125:0:0:0:0:
36,192,256975,1,0,0:0:0:0:
109,192,256975,1,0,0:0:0:0:
182,192,257050,1,0,0:0:0:0:
36,192,257125,1,0,0:0:0:0:
475,192,257125,1,0,0:0:0:0:
256,192,257125,1,0,0:0:0:0:
402,192,257200,128,0,257350:0:0:0:0:
182,192,257275,1,0,0:0:0:0:
109,192,257293,1,0,0:0:0:0:
36,192,257312,1,0,0:0:0:0:
329,192,257350,1,0,0:0:0:0:
475,192,257425,128,0,257575:0:0:0:0:
36,192,257575,1,0,0:0:0:0:
182,192,257575,128,0,257875:0:0:0:0:
402,192,257650,1,0,0:0:0:0:
36,192,257725,1,0,0:0:0:0:
329,192,257800,1,0,0:0:0:0:
475,192,257875,1,0,0:0:0:0:
109,192,257875,128,0,258175:0:0:0:0:
402,192,257912,1,0,0:0:0:0:
329,192,257950,1,0,0:0:0:0:
256,192,257987,1,0,0:0:0:0:
182,192,258025,1,0,0:0:0:0:
475,192,258100,1,0,0:0:0:0:
36,192,258175,1,0,0:0:0:0:
402,192,258175,128,0,258475:0:0:0:0:
329,192,258175,1,0,0:0:0:0:
182,192,258250,1,0,0:0:0:0:
36,192,258325,1,0,0:0:0:0:
109,192,258325,1,0,0:0:0:0:
475,192,258475,1,0,0:0:0:0:
329,192,258475,128,0,258775:0:0:0:0:
256,192,258475,1,0,0:0:0:0:
182,192,258493,1,0,0:0:0:0:
109,192,258512,1,0,0:0:0:0:
36,192,258625,1,0,0:0:0:0:
109,192,258643,1,0,0:0:0:0:
182,192,258662,1,0,0:0:0:0:
475,192,258775,1,0,0:0:0:0:
256,192,258775,128,0,259675:0:0:0:0:
109,192,258925,5,0,0:0:0:0:
329,192,259075,1,0,0:0:0:0:
475,192,259075,1,0,0:0:0:0:
182,192,259075,1,0,0:0:0:0:
109,192,259225,1,0,0:0:0:0:
402,192,259225,1,0,0:0:0:0:
329,192,259300,1,0,0:0:0:0:
36,192,259375,1,0,0:0:0:0:
475,192,259375,1,0,0:0:0:0:
182,192,259450,1,0,0:0:0:0:
109,192,259525,1,0,0:0:0:0:
402,192,259525,1,0,0:0:0:0:
329,192,259675,128,0,259750:0:0:0:0:
36,192,259975,5,0,0:0:0:0:
256,192,259975,1,0,0:0:0:0:
475,192,259975,1,0,0:0:0:0:
402,192,259975,1,0,0:0:0:0:
182,192,259975,1,0,0:0:0:0:
109,192,260050,1,0,0:0:0:0:
329,192,260050,1,0,0:0:0:0:
36,192,260125,1,0,0:0:0:0:
182,192,260125,1,0,0:0:0:0:
402,192,260125,1,0,0:0:0:0:
256,192,260200,1,0,0:0:0:0:
475,192,260200,1,0,0:0:0:0:
329,192,260275,1,0,0:0:0:0:
402,192,260275,1,0,0:0:0:0:
109,192,260275,1,0,0:0:0:0:
36,192,260275,1,0,0:0:0:0:
256,192,260350,1,0,0:0:0:0:
182,192,260350,1,0,0:0:0:0:
329,192,260425,1,0,0:0:0:0:
475,192,260425,1,0,0:0:0:0:
402,192,260425,1,0,0:0:0:0:
109,192,260500,1,0,0:0:0:0:
182,192,260500,1,0,0:0:0:0:
329,192,260575,1,0,0:0:0:0:
36,192,260575,1,0,0:0:0:0:
475,192,260575,1,0,0:0:0:0:
256,192,260650,1,0,0:0:0:0:
402,192,260650,1,0,0:0:0:0:
36,192,260725,1,0,0:0:0:0:
182,192,260725,1,0,0:0:0:0:
329,192,260725,1,0,0:0:0:0:
256,192,260800,1,0,0:0:0:0:
109,192,260800,1,0,0:0:0:0:
475,192,260875,1,0,0:0:0:0:
402,192,260875,1,0,0:0:0:0:
36,192,260875,1,0,0:0:0:0:
182,192,260875,1,0,0:0:0:0:
329,192,260875,1,0,0:0:0:0:
109,192,260950,1,0,0:0:0:0:
182,192,261025,1,0,0:0:0:0:
475,192,261175,5,0,0:0:0:0:
329,192,261175,1,0,0:0:0:0:
36,192,261175,1,0,0:0:0:0:
109,192,261175,1,0,0:0:0:0:
256,192,261175,1,0,0:0:0:0:
402,192,261250,1,0,0:0:0:0:
182,192,261250,1,0,0:0:0:0:
475,192,261325,1,0,0:0:0:0:
329,192,261325,1,0,0:0:0:0:
109,192,261325,1,0,0:0:0:0:
256,192,261400,1,0,0:0:0:0:
36,192,261400,1,0,0:0:0:0:
182,192,261475,1,0,0:0:0:0:
109,192,261475,1,0,0:0:0:0:
402,192,261475,1,0,0:0:0:0:
475,192,261475,1,0,0:0:0:0:
256,192,261550,1,0,0:0:0:0:
329,192,261550,1,0,0:0:0:0:
182,192,261625,1,0,0:0:0:0:
36,192,261625,1,0,0:0:0:0:
109,192,261625,1,0,0:0:0:0:
402,192,261700,1,0,0:0:0:0:
329,192,261700,1,0,0:0:0:0:
182,192,261775,1,0,0:0:0:0:
475,192,261775,1,0,0:0:0:0:
36,192,261775,1,0,0:0:0:0:
256,192,261850,1,0,0:0:0:0:
109,192,261850,1,0,0:0:0:0:
475,192,261925,1,0,0:0:0:0:
329,192,261925,1,0,0:0:0:0:
182,192,261925,1,0,0:0:0:0:
256,192,262000,1,0,0:0:0:0:
402,192,262000,1,0,0:0:0:0:
36,192,262075,1,0,0:0:0:0:
109,192,262075,1,0,0:0:0:0:
475,192,262075,1,0,0:0:0:0:
329,192,262075,1,0,0:0:0:0:
182,192,262075,1,0,0:0:0:0:
402,192,262375,1,0,0:0:0:0:
109,192,262375,1,0,0:0:0:0:
475,192,262375,1,0,0:0:0:0:
329,192,262375,1,0,0:0:0:0:
36,192,262412,1,0,0:0:0:0:
256,192,262450,1,0,0:0:0:0:
182,192,262487,1,0,0:0:0:0:
36,192,262525,1,0,0:0:0:0:
402,192,262525,1,0,0:0:0:0:
475,192,262525,1,0,0:0:0:0:
109,192,262525,1,0,0:0:0:0:
256,192,262600,1,0,0:0:0:0:
329,192,262600,1,0,0:0:0:0:
402,192,262675,1,0,0:0:0:0:
109,192,262675,1,0,0:0:0:0:
182,192,262675,1,0,0:0:0:0:
475,192,262675,1,0,0:0:0:0:
36,192,262675,1,0,0:0:0:0:
402,192,262975,1,0,0:0:0:0:
109,192,262975,1,0,0:0:0:0:
36,192,262975,1,0,0:0:0:0:
182,192,262975,1,0,0:0:0:0:
475,192,263012,1,0,0:0:0:0:
256,192,263050,1,0,0:0:0:0:
329,192,263087,1,0,0:0:0:0:
402,192,263125,1,0,0:0:0:0:
109,192,263125,1,0,0:0:0:0:
36,192,263125,1,0,0:0:0:0:
475,192,263125,1,0,0:0:0:0:
256,192,263200,1,0,0:0:0:0:
182,192,263200,1,0,0:0:0:0:
109,192,263275,1,0,0:0:0:0:
329,192,263275,1,0,0:0:0:0:
402,192,263275,1,0,0:0:0:0:
475,192,263275,1,0,0:0:0:0:
36,192,263275,1,0,0:0:0:0:
402,192,263575,1,0,0:0:0:0:
329,192,263575,1,0,0:0:0:0:
475,192,263575,1,0,0:0:0:0:
36,192,263575,1,0,0:0:0:0:
109,192,263612,1,0,0:0:0:0:
182,192,263650,1,0,0:0:0:0:
256,192,263687,1,0,0:0:0:0:
329,192,263725,1,0,0:0:0:0:
402,192,263725,1,0,0:0:0:0:
109,192,263800,1,0,0:0:0:0:
36,192,263800,1,0,0:0:0:0:
182,192,263875,1,0,0:0:0:0:
475,192,263875,1,0,0:0:0:0:
402,192,263912,1,0,0:0:0:0:
329,192,263950,1,0,0:0:0:0:
256,192,263987,1,0,0:0:0:0:
109,192,264025,1,0,0:0:0:0:
182,192,264025,1,0,0:0:0:0:
402,192,264100,1,0,0:0:0:0:
329,192,264100,1,0,0:0:0:0:
182,192,264175,5,0,0:0:0:0:
36,192,264175,1,0,0:0:0:0:
256,192,264212,1,0,0:0:0:0:
402,192,264250,1,0,0:0:0:0:
475,192,264287,1,0,0:0:0:0:
109,192,264325,1,0,0:0:0:0:
182,192,264362,1,0,0:0:0:0:
329,192,264400,1,0,0:0:0:0:
402,192,264437,1,0,0:0:0:0:
475,192,264475,1,0,0:0:0:0:
36,192,264475,1,0,0:0:0:0:
109,192,264512,1,0,0:0:0:0:
256,192,264550,1,0,0:0:0:0:
329,192,264587,1,0,0:0:0:0:
182,192,264625,1,0,0:0:0:0:
109,192,264662,1,0,0:0:0:0:
402,192,264700,1,0,0:0:0:0:
329,192,264737,1,0,0:0:0:0:
402,192,265975,1,0,0:0:0:0:
475,192,265975,1,0,0:0:0:0:
256,192,265975,1,0,0:0:0:0:
36,192,265975,1,0,0:0:0:0:
182,192,265975,1,0,0:0:0:0:
329,192,265975,1,0,0:0:0:0:
109,192,266125,1,0,0:0:0:0:
402,192,266200,1,0,0:0:0:0:
109,192,266350,1,0,0:0:0:0:
256,192,266425,1,0,0:0:0:0:
475,192,266425,1,0,0:0:0:0:
402,192,266575,1,0,0:0:0:0:
182,192,266575,1,0,0:0:0:0:
329,192,266725,1,0,0:0:0:0:
109,192,266725,1,0,0:0:0:0:
256,192,266875,1,0,0:0:0:0:
36,192,266875,1,0,0:0:0:0:
475,192,267025,1,0,0:0:0:0:
329,192,267025,1,0,0:0:0:0:
182,192,267175,1,0,0:0:0:0:
36,192,267175,1,0,0:0:0:0:
109,192,267325,1,0,0:0:0:0:
402,192,267400,1,0,0:0:0:0:
109,192,267550,1,0,0:0:0:0:
256,192,267625,1,0,0:0:0:0:
475,192,267625,1,0,0:0:0:0:
402,192,267775,1,0,0:0:0:0:
182,192,267775,1,0,0:0:0:0:
329,192,267925,1,0,0:0:0:0:
109,192,267925,1,0,0:0:0:0:
256,192,268075,1,0,0:0:0:0:
36,192,268075,1,0,0:0:0:0:
475,192,268225,1,0,0:0:0:0:
329,192,268225,1,0,0:0:0:0:
182,192,268375,1,0,0:0:0:0:
36,192,268375,1,0,0:0:0:0:
109,192,268525,1,0,0:0:0:0:
402,192,268600,1,0,0:0:0:0:
109,192,268750,1,0,0:0:0:0:
256,192,268825,1,0,0:0:0:0:
475,192,268825,1,0,0:0:0:0:
402,192,268975,1,0,0:0:0:0:
182,192,268975,1,0,0:0:0:0:
109,192,269125,1,0,0:0:0:0:
329,192,269125,1,0,0:0:0:0:
256,192,269275,1,0,0:0:0:0:
402,192,269275,1,0,0:0:0:0:
329,192,269425,1,0,0:0:0:0:
475,192,269425,1,0,0:0:0:0:
402,192,269575,1,0,0:0:0:0:
256,192,269575,1,0,0:0:0:0:
36,192,269725,1,0,0:0:0:0:
109,192,269800,1,0,0:0:0:0:
329,192,269875,1,0,0:0:0:0:
182,192,269875,1,0,0:0:0:0:
475,192,270025,1,0,0:0:0:0:
402,192,270100,1,0,0:0:0:0:
109,192,270175,1,0,0:0:0:0:
256,192,270175,1,0,0:0:0:0:
329,192,270325,1,0,0:0:0:0:
36,192,270475,1,0,0:0:0:0:
182,192,270475,1,0,0:0:0:0:
402,192,270775,1,0,0:0:0:0:
256,192,270775,1,0,0:0:0:0:
109,192,270775,1,0,0:0:0:0:
329,192,270925,1,0,0:0:0:0:
36,192,271075,1,0,0:0:0:0:
475,192,271225,1,0,0:0:0:0:
329,192,271225,1,0,0:0:0:0:
182,192,271225,1,0,0:0:0:0:
109,192,271375,1,0,0:0:0:0:
256,192,271375,1,0,0:0:0:0:
402,192,271375,1,0,0:0:0:0:
329,192,271525,1,0,0:0:0:0:
36,192,271525,1,0,0:0:0:0:
182,192,271525,1,0,0:0:0:0:
402,192,271675,1,0,0:0:0:0:
256,192,271675,1,0,0:0:0:0:
109,192,271675,1,0,0:0:0:0:
182,192,271825,1,0,0:0:0:0:
329,192,271825,1,0,0:0:0:0:
475,192,271825,1,0,0:0:0:0:
402,192,271975,1,0,0:0:0:0:
256,192,271975,1,0,0:0:0:0:
36,192,271975,1,0,0:0:0:0:
109,192,272125,1,0,0:0:0:0:
402,192,272200,1,0,0:0:0:0:
109,192,272350,1,0,0:0:0:0:
475,192,272425,1,0,0:0:0:0:
329,192,272425,1,0,0:0:0:0:
182,192,272425,1,0,0:0:0:0:
109,192,272575,1,0,0:0:0:0:
256,192,272575,1,0,0:0:0:0:
402,192,272575,1,0,0:0:0:0:
329,192,272725,1,0,0:0:0:0:
36,192,272725,1,0,0:0:0:0:
182,192,272725,1,0,0:0:0:0:
402,192,272875,1,0,0:0:0:0:
109,192,272875,1,0,0:0:0:0:
256,192,272875,1,0,0:0:0:0:
182,192,273025,1,0,0:0:0:0:
475,192,273025,1,0,0:0:0:0:
329,192,273025,1,0,0:0:0:0:
109,192,273175,1,0,0:0:0:0:
402,192,273175,1,0,0:0:0:0:
256,192,273175,1,0,0:0:0:0:
36,192,273325,1,0,0:0:0:0:
329,192,273475,1,0,0:0:0:0:
109,192,273625,1,0,0:0:0:0:
475,192,273625,1,0,0:0:0:0:
256,192,273625,1,0,0:0:0:0:
36,192,273775,1,0,0:0:0:0:
182,192,273775,1,0,0:0:0:0:
402,192,273775,1,0,0:0:0:0:
475,192,273925,1,0,0:0:0:0:
109,192,273925,1,0,0:0:0:0:
329,192,273925,1,0,0:0:0:0:
402,192,274075,1,0,0:0:0:0:
256,192,274075,1,0,0:0:0:0:
182,192,274075,1,0,0:0:0:0:
36,192,274225,1,0,0:0:0:0:
475,192,274225,1,0,0:0:0:0:
329,192,274225,1,0,0:0:0:0:
402,192,274375,1,0,0:0:0:0:
256,192,274375,1,0,0:0:0:0:
109,192,274375,1,0,0:0:0:0:
329,192,274525,1,0,0:0:0:0:
402,192,274600,1,0,0:0:0:0:
36,192,274675,1,0,0:0:0:0:
182,192,274675,1,0,0:0:0:0:
475,192,274675,1,0,0:0:0:0:
256,192,274825,1,0,0:0:0:0:
182,192,274900,1,0,0:0:0:0:
475,192,274975,1,0,0:0:0:0:
329,192,274975,1,0,0:0:0:0:
109,192,274975,1,0,0:0:0:0:
182,192,275125,1,0,0:0:0:0:
402,192,275275,1,0,0:0:0:0:
36,192,275275,1,0,0:0:0:0:
256,192,275275,1,0,0:0:0:0:
329,192,275575,1,0,0:0:0:0:
475,192,275575,1,0,0:0:0:0:
256,192,275575,1,0,0:0:0:0:
182,192,275575,1,0,0:0:0:0:
402,192,275575,1,0,0:0:0:0:
36,192,275575,1,0,0:0:0:0:
109,192,275725,1,0,0:0:0:0:
329,192,275725,1,0,0:0:0:0:
182,192,275800,1,0,0:0:0:0:
475,192,275875,1,0,0:0:0:0:
402,192,275875,1,0,0:0:0:0:
256,192,275875,1,0,0:0:0:0:
36,192,275875,1,0,0:0:0:0:
109,192,275950,1,0,0:0:0:0:
329,192,276025,1,0,0:0:0:0:
182,192,276025,1,0,0:0:0:0:
402,192,276100,1,0,0:0:0:0:
256,192,276175,1,0,0:0:0:0:
36,192,276175,1,0,0:0:0:0:
402,192,276250,1,0,0:0:0:0:
256,192,276325,1,0,0:0:0:0:
109,192,276325,1,0,0:0:0:0:
475,192,276475,1,0,0:0:0:0:
329,192,276475,1,0,0:0:0:0:
182,192,276475,1,0,0:0:0:0:
36,192,276475,1,0,0:0:0:0:
109,192,276625,1,0,0:0:0:0:
402,192,276625,1,0,0:0:0:0:
329,192,276775,1,0,0:0:0:0:
182,192,276775,1,0,0:0:0:0:
256,192,276850,1,0,0:0:0:0:
329,192,276925,1,0,0:0:0:0:
182,192,276925,1,0,0:0:0:0:
109,192,277000,1,0,0:0:0:0:
475,192,277075,1,0,0:0:0:0:
402,192,277075,1,0,0:0:0:0:
256,192,277075,1,0,0:0:0:0:
36,192,277075,1,0,0:0:0:0:
109,192,277150,1,0,0:0:0:0:
182,192,277225,1,0,0:0:0:0:
329,192,277225,1,0,0:0:0:0:
402,192,277300,1,0,0:0:0:0:
109,192,277375,1,0,0:0:0:0:
256,192,277375,1,0,0:0:0:0:
402,192,277450,1,0,0:0:0:0:
256,192,277525,1,0,0:0:0:0:
36,192,277525,1,0,0:0:0:0:
475,192,277675,1,0,0:0:0:0:
329,192,277675,1,0,0:0:0:0:
109,192,277675,1,0,0:0:0:0:
182,192,277675,1,0,0:0:0:0:
36,192,277825,1,0,0:0:0:0:
402,192,277825,1,0,0:0:0:0:
256,192,277825,1,0,0:0:0:0:
329,192,277825,1,0,0:0:0:0:
182,192,277900,1,0,0:0:0:0:
109,192,277975,1,0,0:0:0:0:
475,192,277975,1,0,0:0:0:0:
36,192,277975,1,0,0:0:0:0:
402,192,277975,1,0,0:0:0:0:
329,192,278125,1,0,0:0:0:0:
109,192,278125,1,0,0:0:0:0:
256,192,278200,1,0,0:0:0:0:
475,192,278275,1,0,0:0:0:0:
402,192,278275,1,0,0:0:0:0:
182,192,278275,1,0,0:0:0:0:
36,192,278275,1,0,0:0:0:0:
256,192,278350,1,0,0:0:0:0:
329,192,278425,1,0,0:0:0:0:
109,192,278425,1,0,0:0:0:0:
402,192,278500,1,0,0:0:0:0:
256,192,278575,1,0,0:0:0:0:
182,192,278575,1,0,0:0:0:0:
402,192,278650,1,0,0:0:0:0:
256,192,278725,1,0,0:0:0:0:
36,192,278725,1,0,0:0:0:0:
182,192,278875,1,0,0:0:0:0:
329,192,278875,1,0,0:0:0:0:
475,192,278875,1,0,0:0:0:0:
109,192,278875,1,0,0:0:0:0:
36,192,279025,1,0,0:0:0:0:
256,192,279025,1,0,0:0:0:0:
402,192,279025,1,0,0:0:0:0:
109,192,279025,1,0,0:0:0:0:
36,192,279175,1,0,0:0:0:0:
329,192,279175,1,0,0:0:0:0:
182,192,279175,1,0,0:0:0:0:
475,192,279175,1,0,0:0:0:0:
402,192,279250,1,0,0:0:0:0:
329,192,279325,1,0,0:0:0:0:
109,192,279325,1,0,0:0:0:0:
182,192,279400,1,0,0:0:0:0:
402,192,279475,1,0,0:0:0:0:
475,192,279475,1,0,0:0:0:0:
256,192,279475,1,0,0:0:0:0:
36,192,279475,1,0,0:0:0:0:
182,192,279625,1,0,0:0:0:0:
329,192,279625,1,0,0:0:0:0:
475,192,279675,1,0,0:0:0:0:
402,192,279725,1,0,0:0:0:0:
36,192,279775,1,0,0:0:0:0:
109,192,279775,1,0,0:0:0:0:
256,192,279775,1,0,0:0:0:0:
329,192,279775,1,0,0:0:0:0:
182,192,279925,1,0,0:0:0:0:
402,192,279925,1,0,0:0:0:0:
109,192,280000,1,0,0:0:0:0:
475,192,280075,1,0,0:0:0:0:
329,192,280075,1,0,0:0:0:0:
256,192,280075,1,0,0:0:0:0:
36,192,280075,1,0,0:0:0:0:
182,192,280225,1,0,0:0:0:0:
329,192,280300,1,0,0:0:0:0:
36,192,280375,1,0,0:0:0:0:
475,192,280375,1,0,0:0:0:0:
109,192,280375,1,0,0:0:0:0:
256,192,280375,1,0,0:0:0:0:
182,192,280525,1,0,0:0:0:0:
329,192,280675,1,0,0:0:0:0:
475,192,280675,1,0,0:0:0:0:
256,192,280675,1,0,0:0:0:0:
109,192,280675,1,0,0:0:0:0:
475,192,280825,1,0,0:0:0:0:
402,192,280825,1,0,0:0:0:0:
182,192,280825,1,0,0:0:0:0:
36,192,280900,1,0,0:0:0:0:
182,192,280975,1,0,0:0:0:0:
256,192,280975,1,0,0:0:0:0:
329,192,280975,1,0,0:0:0:0:
109,192,281050,1,0,0:0:0:0:
329,192,281125,1,0,0:0:0:0:
182,192,281125,1,0,0:0:0:0:
475,192,281125,1,0,0:0:0:0:
36,192,281200,1,0,0:0:0:0:
402,192,281275,1,0,0:0:0:0:
256,192,281275,1,0,0:0:0:0:
109,192,281275,1,0,0:0:0:0:
475,192,281275,1,0,0:0:0:0:
182,192,281425,1,0,0:0:0:0:
36,192,281425,1,0,0:0:0:0:
329,192,281425,1,0,0:0:0:0:
402,192,281425,1,0,0:0:0:0:
109,192,281575,1,0,0:0:0:0:
36,192,281575,1,0,0:0:0:0:
256,192,281575,1,0,0:0:0:0:
329,192,281575,1,0,0:0:0:0:
475,192,281650,1,0,0:0:0:0:
329,192,281725,1,0,0:0:0:0:
109,192,281725,1,0,0:0:0:0:
182,192,281800,1,0,0:0:0:0:
256,192,281875,1,0,0:0:0:0:
475,192,281875,1,0,0:0:0:0:
402,192,281875,1,0,0:0:0:0:
36,192,281875,1,0,0:0:0:0:
182,192,281950,1,0,0:0:0:0:
329,192,282025,1,0,0:0:0:0:
109,192,282025,1,0,0:0:0:0:
402,192,282025,1,0,0:0:0:0:
475,192,282100,1,0,0:0:0:0:
256,192,282175,1,0,0:0:0:0:
329,192,282175,1,0,0:0:0:0:
182,192,282175,1,0,0:0:0:0:
402,192,282250,1,0,0:0:0:0:
329,192,282325,1,0,0:0:0:0:
182,192,282325,1,0,0:0:0:0:
36,192,282325,1,0,0:0:0:0:
402,192,282475,1,0,0:0:0:0:
256,192,282475,1,0,0:0:0:0:
109,192,282475,1,0,0:0:0:0:
475,192,282475,1,0,0:0:0:0:
475,192,282625,1,0,0:0:0:0:
182,192,282625,1,0,0:0:0:0:
329,192,282625,1,0,0:0:0:0:
256,192,282775,1,0,0:0:0:0:
402,192,282775,1,0,0:0:0:0:
36,192,282775,1,0,0:0:0:0:
109,192,282775,1,0,0:0:0:0:
475,192,282775,1,0,0:0:0:0:
329,192,282925,1,0,0:0:0:0:
182,192,282925,1,0,0:0:0:0:
36,192,282925,1,0,0:0:0:0:
475,192,283075,1,0,0:0:0:0:
402,192,283075,1,0,0:0:0:0:
109,192,283075,1,0,0:0:0:0:
36,192,283075,1,0,0:0:0:0:
182,192,283225,1,0,0:0:0:0:
256,192,283225,1,0,0:0:0:0:
329,192,283225,1,0,0:0:0:0:
36,192,283375,1,0,0:0:0:0:
256,192,283375,1,0,0:0:0:0:
402,192,283375,1,0,0:0:0:0:
109,192,283375,1,0,0:0:0:0:
475,192,283375,1,0,0:0:0:0:
475,192,283525,1,0,0:0:0:0:
329,192,283525,1,0,0:0:0:0:
182,192,283525,1,0,0:0:0:0:
109,192,283600,1,0,0:0:0:0:
36,192,283600,1,0,0:0:0:0:
402,192,283675,1,0,0:0:0:0:
256,192,283675,1,0,0:0:0:0:
182,192,283675,1,0,0:0:0:0:
475,192,283675,1,0,0:0:0:0:
109,192,283825,1,0,0:0:0:0:
402,192,283825,1,0,0:0:0:0:
329,192,283825,1,0,0:0:0:0:
182,192,283900,1,0,0:0:0:0:
475,192,283900,1,0,0:0:0:0:
329,192,283975,1,0,0:0:0:0:
36,192,283975,1,0,0:0:0:0:
256,192,283975,1,0,0:0:0:0:
109,192,283975,1,0,0:0:0:0:
402,192,284050,1,0,0:0:0:0:
182,192,284050,1,0,0:0:0:0:
475,192,284050,1,0,0:0:0:0:
256,192,284125,1,0,0:0:0:0:
109,192,284200,1,0,0:0:0:0:
329,192,284200,1,0,0:0:0:0:
36,192,284200,1,0,0:0:0:0:
182,192,284275,1,0,0:0:0:0:
475,192,284275,1,0,0:0:0:0:
256,192,284275,1,0,0:0:0:0:
402,192,284275,1,0,0:0:0:0:
329,192,284425,1,0,0:0:0:0:
109,192,284425,1,0,0:0:0:0:
182,192,284425,1,0,0:0:0:0:
402,192,284500,1,0,0:0:0:0:
256,192,284500,1,0,0:0:0:0:
182,192,284575,1,0,0:0:0:0:
329,192,284575,1,0,0:0:0:0:
475,192,284575,1,0,0:0:0:0:
36,192,284575,1,0,0:0:0:0:
402,192,284725,1,0,0:0:0:0:
256,192,284725,1,0,0:0:0:0:
109,192,284725,1,0,0:0:0:0:
329,192,284875,128,0,284950:0:0:0:0:
182,192,285175,1,0,0:0:0:0:
329,192,285175,1,0,0:0:0:0:
402,192,285175,1,0,0:0:0:0:
36,192,285175,1,0,0:0:0:0:
475,192,285175,1,0,0:0:0:0:
256,192,285175,1,0,0:0:0:0:
109,192,285175,1,0,0:0:0:0:
402,192,285325,1,0,0:0:0:0:
109,192,285325,1,0,0:0:0:0:
329,192,285325,1,0,0:0:0:0:
182,192,285400,1,0,0:0:0:0:
475,192,285475,1,0,0:0:0:0:
329,192,285475,1,0,0:0:0:0:
36,192,285475,1,0,0:0:0:0:
256,192,285475,1,0,0:0:0:0:
109,192,285550,1,0,0:0:0:0:
182,192,285625,1,0,0:0:0:0:
402,192,285625,1,0,0:0:0:0:
256,192,285625,1,0,0:0:0:0:
329,192,285775,1,0,0:0:0:0:
36,192,285775,1,0,0:0:0:0:
475,192,285775,1,0,0:0:0:0:
109,192,285775,1,0,0:0:0:0:
256,192,285925,1,0,0:0:0:0:
182,192,285925,1,0,0:0:0:0:
402,192,285925,1,0,0:0:0:0:
36,192,285925,1,0,0:0:0:0:
475,192,286075,1,0,0:0:0:0:
182,192,286075,1,0,0:0:0:0:
329,192,286075,1,0,0:0:0:0:
36,192,286075,1,0,0:0:0:0:
109,192,286075,1,0,0:0:0:0:
109,192,286225,1,0,0:0:0:0:
256,192,286225,1,0,0:0:0:0:
402,192,286225,1,0,0:0:0:0:
475,192,286225,1,0,0:0:0:0:
329,192,286375,1,0,0:0:0:0:
475,192,286375,1,0,0:0:0:0:
36,192,286375,1,0,0:0:0:0:
182,192,286375,1,0,0:0:0:0:
256,192,286375,1,0,0:0:0:0:
402,192,286525,1,0,0:0:0:0:
256,192,286525,1,0,0:0:0:0:
109,192,286525,1,0,0:0:0:0:
182,192,286600,1,0,0:0:0:0:
109,192,286675,1,0,0:0:0:0:
475,192,286675,1,0,0:0:0:0:
36,192,286675,1,0,0:0:0:0:
329,192,286675,1,0,0:0:0:0:
256,192,286750,1,0,0:0:0:0:
182,192,286825,1,0,0:0:0:0:
402,192,286825,1,0,0:0:0:0:
36,192,286825,1,0,0:0:0:0:
329,192,286875,1,0,0:0:0:0:
475,192,286925,1,0,0:0:0:0:
402,192,286975,1,0,0:0:0:0:
109,192,286975,1,0,0:0:0:0:
36,192,286975,1,0,0:0:0:0:
256,192,286975,1,0,0:0:0:0:
109,192,287125,1,0,0:0:0:0:
402,192,287125,1,0,0:0:0:0:
329,192,287125,1,0,0:0:0:0:
182,192,287125,1,0,0:0:0:0:
109,192,287275,1,0,0:0:0:0:
475,192,287275,1,0,0:0:0:0:
256,192,287275,1,0,0:0:0:0:
36,192,287275,1,0,0:0:0:0:
329,192,287275,1,0,0:0:0:0:
36,192,287425,1,0,0:0:0:0:
182,192,287425,1,0,0:0:0:0:
402,192,287425,1,0,0:0:0:0:
256,192,287425,1,0,0:0:0:0:
109,192,287575,1,0,0:0:0:0:
475,192,287575,1,0,0:0:0:0:
36,192,287575,1,0,0:0:0:0:
329,192,287575,1,0,0:0:0:0:
182,192,287575,1,0,0:0:0:0:
402,192,287725,1,0,0:0:0:0:
256,192,287725,1,0,0:0:0:0:
109,192,287725,1,0,0:0:0:0:
475,192,287800,1,0,0:0:0:0:
109,192,287875,1,0,0:0:0:0:
329,192,287875,1,0,0:0:0:0:
36,192,287875,1,0,0:0:0:0:
182,192,287875,1,0,0:0:0:0:
402,192,287950,1,0,0:0:0:0:
109,192,288025,1,0,0:0:0:0:
256,192,288025,1,0,0:0:0:0:
475,192,288025,1,0,0:0:0:0:
182,192,288175,1,0,0:0:0:0:
329,192,288175,1,0,0:0:0:0:
36,192,288175,1,0,0:0:0:0:
402,192,288175,1,0,0:0:0:0:
475,192,288175,1,0,0:0:0:0:
256,192,288325,1,0,0:0:0:0:
109,192,288325,1,0,0:0:0:0:
329,192,288325,1,0,0:0:0:0:
402,192,288325,1,0,0:0:0:0:
256,192,288475,1,0,0:0:0:0:
182,192,288475,1,0,0:0:0:0:
402,192,288475,1,0,0:0:0:0:
36,192,288475,1,0,0:0:0:0:
475,192,288475,1,0,0:0:0:0:
475,192,288625,1,0,0:0:0:0:
329,192,288625,1,0,0:0:0:0:
109,192,288625,1,0,0:0:0:0:
182,192,288625,1,0,0:0:0:0:
402,192,288775,1,0,0:0:0:0:
109,192,288775,1,0,0:0:0:0:
36,192,288775,1,0,0:0:0:0:
256,192,288775,1,0,0:0:0:0:
475,192,288775,1,0,0:0:0:0:
182,192,288925,1,0,0:0:0:0:
402,192,288925,1,0,0:0:0:0:
475,192,288925,1,0,0:0:0:0:
329,192,289000,1,0,0:0:0:0:
182,192,289075,1,0,0:0:0:0:
475,192,289075,1,0,0:0:0:0:
36,192,289075,1,0,0:0:0:0:
256,192,289075,1,0,0:0:0:0:
109,192,289075,1,0,0:0:0:0:
329,192,289225,1,0,0:0:0:0:
402,192,289225,1,0,0:0:0:0:
109,192,289225,1,0,0:0:0:0:
182,192,289275,1,0,0:0:0:0:
36,192,289325,1,0,0:0:0:0:
256,192,289375,1,0,0:0:0:0:
475,192,289375,1,0,0:0:0:0:
109,192,289375,1,0,0:0:0:0:
402,192,289375,1,0,0:0:0:0:
256,192,289525,1,0,0:0:0:0:
182,192,289525,1,0,0:0:0:0:
36,192,289525,1,0,0:0:0:0:
329,192,289525,1,0,0:0:0:0:
475,192,289675,1,0,0:0:0:0:
402,192,289675,1,0,0:0:0:0:
36,192,289675,1,0,0:0:0:0:
109,192,289675,1,0,0:0:0:0:
256,192,289675,1,0,0:0:0:0:
182,192,289825,1,0,0:0:0:0:
329,192,289825,1,0,0:0:0:0:
109,192,289825,1,0,0:0:0:0:
402,192,289825,1,0,0:0:0:0:
329,192,289975,1,0,0:0:0:0:
182,192,289975,1,0,0:0:0:0:
36,192,289975,1,0,0:0:0:0:
475,192,289975,128,0,290425:0:0:0:0:
256,192,289975,1,0,0:0:0:0:
402,192,290125,1,0,0:0:0:0:
109,192,290125,1,0,0:0:0:0:
182,192,290275,1,0,0:0:0:0:
36,192,290275,1,0,0:0:0:0:
256,192,290275,1,0,0:0:0:0:
329,192,290275,1,0,0:0:0:0:
182,192,290425,1,0,0:0:0:0:
109,192,290425,1,0,0:0:0:0:
402,192,290425,1,0,0:0:0:0:
256,192,290425,1,0,0:0:0:0:
329,192,290425,1,0,0:0:0:0:
402,192,290575,1,0,0:0:0:0:
475,192,290575,1,0,0:0:0:0:
182,192,290575,1,0,0:0:0:0:
36,192,290575,1,0,0:0:0:0:
329,192,290575,1,0,0:0:0:0:
109,192,290575,1,0,0:0:0:0:
329,192,290725,1,0,0:0:0:0:
402,192,290725,1,0,0:0:0:0:
256,192,290725,1,0,0:0:0:0:
109,192,290725,1,0,0:0:0:0:
36,192,290725,1,0,0:0:0:0:
475,192,290875,1,0,0:0:0:0:
256,192,290875,1,0,0:0:0:0:
329,192,290875,1,0,0:0:0:0:
36,192,290875,1,0,0:0:0:0:
182,192,290875,1,0,0:0:0:0:
402,192,290875,1,0,0:0:0:0:
182,192,291025,1,0,0:0:0:0:
109,192,291025,1,0,0:0:0:0:
402,192,291025,1,0,0:0:0:0:
256,192,291025,1,0,0:0:0:0:
475,192,291025,1,0,0:0:0:0:
475,192,291175,1,0,0:0:0:0:
109,192,291175,1,0,0:0:0:0:
182,192,291175,1,0,0:0:0:0:
36,192,291175,1,0,0:0:0:0:
329,192,291175,1,0,0:0:0:0:
256,192,291175,1,0,0:0:0:0:
402,192,291325,1,0,0:0:0:0:
109,192,291325,1,0,0:0:0:0:
329,192,291325,1,0,0:0:0:0:
256,192,291400,1,0,0:0:0:0:
182,192,291475,1,0,0:0:0:0:
475,192,291475,1,0,0:0:0:0:
36,192,291475,1,0,0:0:0:0:
329,192,291475,1,0,0:0:0:0:
109,192,291625,1,0,0:0:0:0:
256,192,291625,1,0,0:0:0:0:
329,192,291625,1,0,0:0:0:0:
402,192,291625,1,0,0:0:0:0:
36,192,291625,1,0,0:0:0:0:
109,192,291775,1,0,0:0:0:0:
329,192,291775,1,0,0:0:0:0:
182,192,291775,1,0,0:0:0:0:
36,192,291775,1,0,0:0:0:0:
475,192,291775,1,0,0:0:0:0:
402,192,291775,1,0,0:0:0:0:
256,192,291925,1,0,0:0:0:0:
402,192,291925,1,0,0:0:0:0:
182,192,291925,1,0,0:0:0:0:
109,192,291925,1,0,0:0:0:0:
475,192,291925,1,0,0:0:0:0:
475,192,292075,1,0,0:0:0:0:
329,192,292075,1,0,0:0:0:0:
182,192,292075,1,0,0:0:0:0:
36,192,292075,1,0,0:0:0:0:
256,192,292075,1,0,0:0:0:0:
109,192,292075,1,0,0:0:0:0:
256,192,292225,1,0,0:0:0:0:
109,192,292225,1,0,0:0:0:0:
402,192,292225,1,0,0:0:0:0:
329,192,292225,1,0,0:0:0:0:
36,192,292225,1,0,0:0:0:0:
329,192,292375,1,0,0:0:0:0:
475,192,292375,1,0,0:0:0:0:
402,192,292375,1,0,0:0:0:0:
36,192,292375,1,0,0:0:0:0:
182,192,292375,1,0,0:0:0:0:
109,192,292375,1,0,0:0:0:0:
256,192,292525,1,0,0:0:0:0:
109,192,292525,1,0,0:0:0:0:
402,192,292525,1,0,0:0:0:0:
475,192,292675,1,0,0:0:0:0:
36,192,292675,1,0,0:0:0:0:
256,192,292675,1,0,0:0:0:0:
329,192,292675,1,0,0:0:0:0:
182,192,292675,1,0,0:0:0:0:
402,192,292825,1,0,0:0:0:0:
329,192,292825,1,0,0:0:0:0:
182,192,292825,1,0,0:0:0:0:
109,192,292825,1,0,0:0:0:0:
475,192,292825,1,0,0:0:0:0:
182,192,292975,1,0,0:0:0:0:
475,192,292975,1,0,0:0:0:0:
36,192,292975,1,0,0:0:0:0:
256,192,292975,1,0,0:0:0:0:
402,192,292975,1,0,0:0:0:0:
109,192,292975,1,0,0:0:0:0:
36,192,293125,1,0,0:0:0:0:
256,192,293125,1,0,0:0:0:0:
329,192,293125,1,0,0:0:0:0:
109,192,293125,1,0,0:0:0:0:
402,192,293125,1,0,0:0:0:0:
475,192,293275,1,0,0:0:0:0:
402,192,293275,1,0,0:0:0:0:
329,192,293275,1,0,0:0:0:0:
182,192,293275,1,0,0:0:0:0:
109,192,293275,1,0,0:0:0:0:
36,192,293275,1,0,0:0:0:0:
256,192,293425,1,0,0:0:0:0:
182,192,293425,1,0,0:0:0:0:
475,192,293425,1,0,0:0:0:0:
402,192,293425,1,0,0:0:0:0:
36,192,293425,1,0,0:0:0:0:
36,192,293575,1,0,0:0:0:0:
109,192,293575,1,0,0:0:0:0:
256,192,293575,1,0,0:0:0:0:
475,192,293575,1,0,0:0:0:0:
329,192,293575,1,0,0:0:0:0:
402,192,293575,1,0,0:0:0:0:
402,192,293725,1,0,0:0:0:0:
329,192,293725,1,0,0:0:0:0:
182,192,293725,1,0,0:0:0:0:
109,192,293800,1,0,0:0:0:0:
475,192,293875,1,0,0:0:0:0:
402,192,293875,1,0,0:0:0:0:
329,192,293875,1,0,0:0:0:0:
182,192,293875,1,0,0:0:0:0:
256,192,293875,1,0,0:0:0:0:
36,192,293875,1,0,0:0:0:0:
109,192,294025,1,0,0:0:0:0:
256,192,294025,1,0,0:0:0:0:
475,192,294025,1,0,0:0:0:0:
329,192,294075,1,0,0:0:0:0:
182,192,294125,1,0,0:0:0:0:
109,192,294175,1,0,0:0:0:0:
36,192,294175,1,0,0:0:0:0:
475,192,294175,1,0,0:0:0:0:
256,192,294175,1,0,0:0:0:0:
402,192,294175,1,0,0:0:0:0:
402,192,294325,1,0,0:0:0:0:
256,192,294325,1,0,0:0:0:0:
36,192,294325,1,0,0:0:0:0:
475,192,294475,1,0,0:0:0:0:
109,192,294475,1,0,0:0:0:0:
402,192,294475,1,0,0:0:0:0:
329,192,294475,1,0,0:0:0:0:
36,192,294475,1,0,0:0:0:0:
182,192,294475,1,0,0:0:0:0:
256,192,294625,1,0,0:0:0:0:
109,192,294625,1,0,0:0:0:0:
475,192,294625,1,0,0:0:0:0:
36,192,294775,1,0,0:0:0:0:
475,192,294775,1,0,0:0:0:0:
109,192,294775,1,0,0:0:0:0:
402,192,294775,1,0,0:0:0:0:
329,192,294775,1,0,0:0:0:0:
182,192,294775,1,0,0:0:0:0:
256,192,294775,1,0,0:0:0:0:
256,192,294925,1,0,0:0:0:0:
402,192,294925,1,0,0:0:0:0:
36,192,294925,1,0,0:0:0:0:
182,192,295000,1,0,0:0:0:0:
36,192,295075,1,0,0:0:0:0:
109,192,295075,1,0,0:0:0:0:
475,192,295075,1,0,0:0:0:0:
329,192,295075,1,0,0:0:0:0:
256,192,295150,1,0,0:0:0:0:
402,192,295225,1,0,0:0:0:0:
182,192,295225,1,0,0:0:0:0:
475,192,295225,1,0,0:0:0:0:
36,192,295375,1,0,0:0:0:0:
475,192,295375,1,0,0:0:0:0:
109,192,295375,1,0,0:0:0:0:
329,192,295375,1,0,0:0:0:0:
402,192,295525,1,0,0:0:0:0:
329,192,295525,1,0,0:0:0:0:
182,192,295525,1,0,0:0:0:0:
109,192,295525,1,0,0:0:0:0:
36,192,295675,1,0,0:0:0:0:
109,192,295675,1,0,0:0:0:0:
256,192,295675,1,0,0:0:0:0:
475,192,295675,1,0,0:0:0:0:
402,192,295675,1,0,0:0:0:0:
329,192,295825,1,0,0:0:0:0:
182,192,295825,1,0,0:0:0:0:
36,192,295825,1,0,0:0:0:0:
402,192,295825,1,0,0:0:0:0:
36,192,295975,1,0,0:0:0:0:
256,192,295975,1,0,0:0:0:0:
402,192,295975,1,0,0:0:0:0:
475,192,295975,1,0,0:0:0:0:
109,192,295975,1,0,0:0:0:0:
109,192,296125,1,0,0:0:0:0:
329,192,296125,1,0,0:0:0:0:
475,192,296125,1,0,0:0:0:0:
182,192,296200,1,0,0:0:0:0:
256,192,296275,1,0,0:0:0:0:
402,192,296275,1,0,0:0:0:0:
36,192,296275,1,0,0:0:0:0:
475,192,296275,1,0,0:0:0:0:
109,192,296350,1,0,0:0:0:0:
329,192,296425,1,0,0:0:0:0:
182,192,296425,1,0,0:0:0:0:
36,192,296425,1,0,0:0:0:0:
402,192,296475,1,0,0:0:0:0:
256,192,296525,1,0,0:0:0:0:
36,192,296575,1,0,0:0:0:0:
109,192,296575,1,0,0:0:0:0:
475,192,296575,1,0,0:0:0:0:
182,192,296575,1,0,0:0:0:0:
402,192,296725,1,0,0:0:0:0:
329,192,296725,1,0,0:0:0:0:
109,192,296725,1,0,0:0:0:0:
256,192,296725,1,0,0:0:0:0:
36,192,296875,1,0,0:0:0:0:
109,192,296875,1,0,0:0:0:0:
329,192,296875,1,0,0:0:0:0:
182,192,296875,1,0,0:0:0:0:
475,192,296875,1,0,0:0:0:0:
402,192,297025,1,0,0:0:0:0:
256,192,297025,1,0,0:0:0:0:
36,192,297025,1,0,0:0:0:0:
475,192,297025,1,0,0:0:0:0:
36,192,297175,1,0,0:0:0:0:
329,192,297175,1,0,0:0:0:0:
182,192,297175,1,0,0:0:0:0:
475,192,297175,1,0,0:0:0:0:
256,192,297175,1,0,0:0:0:0:
182,192,297325,1,0,0:0:0:0:
109,192,297325,1,0,0:0:0:0:
402,192,297325,1,0,0:0:0:0:
329,192,297400,1,0,0:0:0:0:
36,192,297475,1,0,0:0:0:0:
256,192,297475,1,0,0:0:0:0:
475,192,297475,1,0,0:0:0:0:
109,192,297475,1,0,0:0:0:0:
402,192,297550,1,0,0:0:0:0:
329,192,297625,1,0,0:0:0:0:
256,192,297625,1,0,0:0:0:0:
182,192,297625,1,0,0:0:0:0:
36,192,297775,1,0,0:0:0:0:
402,192,297775,1,0,0:0:0:0:
329,192,297775,1,0,0:0:0:0:
475,192,297775,1,0,0:0:0:0:
109,192,297775,1,0,0:0:0:0:
329,192,297925,1,0,0:0:0:0:
182,192,297925,1,0,0:0:0:0:
402,192,297925,1,0,0:0:0:0:
256,192,297925,1,0,0:0:0:0:
36,192,298075,1,0,0:0:0:0:
475,192,298075,1,0,0:0:0:0:
402,192,298075,1,0,0:0:0:0:
256,192,298075,1,0,0:0:0:0:
109,192,298075,1,0,0:0:0:0:
109,192,298225,1,0,0:0:0:0:
182,192,298225,1,0,0:0:0:0:
402,192,298225,1,0,0:0:0:0:
329,192,298225,1,0,0:0:0:0:
36,192,298375,1,0,0:0:0:0:
329,192,298375,1,0,0:0:0:0:
475,192,298375,1,0,0:0:0:0:
256,192,298375,1,0,0:0:0:0:
182,192,298375,1,0,0:0:0:0:
402,192,298525,1,0,0:0:0:0:
182,192,298525,1,0,0:0:0:0:
109,192,298525,1,0,0:0:0:0:
329,192,298600,1,0,0:0:0:0:
36,192,298675,1,0,0:0:0:0:
256,192,298675,1,0,0:0:0:0:
109,192,298675,1,0,0:0:0:0:
475,192,298675,1,0,0:0:0:0:
402,192,298675,1,0,0:0:0:0:
329,192,298825,1,0,0:0:0:0:
182,192,298825,1,0,0:0:0:0:
475,192,298825,1,0,0:0:0:0:
109,192,298875,1,0,0:0:0:0:
256,192,298925,1,0,0:0:0:0:
475,192,298975,1,0,0:0:0:0:
36,192,298975,1,0,0:0:0:0:
329,192,298975,1,0,0:0:0:0:
182,192,298975,1,0,0:0:0:0:
402,192,298975,1,0,0:0:0:0:
36,192,299125,1,0,0:0:0:0:
256,192,299125,1,0,0:0:0:0:
109,192,299125,1,0,0:0:0:0:
402,192,299125,1,0,0:0:0:0:
36,192,299275,1,0,0:0:0:0:
182,192,299275,1,0,0:0:0:0:
475,192,299275,1,0,0:0:0:0:
256,192,299275,1,0,0:0:0:0:
329,192,299275,1,0,0:0:0:0:
329,192,299425,1,0,0:0:0:0:
109,192,299425,1,0,0:0:0:0:
182,192,299425,1,0,0:0:0:0:
402,192,299425,1,0,0:0:0:0:
475,192,299575,1,0,0:0:0:0:
36,192,299575,128,0,300025:0:0:0:0:
256,192,299575,1,0,0:0:0:0:
109,192,299575,1,0,0:0:0:0:
402,192,299575,1,0,0:0:0:0:
329,192,299725,1,0,0:0:0:0:
182,192,299725,1,0,0:0:0:0:
475,192,299875,1,0,0:0:0:0:
256,192,299875,1,0,0:0:0:0:
402,192,299875,1,0,0:0:0:0:
109,192,299875,1,0,0:0:0:0:
109,192,300025,1,0,0:0:0:0:
182,192,300025,1,0,0:0:0:0:
329,192,300025,1,0,0:0:0:0:
402,192,300025,1,0,0:0:0:0:
256,192,300025,1,0,0:0:0:0:
36,192,300175,1,0,0:0:0:0:
256,192,300175,1,0,0:0:0:0:
182,192,300175,1,0,0:0:0:0:
402,192,300175,1,0,0:0:0:0:
475,192,300175,1,0,0:0:0:0:
329,192,300175,1,0,0:0:0:0:
256,192,300325,1,0,0:0:0:0:
109,192,300325,1,0,0:0:0:0:
329,192,300325,1,0,0:0:0:0:
475,192,300325,1,0,0:0:0:0:
36,192,300325,1,0,0:0:0:0:
36,192,300475,1,0,0:0:0:0:
182,192,300475,1,0,0:0:0:0:
329,192,300475,1,0,0:0:0:0:
109,192,300475,1,0,0:0:0:0:
402,192,300475,1,0,0:0:0:0:
475,192,300475,1,0,0:0:0:0:
402,192,300625,1,0,0:0:0:0:
256,192,300625,1,0,0:0:0:0:
182,192,300625,1,0,0:0:0:0:
475,192,300625,1,0,0:0:0:0:
109,192,300625,1,0,0:0:0:0:
36,192,300775,1,0,0:0:0:0:
329,192,300775,1,0,0:0:0:0:
256,192,300775,1,0,0:0:0:0:
475,192,300775,1,0,0:0:0:0:
182,192,300775,1,0,0:0:0:0:
109,192,300775,1,0,0:0:0:0:
109,192,300925,1,0,0:0:0:0:
402,192,300925,1,0,0:0:0:0:
256,192,300925,1,0,0:0:0:0:
329,192,301000,1,0,0:0:0:0:
36,192,301075,1,0,0:0:0:0:
256,192,301075,1,0,0:0:0:0:
182,192,301075,1,0,0:0:0:0:
475,192,301075,1,0,0:0:0:0:
329,192,301225,1,0,0:0:0:0:
182,192,301225,1,0,0:0:0:0:
402,192,301225,1,0,0:0:0:0:
109,192,301225,1,0,0:0:0:0:
475,192,301225,1,0,0:0:0:0:
36,192,301375,1,0,0:0:0:0:
402,192,301375,1,0,0:0:0:0:
109,192,301375,1,0,0:0:0:0:
329,192,301375,1,0,0:0:0:0:
256,192,301375,1,0,0:0:0:0:
182,192,301375,1,0,0:0:0:0:
256,192,301525,1,0,0:0:0:0:
182,192,301525,1,0,0:0:0:0:
36,192,301525,1,0,0:0:0:0:
402,192,301525,1,0,0:0:0:0:
475,192,301525,1,0,0:0:0:0:
182,192,301675,1,0,0:0:0:0:
402,192,301675,1,0,0:0:0:0:
329,192,301675,1,0,0:0:0:0:
475,192,301675,1,0,0:0:0:0:
109,192,301675,1,0,0:0:0:0:
36,192,301675,1,0,0:0:0:0:
109,192,301825,1,0,0:0:0:0:
329,192,301825,1,0,0:0:0:0:
36,192,301825,1,0,0:0:0:0:
256,192,301825,1,0,0:0:0:0:
402,192,301825,1,0,0:0:0:0:
36,192,301975,1,0,0:0:0:0:
256,192,301975,1,0,0:0:0:0:
402,192,301975,1,0,0:0:0:0:
475,192,301975,1,0,0:0:0:0:
182,192,301975,1,0,0:0:0:0:
329,192,301975,1,0,0:0:0:0:
182,192,302125,1,0,0:0:0:0:
329,192,302125,1,0,0:0:0:0:
109,192,302125,1,0,0:0:0:0:
256,192,302275,1,0,0:0:0:0:
402,192,302275,1,0,0:0:0:0:
475,192,302275,1,0,0:0:0:0:
109,192,302275,1,0,0:0:0:0:
36,192,302275,1,0,0:0:0:0:
182,192,302425,1,0,0:0:0:0:
36,192,302425,1,0,0:0:0:0:
402,192,302425,1,0,0:0:0:0:
329,192,302425,1,0,0:0:0:0:
475,192,302425,1,0,0:0:0:0:
256,192,302575,1,0,0:0:0:0:
329,192,302575,1,0,0:0:0:0:
36,192,302575,1,0,0:0:0:0:
109,192,302575,1,0,0:0:0:0:
475,192,302575,1,0,0:0:0:0:
402,192,302575,1,0,0:0:0:0:
256,192,302725,1,0,0:0:0:0:
182,192,302725,1,0,0:0:0:0:
109,192,302725,1,0,0:0:0:0:
402,192,302725,1,0,0:0:0:0:
36,192,302725,1,0,0:0:0:0:
182,192,302875,1,0,0:0:0:0:
36,192,302875,1,0,0:0:0:0:
329,192,302875,1,0,0:0:0:0:
475,192,302875,1,0,0:0:0:0:
402,192,302875,1,0,0:0:0:0:
109,192,302875,1,0,0:0:0:0:
475,192,303025,1,0,0:0:0:0:
329,192,303025,1,0,0:0:0:0:
109,192,303025,1,0,0:0:0:0:
402,192,303025,1,0,0:0:0:0:
256,192,303025,1,0,0:0:0:0:
329,192,303175,1,0,0:0:0:0:
109,192,303175,1,0,0:0:0:0:
256,192,303175,1,0,0:0:0:0:
36,192,303175,1,0,0:0:0:0:
182,192,303175,1,0,0:0:0:0:
475,192,303175,1,0,0:0:0:0:
402,192,303325,1,0,0:0:0:0:
182,192,303325,1,0,0:0:0:0:
36,192,303325,1,0,0:0:0:0:
256,192,303400,1,0,0:0:0:0:
182,192,303475,1,0,0:0:0:0:
329,192,303475,1,0,0:0:0:0:
109,192,303475,1,0,0:0:0:0:
475,192,303475,1,0,0:0:0:0:
36,192,303475,1,0,0:0:0:0:
402,192,303475,1,0,0:0:0:0:
256,192,303625,1,0,0:0:0:0:
36,192,303625,1,0,0:0:0:0:
475,192,303625,1,0,0:0:0:0:
182,192,303675,1,0,0:0:0:0:
329,192,303725,1,0,0:0:0:0:
475,192,303775,1,0,0:0:0:0:
402,192,303775,1,0,0:0:0:0:
256,192,303775,1,0,0:0:0:0:
36,192,303775,1,0,0:0:0:0:
109,192,303775,1,0,0:0:0:0:
182,192,303925,1,0,0:0:0:0:
329,192,303925,1,0,0:0:0:0:
256,192,303925,1,0,0:0:0:0:
329,192,304075,1,0,0:0:0:0:
36,192,304075,1,0,0:0:0:0:
402,192,304075,1,0,0:0:0:0:
475,192,304075,1,0,0:0:0:0:
109,192,304075,1,0,0:0:0:0:
182,192,304075,1,0,0:0:0:0:
402,192,304225,1,0,0:0:0:0:
256,192,304225,1,0,0:0:0:0:
109,192,304225,1,0,0:0:0:0:
36,192,304375,1,0,0:0:0:0:
109,192,304375,1,0,0:0:0:0:
256,192,304375,1,0,0:0:0:0:
402,192,304375,1,0,0:0:0:0:
475,192,304375,1,0,0:0:0:0:
182,192,304375,1,0,0:0:0:0:
329,192,304450,1,0,0:0:0:0:
182,192,304525,1,0,0:0:0:0:
36,192,304525,1,0,0:0:0:0:
329,192,304600,1,0,0:0:0:0:
475,192,304600,1,0,0:0:0:0:
182,192,304675,1,0,0:0:0:0:
36,192,304675,1,0,0:0:0:0:
329,192,304750,1,0,0:0:0:0:
475,192,304750,1,0,0:0:0:0:
182,192,304825,1,0,0:0:0:0:
36,192,304825,1,0,0:0:0:0:
329,192,304900,1,0,0:0:0:0:
475,192,304900,1,0,0:0:0:0:
109,192,304975,1,0,0:0:0:0:
36,192,304975,1,0,0:0:0:0:
402,192,305050,1,0,0:0:0:0:
256,192,305050,1,0,0:0:0:0:
109,192,305125,1,0,0:0:0:0:
36,192,305125,1,0,0:0:0:0:
402,192,305200,1,0,0:0:0:0:
256,192,305200,1,0,0:0:0:0:
109,192,305275,1,0,0:0:0:0:
36,192,305275,1,0,0:0:0:0:
402,192,305350,1,0,0:0:0:0:
256,192,305350,1,0,0:0:0:0:
109,192,305425,1,0,0:0:0:0:
36,192,305425,1,0,0:0:0:0:
256,192,305500,1,0,0:0:0:0:
402,192,305500,1,0,0:0:0:0:
36,192,305575,1,0,0:0:0:0:
182,192,305575,1,0,0:0:0:0:
475,192,305650,1,0,0:0:0:0:
329,192,305650,1,0,0:0:0:0:
36,192,305725,1,0,0:0:0:0:
182,192,305725,1,0,0:0:0:0:
475,192,305800,1,0,0:0:0:0:
329,192,305800,1,0,0:0:0:0:
36,192,305875,1,0,0:0:0:0:
182,192,305875,1,0,0:0:0:0:
475,192,305950,1,0,0:0:0:0:
329,192,305950,1,0,0:0:0:0:
36,192,306025,1,0,0:0:0:0:
182,192,306025,1,0,0:0:0:0:
475,192,306100,1,0,0:0:0:0:
329,192,306100,1,0,0:0:0:0:
109,192,306175,1,0,0:0:0:0:
256,192,306175,1,0,0:0:0:0:
475,192,306250,1,0,0:0:0:0:
402,192,306250,1,0,0:0:0:0:
109,192,306325,1,0,0:0:0:0:
256,192,306325,1,0,0:0:0:0:
475,192,306400,1,0,0:0:0:0:
402,192,306400,1,0,0:0:0:0:
109,192,306475,1,0,0:0:0:0:
256,192,306475,1,0,0:0:0:0:
475,192,306550,1,0,0:0:0:0:
402,192,306550,1,0,0:0:0:0:
109,192,306625,1,0,0:0:0:0:
256,192,306625,1,0,0:0:0:0:
475,192,306700,1,0,0:0:0:0:
402,192,306700,1,0,0:0:0:0:
36,192,306775,1,0,0:0:0:0:
182,192,306812,1,0,0:0:0:0:
329,192,306850,1,0,0:0:0:0:
475,192,306887,1,0,0:0:0:0:
109,192,306925,1,0,0:0:0:0:
36,192,306925,1,0,0:0:0:0:
256,192,307000,1,0,0:0:0:0:
182,192,307000,1,0,0:0:0:0:
402,192,307075,1,0,0:0:0:0:
329,192,307075,1,0,0:0:0:0:
109,192,307150,1,0,0:0:0:0:
182,192,307150,1,0,0:0:0:0:
402,192,307225,1,0,0:0:0:0:
329,192,307225,1,0,0:0:0:0:
109,192,307300,1,0,0:0:0:0:
182,192,307300,1,0,0:0:0:0:
475,192,307375,1,0,0:0:0:0:
329,192,307412,1,0,0:0:0:0:
182,192,307450,1,0,0:0:0:0:
36,192,307487,1,0,0:0:0:0:
402,192,307525,1,0,0:0:0:0:
475,192,307525,1,0,0:0:0:0:
256,192,307600,1,0,0:0:0:0:
329,192,307600,1,0,0:0:0:0:
109,192,307675,1,0,0:0:0:0:
182,192,307675,1,0,0:0:0:0:
402,192,307750,1,0,0:0:0:0:
329,192,307750,1,0,0:0:0:0:
109,192,307825,1,0,0:0:0:0:
182,192,307825,1,0,0:0:0:0:
402,192,307900,1,0,0:0:0:0:
329,192,307900,1,0,0:0:0:0:
36,192,307975,1,0,0:0:0:0:
182,192,308012,1,0,0:0:0:0:
329,192,308050,1,0,0:0:0:0:
475,192,308087,1,0,0:0:0:0:
109,192,308125,1,0,0:0:0:0:
36,192,308125,1,0,0:0:0:0:
256,192,308200,1,0,0:0:0:0:
182,192,308200,1,0,0:0:0:0:
475,192,308275,1,0,0:0:0:0:
329,192,308312,1,0,0:0:0:0:
182,192,308350,1,0,0:0:0:0:
36,192,308387,1,0,0:0:0:0:
402,192,308425,1,0,0:0:0:0:
475,192,308425,1,0,0:0:0:0:
256,192,308500,1,0,0:0:0:0:
329,192,308500,1,0,0:0:0:0:
36,192,308575,1,0,0:0:0:0:
109,192,308612,1,0,0:0:0:0:
182,192,308650,1,0,0:0:0:0:
256,192,308687,1,0,0:0:0:0:
329,192,308725,1,0,0:0:0:0:
36,192,308762,1,0,0:0:0:0:
109,192,308800,1,0,0:0:0:0:
182,192,308837,1,0,0:0:0:0:
475,192,308875,1,0,0:0:0:0:
402,192,308912,1,0,0:0:0:0:
329,192,308950,1,0,0:0:0:0:
256,192,308987,1,0,0:0:0:0:
182,192,309025,1,0,0:0:0:0:
475,192,309062,1,0,0:0:0:0:
402,192,309100,1,0,0:0:0:0:
329,192,309137,1,0,0:0:0:0:
36,192,309175,1,0,0:0:0:0:
109,192,309175,1,0,0:0:0:0:
256,192,309175,1,0,0:0:0:0:
182,192,309175,1,0,0:0:0:0:
36,192,309775,1,0,0:0:0:0:
182,192,309775,1,0,0:0:0:0:
109,192,310000,1,0,0:0:0:0:
256,192,310000,1,0,0:0:0:0:
182,192,310225,1,0,0:0:0:0:
329,192,310225,1,0,0:0:0:0:
182,192,310375,1,0,0:0:0:0:
475,192,310375,1,0,0:0:0:0:
329,192,310375,1,0,0:0:0:0:
182,192,310975,1,0,0:0:0:0:
329,192,310975,1,0,0:0:0:0:
256,192,311200,1,0,0:0:0:0:
402,192,311200,1,0,0:0:0:0:
329,192,311425,1,0,0:0:0:0:
475,192,311425,1,0,0:0:0:0:
329,192,311575,1,0,0:0:0:0:
36,192,311575,1,0,0:0:0:0:
475,192,311575,1,0,0:0:0:0:
256,192,311875,1,0,0:0:0:0:
402,192,311875,1,0,0:0:0:0:
475,192,312175,1,0,0:0:0:0:
329,192,312175,1,0,0:0:0:0:
182,192,312175,1,0,0:0:0:0:
109,192,312475,1,0,0:0:0:0:
256,192,312475,1,0,0:0:0:0:
36,192,312775,1,0,0:0:0:0:
182,192,312775,1,0,0:0:0:0:
329,192,312775,1,0,0:0:0:0:
182,192,313975,1,0,0:0:0:0:
109,192,313975,1,0,0:0:0:0:
36,192,313975,1,0,0:0:0:0:
475,192,313975,1,0,0:0:0:0:
256,192,313975,1,0,0:0:0:0:
329,192,314050,1,0,0:0:0:0:
402,192,314050,1,0,0:0:0:0:
36,192,314125,1,0,0:0:0:0:
109,192,314125,1,0,0:0:0:0:
329,192,314200,1,0,0:0:0:0:
402,192,314200,1,0,0:0:0:0:
36,192,314275,1,0,0:0:0:0:
109,192,314275,1,0,0:0:0:0:
329,192,314350,1,0,0:0:0:0:
402,192,314350,1,0,0:0:0:0:
36,192,314425,1,0,0:0:0:0:
109,192,314425,1,0,0:0:0:0:
329,192,314500,1,0,0:0:0:0:
402,192,314500,1,0,0:0:0:0:
475,192,314575,1,0,0:0:0:0:
36,192,314575,1,0,0:0:0:0:
182,192,314575,1,0,0:0:0:0:
109,192,314650,1,0,0:0:0:0:
256,192,314650,1,0,0:0:0:0:
182,192,314725,1,0,0:0:0:0:
329,192,314725,1,0,0:0:0:0:
475,192,314800,1,0,0:0:0:0:
402,192,314800,1,0,0:0:0:0:
256,192,314800,1,0,0:0:0:0:
36,192,314875,1,0,0:0:0:0:
109,192,314875,1,0,0:0:0:0:
182,192,314950,1,0,0:0:0:0:
329,192,314950,1,0,0:0:0:0:
402,192,315025,1,0,0:0:0:0:
36,192,315025,1,0,0:0:0:0:
475,192,315025,1,0,0:0:0:0:
329,192,315100,1,0,0:0:0:0:
256,192,315100,1,0,0:0:0:0:
36,192,315175,1,0,0:0:0:0:
182,192,315175,1,0,0:0:0:0:
109,192,315175,1,0,0:0:0:0:
475,192,315250,1,0,0:0:0:0:
402,192,315250,1,0,0:0:0:0:
182,192,315325,1,0,0:0:0:0:
109,192,315325,1,0,0:0:0:0:
475,192,315400,1,0,0:0:0:0:
402,192,315400,1,0,0:0:0:0:
182,192,315475,1,0,0:0:0:0:
109,192,315475,1,0,0:0:0:0:
475,192,315550,1,0,0:0:0:0:
402,192,315550,1,0,0:0:0:0:
182,192,315625,1,0,0:0:0:0:
109,192,315625,1,0,0:0:0:0:
475,192,315700,1,0,0:0:0:0:
402,192,315700,1,0,0:0:0:0:
256,192,315775,1,0,0:0:0:0:
329,192,315775,1,0,0:0:0:0:
36,192,315775,1,0,0:0:0:0:
402,192,315850,1,0,0:0:0:0:
109,192,315850,1,0,0:0:0:0:
182,192,315925,1,0,0:0:0:0:
475,192,315925,1,0,0:0:0:0:
329,192,316000,1,0,0:0:0:0:
36,192,316000,1,0,0:0:0:0:
256,192,316000,1,0,0:0:0:0:
182,192,316075,1,0,0:0:0:0:
402,192,316075,1,0,0:0:0:0:
329,192,316150,1,0,0:0:0:0:
109,192,316150,1,0,0:0:0:0:
256,192,316225,1,0,0:0:0:0:
36,192,316225,1,0,0:0:0:0:
402,192,316225,1,0,0:0:0:0:
182,192,316300,1,0,0:0:0:0:
475,192,316300,1,0,0:0:0:0:
256,192,316375,1,0,0:0:0:0:
36,192,316375,1,0,0:0:0:0:
109,192,316375,1,0,0:0:0:0:
329,192,316412,1,0,0:0:0:0:
402,192,316450,1,0,0:0:0:0:
475,192,316487,1,0,0:0:0:0:
109,192,316525,1,0,0:0:0:0:
182,192,316525,1,0,0:0:0:0:
329,192,316600,1,0,0:0:0:0:
256,192,316600,1,0,0:0:0:0:
36,192,316675,1,0,0:0:0:0:
402,192,316675,1,0,0:0:0:0:
109,192,316675,1,0,0:0:0:0:
182,192,316750,1,0,0:0:0:0:
256,192,316750,1,0,0:0:0:0:
329,192,316825,1,0,0:0:0:0:
475,192,316825,1,0,0:0:0:0:
109,192,316900,1,0,0:0:0:0:
36,192,316900,1,0,0:0:0:0:
256,192,316975,1,0,0:0:0:0:
475,192,316975,1,0,0:0:0:0:
402,192,316975,1,0,0:0:0:0:
182,192,317012,1,0,0:0:0:0:
109,192,317050,1,0,0:0:0:0:
36,192,317087,1,0,0:0:0:0:
329,192,317125,1,0,0:0:0:0:
402,192,317125,1,0,0:0:0:0:
182,192,317200,1,0,0:0:0:0:
256,192,317200,1,0,0:0:0:0:
109,192,317275,1,0,0:0:0:0:
475,192,317275,1,0,0:0:0:0:
402,192,317275,1,0,0:0:0:0:
329,192,317350,1,0,0:0:0:0:
256,192,317350,1,0,0:0:0:0:
36,192,317425,1,0,0:0:0:0:
182,192,317425,1,0,0:0:0:0:
256,192,317500,1,0,0:0:0:0:
329,192,317500,1,0,0:0:0:0:
402,192,317575,1,0,0:0:0:0:
109,192,317575,1,0,0:0:0:0:
475,192,317575,1,0,0:0:0:0:
36,192,317575,1,0,0:0:0:0:
182,192,317612,1,0,0:0:0:0:
256,192,317650,1,0,0:0:0:0:
329,192,317687,1,0,0:0:0:0:
402,192,317725,1,0,0:0:0:0:
475,192,317725,1,0,0:0:0:0:
182,192,317800,1,0,0:0:0:0:
475,192,317875,1,0,0:0:0:0:
36,192,317875,1,0,0:0:0:0:
402,192,317875,1,0,0:0:0:0:
109,192,317875,1,0,0:0:0:0:
329,192,317912,1,0,0:0:0:0:
256,192,317950,1,0,0:0:0:0:
182,192,317987,1,0,0:0:0:0:
109,192,318025,1,0,0:0:0:0:
402,192,318025,1,0,0:0:0:0:
475,192,318025,1,0,0:0:0:0:
36,192,318025,1,0,0:0:0:0:
329,192,318100,1,0,0:0:0:0:
182,192,318175,1,0,0:0:0:0:
256,192,318175,1,0,0:0:0:0:
475,192,318175,1,0,0:0:0:0:
36,192,318250,1,0,0:0:0:0:
109,192,318250,1,0,0:0:0:0:
329,192,318250,1,0,0:0:0:0:
402,192,318325,1,0,0:0:0:0:
475,192,318325,1,0,0:0:0:0:
256,192,318325,1,0,0:0:0:0:
36,192,318400,1,0,0:0:0:0:
182,192,318400,1,0,0:0:0:0:
109,192,318400,1,0,0:0:0:0:
475,192,318475,1,0,0:0:0:0:
402,192,318475,1,0,0:0:0:0:
329,192,318475,1,0,0:0:0:0:
256,192,318550,1,0,0:0:0:0:
36,192,318550,1,0,0:0:0:0:
109,192,318550,1,0,0:0:0:0:
475,192,318625,1,0,0:0:0:0:
402,192,318625,1,0,0:0:0:0:
182,192,318625,1,0,0:0:0:0:
36,192,318700,1,0,0:0:0:0:
109,192,318700,1,0,0:0:0:0:
329,192,318700,1,0,0:0:0:0:
402,192,318775,1,0,0:0:0:0:
256,192,318775,1,0,0:0:0:0:
475,192,318775,1,0,0:0:0:0:
182,192,318812,1,0,0:0:0:0:
109,192,318850,1,0,0:0:0:0:
36,192,318887,1,0,0:0:0:0:
402,192,318925,1,0,0:0:0:0:
329,192,318962,1,0,0:0:0:0:
256,192,319000,1,0,0:0:0:0:
182,192,319037,1,0,0:0:0:0:
109,192,319075,1,0,0:0:0:0:
475,192,319112,1,0,0:0:0:0:
402,192,319150,1,0,0:0:0:0:
329,192,319187,1,0,0:0:0:0:
182,192,319225,1,0,0:0:0:0:
109,192,319262,1,0,0:0:0:0:
36,192,319300,1,0,0:0:0:0:
475,192,319337,1,0,0:0:0:0:
402,192,319375,1,0,0:0:0:0:
329,192,319412,1,0,0:0:0:0:
256,192,319450,1,0,0:0:0:0:
36,192,319487,1,0,0:0:0:0:
109,192,319525,1,0,0:0:0:0:
182,192,319562,1,0,0:0:0:0:
329,192,319600,1,0,0:0:0:0:
402,192,319637,1,0,0:0:0:0:
475,192,319675,1,0,0:0:0:0:
36,192,319712,1,0,0:0:0:0:
109,192,319750,1,0,0:0:0:0:
182,192,319787,1,0,0:0:0:0:
256,192,319825,1,0,0:0:0:0:
329,192,319862,1,0,0:0:0:0:
402,192,319900,1,0,0:0:0:0:
475,192,319937,1,0,0:0:0:0:
182,192,319975,1,0,0:0:0:0:
109,192,319975,1,0,0:0:0:0:
36,192,319975,1,0,0:0:0:0:
475,192,320050,1,0,0:0:0:0:
402,192,320050,1,0,0:0:0:0:
329,192,320050,1,0,0:0:0:0:
36,192,320125,1,0,0:0:0:0:
109,192,320125,1,0,0:0:0:0:
256,192,320125,1,0,0:0:0:0:
329,192,320200,1,0,0:0:0:0:
182,192,320200,1,0,0:0:0:0:
475,192,320275,1,0,0:0:0:0:
402,192,320275,1,0,0:0:0:0:
256,192,320275,1,0,0:0:0:0:
36,192,320350,1,0,0:0:0:0:
109,192,320350,1,0,0:0:0:0:
329,192,320350,1,0,0:0:0:0:
475,192,320425,1,0,0:0:0:0:
182,192,320425,1,0,0:0:0:0:
256,192,320500,1,0,0:0:0:0:
402,192,320500,1,0,0:0:0:0:
36,192,320500,1,0,0:0:0:0:
329,192,320575,1,0,0:0:0:0:
109,192,320575,1,0,0:0:0:0:
475,192,320650,1,0,0:0:0:0:
182,192,320650,1,0,0:0:0:0:
402,192,320650,1,0,0:0:0:0:
256,192,320725,1,0,0:0:0:0:
109,192,320725,1,0,0:0:0:0:
36,192,320725,1,0,0:0:0:0:
329,192,320800,1,0,0:0:0:0:
402,192,320800,1,0,0:0:0:0:
475,192,320800,1,0,0:0:0:0:
36,192,320875,1,0,0:0:0:0:
109,192,320875,1,0,0:0:0:0:
182,192,320875,1,0,0:0:0:0:
256,192,320950,1,0,0:0:0:0:
475,192,320950,1,0,0:0:0:0:
402,192,320950,1,0,0:0:0:0:
36,192,321025,1,0,0:0:0:0:
329,192,321025,1,0,0:0:0:0:
182,192,321025,1,0,0:0:0:0:
402,192,321100,1,0,0:0:0:0:
109,192,321100,1,0,0:0:0:0:
256,192,321100,1,0,0:0:0:0:
475,192,321175,1,0,0:0:0:0:
36,192,321175,1,0,0:0:0:0:
329,192,321175,1,0,0:0:0:0:
182,192,321175,1,0,0:0:0:0:
182,192,321325,1,0,0:0:0:0:
256,192,321400,1,0,0:0:0:0:
109,192,321475,1,0,0:0:0:0:
329,192,321475,1,0,0:0:0:0:
36,192,321475,1,0,0:0:0:0:
402,192,321475,1,0,0:0:0:0:
475,192,321475,1,0,0:0:0:0:
182,192,321550,1,0,0:0:0:0:
256,192,321625,1,0,0:0:0:0:
329,192,321700,1,0,0:0:0:0:
109,192,321775,1,0,0:0:0:0:
402,192,321775,1,0,0:0:0:0:
36,192,321775,1,0,0:0:0:0:
475,192,321775,1,0,0:0:0:0:
182,192,321775,1,0,0:0:0:0:
256,192,321850,1,0,0:0:0:0:
329,192,321925,1,0,0:0:0:0:
182,192,322000,1,0,0:0:0:0:
475,192,322075,1,0,0:0:0:0:
329,192,322075,1,0,0:0:0:0:
402,192,322075,1,0,0:0:0:0:
36,192,322075,1,0,0:0:0:0:
256,192,322075,1,0,0:0:0:0:
109,192,322150,1,0,0:0:0:0:
182,192,322225,1,0,0:0:0:0:
256,192,322262,1,0,0:0:0:0:
329,192,322300,1,0,0:0:0:0:
402,192,322337,1,0,0:0:0:0:
109,192,322375,1,0,0:0:0:0:
182,192,322375,1,0,0:0:0:0:
475,192,322375,1,0,0:0:0:0:
36,192,322375,1,0,0:0:0:0:
256,192,322450,1,0,0:0:0:0:
109,192,322525,1,0,0:0:0:0:
329,192,322525,1,0,0:0:0:0:
182,192,322600,1,0,0:0:0:0:
36,192,322675,1,0,0:0:0:0:
402,192,322675,1,0,0:0:0:0:
329,192,322675,1,0,0:0:0:0:
475,192,322675,1,0,0:0:0:0:
256,192,322675,1,0,0:0:0:0:
109,192,322750,1,0,0:0:0:0:
402,192,322825,1,0,0:0:0:0:
182,192,322825,1,0,0:0:0:0:
329,192,322900,1,0,0:0:0:0:
475,192,322975,1,0,0:0:0:0:
109,192,322975,1,0,0:0:0:0:
36,192,322975,1,0,0:0:0:0:
182,192,322975,1,0,0:0:0:0:
256,192,322975,1,0,0:0:0:0:
329,192,323050,1,0,0:0:0:0:
109,192,323125,1,0,0:0:0:0:
402,192,323125,1,0,0:0:0:0:
182,192,323200,1,0,0:0:0:0:
36,192,323275,1,0,0:0:0:0:
402,192,323275,1,0,0:0:0:0:
256,192,323275,1,0,0:0:0:0:
475,192,323275,1,0,0:0:0:0:
329,192,323275,1,0,0:0:0:0:
182,192,323350,1,0,0:0:0:0:
329,192,323425,1,0,0:0:0:0:
109,192,323425,1,0,0:0:0:0:
402,192,323500,1,0,0:0:0:0:
36,192,323575,1,0,0:0:0:0:
182,192,323575,1,0,0:0:0:0:
109,192,323575,1,0,0:0:0:0:
475,192,323575,1,0,0:0:0:0:
329,192,323575,1,0,0:0:0:0:
256,192,323650,1,0,0:0:0:0:
402,192,323725,1,0,0:0:0:0:
182,192,323725,1,0,0:0:0:0:
109,192,323800,1,0,0:0:0:0:
329,192,323875,1,0,0:0:0:0:
475,192,323875,1,0,0:0:0:0:
256,192,323875,1,0,0:0:0:0:
36,192,323875,1,0,0:0:0:0:
182,192,323875,1,0,0:0:0:0:
402,192,323950,1,0,0:0:0:0:
109,192,324025,1,0,0:0:0:0:
329,192,324025,1,0,0:0:0:0:
256,192,324100,1,0,0:0:0:0:
402,192,324175,1,0,0:0:0:0:
475,192,324175,1,0,0:0:0:0:
36,192,324175,1,0,0:0:0:0:
182,192,324175,1,0,0:0:0:0:
109,192,324175,1,0,0:0:0:0:
256,192,324250,1,0,0:0:0:0:
109,192,324325,1,0,0:0:0:0:
329,192,324325,1,0,0:0:0:0:
402,192,324400,1,0,0:0:0:0:
329,192,324475,1,0,0:0:0:0:
182,192,324475,1,0,0:0:0:0:
256,192,324475,1,0,0:0:0:0:
475,192,324475,1,0,0:0:0:0:
36,192,324475,1,0,0:0:0:0:
109,192,324550,1,0,0:0:0:0:
402,192,324625,1,0,0:0:0:0:
182,192,324625,1,0,0:0:0:0:
256,192,324700,1,0,0:0:0:0:
109,192,324775,1,0,0:0:0:0:
36,192,324775,1,0,0:0:0:0:
329,192,324775,1,0,0:0:0:0:
475,192,324775,1,0,0:0:0:0:
402,192,324775,1,0,0:0:0:0:
182,192,324850,1,0,0:0:0:0:
36,192,324925,1,0,0:0:0:0:
402,192,324925,1,0,0:0:0:0:
475,192,324925,1,0,0:0:0:0:
329,192,325000,1,0,0:0:0:0:
109,192,325000,1,0,0:0:0:0:
475,192,325075,1,0,0:0:0:0:
402,192,325075,1,0,0:0:0:0:
182,192,325075,1,0,0:0:0:0:
256,192,325075,1,0,0:0:0:0:
36,192,325075,1,0,0:0:0:0:
329,192,325150,1,0,0:0:0:0:
475,192,325225,1,0,0:0:0:0:
109,192,325225,1,0,0:0:0:0:
36,192,325225,1,0,0:0:0:0:
182,192,325300,1,0,0:0:0:0:
402,192,325300,1,0,0:0:0:0:
109,192,325375,1,0,0:0:0:0:
36,192,325375,1,0,0:0:0:0:
329,192,325375,1,0,0:0:0:0:
256,192,325375,1,0,0:0:0:0:
475,192,325375,1,0,0:0:0:0:
182,192,325450,1,0,0:0:0:0:
329,192,325525,1,0,0:0:0:0:
402,192,325525,1,0,0:0:0:0:
36,192,325525,1,0,0:0:0:0:
182,192,325600,1,0,0:0:0:0:
256,192,325600,1,0,0:0:0:0:
475,192,325675,1,0,0:0:0:0:
36,192,325675,1,0,0:0:0:0:
402,192,325675,1,0,0:0:0:0:
109,192,325675,1,0,0:0:0:0:
329,192,325675,1,0,0:0:0:0:
256,192,325750,1,0,0:0:0:0:
182,192,325825,1,0,0:0:0:0:
109,192,325825,1,0,0:0:0:0:
475,192,325825,1,0,0:0:0:0:
329,192,325900,1,0,0:0:0:0:
256,192,325900,1,0,0:0:0:0:
475,192,325975,1,0,0:0:0:0:
109,192,325975,1,0,0:0:0:0:
36,192,325975,1,0,0:0:0:0:
402,192,325975,1,0,0:0:0:0:
182,192,326012,1,0,0:0:0:0:
256,192,326050,1,0,0:0:0:0:
329,192,326087,1,0,0:0:0:0:
402,192,326125,1,0,0:0:0:0:
475,192,326125,1,0,0:0:0:0:
182,192,326200,1,0,0:0:0:0:
475,192,326275,1,0,0:0:0:0:
36,192,326275,1,0,0:0:0:0:
402,192,326275,1,0,0:0:0:0:
109,192,326275,1,0,0:0:0:0:
329,192,326312,1,0,0:0:0:0:
256,192,326350,1,0,0:0:0:0:
182,192,326387,1,0,0:0:0:0:
36,192,326425,1,0,0:0:0:0:
109,192,326425,1,0,0:0:0:0:
329,192,326500,1,0,0:0:0:0:
402,192,326575,1,0,0:0:0:0:
36,192,326575,1,0,0:0:0:0:
475,192,326575,1,0,0:0:0:0:
109,192,326612,1,0,0:0:0:0:
182,192,326650,1,0,0:0:0:0:
256,192,326687,1,0,0:0:0:0:
329,192,326725,1,0,0:0:0:0:
36,192,326762,1,0,0:0:0:0:
109,192,326800,1,0,0:0:0:0:
182,192,326837,1,0,0:0:0:0:
329,192,326875,1,0,0:0:0:0:
402,192,326912,1,0,0:0:0:0:
475,192,326950,1,0,0:0:0:0:
182,192,326987,1,0,0:0:0:0:
256,192,327025,1,0,0:0:0:0:
329,192,327062,1,0,0:0:0:0:
402,192,327100,1,0,0:0:0:0:
475,192,327137,1,0,0:0:0:0:
182,192,327175,1,0,0:0:0:0:
329,192,327175,1,0,0:0:0:0:
256,192,327175,1,0,0:0:0:0:
36,192,327175,1,0,0:0:0:0:
109,192,327175,1,0,0:0:0:0:
256,192,327325,1,0,0:0:0:0:
36,192,327325,1,0,0:0:0:0:
109,192,327325,1,0,0:0:0:0:
475,192,327400,1,0,0:0:0:0:
402,192,327400,1,0,0:0:0:0:
329,192,327400,1,0,0:0:0:0:
182,192,327475,1,0,0:0:0:0:
109,192,327475,1,0,0:0:0:0:
329,192,327550,1,0,0:0:0:0:
475,192,327550,1,0,0:0:0:0:
256,192,327550,1,0,0:0:0:0:
402,192,327625,1,0,0:0:0:0:
182,192,327625,1,0,0:0:0:0:
36,192,327625,1,0,0:0:0:0:
109,192,327625,1,0,0:0:0:0:
329,192,327700,1,0,0:0:0:0:
256,192,327775,1,0,0:0:0:0:
475,192,327775,1,0,0:0:0:0:
36,192,327775,1,0,0:0:0:0:
182,192,327775,1,0,0:0:0:0:
402,192,327850,1,0,0:0:0:0:
109,192,327925,1,0,0:0:0:0:
182,192,327925,1,0,0:0:0:0:
256,192,327925,1,0,0:0:0:0:
329,192,327925,1,0,0:0:0:0:
402,192,328000,1,0,0:0:0:0:
36,192,328075,1,0,0:0:0:0:
475,192,328075,1,0,0:0:0:0:
109,192,328075,1,0,0:0:0:0:
256,192,328075,1,0,0:0:0:0:
182,192,328150,1,0,0:0:0:0:
402,192,328225,1,0,0:0:0:0:
36,192,328225,1,0,0:0:0:0:
475,192,328225,1,0,0:0:0:0:
329,192,328225,1,0,0:0:0:0:
109,192,328300,1,0,0:0:0:0:
402,192,328375,1,0,0:0:0:0:
182,192,328375,1,0,0:0:0:0:
36,192,328375,1,0,0:0:0:0:
256,192,328375,1,0,0:0:0:0:
475,192,328525,1,0,0:0:0:0:
182,192,328525,1,0,0:0:0:0:
329,192,328525,1,0,0:0:0:0:
109,192,328600,1,0,0:0:0:0:
402,192,328600,1,0,0:0:0:0:
36,192,328600,1,0,0:0:0:0:
329,192,328675,1,0,0:0:0:0:
256,192,328675,1,0,0:0:0:0:
109,192,328750,1,0,0:0:0:0:
402,192,328750,1,0,0:0:0:0:
182,192,328750,1,0,0:0:0:0:
475,192,328825,1,0,0:0:0:0:
36,192,328825,1,0,0:0:0:0:
256,192,328825,1,0,0:0:0:0:
329,192,328875,1,0,0:0:0:0:
109,192,328875,1,0,0:0:0:0:
402,192,328925,1,0,0:0:0:0:
182,192,328925,1,0,0:0:0:0:
256,192,328975,1,0,0:0:0:0:
36,192,328975,1,0,0:0:0:0:
475,192,328975,1,0,0:0:0:0:
329,192,328975,1,0,0:0:0:0:
109,192,329050,1,0,0:0:0:0:
182,192,329125,1,0,0:0:0:0:
402,192,329125,1,0,0:0:0:0:
475,192,329125,1,0,0:0:0:0:
256,192,329125,1,0,0:0:0:0:
109,192,329200,1,0,0:0:0:0:
402,192,329275,1,0,0:0:0:0:
329,192,329275,1,0,0:0:0:0:
36,192,329275,1,0,0:0:0:0:
256,192,329275,1,0,0:0:0:0:
475,192,329350,1,0,0:0:0:0:
109,192,329425,1,0,0:0:0:0:
329,192,329425,1,0,0:0:0:0:
36,192,329425,1,0,0:0:0:0:
182,192,329425,1,0,0:0:0:0:
402,192,329500,1,0,0:0:0:0:
36,192,329575,1,0,0:0:0:0:
182,192,329575,1,0,0:0:0:0:
256,192,329575,1,0,0:0:0:0:
475,192,329575,1,0,0:0:0:0:
36,192,329725,1,0,0:0:0:0:
329,192,329725,1,0,0:0:0:0:
109,192,329725,1,0,0:0:0:0:
182,192,329800,1,0,0:0:0:0:
402,192,329800,1,0,0:0:0:0:
475,192,329800,1,0,0:0:0:0:
256,192,329875,1,0,0:0:0:0:
329,192,329875,1,0,0:0:0:0:
36,192,329950,1,0,0:0:0:0:
402,192,329950,1,0,0:0:0:0:
109,192,329950,1,0,0:0:0:0:
256,192,330025,1,0,0:0:0:0:
475,192,330025,1,0,0:0:0:0:
182,192,330025,1,0,0:0:0:0:
329,192,330025,1,0,0:0:0:0:
109,192,330100,1,0,0:0:0:0:
329,192,330175,1,0,0:0:0:0:
402,192,330175,1,0,0:0:0:0:
36,192,330175,1,0,0:0:0:0:
256,192,330175,1,0,0:0:0:0:
475,192,330250,1,0,0:0:0:0:
402,192,330325,1,0,0:0:0:0:
36,192,330325,1,0,0:0:0:0:
182,192,330325,1,0,0:0:0:0:
109,192,330325,1,0,0:0:0:0:
256,192,330400,1,0,0:0:0:0:
109,192,330475,1,0,0:0:0:0:
475,192,330475,1,0,0:0:0:0:
329,192,330475,1,0,0:0:0:0:
36,192,330475,1,0,0:0:0:0:
475,192,330550,1,0,0:0:0:0:
182,192,330550,1,0,0:0:0:0:
36,192,330625,1,0,0:0:0:0:
329,192,330625,1,0,0:0:0:0:
109,192,330625,1,0,0:0:0:0:
256,192,330625,1,0,0:0:0:0:
402,192,330700,1,0,0:0:0:0:
36,192,330775,1,0,0:0:0:0:
475,192,330775,1,0,0:0:0:0:
182,192,330775,1,0,0:0:0:0:
256,192,330775,1,0,0:0:0:0:
329,192,330925,1,0,0:0:0:0:
182,192,330925,1,0,0:0:0:0:
109,192,330925,1,0,0:0:0:0:
402,192,330925,1,0,0:0:0:0:
256,192,331000,1,0,0:0:0:0:
36,192,331000,1,0,0:0:0:0:
182,192,331075,1,0,0:0:0:0:
402,192,331075,1,0,0:0:0:0:
329,192,331075,1,0,0:0:0:0:
475,192,331075,1,0,0:0:0:0:
475,192,331225,1,0,0:0:0:0:
256,192,331225,1,0,0:0:0:0:
36,192,331225,1,0,0:0:0:0:
182,192,331275,1,0,0:0:0:0:
402,192,331275,1,0,0:0:0:0:
109,192,331325,1,0,0:0:0:0:
329,192,331325,1,0,0:0:0:0:
475,192,331375,1,0,0:0:0:0:
256,192,331375,1,0,0:0:0:0:
36,192,331375,1,0,0:0:0:0:
182,192,331375,1,0,0:0:0:0:
402,192,331450,1,0,0:0:0:0:
329,192,331525,1,0,0:0:0:0:
109,192,331525,1,0,0:0:0:0:
475,192,331525,1,0,0:0:0:0:
256,192,331525,1,0,0:0:0:0:
182,192,331600,1,0,0:0:0:0:
256,192,331675,1,0,0:0:0:0:
36,192,331675,1,0,0:0:0:0:
402,192,331675,1,0,0:0:0:0:
475,192,331675,1,0,0:0:0:0:
109,192,331750,1,0,0:0:0:0:
256,192,331825,1,0,0:0:0:0:
182,192,331825,1,0,0:0:0:0:
329,192,331825,1,0,0:0:0:0:
402,192,331900,1,0,0:0:0:0:
109,192,331975,1,0,0:0:0:0:
36,192,331975,1,0,0:0:0:0:
475,192,331975,1,0,0:0:0:0:
182,192,331975,1,0,0:0:0:0:
329,192,332125,1,0,0:0:0:0:
256,192,332125,1,0,0:0:0:0:
36,192,332125,1,0,0:0:0:0:
182,192,332200,1,0,0:0:0:0:
402,192,332200,1,0,0:0:0:0:
475,192,332200,1,0,0:0:0:0:
329,192,332275,1,0,0:0:0:0:
109,192,332275,1,0,0:0:0:0:
36,192,332350,1,0,0:0:0:0:
256,192,332350,1,0,0:0:0:0:
475,192,332350,1,0,0:0:0:0:
182,192,332425,1,0,0:0:0:0:
402,192,332425,1,0,0:0:0:0:
109,192,332425,1,0,0:0:0:0:
329,192,332425,1,0,0:0:0:0:
256,192,332500,1,0,0:0:0:0:
182,192,332575,1,0,0:0:0:0:
475,192,332575,1,0,0:0:0:0:
36,192,332575,1,0,0:0:0:0:
109,192,332575,1,0,0:0:0:0:
402,192,332650,1,0,0:0:0:0:
256,192,332725,1,0,0:0:0:0:
182,192,332725,1,0,0:0:0:0:
329,192,332725,1,0,0:0:0:0:
109,192,332725,1,0,0:0:0:0:
402,192,332800,1,0,0:0:0:0:
475,192,332875,1,0,0:0:0:0:
329,192,332875,1,0,0:0:0:0:
36,192,332875,1,0,0:0:0:0:
256,192,332875,1,0,0:0:0:0:
109,192,332950,1,0,0:0:0:0:
182,192,333025,1,0,0:0:0:0:
329,192,333025,1,0,0:0:0:0:
475,192,333025,1,0,0:0:0:0:
402,192,333025,1,0,0:0:0:0:
109,192,333100,1,0,0:0:0:0:
256,192,333175,1,0,0:0:0:0:
36,192,333175,1,0,0:0:0:0:
475,192,333175,1,0,0:0:0:0:
402,192,333175,1,0,0:0:0:0:
329,192,333325,1,0,0:0:0:0:
109,192,333325,1,0,0:0:0:0:
182,192,333325,1,0,0:0:0:0:
256,192,333400,1,0,0:0:0:0:
36,192,333400,1,0,0:0:0:0:
475,192,333400,1,0,0:0:0:0:
402,192,333475,1,0,0:0:0:0:
182,192,333475,1,0,0:0:0:0:
36,192,333550,1,0,0:0:0:0:
329,192,333550,1,0,0:0:0:0:
109,192,333550,1,0,0:0:0:0:
256,192,333625,1,0,0:0:0:0:
182,192,333625,1,0,0:0:0:0:
475,192,333625,1,0,0:0:0:0:
402,192,333675,1,0,0:0:0:0:
109,192,333675,1,0,0:0:0:0:
329,192,333725,1,0,0:0:0:0:
36,192,333725,1,0,0:0:0:0:
182,192,333775,1,0,0:0:0:0:
402,192,333775,1,0,0:0:0:0:
475,192,333775,1,0,0:0:0:0:
256,192,333775,1,0,0:0:0:0:
109,192,333850,1,0,0:0:0:0:
402,192,333925,1,0,0:0:0:0:
329,192,333925,1,0,0:0:0:0:
36,192,333925,1,0,0:0:0:0:
182,192,333925,1,0,0:0:0:0:
475,192,334000,1,0,0:0:0:0:
36,192,334075,1,0,0:0:0:0:
329,192,334075,1,0,0:0:0:0:
256,192,334075,1,0,0:0:0:0:
109,192,334075,1,0,0:0:0:0:
402,192,334150,1,0,0:0:0:0:
182,192,334225,1,0,0:0:0:0:
109,192,334225,1,0,0:0:0:0:
475,192,334225,1,0,0:0:0:0:
256,192,334225,1,0,0:0:0:0:
329,192,334300,1,0,0:0:0:0:
36,192,334375,1,0,0:0:0:0:
256,192,334375,1,0,0:0:0:0:
402,192,334375,1,0,0:0:0:0:
475,192,334375,1,0,0:0:0:0:
329,192,334525,1,0,0:0:0:0:
475,192,334525,1,0,0:0:0:0:
182,192,334525,1,0,0:0:0:0:
109,192,334600,1,0,0:0:0:0:
256,192,334600,1,0,0:0:0:0:
36,192,334600,1,0,0:0:0:0:
182,192,334675,1,0,0:0:0:0:
329,192,334675,1,0,0:0:0:0:
475,192,334750,1,0,0:0:0:0:
256,192,334750,1,0,0:0:0:0:
402,192,334750,1,0,0:0:0:0:
329,192,334825,1,0,0:0:0:0:
109,192,334825,1,0,0:0:0:0:
182,192,334825,1,0,0:0:0:0:
36,192,334825,1,0,0:0:0:0:
402,192,334900,1,0,0:0:0:0:
256,192,334975,1,0,0:0:0:0:
475,192,334975,1,0,0:0:0:0:
109,192,334975,1,0,0:0:0:0:
36,192,334975,1,0,0:0:0:0:
182,192,335050,1,0,0:0:0:0:
402,192,335125,1,0,0:0:0:0:
329,192,335125,1,0,0:0:0:0:
109,192,335125,1,0,0:0:0:0:
475,192,335125,1,0,0:0:0:0:
256,192,335200,1,0,0:0:0:0:
182,192,335275,1,0,0:0:0:0:
402,192,335275,1,0,0:0:0:0:
475,192,335275,1,0,0:0:0:0:
36,192,335275,1,0,0:0:0:0:
329,192,335350,1,0,0:0:0:0:
36,192,335350,1,0,0:0:0:0:
475,192,335425,1,0,0:0:0:0:
402,192,335425,1,0,0:0:0:0:
256,192,335425,1,0,0:0:0:0:
109,192,335425,1,0,0:0:0:0:
329,192,335500,1,0,0:0:0:0:
182,192,335575,1,0,0:0:0:0:
256,192,335575,1,0,0:0:0:0:
36,192,335575,1,0,0:0:0:0:
475,192,335575,1,0,0:0:0:0:
36,192,335725,1,0,0:0:0:0:
475,192,335725,1,0,0:0:0:0:
402,192,335725,1,0,0:0:0:0:
256,192,335725,1,0,0:0:0:0:
329,192,335800,1,0,0:0:0:0:
182,192,335800,1,0,0:0:0:0:
402,192,335875,1,0,0:0:0:0:
475,192,335875,1,0,0:0:0:0:
109,192,335875,1,0,0:0:0:0:
256,192,335875,1,0,0:0:0:0:
36,192,336025,1,0,0:0:0:0:
329,192,336025,1,0,0:0:0:0:
256,192,336025,1,0,0:0:0:0:
402,192,336075,1,0,0:0:0:0:
109,192,336075,1,0,0:0:0:0:
475,192,336125,1,0,0:0:0:0:
182,192,336125,1,0,0:0:0:0:
36,192,336175,1,0,0:0:0:0:
329,192,336175,1,0,0:0:0:0:
256,192,336175,1,0,0:0:0:0:
109,192,336175,1,0,0:0:0:0:
402,192,336250,1,0,0:0:0:0:
475,192,336325,1,0,0:0:0:0:
182,192,336325,1,0,0:0:0:0:
109,192,336325,1,0,0:0:0:0:
329,192,336400,1,0,0:0:0:0:
475,192,336475,1,0,0:0:0:0:
109,192,336475,1,0,0:0:0:0:
36,192,336475,1,0,0:0:0:0:
256,192,336475,1,0,0:0:0:0:
182,192,336550,1,0,0:0:0:0:
109,192,336625,1,0,0:0:0:0:
329,192,336625,1,0,0:0:0:0:
402,192,336625,1,0,0:0:0:0:
256,192,336700,1,0,0:0:0:0:
36,192,336775,1,0,0:0:0:0:
402,192,336775,1,0,0:0:0:0:
329,192,336775,1,0,0:0:0:0:
475,192,336775,1,0,0:0:0:0:
182,192,336775,1,0,0:0:0:0:
109,192,336775,1,0,0:0:0:0:
329,192,336925,1,0,0:0:0:0:
256,192,336925,1,0,0:0:0:0:
36,192,336925,1,0,0:0:0:0:
402,192,337000,1,0,0:0:0:0:
182,192,337000,1,0,0:0:0:0:
475,192,337000,1,0,0:0:0:0:
256,192,337075,1,0,0:0:0:0:
36,192,337075,1,0,0:0:0:0:
109,192,337075,1,0,0:0:0:0:
182,192,337150,1,0,0:0:0:0:
329,192,337150,1,0,0:0:0:0:
475,192,337225,1,0,0:0:0:0:
402,192,337225,1,0,0:0:0:0:
36,192,337225,1,0,0:0:0:0:
256,192,337225,1,0,0:0:0:0:
109,192,337300,1,0,0:0:0:0:
402,192,337375,1,0,0:0:0:0:
475,192,337375,1,0,0:0:0:0:
182,192,337375,1,0,0:0:0:0:
329,192,337375,1,0,0:0:0:0:
109,192,337450,1,0,0:0:0:0:
36,192,337525,1,0,0:0:0:0:
329,192,337525,1,0,0:0:0:0:
256,192,337525,1,0,0:0:0:0:
402,192,337525,1,0,0:0:0:0:
182,192,337600,1,0,0:0:0:0:
475,192,337675,1,0,0:0:0:0:
36,192,337675,1,0,0:0:0:0:
109,192,337675,1,0,0:0:0:0:
256,192,337675,1,0,0:0:0:0:
329,192,337750,1,0,0:0:0:0:
402,192,337825,1,0,0:0:0:0:
182,192,337825,1,0,0:0:0:0:
109,192,337825,1,0,0:0:0:0:
256,192,337825,1,0,0:0:0:0:
475,192,337900,1,0,0:0:0:0:
36,192,337975,1,0,0:0:0:0:
256,192,337975,1,0,0:0:0:0:
402,192,337975,1,0,0:0:0:0:
109,192,337975,1,0,0:0:0:0:
329,192,338125,1,0,0:0:0:0:
36,192,338125,1,0,0:0:0:0:
182,192,338125,1,0,0:0:0:0:
256,192,338200,1,0,0:0:0:0:
402,192,338200,1,0,0:0:0:0:
475,192,338200,1,0,0:0:0:0:
329,192,338275,1,0,0:0:0:0:
109,192,338275,1,0,0:0:0:0:
475,192,338350,1,0,0:0:0:0:
402,192,338350,1,0,0:0:0:0:
182,192,338350,1,0,0:0:0:0:
36,192,338425,1,0,0:0:0:0:
329,192,338425,1,0,0:0:0:0:
256,192,338425,1,0,0:0:0:0:
109,192,338475,1,0,0:0:0:0:
475,192,338475,1,0,0:0:0:0:
182,192,338525,1,0,0:0:0:0:
402,192,338525,1,0,0:0:0:0:
109,192,338575,1,0,0:0:0:0:
329,192,338575,1,0,0:0:0:0:
36,192,338575,1,0,0:0:0:0:
256,192,338575,1,0,0:0:0:0:
475,192,338650,1,0,0:0:0:0:
402,192,338725,1,0,0:0:0:0:
182,192,338725,1,0,0:0:0:0:
329,192,338725,1,0,0:0:0:0:
109,192,338725,1,0,0:0:0:0:
36,192,338800,1,0,0:0:0:0:
475,192,338875,1,0,0:0:0:0:
402,192,338875,1,0,0:0:0:0:
182,192,338875,1,0,0:0:0:0:
256,192,338875,1,0,0:0:0:0:
109,192,338950,1,0,0:0:0:0:
36,192,339025,1,0,0:0:0:0:
402,192,339025,1,0,0:0:0:0:
329,192,339025,1,0,0:0:0:0:
256,192,339025,1,0,0:0:0:0:
475,192,339100,1,0,0:0:0:0:
182,192,339175,1,0,0:0:0:0:
109,192,339175,1,0,0:0:0:0:
36,192,339175,1,0,0:0:0:0:
402,192,339175,1,0,0:0:0:0:
256,192,339325,1,0,0:0:0:0:
329,192,339325,1,0,0:0:0:0:
109,192,339325,1,0,0:0:0:0:
182,192,339400,1,0,0:0:0:0:
402,192,339400,1,0,0:0:0:0:
475,192,339400,1,0,0:0:0:0:
36,192,339475,1,0,0:0:0:0:
329,192,339475,1,0,0:0:0:0:
109,192,339550,1,0,0:0:0:0:
402,192,339550,1,0,0:0:0:0:
256,192,339550,1,0,0:0:0:0:
36,192,339625,1,0,0:0:0:0:
329,192,339625,1,0,0:0:0:0:
182,192,339625,1,0,0:0:0:0:
475,192,339625,1,0,0:0:0:0:
109,192,339700,1,0,0:0:0:0:
402,192,339775,1,0,0:0:0:0:
182,192,339775,1,0,0:0:0:0:
475,192,339775,1,0,0:0:0:0:
256,192,339775,1,0,0:0:0:0:
36,192,339850,1,0,0:0:0:0:
329,192,339925,1,0,0:0:0:0:
182,192,339925,1,0,0:0:0:0:
402,192,339925,1,0,0:0:0:0:
109,192,339925,1,0,0:0:0:0:
475,192,340000,1,0,0:0:0:0:
36,192,340075,1,0,0:0:0:0:
329,192,340075,1,0,0:0:0:0:
256,192,340075,1,0,0:0:0:0:
109,192,340075,1,0,0:0:0:0:
109,192,340150,1,0,0:0:0:0:
402,192,340150,1,0,0:0:0:0:
256,192,340225,1,0,0:0:0:0:
329,192,340225,1,0,0:0:0:0:
475,192,340225,1,0,0:0:0:0:
182,192,340225,1,0,0:0:0:0:
402,192,340300,1,0,0:0:0:0:
475,192,340375,1,0,0:0:0:0:
109,192,340375,1,0,0:0:0:0:
36,192,340375,1,0,0:0:0:0:
256,192,340375,1,0,0:0:0:0:
475,192,340525,1,0,0:0:0:0:
329,192,340525,1,0,0:0:0:0:
402,192,340525,1,0,0:0:0:0:
182,192,340525,1,0,0:0:0:0:
109,192,340600,1,0,0:0:0:0:
256,192,340600,1,0,0:0:0:0:
182,192,340675,1,0,0:0:0:0:
36,192,340675,1,0,0:0:0:0:
402,192,340675,1,0,0:0:0:0:
475,192,340675,1,0,0:0:0:0:
475,192,340825,1,0,0:0:0:0:
256,192,340825,1,0,0:0:0:0:
182,192,340825,1,0,0:0:0:0:
402,192,340875,1,0,0:0:0:0:
36,192,340875,1,0,0:0:0:0:
329,192,340925,1,0,0:0:0:0:
109,192,340925,1,0,0:0:0:0:
475,192,340975,1,0,0:0:0:0:
402,192,340975,1,0,0:0:0:0:
256,192,340975,1,0,0:0:0:0:
182,192,340975,1,0,0:0:0:0:
36,192,341050,1,0,0:0:0:0:
402,192,341125,1,0,0:0:0:0:
329,192,341125,1,0,0:0:0:0:
475,192,341125,1,0,0:0:0:0:
109,192,341125,1,0,0:0:0:0:
256,192,341200,1,0,0:0:0:0:
182,192,341275,1,0,0:0:0:0:
36,192,341275,1,0,0:0:0:0:
109,192,341275,1,0,0:0:0:0:
475,192,341275,1,0,0:0:0:0:
329,192,341350,1,0,0:0:0:0:
109,192,341425,1,0,0:0:0:0:
402,192,341425,1,0,0:0:0:0:
182,192,341425,1,0,0:0:0:0:
256,192,341500,1,0,0:0:0:0:
329,192,341575,1,0,0:0:0:0:
36,192,341575,1,0,0:0:0:0:
475,192,341575,1,0,0:0:0:0:
402,192,341575,1,0,0:0:0:0:
109,192,341725,1,0,0:0:0:0:
182,192,341725,1,0,0:0:0:0:
329,192,341725,1,0,0:0:0:0:
402,192,341800,1,0,0:0:0:0:
256,192,341800,1,0,0:0:0:0:
475,192,341800,1,0,0:0:0:0:
36,192,341875,1,0,0:0:0:0:
109,192,341875,1,0,0:0:0:0:
329,192,341950,1,0,0:0:0:0:
256,192,341950,1,0,0:0:0:0:
182,192,341950,1,0,0:0:0:0:
402,192,342025,1,0,0:0:0:0:
36,192,342025,1,0,0:0:0:0:
109,192,342025,1,0,0:0:0:0:
475,192,342025,1,0,0:0:0:0:
256,192,342100,1,0,0:0:0:0:
182,192,342175,1,0,0:0:0:0:
475,192,342175,1,0,0:0:0:0:
109,192,342175,1,0,0:0:0:0:
329,192,342175,1,0,0:0:0:0:
402,192,342250,1,0,0:0:0:0:
256,192,342325,1,0,0:0:0:0:
109,192,342325,1,0,0:0:0:0:
36,192,342325,1,0,0:0:0:0:
329,192,342325,1,0,0:0:0:0:
182,192,342400,1,0,0:0:0:0:
475,192,342475,1,0,0:0:0:0:
329,192,342475,1,0,0:0:0:0:
402,192,342475,1,0,0:0:0:0:
36,192,342475,1,0,0:0:0:0:
256,192,342550,1,0,0:0:0:0:
475,192,342625,1,0,0:0:0:0:
109,192,342625,1,0,0:0:0:0:
402,192,342625,1,0,0:0:0:0:
182,192,342625,1,0,0:0:0:0:
329,192,342700,1,0,0:0:0:0:
109,192,342775,1,0,0:0:0:0:
36,192,342775,1,0,0:0:0:0:
475,192,342775,1,0,0:0:0:0:
256,192,342775,1,0,0:0:0:0:
36,192,342925,1,0,0:0:0:0:
329,192,342925,1,0,0:0:0:0:
402,192,342925,1,0,0:0:0:0:
109,192,343000,1,0,0:0:0:0:
182,192,343000,1,0,0:0:0:0:
475,192,343000,1,0,0:0:0:0:
329,192,343075,1,0,0:0:0:0:
256,192,343075,1,0,0:0:0:0:
475,192,343150,1,0,0:0:0:0:
36,192,343150,1,0,0:0:0:0:
402,192,343150,1,0,0:0:0:0:
329,192,343225,1,0,0:0:0:0:
182,192,343225,1,0,0:0:0:0:
256,192,343225,1,0,0:0:0:0:
109,192,343275,1,0,0:0:0:0:
402,192,343275,1,0,0:0:0:0:
36,192,343325,1,0,0:0:0:0:
475,192,343325,1,0,0:0:0:0:
182,192,343375,1,0,0:0:0:0:
329,192,343375,1,0,0:0:0:0:
109,192,343375,1,0,0:0:0:0:
256,192,343375,1,0,0:0:0:0:
402,192,343450,1,0,0:0:0:0:
475,192,343525,1,0,0:0:0:0:
36,192,343525,1,0,0:0:0:0:
182,192,343525,1,0,0:0:0:0:
256,192,343525,1,0,0:0:0:0:
329,192,343600,1,0,0:0:0:0:
109,192,343675,1,0,0:0:0:0:
402,192,343675,1,0,0:0:0:0:
182,192,343675,1,0,0:0:0:0:
475,192,343675,1,0,0:0:0:0:
36,192,343750,1,0,0:0:0:0:
182,192,343825,1,0,0:0:0:0:
256,192,343825,1,0,0:0:0:0:
402,192,343825,1,0,0:0:0:0:
329,192,343825,1,0,0:0:0:0:
475,192,343900,1,0,0:0:0:0:
36,192,343975,1,0,0:0:0:0:
109,192,343975,1,0,0:0:0:0:
256,192,343975,1,0,0:0:0:0:
402,192,343975,1,0,0:0:0:0:
329,192,344125,1,0,0:0:0:0:
182,192,344125,1,0,0:0:0:0:
475,192,344125,1,0,0:0:0:0:
256,192,344200,1,0,0:0:0:0:
36,192,344200,1,0,0:0:0:0:
109,192,344200,1,0,0:0:0:0:
182,192,344275,1,0,0:0:0:0:
329,192,344275,1,0,0:0:0:0:
475,192,344350,1,0,0:0:0:0:
256,192,344350,1,0,0:0:0:0:
402,192,344350,1,0,0:0:0:0:
329,192,344425,1,0,0:0:0:0:
109,192,344425,1,0,0:0:0:0:
182,192,344425,1,0,0:0:0:0:
36,192,344425,1,0,0:0:0:0:
402,192,344500,1,0,0:0:0:0:
256,192,344575,1,0,0:0:0:0:
475,192,344575,1,0,0:0:0:0:
182,192,344575,1,0,0:0:0:0:
36,192,344575,1,0,0:0:0:0:
402,192,344650,1,0,0:0:0:0:
475,192,344725,1,0,0:0:0:0:
256,192,344725,1,0,0:0:0:0:
329,192,344725,1,0,0:0:0:0:
109,192,344725,1,0,0:0:0:0:
36,192,344800,1,0,0:0:0:0:
402,192,344875,1,0,0:0:0:0:
256,192,344875,1,0,0:0:0:0:
475,192,344875,1,0,0:0:0:0:
182,192,344875,1,0,0:0:0:0:
402,192,344950,1,0,0:0:0:0:
109,192,344950,1,0,0:0:0:0:
182,192,345025,1,0,0:0:0:0:
36,192,345025,1,0,0:0:0:0:
329,192,345025,1,0,0:0:0:0:
256,192,345025,1,0,0:0:0:0:
109,192,345100,1,0,0:0:0:0:
402,192,345175,1,0,0:0:0:0:
475,192,345175,1,0,0:0:0:0:
36,192,345175,1,0,0:0:0:0:
329,192,345175,1,0,0:0:0:0:
329,192,345250,1,0,0:0:0:0:
182,192,345250,1,0,0:0:0:0:
36,192,345325,1,0,0:0:0:0:
475,192,345325,1,0,0:0:0:0:
109,192,345325,1,0,0:0:0:0:
182,192,345325,1,0,0:0:0:0:
329,192,345475,1,0,0:0:0:0:
475,192,345475,1,0,0:0:0:0:
256,192,345475,1,0,0:0:0:0:
182,192,345475,1,0,0:0:0:0:
36,192,345475,1,0,0:0:0:0:
402,192,345625,1,0,0:0:0:0:
256,192,345625,1,0,0:0:0:0:
109,192,345625,1,0,0:0:0:0:
329,192,345700,1,0,0:0:0:0:
36,192,345700,1,0,0:0:0:0:
182,192,345700,1,0,0:0:0:0:
475,192,345700,1,0,0:0:0:0:
182,192,345850,1,0,0:0:0:0:
329,192,345850,1,0,0:0:0:0:
36,192,345850,1,0,0:0:0:0:
475,192,345850,1,0,0:0:0:0:
182,192,346000,1,0,0:0:0:0:
329,192,346000,1,0,0:0:0:0:
36,192,346000,1,0,0:0:0:0:
475,192,346000,1,0,0:0:0:0:
402,192,346075,1,0,0:0:0:0:
475,192,346075,1,0,0:0:0:0:
256,192,346075,1,0,0:0:0:0:
109,192,346075,1,0,0:0:0:0:
36,192,346075,1,0,0:0:0:0:
475,192,346225,1,0,0:0:0:0:
402,192,346225,1,0,0:0:0:0:
256,192,346225,1,0,0:0:0:0:
109,192,346225,1,0,0:0:0:0:
36,192,346225,1,0,0:0:0:0:
402,192,346375,1,0,0:0:0:0:
256,192,346375,1,0,0:0:0:0:
329,192,346375,1,0,0:0:0:0:
36,192,346375,1,0,0:0:0:0:
109,192,346375,1,0,0:0:0:0:
475,192,346375,1,0,0:0:0:0:
182,192,346525,1,0,0:0:0:0:
329,192,346600,1,0,0:0:0:0:
109,192,346750,1,0,0:0:0:0:
402,192,346825,1,0,0:0:0:0:
256,192,346975,1,0,0:0:0:0:
182,192,347125,1,0,0:0:0:0:
256,192,347275,1,0,0:0:0:0:
329,192,347425,1,0,0:0:0:0:
182,192,347575,1,0,0:0:0:0:
475,192,347575,1,0,0:0:0:0:
109,192,347575,1,0,0:0:0:0:
36,192,347575,1,0,0:0:0:0:
256,192,347575,1,0,0:0:0:0:
402,192,347575,1,0,0:0:0:0:
329,192,347650,1,0,0:0:0:0:
36,192,347725,1,0,0:0:0:0:
256,192,347725,1,0,0:0:0:0:
109,192,347725,1,0,0:0:0:0:
182,192,347800,1,0,0:0:0:0:
402,192,347800,1,0,0:0:0:0:
475,192,347800,1,0,0:0:0:0:
329,192,347800,1,0,0:0:0:0:
256,192,347875,1,0,0:0:0:0:
109,192,347875,1,0,0:0:0:0:
329,192,347950,1,0,0:0:0:0:
182,192,347950,1,0,0:0:0:0:
36,192,347950,1,0,0:0:0:0:
475,192,348025,1,0,0:0:0:0:
256,192,348025,1,0,0:0:0:0:
402,192,348025,1,0,0:0:0:0:
329,192,348075,1,0,0:0:0:0:
109,192,348075,1,0,0:0:0:0:
402,192,348125,1,0,0:0:0:0:
182,192,348125,1,0,0:0:0:0:
256,192,348175,1,0,0:0:0:0:
36,192,348175,1,0,0:0:0:0:
475,192,348175,1,0,0:0:0:0:
109,192,348175,1,0,0:0:0:0:
329,192,348250,1,0,0:0:0:0:
182,192,348325,1,0,0:0:0:0:
109,192,348325,1,0,0:0:0:0:
402,192,348325,1,0,0:0:0:0:
475,192,348325,1,0,0:0:0:0:
256,192,348400,1,0,0:0:0:0:
329,192,348400,1,0,0:0:0:0:
402,192,348475,1,0,0:0:0:0:
182,192,348475,1,0,0:0:0:0:
36,192,348475,1,0,0:0:0:0:
475,192,348475,1,0,0:0:0:0:
109,192,348550,1,0,0:0:0:0:
329,192,348625,1,0,0:0:0:0:
256,192,348625,1,0,0:0:0:0:
182,192,348625,1,0,0:0:0:0:
475,192,348625,1,0,0:0:0:0:
109,192,348700,1,0,0:0:0:0:
402,192,348700,1,0,0:0:0:0:
36,192,348775,1,0,0:0:0:0:
182,192,348775,1,0,0:0:0:0:
329,192,348775,1,0,0:0:0:0:
256,192,348775,1,0,0:0:0:0:
475,192,348850,1,0,0:0:0:0:
402,192,348925,1,0,0:0:0:0:
36,192,348925,1,0,0:0:0:0:
109,192,348925,1,0,0:0:0:0:
182,192,349000,1,0,0:0:0:0:
329,192,349000,1,0,0:0:0:0:
256,192,349000,1,0,0:0:0:0:
475,192,349000,1,0,0:0:0:0:
402,192,349075,1,0,0:0:0:0:
109,192,349075,1,0,0:0:0:0:
36,192,349150,1,0,0:0:0:0:
329,192,349150,1,0,0:0:0:0:
256,192,349150,1,0,0:0:0:0:
182,192,349225,1,0,0:0:0:0:
475,192,349225,1,0,0:0:0:0:
402,192,349225,1,0,0:0:0:0:
109,192,349225,1,0,0:0:0:0:
256,192,349300,1,0,0:0:0:0:
329,192,349375,1,0,0:0:0:0:
475,192,349375,1,0,0:0:0:0:
36,192,349375,1,0,0:0:0:0:
109,192,349375,1,0,0:0:0:0:
182,192,349450,1,0,0:0:0:0:
402,192,349525,1,0,0:0:0:0:
256,192,349525,1,0,0:0:0:0:
329,192,349525,1,0,0:0:0:0:
36,192,349525,1,0,0:0:0:0:
109,192,349600,1,0,0:0:0:0:
475,192,349600,1,0,0:0:0:0:
36,192,349675,1,0,0:0:0:0:
182,192,349675,1,0,0:0:0:0:
256,192,349675,1,0,0:0:0:0:
402,192,349675,1,0,0:0:0:0:
329,192,349750,1,0,0:0:0:0:
182,192,349750,1,0,0:0:0:0:
109,192,349825,1,0,0:0:0:0:
475,192,349825,1,0,0:0:0:0:
402,192,349825,1,0,0:0:0:0:
36,192,349825,1,0,0:0:0:0:
329,192,349900,1,0,0:0:0:0:
256,192,349975,1,0,0:0:0:0:
475,192,349975,1,0,0:0:0:0:
182,192,349975,1,0,0:0:0:0:
109,192,349975,1,0,0:0:0:0:
402,192,350050,1,0,0:0:0:0:
256,192,350125,1,0,0:0:0:0:
182,192,350125,1,0,0:0:0:0:
329,192,350125,1,0,0:0:0:0:
36,192,350125,1,0,0:0:0:0:
109,192,350200,1,0,0:0:0:0:
475,192,350200,1,0,0:0:0:0:
329,192,350275,1,0,0:0:0:0:
36,192,350275,1,0,0:0:0:0:
402,192,350275,1,0,0:0:0:0:
182,192,350275,1,0,0:0:0:0:
475,192,350350,1,0,0:0:0:0:
36,192,350425,1,0,0:0:0:0:
256,192,350425,1,0,0:0:0:0:
109,192,350425,1,0,0:0:0:0:
182,192,350475,1,0,0:0:0:0:
402,192,350475,1,0,0:0:0:0:
109,192,350525,1,0,0:0:0:0:
329,192,350525,1,0,0:0:0:0:
475,192,350575,1,0,0:0:0:0:
36,192,350575,1,0,0:0:0:0:
256,192,350575,1,0,0:0:0:0:
402,192,350575,1,0,0:0:0:0:
182,192,350650,1,0,0:0:0:0:
475,192,350725,1,0,0:0:0:0:
109,192,350725,1,0,0:0:0:0:
36,192,350725,1,0,0:0:0:0:
329,192,350725,1,0,0:0:0:0:
256,192,350800,1,0,0:0:0:0:
402,192,350800,1,0,0:0:0:0:
182,192,350875,1,0,0:0:0:0:
36,192,350875,1,0,0:0:0:0:
475,192,350875,1,0,0:0:0:0:
329,192,350875,1,0,0:0:0:0:
109,192,350950,1,0,0:0:0:0:
256,192,351025,1,0,0:0:0:0:
182,192,351025,1,0,0:0:0:0:
329,192,351025,1,0,0:0:0:0:
109,192,351100,1,0,0:0:0:0:
402,192,351100,1,0,0:0:0:0:
329,192,351175,1,0,0:0:0:0:
36,192,351175,1,0,0:0:0:0:
475,192,351175,1,0,0:0:0:0:
256,192,351175,1,0,0:0:0:0:
182,192,351250,1,0,0:0:0:0:
109,192,351325,1,0,0:0:0:0:
475,192,351325,1,0,0:0:0:0:
402,192,351325,1,0,0:0:0:0:
256,192,351400,1,0,0:0:0:0:
329,192,351400,1,0,0:0:0:0:
182,192,351400,1,0,0:0:0:0:
36,192,351400,1,0,0:0:0:0:
402,192,351475,1,0,0:0:0:0:
475,192,351475,1,0,0:0:0:0:
256,192,351550,1,0,0:0:0:0:
109,192,351550,1,0,0:0:0:0:
36,192,351550,1,0,0:0:0:0:
402,192,351625,1,0,0:0:0:0:
329,192,351625,1,0,0:0:0:0:
475,192,351625,1,0,0:0:0:0:
182,192,351625,1,0,0:0:0:0:
256,192,351700,1,0,0:0:0:0:
329,192,351775,1,0,0:0:0:0:
36,192,351775,1,0,0:0:0:0:
182,192,351775,1,0,0:0:0:0:
109,192,351775,1,0,0:0:0:0:
475,192,351850,1,0,0:0:0:0:
402,192,351925,1,0,0:0:0:0:
256,192,351925,1,0,0:0:0:0:
36,192,351925,1,0,0:0:0:0:
109,192,351925,1,0,0:0:0:0:
329,192,352000,1,0,0:0:0:0:
182,192,352000,1,0,0:0:0:0:
475,192,352075,1,0,0:0:0:0:
402,192,352075,1,0,0:0:0:0:
256,192,352075,1,0,0:0:0:0:
36,192,352075,1,0,0:0:0:0:
109,192,352150,1,0,0:0:0:0:
475,192,352225,1,0,0:0:0:0:
182,192,352225,1,0,0:0:0:0:
402,192,352225,1,0,0:0:0:0:
329,192,352225,1,0,0:0:0:0:
256,192,352300,1,0,0:0:0:0:
109,192,352300,1,0,0:0:0:0:
182,192,352375,1,0,0:0:0:0:
36,192,352375,1,0,0:0:0:0:
402,192,352375,1,0,0:0:0:0:
475,192,352375,1,0,0:0:0:0:
329,192,352450,1,0,0:0:0:0:
402,192,352525,1,0,0:0:0:0:
256,192,352525,1,0,0:0:0:0:
109,192,352525,1,0,0:0:0:0:
36,192,352600,1,0,0:0:0:0:
329,192,352600,1,0,0:0:0:0:
475,192,352600,1,0,0:0:0:0:
182,192,352600,1,0,0:0:0:0:
402,192,352675,1,0,0:0:0:0:
256,192,352675,1,0,0:0:0:0:
109,192,352750,1,0,0:0:0:0:
329,192,352750,1,0,0:0:0:0:
36,192,352750,1,0,0:0:0:0:
475,192,352825,1,0,0:0:0:0:
256,192,352825,1,0,0:0:0:0:
182,192,352825,1,0,0:0:0:0:
402,192,352875,1,0,0:0:0:0:
36,192,352875,1,0,0:0:0:0:
329,192,352925,1,0,0:0:0:0:
109,192,352925,1,0,0:0:0:0:
475,192,352975,1,0,0:0:0:0:
256,192,352975,1,0,0:0:0:0:
402,192,352975,1,0,0:0:0:0:
182,192,352975,1,0,0:0:0:0:
36,192,353050,1,0,0:0:0:0:
109,192,353125,1,0,0:0:0:0:
182,192,353125,1,0,0:0:0:0:
329,192,353125,1,0,0:0:0:0:
402,192,353125,1,0,0:0:0:0:
475,192,353200,1,0,0:0:0:0:
256,192,353200,1,0,0:0:0:0:
329,192,353275,1,0,0:0:0:0:
36,192,353275,1,0,0:0:0:0:
109,192,353275,1,0,0:0:0:0:
402,192,353275,1,0,0:0:0:0:
182,192,353350,1,0,0:0:0:0:
329,192,353425,1,0,0:0:0:0:
475,192,353425,1,0,0:0:0:0:
36,192,353425,1,0,0:0:0:0:
256,192,353425,1,0,0:0:0:0:
109,192,353500,1,0,0:0:0:0:
402,192,353500,1,0,0:0:0:0:
36,192,353575,1,0,0:0:0:0:
256,192,353575,1,0,0:0:0:0:
182,192,353575,1,0,0:0:0:0:
475,192,353575,1,0,0:0:0:0:
329,192,353650,1,0,0:0:0:0:
182,192,353725,1,0,0:0:0:0:
402,192,353725,1,0,0:0:0:0:
109,192,353725,1,0,0:0:0:0:
36,192,353800,1,0,0:0:0:0:
256,192,353800,1,0,0:0:0:0:
329,192,353800,1,0,0:0:0:0:
475,192,353800,1,0,0:0:0:0:
182,192,353875,1,0,0:0:0:0:
402,192,353875,1,0,0:0:0:0:
109,192,353950,1,0,0:0:0:0:
329,192,353950,1,0,0:0:0:0:
36,192,353950,1,0,0:0:0:0:
256,192,354025,1,0,0:0:0:0:
182,192,354025,1,0,0:0:0:0:
402,192,354025,1,0,0:0:0:0:
475,192,354025,1,0,0:0:0:0:
109,192,354100,1,0,0:0:0:0:
475,192,354175,1,0,0:0:0:0:
256,192,354175,1,0,0:0:0:0:
36,192,354175,1,0,0:0:0:0:
329,192,354175,1,0,0:0:0:0:
402,192,354250,1,0,0:0:0:0:
109,192,354325,1,0,0:0:0:0:
329,192,354325,1,0,0:0:0:0:
182,192,354325,1,0,0:0:0:0:
256,192,354325,1,0,0:0:0:0:
36,192,354400,1,0,0:0:0:0:
402,192,354400,1,0,0:0:0:0:
256,192,354475,1,0,0:0:0:0:
182,192,354475,1,0,0:0:0:0:
475,192,354475,1,0,0:0:0:0:
329,192,354475,1,0,0:0:0:0:
109,192,354550,1,0,0:0:0:0:
329,192,354550,1,0,0:0:0:0:
36,192,354625,1,0,0:0:0:0:
182,192,354625,1,0,0:0:0:0:
402,192,354625,1,0,0:0:0:0:
475,192,354625,1,0,0:0:0:0:
109,192,354700,1,0,0:0:0:0:
329,192,354775,1,0,0:0:0:0:
475,192,354775,1,0,0:0:0:0:
36,192,354775,1,0,0:0:0:0:
256,192,354775,1,0,0:0:0:0:
182,192,354850,1,0,0:0:0:0:
109,192,354925,1,0,0:0:0:0:
402,192,354925,1,0,0:0:0:0:
475,192,354925,1,0,0:0:0:0:
36,192,354925,1,0,0:0:0:0:
182,192,355000,1,0,0:0:0:0:
329,192,355000,1,0,0:0:0:0:
475,192,355075,1,0,0:0:0:0:
109,192,355075,1,0,0:0:0:0:
256,192,355075,1,0,0:0:0:0:
36,192,355075,1,0,0:0:0:0:
402,192,355150,1,0,0:0:0:0:
256,192,355225,1,0,0:0:0:0:
329,192,355225,1,0,0:0:0:0:
36,192,355225,1,0,0:0:0:0:
109,192,355275,1,0,0:0:0:0:
475,192,355275,1,0,0:0:0:0:
182,192,355325,1,0,0:0:0:0:
402,192,355325,1,0,0:0:0:0:
329,192,355375,1,0,0:0:0:0:
109,192,355375,1,0,0:0:0:0:
36,192,355375,1,0,0:0:0:0:
256,192,355375,1,0,0:0:0:0:
475,192,355450,1,0,0:0:0:0:
329,192,355525,1,0,0:0:0:0:
182,192,355525,1,0,0:0:0:0:
36,192,355525,1,0,0:0:0:0:
402,192,355600,1,0,0:0:0:0:
256,192,355600,1,0,0:0:0:0:
475,192,355675,1,0,0:0:0:0:
109,192,355675,1,0,0:0:0:0:
36,192,355675,1,0,0:0:0:0:
329,192,355675,1,0,0:0:0:0:
182,192,355750,1,0,0:0:0:0:
402,192,355825,1,0,0:0:0:0:
109,192,355825,1,0,0:0:0:0:
256,192,355825,1,0,0:0:0:0:
182,192,355900,1,0,0:0:0:0:
329,192,355900,1,0,0:0:0:0:
36,192,355975,1,0,0:0:0:0:
402,192,355975,1,0,0:0:0:0:
475,192,355975,1,0,0:0:0:0:
256,192,355975,1,0,0:0:0:0:
109,192,355975,1,0,0:0:0:0:
329,192,356050,1,0,0:0:0:0:
36,192,356125,1,0,0:0:0:0:
182,192,356125,1,0,0:0:0:0:
402,192,356125,1,0,0:0:0:0:
256,192,356200,1,0,0:0:0:0:
109,192,356200,1,0,0:0:0:0:
475,192,356200,1,0,0:0:0:0:
329,192,356200,1,0,0:0:0:0:
402,192,356275,1,0,0:0:0:0:
182,192,356275,1,0,0:0:0:0:
475,192,356350,1,0,0:0:0:0:
109,192,356350,1,0,0:0:0:0:
256,192,356350,1,0,0:0:0:0:
36,192,356425,1,0,0:0:0:0:
402,192,356425,1,0,0:0:0:0:
182,192,356425,1,0,0:0:0:0:
329,192,356425,1,0,0:0:0:0:
256,192,356500,1,0,0:0:0:0:
475,192,356575,1,0,0:0:0:0:
36,192,356575,1,0,0:0:0:0:
109,192,356575,1,0,0:0:0:0:
329,192,356575,1,0,0:0:0:0:
182,192,356650,1,0,0:0:0:0:
475,192,356725,1,0,0:0:0:0:
109,192,356725,1,0,0:0:0:0:
256,192,356725,1,0,0:0:0:0:
402,192,356725,1,0,0:0:0:0:
329,192,356800,1,0,0:0:0:0:
36,192,356800,1,0,0:0:0:0:
402,192,356875,1,0,0:0:0:0:
109,192,356875,1,0,0:0:0:0:
256,192,356875,1,0,0:0:0:0:
182,192,356875,1,0,0:0:0:0:
475,192,356950,1,0,0:0:0:0:
109,192,357025,1,0,0:0:0:0:
36,192,357025,1,0,0:0:0:0:
329,192,357025,1,0,0:0:0:0:
182,192,357025,1,0,0:0:0:0:
402,192,357100,1,0,0:0:0:0:
256,192,357100,1,0,0:0:0:0:
475,192,357175,1,0,0:0:0:0:
36,192,357175,1,0,0:0:0:0:
329,192,357175,1,0,0:0:0:0:
182,192,357175,1,0,0:0:0:0:
109,192,357250,1,0,0:0:0:0:
475,192,357325,1,0,0:0:0:0:
402,192,357325,1,0,0:0:0:0:
182,192,357325,1,0,0:0:0:0:
329,192,357400,1,0,0:0:0:0:
256,192,357400,1,0,0:0:0:0:
109,192,357400,1,0,0:0:0:0:
36,192,357400,1,0,0:0:0:0:
182,192,357475,1,0,0:0:0:0:
475,192,357475,1,0,0:0:0:0:
109,192,357550,1,0,0:0:0:0:
329,192,357550,1,0,0:0:0:0:
402,192,357550,1,0,0:0:0:0:
36,192,357625,1,0,0:0:0:0:
475,192,357625,1,0,0:0:0:0:
256,192,357625,1,0,0:0:0:0:
182,192,357675,1,0,0:0:0:0:
402,192,357675,1,0,0:0:0:0:
109,192,357725,1,0,0:0:0:0:
329,192,357725,1,0,0:0:0:0:
256,192,357775,1,0,0:0:0:0:
475,192,357775,1,0,0:0:0:0:
36,192,357775,1,0,0:0:0:0:
182,192,357775,1,0,0:0:0:0:
402,192,357850,1,0,0:0:0:0:
109,192,357925,1,0,0:0:0:0:
329,192,357925,1,0,0:0:0:0:
36,192,357925,1,0,0:0:0:0:
256,192,357925,1,0,0:0:0:0:
402,192,358000,1,0,0:0:0:0:
182,192,358000,1,0,0:0:0:0:
36,192,358075,1,0,0:0:0:0:
256,192,358075,1,0,0:0:0:0:
475,192,358075,1,0,0:0:0:0:
329,192,358075,1,0,0:0:0:0:
109,192,358150,1,0,0:0:0:0:
402,192,358225,1,0,0:0:0:0:
329,192,358225,1,0,0:0:0:0:
182,192,358225,1,0,0:0:0:0:
475,192,358225,1,0,0:0:0:0:
109,192,358300,1,0,0:0:0:0:
256,192,358300,1,0,0:0:0:0:
36,192,358375,1,0,0:0:0:0:
475,192,358375,1,0,0:0:0:0:
402,192,358375,1,0,0:0:0:0:
182,192,358375,1,0,0:0:0:0:
329,192,358450,1,0,0:0:0:0:
475,192,358525,1,0,0:0:0:0:
182,192,358525,1,0,0:0:0:0:
256,192,358525,1,0,0:0:0:0:
109,192,358600,1,0,0:0:0:0:
329,192,358600,1,0,0:0:0:0:
36,192,358600,1,0,0:0:0:0:
402,192,358600,1,0,0:0:0:0:
182,192,358675,1,0,0:0:0:0:
256,192,358675,1,0,0:0:0:0:
402,192,358750,1,0,0:0:0:0:
109,192,358750,1,0,0:0:0:0:
475,192,358750,1,0,0:0:0:0:
329,192,358825,1,0,0:0:0:0:
36,192,358825,1,0,0:0:0:0:
182,192,358825,1,0,0:0:0:0:
256,192,358825,1,0,0:0:0:0:
402,192,358900,1,0,0:0:0:0:
475,192,358975,1,0,0:0:0:0:
329,192,358975,1,0,0:0:0:0:
109,192,358975,1,0,0:0:0:0:
36,192,358975,1,0,0:0:0:0:
256,192,359050,1,0,0:0:0:0:
402,192,359125,1,0,0:0:0:0:
475,192,359125,1,0,0:0:0:0:
109,192,359125,1,0,0:0:0:0:
182,192,359125,1,0,0:0:0:0:
256,192,359200,1,0,0:0:0:0:
329,192,359200,1,0,0:0:0:0:
475,192,359275,1,0,0:0:0:0:
402,192,359275,1,0,0:0:0:0:
109,192,359275,1,0,0:0:0:0:
36,192,359275,1,0,0:0:0:0:
329,192,359350,1,0,0:0:0:0:
109,192,359350,1,0,0:0:0:0:
182,192,359425,1,0,0:0:0:0:
402,192,359425,1,0,0:0:0:0:
256,192,359425,1,0,0:0:0:0:
36,192,359425,1,0,0:0:0:0:
475,192,359500,1,0,0:0:0:0:
36,192,359575,1,0,0:0:0:0:
182,192,359575,1,0,0:0:0:0:
329,192,359575,1,0,0:0:0:0:
109,192,359575,1,0,0:0:0:0:
402,192,359650,1,0,0:0:0:0:
475,192,359725,1,0,0:0:0:0:
109,192,359725,1,0,0:0:0:0:
182,192,359725,1,0,0:0:0:0:
256,192,359725,1,0,0:0:0:0:
36,192,359800,1,0,0:0:0:0:
329,192,359800,1,0,0:0:0:0:
256,192,359875,1,0,0:0:0:0:
109,192,359875,1,0,0:0:0:0:
475,192,359875,1,0,0:0:0:0:
402,192,359875,1,0,0:0:0:0:
182,192,359950,1,0,0:0:0:0:
256,192,360025,1,0,0:0:0:0:
36,192,360025,1,0,0:0:0:0:
475,192,360025,1,0,0:0:0:0:
109,192,360075,1,0,0:0:0:0:
329,192,360075,1,0,0:0:0:0:
182,192,360125,1,0,0:0:0:0:
402,192,360125,1,0,0:0:0:0:
256,192,360175,1,0,0:0:0:0:
329,192,360175,1,0,0:0:0:0:
475,192,360175,1,0,0:0:0:0:
36,192,360175,1,0,0:0:0:0:
109,192,360250,1,0,0:0:0:0:
475,192,360325,1,0,0:0:0:0:
402,192,360325,1,0,0:0:0:0:
182,192,360325,1,0,0:0:0:0:
329,192,360325,1,0,0:0:0:0:
109,192,360400,1,0,0:0:0:0:
256,192,360400,1,0,0:0:0:0:
329,192,360475,1,0,0:0:0:0:
36,192,360475,1,0,0:0:0:0:
182,192,360475,1,0,0:0:0:0:
402,192,360475,1,0,0:0:0:0:
256,192,360550,1,0,0:0:0:0:
402,192,360625,1,0,0:0:0:0:
475,192,360625,1,0,0:0:0:0:
182,192,360625,1,0,0:0:0:0:
329,192,360700,1,0,0:0:0:0:
109,192,360700,1,0,0:0:0:0:
256,192,360775,1,0,0:0:0:0:
36,192,360775,1,0,0:0:0:0:
182,192,360775,1,0,0:0:0:0:
475,192,360775,1,0,0:0:0:0:
109,192,360850,1,0,0:0:0:0:
402,192,360850,1,0,0:0:0:0:
256,192,360925,1,0,0:0:0:0:
329,192,360925,1,0,0:0:0:0:
182,192,360925,1,0,0:0:0:0:
475,192,361000,1,0,0:0:0:0:
402,192,361000,1,0,0:0:0:0:
109,192,361000,1,0,0:0:0:0:
36,192,361000,1,0,0:0:0:0:
182,192,361075,1,0,0:0:0:0:
256,192,361075,1,0,0:0:0:0:
36,192,361150,1,0,0:0:0:0:
402,192,361150,1,0,0:0:0:0:
329,192,361150,1,0,0:0:0:0:
475,192,361225,1,0,0:0:0:0:
109,192,361225,1,0,0:0:0:0:
182,192,361225,1,0,0:0:0:0:
256,192,361225,1,0,0:0:0:0:
329,192,361300,1,0,0:0:0:0:
402,192,361300,1,0,0:0:0:0:
475,192,361375,1,0,0:0:0:0:
109,192,361375,1,0,0:0:0:0:
36,192,361375,1,0,0:0:0:0:
182,192,361375,1,0,0:0:0:0:
329,192,361450,1,0,0:0:0:0:
256,192,361450,1,0,0:0:0:0:
36,192,361525,1,0,0:0:0:0:
109,192,361525,1,0,0:0:0:0:
475,192,361525,1,0,0:0:0:0:
402,192,361525,1,0,0:0:0:0:
182,192,361600,1,0,0:0:0:0:
256,192,361600,1,0,0:0:0:0:
475,192,361675,1,0,0:0:0:0:
402,192,361675,1,0,0:0:0:0:
329,192,361675,1,0,0:0:0:0:
36,192,361675,1,0,0:0:0:0:
182,192,361750,1,0,0:0:0:0:
109,192,361750,1,0,0:0:0:0:
475,192,361825,1,0,0:0:0:0:
36,192,361825,1,0,0:0:0:0:
402,192,361825,1,0,0:0:0:0:
256,192,361825,1,0,0:0:0:0:
182,192,361900,1,0,0:0:0:0:
329,192,361900,1,0,0:0:0:0:
36,192,361975,1,0,0:0:0:0:
256,192,361975,1,0,0:0:0:0:
475,192,361975,1,0,0:0:0:0:
109,192,361975,1,0,0:0:0:0:
182,192,362050,1,0,0:0:0:0:
402,192,362050,1,0,0:0:0:0:
329,192,362125,1,0,0:0:0:0:
109,192,362125,1,0,0:0:0:0:
36,192,362125,1,0,0:0:0:0:
182,192,362200,1,0,0:0:0:0:
402,192,362200,1,0,0:0:0:0:
475,192,362200,1,0,0:0:0:0:
256,192,362200,1,0,0:0:0:0:
109,192,362275,1,0,0:0:0:0:
329,192,362275,1,0,0:0:0:0:
182,192,362350,1,0,0:0:0:0:
402,192,362350,1,0,0:0:0:0:
475,192,362350,1,0,0:0:0:0:
256,192,362425,1,0,0:0:0:0:
329,192,362425,1,0,0:0:0:0:
36,192,362425,1,0,0:0:0:0:
109,192,362475,1,0,0:0:0:0:
475,192,362475,1,0,0:0:0:0:
182,192,362525,1,0,0:0:0:0:
402,192,362525,1,0,0:0:0:0:
36,192,362575,1,0,0:0:0:0:
256,192,362575,1,0,0:0:0:0:
329,192,362575,1,0,0:0:0:0:
109,192,362575,1,0,0:0:0:0:
402,192,362650,1,0,0:0:0:0:
475,192,362650,1,0,0:0:0:0:
256,192,362725,1,0,0:0:0:0:
109,192,362725,1,0,0:0:0:0:
329,192,362725,1,0,0:0:0:0:
182,192,362725,1,0,0:0:0:0:
475,192,362800,1,0,0:0:0:0:
36,192,362800,1,0,0:0:0:0:
329,192,362875,1,0,0:0:0:0:
402,192,362875,1,0,0:0:0:0:
182,192,362875,1,0,0:0:0:0:
256,192,362875,1,0,0:0:0:0:
36,192,362950,1,0,0:0:0:0:
109,192,362950,1,0,0:0:0:0:
329,192,363025,1,0,0:0:0:0:
182,192,363025,1,0,0:0:0:0:
475,192,363025,1,0,0:0:0:0:
402,192,363025,1,0,0:0:0:0:
256,192,363100,1,0,0:0:0:0:
109,192,363100,1,0,0:0:0:0:
402,192,363175,1,0,0:0:0:0:
475,192,363175,1,0,0:0:0:0:
36,192,363175,1,0,0:0:0:0:
182,192,363175,1,0,0:0:0:0:
329,192,363250,1,0,0:0:0:0:
256,192,363250,1,0,0:0:0:0:
109,192,363325,1,0,0:0:0:0:
402,192,363325,1,0,0:0:0:0:
36,192,363325,1,0,0:0:0:0:
329,192,363400,1,0,0:0:0:0:
182,192,363400,1,0,0:0:0:0:
256,192,363400,1,0,0:0:0:0:
475,192,363400,1,0,0:0:0:0:
109,192,363475,1,0,0:0:0:0:
402,192,363475,1,0,0:0:0:0:
36,192,363550,1,0,0:0:0:0:
182,192,363550,1,0,0:0:0:0:
329,192,363550,1,0,0:0:0:0:
256,192,363625,1,0,0:0:0:0:
109,192,363625,1,0,0:0:0:0:
402,192,363625,1,0,0:0:0:0:
475,192,363625,1,0,0:0:0:0:
329,192,363700,1,0,0:0:0:0:
182,192,363700,1,0,0:0:0:0:
475,192,363775,1,0,0:0:0:0:
36,192,363775,1,0,0:0:0:0:
109,192,363775,1,0,0:0:0:0:
256,192,363775,1,0,0:0:0:0:
402,192,363850,1,0,0:0:0:0:
182,192,363850,1,0,0:0:0:0:
256,192,363925,1,0,0:0:0:0:
36,192,363925,1,0,0:0:0:0:
329,192,363925,1,0,0:0:0:0:
475,192,363925,1,0,0:0:0:0:
182,192,364000,1,0,0:0:0:0:
109,192,364000,1,0,0:0:0:0:
402,192,364075,1,0,0:0:0:0:
36,192,364075,1,0,0:0:0:0:
475,192,364075,1,0,0:0:0:0:
256,192,364075,1,0,0:0:0:0:
329,192,364150,1,0,0:0:0:0:
402,192,364150,1,0,0:0:0:0:
182,192,364225,1,0,0:0:0:0:
109,192,364225,1,0,0:0:0:0:
36,192,364225,1,0,0:0:0:0:
329,192,364300,1,0,0:0:0:0:
256,192,364300,1,0,0:0:0:0:
402,192,364375,1,0,0:0:0:0:
36,192,364375,1,0,0:0:0:0:
182,192,364375,1,0,0:0:0:0:
475,192,364375,1,0,0:0:0:0:
182,192,364450,1,0,0:0:0:0:
329,192,364450,1,0,0:0:0:0:
36,192,364525,1,0,0:0:0:0:
109,192,364525,1,0,0:0:0:0:
329,192,364525,1,0,0:0:0:0:
475,192,364525,1,0,0:0:0:0:
402,192,364675,1,0,0:0:0:0:
475,192,364675,1,0,0:0:0:0:
256,192,364675,1,0,0:0:0:0:
109,192,364675,1,0,0:0:0:0:
36,192,364675,1,0,0:0:0:0:
329,192,364825,1,0,0:0:0:0:
182,192,364825,1,0,0:0:0:0:
256,192,364825,1,0,0:0:0:0:
475,192,364900,1,0,0:0:0:0:
402,192,364900,1,0,0:0:0:0:
109,192,364900,1,0,0:0:0:0:
36,192,364900,1,0,0:0:0:0:
182,192,364975,1,0,0:0:0:0:
329,192,364975,1,0,0:0:0:0:
256,192,364975,1,0,0:0:0:0:
402,192,365050,1,0,0:0:0:0:
36,192,365050,1,0,0:0:0:0:
475,192,365050,1,0,0:0:0:0:
109,192,365050,1,0,0:0:0:0:
182,192,365125,1,0,0:0:0:0:
329,192,365125,1,0,0:0:0:0:
256,192,365125,1,0,0:0:0:0:
402,192,365200,1,0,0:0:0:0:
109,192,365200,1,0,0:0:0:0:
36,192,365200,1,0,0:0:0:0:
475,192,365200,1,0,0:0:0:0:
182,192,365275,1,0,0:0:0:0:
36,192,365275,1,0,0:0:0:0:
256,192,365275,1,0,0:0:0:0:
329,192,365275,1,0,0:0:0:0:
475,192,365275,1,0,0:0:0:0:
36,192,365425,1,0,0:0:0:0:
182,192,365425,1,0,0:0:0:0:
256,192,365425,1,0,0:0:0:0:
329,192,365425,1,0,0:0:0:0:
475,192,365425,1,0,0:0:0:0:
402,192,365575,1,0,0:0:0:0:
256,192,365575,1,0,0:0:0:0:
329,192,365575,1,0,0:0:0:0:
36,192,365575,1,0,0:0:0:0:
109,192,365575,1,0,0:0:0:0:
475,192,365575,1,0,0:0:0:0:
182,192,365575,1,0,0:0:0:0:
182,192,365725,1,0,0:0:0:0:
329,192,365800,1,0,0:0:0:0:
109,192,365950,1,0,0:0:0:0:
402,192,366025,1,0,0:0:0:0:
256,192,366175,1,0,0:0:0:0:
182,192,366325,1,0,0:0:0:0:
256,192,366475,1,0,0:0:0:0:
329,192,366625,1,0,0:0:0:0:
256,192,366775,1,0,0:0:0:0:
36,192,366775,1,0,0:0:0:0:
402,192,366775,1,0,0:0:0:0:
182,192,366925,1,0,0:0:0:0:
329,192,367000,1,0,0:0:0:0:
109,192,367150,1,0,0:0:0:0:
402,192,367225,1,0,0:0:0:0:
475,192,367275,1,0,0:0:0:0:
329,192,367325,1,0,0:0:0:0:
256,192,367375,1,0,0:0:0:0:
182,192,367525,1,0,0:0:0:0:
256,192,367675,1,0,0:0:0:0:
329,192,367825,1,0,0:0:0:0:
256,192,367975,1,0,0:0:0:0:
475,192,367975,1,0,0:0:0:0:
109,192,367975,1,0,0:0:0:0:
182,192,368125,1,0,0:0:0:0:
329,192,368200,1,0,0:0:0:0:
109,192,368350,1,0,0:0:0:0:
402,192,368425,1,0,0:0:0:0:
256,192,368575,1,0,0:0:0:0:
182,192,368725,1,0,0:0:0:0:
329,192,368875,1,0,0:0:0:0:
475,192,369025,1,0,0:0:0:0:
329,192,369175,1,0,0:0:0:0:
182,192,369325,1,0,0:0:0:0:
256,192,369400,1,0,0:0:0:0:
329,192,369475,1,0,0:0:0:0:
109,192,369625,1,0,0:0:0:0:
329,192,369675,1,0,0:0:0:0:
256,192,369725,1,0,0:0:0:0:
182,192,369775,1,0,0:0:0:0:
36,192,369925,1,0,0:0:0:0:
109,192,370075,1,0,0:0:0:0:
329,192,370375,1,0,0:0:0:0:
36,192,370375,1,0,0:0:0:0:
182,192,370375,1,0,0:0:0:0:
402,192,370375,1,0,0:0:0:0:
475,192,370825,1,0,0:0:0:0:
402,192,370975,1,0,0:0:0:0:
256,192,371125,1,0,0:0:0:0:
182,192,371275,1,0,0:0:0:0:
329,192,371425,1,0,0:0:0:0:
475,192,371575,1,0,0:0:0:0:
182,192,371575,1,0,0:0:0:0:
36,192,371575,1,0,0:0:0:0:
402,192,371575,1,0,0:0:0:0:
182,192,371800,1,0,0:0:0:0:
329,192,372025,1,0,0:0:0:0:
256,192,372175,1,0,0:0:0:0:
109,192,372325,1,0,0:0:0:0:
36,192,372475,1,0,0:0:0:0:
182,192,372625,1,0,0:0:0:0:
256,192,372775,1,0,0:0:0:0:
36,192,372775,1,0,0:0:0:0:
475,192,372775,1,0,0:0:0:0:
329,192,372850,1,0,0:0:0:0:
109,192,372850,1,0,0:0:0:0:
182,192,372925,1,0,0:0:0:0:
402,192,372925,1,0,0:0:0:0:
256,192,373000,1,0,0:0:0:0:
475,192,373000,1,0,0:0:0:0:
36,192,373075,1,0,0:0:0:0:
109,192,373075,1,0,0:0:0:0:
329,192,373150,1,0,0:0:0:0:
182,192,373150,1,0,0:0:0:0:
475,192,373225,1,0,0:0:0:0:
402,192,373225,1,0,0:0:0:0:
109,192,373300,1,0,0:0:0:0:
256,192,373300,1,0,0:0:0:0:
329,192,373375,1,0,0:0:0:0:
36,192,373375,1,0,0:0:0:0:
475,192,373450,1,0,0:0:0:0:
182,192,373450,1,0,0:0:0:0:
256,192,373525,1,0,0:0:0:0:
402,192,373525,1,0,0:0:0:0:
36,192,373600,1,0,0:0:0:0:
109,192,373600,1,0,0:0:0:0:
475,192,373675,1,0,0:0:0:0:
329,192,373675,1,0,0:0:0:0:
182,192,373750,1,0,0:0:0:0:
256,192,373750,1,0,0:0:0:0:
329,192,373825,1,0,0:0:0:0:
402,192,373825,1,0,0:0:0:0:
109,192,373900,1,0,0:0:0:0:
182,192,373900,1,0,0:0:0:0:
475,192,373975,1,0,0:0:0:0:
36,192,373975,1,0,0:0:0:0:
402,192,374012,1,0,0:0:0:0:
329,192,374050,1,0,0:0:0:0:
256,192,374087,1,0,0:0:0:0:
182,192,374125,1,0,0:0:0:0:
109,192,374125,1,0,0:0:0:0:
402,192,374200,1,0,0:0:0:0:
475,192,374200,1,0,0:0:0:0:
36,192,374275,1,0,0:0:0:0:
109,192,374312,1,0,0:0:0:0:
182,192,374350,1,0,0:0:0:0:
256,192,374387,1,0,0:0:0:0:
329,192,374425,1,0,0:0:0:0:
402,192,374425,1,0,0:0:0:0:
109,192,374500,1,0,0:0:0:0:
36,192,374500,1,0,0:0:0:0:
475,192,374575,1,0,0:0:0:0:
402,192,374612,1,0,0:0:0:0:
329,192,374650,1,0,0:0:0:0:
256,192,374687,1,0,0:0:0:0:
182,192,374725,1,0,0:0:0:0:
475,192,374762,1,0,0:0:0:0:
402,192,374800,1,0,0:0:0:0:
329,192,374837,1,0,0:0:0:0:
36,192,374875,1,0,0:0:0:0:
109,192,374912,1,0,0:0:0:0:
182,192,374950,1,0,0:0:0:0:
256,192,374987,1,0,0:0:0:0:
329,192,375025,1,0,0:0:0:0:
36,192,375062,1,0,0:0:0:0:
109,192,375100,1,0,0:0:0:0:
182,192,375137,1,0,0:0:0:0:
402,192,375175,1,0,0:0:0:0:
329,192,375175,1,0,0:0:0:0:
256,192,375175,1,0,0:0:0:0:
475,192,375175,1,0,0:0:0:0:
