osu file format v14

[General]
AudioFilename: audio.mp3
AudioLeadIn: 0
PreviewTime: 101994
Countdown: 0
SampleSet: Soft
StackLeniency: 0.3
Mode: 0
LetterboxInBreaks: 0
WidescreenStoryboard: 1

[Editor]
Bookmarks: 2394,11994,21594,27669,37194,46869,57594,63069,67194,76794,88794,101994,121194,129294,130794
DistanceSpacing: 1.7
BeatDivisor: 8
GridSize: 4
TimelineZoom: 2.699999

[Metadata]
Title:Calamity Fortune
TitleUnicode:Calamity Fortune
Artist:LeaF
ArtistUnicode:LeaF
Creator:Renumi
Version:Easy
Source:東方風神録 ~ Mountain of Faith.
Tags:th10 Touhou Toho 東方project 少女が見た日本の原風景 Shoujo ga Mita Nihon no Genfuukei The Primal Scene of Japan the Girl Saw ZUN Team Shanghai Alice 東風谷 早苗 Sanae Kochiya Fuujinroku 上海アリス幻樂団 ayel featured artist fa mappers' guild mapper's mpg electronic instrumental 太鼓の達人 セッションでドドンがドン! CHUNITHM STAR チュウニズム オンゲキ ONGEKI PLUS WACCA wind god chronicles mof video game
BeatmapID:4462719
BeatmapSetID:2123533

[Difficulty]
HPDrainRate:3
CircleSize:3
OverallDifficulty:4
ApproachRate:4
SliderMultiplier:0.7
SliderTickRate:1

[Events]
//Background and Video events
0,0,"bg1.jpg",0,0
Video,-185,"bgvideo.avi"
//Break Periods
2,46994,50274
2,121394,124674
//Storyboard Layer 0 (Background)
//Storyboard Layer 1 (Fail)
//Storyboard Layer 2 (Pass)
//Storyboard Layer 3 (Foreground)
//Storyboard Layer 4 (Overlay)
//Storyboard Sound Samples

[TimingPoints]
1194,300,4,2,1,45,1,0
2394,-100,4,1,1,75,0,0
3594,-100,4,2,1,45,0,0
4794,-100,4,1,1,75,0,0
9594,-100,4,2,1,55,0,0
10794,-100,4,2,1,75,0,0
11994,-100,4,1,1,85,0,0
15594,-100,4,1,2,85,0,0
16494,-100,4,1,1,85,0,0
16794,-100,4,1,1,85,0,0
21594,-100,4,2,1,55,0,0
26394,-100,4,2,1,75,0,0
27594,-100,4,1,1,85,0,0
37194,-100,4,1,1,75,0,0
38394,-100,4,2,1,55,0,0
39594,-100,4,1,1,75,0,0
46794,-100,4,2,1,75,0,0
51594,-100,4,1,1,65,0,0
55194,-100,4,1,1,75,0,0
57594,-100,4,3,2,100,0,1
75444,-100,4,3,1,100,0,0
76794,-100,4,1,1,85,0,0
78894,-100,4,2,1,85,0,0
79194,-100,4,1,1,85,0,0
86394,-100,4,2,1,75,0,0
87594,-100,4,1,1,75,0,0
88794,-100,4,2,1,75,0,0
89094,-100,4,2,1,55,0,0
93594,-100,4,1,1,75,0,0
101994,-100,4,1,1,85,0,0
105594,-100,4,1,2,85,0,0
106494,-100,4,1,1,85,0,0
115194,-100,4,1,2,85,0,0
116094,-100,4,1,1,85,0,0
121194,-100,4,2,1,55,0,0
128394,-100,4,1,1,75,0,0
134319,-100,4,1,1,5,0,0

[Colours]
Combo1 : 255,108,73
Combo2 : 98,156,253
Combo3 : 255,88,100
Combo4 : 255,220,138

[HitObjects]
166,87,2394,6,0,P|190:48|336:60,1,210,0|8,3:0|0:0,0:0:0:0:
391,119,3594,2,0,L|471:104,2,70,2|8|0,0:3|0:0|0:0,0:0:0:0:
352,282,4794,2,0,P|328:321|182:309,1,210,0|8,3:0|0:0,0:0:0:0:
127,250,5994,2,0,L|47:265,1,70,2|2,0:2|0:3,0:0:0:0:
6,196,6594,1,2,3:2:0:0:
97,42,7194,5,0,3:0:0:0:
176,70,7494,2,0,B|245:80|245:80|314:55,1,140,8|8,0:0|0:0,0:0:0:0:
329,224,8694,2,0,B|263:247|263:247|193:237,1,140,8|8,0:0|0:0,0:0:0:0:
123,190,9594,1,8,3:0:0:0:
35,333,10194,1,8,3:0:0:0:
195,383,10794,2,0,L|271:376,1,70,10|10,3:1|3:1,0:0:0:0:
325,318,11394,1,10,3:1:0:0:
484,372,11994,6,0,P|485:300|451:231,1,140,6|0,3:1|3:0,0:0:0:0:
397,180,12894,1,10,0:0:0:0:
315,199,13194,2,0,B|294:158|294:158|309:51,1,140,2|0,3:1|3:0,0:0:0:0:
470,24,14394,2,0,B|491:65|491:65|476:172,1,140,2|0,3:1|3:0,0:0:0:0:
397,180,15294,1,10,0:0:0:0:
315,199,15594,2,0,L|233:181,2,70,2|10|10,3:1|0:0|0:0,0:0:0:0:
408,338,16794,6,0,B|334:363|354:321|270:342,1,140,6|0,3:1|3:0,0:0:0:0:
190,366,17694,1,10,0:0:0:0:
118,322,17994,2,0,L|103:170,1,140,2|0,3:1|3:0,0:0:0:0:
259,118,19194,2,0,L|272:257,1,140,2|0,3:1|3:0,0:0:0:0:
270,341,20094,1,10,0:0:0:0:
349,369,20394,2,0,P|385:370|424:361,1,70,2|10,3:1|0:0,0:0:0:0:
488,316,20994,1,2,3:1:0:0:
404,170,21594,5,4,3:2:0:0:
248,232,22194,2,0,B|181:243|181:243|118:219|118:219|44:229,1,210,0|8,3:2|0:1,0:0:0:0:
1,301,23394,1,0,3:0:0:0:
154,369,23994,1,4,3:2:0:0:
248,232,24594,2,0,B|315:221|315:221|378:245|378:245|452:235,1,210,0|8,3:2|0:1,0:0:0:0:
494,162,25794,1,0,3:0:0:0:
355,67,26394,6,0,P|221:37|114:129,1,280,2|6,3:2|3:1,0:0:0:0:
120,289,28194,1,0,3:0:0:0:
281,334,28794,2,0,B|294:266|294:266|270:191,1,140,2|0,3:1|3:0,0:0:0:0:
289,115,29694,1,10,0:0:0:0:
368,149,29994,2,0,L|515:138,1,140,2|0,3:1|3:0,0:0:0:0:
438,291,31194,2,0,L|368:298,1,70,2|8,3:1|0:0,0:0:0:0:
300,348,31794,2,0,L|230:355,1,70,2|8,3:1|0:0,0:0:0:0:
147,369,32394,6,0,B|115:331|115:331|98:232,1,140,2|0,3:1|3:0,0:0:0:0:
208,113,33594,2,0,B|240:151|240:151|257:250,1,140,2|2,3:1|3:1,0:0:0:0:
299,311,34494,1,10,0:0:0:0:
381,294,34794,2,0,P|426:280|499:215,1,140,8|8,3:0|3:0,0:0:0:0:
386,92,35994,2,0,P|363:98|327:131,1,70,2|2,0:0|0:0,0:0:0:0:
308,210,36594,1,2,0:0:0:0:
144,248,37194,6,0,B|126:180|126:180|146:112|146:112|121:42,1,210,4|8,3:1|0:0,0:0:0:0:
199,11,38394,2,0,B|233:25|233:25|258:55,1,70,10|8,3:0|3:2,0:0:0:0:
272,132,38994,1,8,3:0:0:0:
282,299,39594,2,0,P|352:344|455:283,1,210,0|8,3:1|0:0,0:0:0:0:
467,204,40794,2,0,L|456:129,1,70,8|8,3:0|3:0,0:0:0:0:
389,83,41394,2,0,L|378:8,1,70,8|0,3:0|0:0,0:0:0:0:
294,11,41994,6,0,B|286:80|286:80|319:143|319:143|302:223,1,210,0|8,3:0|0:0,0:0:0:0:
234,257,43194,1,0,0:0:0:0:
85,179,43794,1,0,0:0:0:0:
177,38,44394,2,0,L|249:49,1,70,0|8,0:0|0:0,0:0:0:0:
304,109,44994,2,0,L|376:120,1,70,0|8,0:0|0:0,0:0:0:0:
449,154,45594,2,0,B|478:218|478:218|435:272|435:272|369:248|369:248|344:267|314:308,1,280,8|4,3:0|0:2,0:0:0:0:
14,123,51594,6,0,P|76:39|226:98,1,280,2|2,0:2|0:2,0:0:0:0:
498,261,53994,2,0,P|436:345|286:286,1,280,2|4,0:0|0:3,0:0:0:0:
275,203,55494,1,8,0:3:0:0:
308,117,55794,1,8,0:3:0:0:
399,107,56094,1,8,0:3:0:0:
1,181,57594,5,4,0:0:0:0:
38,256,57894,2,0,B|105:272|105:272|164:235|164:235|213:285|213:285|278:257|278:257|337:310,1,350,2|2,0:0|0:0,0:0:0:0:
443,178,59994,1,4,0:0:0:0:
372,132,60294,2,0,B|316:93|316:93|243:88|243:88|207:26|207:26|142:51|142:51|70:24,1,350,2|2,0:0|0:0,0:0:0:0:
4,177,62394,5,4,0:0:0:0:
87,169,62694,2,0,B|140:197|140:197|152:267|152:267|105:313|105:313|146:374|146:374|233:349,1,350,2|2,0:0|0:0,0:0:0:0:
372,274,64794,1,4,0:0:0:0:
441,226,65094,2,0,B|499:189|499:189|492:119|492:119|441:71|441:71|370:67|370:67|337:129,1,350,2|2,0:0|0:0,0:0:0:0:
220,249,67194,5,4,1:3:0:0:
159,190,67494,2,0,B|139:125|139:125|158:52,1,140,2|2,1:3|0:0,0:0:0:0:
229,11,68394,1,4,0:0:0:0:
290,71,68694,2,0,B|310:136|310:136|291:209,1,140,2|4,1:3|0:0,0:0:0:0:
220,249,69594,2,0,B|159:284|159:284|93:248|93:248|83:171|83:171|18:140,1,280,4|4,1:3|0:2,0:0:0:0:
256,192,71994,12,2,75444,1:3:0:0:
256,192,76794,6,2,P|339:223|431:141,1,210,4|8,0:2|0:0,0:0:0:0:
427,69,77994,2,2,L|412:-14,2,70
427,229,79194,2,2,P|344:260|252:178,1,210,2|8,3:1|0:0,0:0:0:0:
256,106,80394,2,2,L|271:23,1,70
192,1,80994,1,2,0:0:0:0:
256,192,81594,12,8,86394,3:0:0:0:
71,72,87594,6,0,L|83:150,1,70,8|8,3:0|3:0,0:0:0:0:
140,201,88194,1,8,3:0:0:0:
53,344,88794,6,0,P|119:359|193:331,1,140,4|2,0:0|1:2,0:0:0:0:
288,203,89994,2,0,P|303:137|275:63,1,140,2|2,3:2|3:2,3:0:0:0:
112,76,91194,2,0,P|97:142|125:216,2,140,2|2|2,3:2|3:2|0:3,3:0:0:0:
445,30,93594,6,0,B|456:100|456:100|437:165|437:165|455:235,1,210,6|8,3:1|0:0,0:0:0:0:
420,310,94794,2,0,B|350:321|350:321|285:302|285:302|215:320,1,210,6|8,3:1|0:0,0:0:0:0:
140,285,95994,1,6,3:1:0:0:
154,117,96594,1,6,3:1:0:0:
304,191,97194,2,0,P|391:132|283:36,1,280,6|6,3:1|0:2,0:0:0:0:
256,192,99594,12,6,101994,3:1:0:0:
256,186,103194,6,2,P|188:163|115:187,1,140,2|2,3:1|3:1,0:0:0:0:
58,233,104094,1,8,0:0:0:0:
77,314,104394,2,2,P|145:337|218:313,1,140,2|2,3:1|3:1,0:0:0:0:
360,247,105594,2,0,L|363:163,1,70,2|10,3:1|0:0,0:0:0:0:
439,142,106194,2,0,L|442:58,1,70,2|10,0:0|0:0,0:0:0:0:
373,23,106794,6,2,B|304:38|304:38|221:19,1,140,6|2,3:1|3:1,0:0:0:0:
160,58,107694,1,8,0:0:0:0:
82,27,107994,2,2,B|66:94|66:94|81:163,1,140,2|2,3:1|3:1,0:0:0:0:
248,181,109194,2,2,P|281:240|246:299,1,140,6|2,3:1|3:1,0:0:0:0:
175,339,110094,1,10,0:0:0:0:
101,297,110394,1,8,3:0:0:0:
331,53,111594,6,2,B|350:97|350:97|388:113|388:113|414:169,1,140,6|2,3:1|3:1,0:0:0:0:
466,221,112494,1,8,0:0:0:0:
395,267,112794,2,2,B|351:286|351:286|335:324|335:324|279:350,1,140,2|2,3:1|3:1,0:0:0:0:
123,316,113994,2,2,P|85:267|132:201,1,140,2|2,3:1|3:1,0:0:0:0:
198,234,114894,1,10,0:0:0:0:
273,197,115194,2,0,L|354:192,1,70,2|10,3:1|0:0,0:0:0:0:
416,234,115794,1,2,0:0:0:0:
297,115,116394,6,2,B|258:56|258:56|196:29|196:29|112:42,1,210,6|8,3:1|0:0,0:0:0:0:
101,120,117594,2,2,B|140:179|140:179|202:206|202:206|273:196,1,210,6|8,3:1|0:0,0:0:0:0:
355,178,118794,2,2,B|363:247|363:247|411:296|411:296|428:378,1,210,6|10,3:1|0:0,0:0:0:0:
340,364,119994,1,8,3:0:0:0:
176,336,120594,2,0,L|184:264,1,70,0|8,0:0|3:0,0:0:0:0:
144,192,121194,5,4,0:0:0:0:
140,272,125994,6,2,P|60:152|156:84,1,280,4|4,0:0|0:0,0:1:0:0:
367,84,128394,2,0,P|455:175|372:272,2,280,2|2|4,0:2|0:2|0:2,0:0:0:0:
256,192,131094,12,0,134319,2:0:0:0:
