osu file format v14

[General]
AudioFilename: Calamity Fortune.mp3
AudioLeadIn: 0
PreviewTime: 11687
Countdown: 0
SampleSet: Normal
StackLeniency: 0.6
Mode: 0
LetterboxInBreaks: 0
WidescreenStoryboard: 1

[Editor]
DistanceSpacing: 1
BeatDivisor: 2
GridSize: 4
TimelineZoom: 1.499999

[Metadata]
Title:Calamity Fortune
TitleUnicode:Calamity Fortune
Artist:LeaF
ArtistUnicode:LeaF
Creator:Frostings
Version:Normal
Source:BMS
Tags:東方Project 少女が見た日本の原風景 The Primal Scene of Japan the Girl Saw Touhou sanae kochiya 東風谷 早苗 東方風神録 ~ Mountain of Faith ZUN Remix Optie
BeatmapID:869732
BeatmapSetID:359168

[Difficulty]
HPDrainRate:4
CircleSize:3.5
OverallDifficulty:5
ApproachRate:7
SliderMultiplier:0.89999990463257
SliderTickRate:1

[Events]
//Background and Video events
0,0,"BG.jpg",0,0
//Break Periods
//Storyboard Layer 0 (Background)
//Storyboard Layer 1 (Fail)
//Storyboard Layer 2 (Pass)
//Storyboard Layer 3 (Foreground)
//Storyboard Sound Samples

[TimingPoints]
1187,300,4,1,1,60,1,0
46787,-133.333333333333,4,2,1,60,0,0
51587,-133.333333333333,4,1,1,60,0,0
55187,-125,4,1,1,60,0,0
57587,-125,4,1,1,80,0,0
71237,-125,4,1,1,60,0,0
93587,-117.647058823529,4,1,1,60,0,0
101987,-90.9090909090909,4,1,1,60,0,1
110387,-111.111111111111,4,1,1,60,0,1
111587,-90.9090909090909,4,1,1,60,0,1
119987,-111.111111111111,4,1,1,60,0,1
121187,-133.333333333333,4,1,1,60,0,0
123587,-133.333333333333,4,1,1,40,0,0
128387,-133.333333333333,4,1,1,30,0,0

[Colours]
Combo1 : 252,27,27
Combo2 : 33,233,243
Combo3 : 244,85,228
Combo4 : 255,255,40
Combo5 : 14,222,165
Combo6 : 131,84,226
Combo7 : 243,139,46
Combo8 : 19,64,244

[HitObjects]
436,80,1187,70,0,L|332:68,1,89.999990463257,0|0,2:0|2:0,0:0:0:0:
280,152,1787,2,0,L|176:140,1,89.999990463257,0|0,2:0|2:0,0:0:0:0:
36,276,2387,6,0,B|164:352|164:200|292:276,1,269.999971389771,0|8,0:0|0:0,0:0:0:0:
352,364,3587,2,0,B|399:324|399:324|380:202,1,179.999980926514,2|6,3:0|3:0,3:0:0:0:
484,236,4487,1,2,0:1:0:0:
468,96,4787,6,0,B|374:111|374:111|314:58|314:58|220:74,1,269.999971389771,0|8,0:0|0:0,0:0:0:0:
120,240,5987,2,0,L|180:216,1,44.9999952316285
192,256,6287,2,0,L|252:232,1,44.9999952316285
264,272,6587,2,2,L|356:240,1,89.999990463257,0|2,0:0|0:0,0:0:0:0:
452,292,7187,6,0,B|472:108|472:108|388:128,1,269.999971389771,0|8,0:0|0:0,0:0:0:0:
264,256,8387,2,0,L|360:228,1,89.999990463257,0|8,0:0|0:0,0:0:0:0:
340,32,8987,2,0,L|240:20,1,89.999990463257,0|8,0:0|0:0,0:0:0:0:
104,100,9587,6,0,P|160:146|272:128,1,179.999980926514,8|8,3:0|3:0,0:0:0:0:
368,120,10487,2,0,L|364:172,1,44.9999952316285,8|0,3:0|0:0,0:0:0:0:
364,208,10787,2,0,B|411:199|411:199|460:215,2,89.999990463257,2|2|2,0:0|0:0|0:0,0:0:0:0:
336,312,11687,1,0,0:0:0:0:
228,316,11987,6,0,L|208:168,1,134.999985694885
232,144,12587,2,0,L|180:132,2,44.9999952316285,2|0|10,0:0|0:0|0:0,0:0:0:0:
360,92,13187,2,0,L|460:76,1,89.999990463257,4|8,3:0|0:0,0:0:0:0:
432,292,13787,2,0,L|376:284,2,44.9999952316285,2|0|10,0:0|0:0|0:0,0:0:0:0:
413,190,14387,6,0,P|351:129|264:136,1,179.999980926514,4|2,3:0|0:0,0:0:0:0:
260,240,15287,1,10,0:0:0:0:
172,184,15587,2,0,L|117:200,1,44.9999952316285,2|0,0:0|0:0,0:0:0:0:
124,144,15887,2,0,L|69:160,2,44.9999952316285,10|0|2,0:0|0:0|0:0,0:0:0:0:
408,76,16787,6,0,L|400:184,1,89.999990463257,4|10,3:3|0:0,0:0:0:0:
452,256,17387,2,0,L|504:288,2,44.9999952316285,0|0|10,0:0|0:0|0:0,0:0:0:0:
376,328,17987,1,4,3:0:0:0:
275,298,18287,1,8,0:0:0:0:
350,224,18587,2,0,P|287:164|201:176,1,179.999980926514,2|4,0:0|3:0,0:0:0:0:
275,298,19487,5,8,0:0:0:0:
404,308,19787,2,0,B|451:266|451:266|433:136,1,179.999980926514,2|0,0:0|0:0,0:0:0:0:
344,96,20687,1,8,0:0:0:0:
260,164,20987,2,0,L|160:148,1,89.999990463257,0|8,0:0|0:0,0:0:0:0:
96,300,21587,6,0,B|249:373|233:198|389:273,1,314.999966621399,4|0,0:0|0:0,0:0:0:0:
480,328,22937,2,0,L|488:283,1,44.9999952316285,0|8,0:0|0:0,0:0:0:0:
448,184,23387,2,0,L|462:108,1,44.9999952316285
232,76,23987,6,0,B|253:189|253:189|331:223|331:223|353:337,1,314.999966621399
228,348,25337,2,0,L|236:284,1,44.9999952316285,0|8,0:0|0:0,0:0:0:0:
136,256,25787,2,0,L|144:192,2,44.9999952316285,0|0|2,0:0|0:0|0:2,0:0:0:0:
252,200,26387,6,0,P|262:58|352:168,1,359.999961853028
340,272,27887,5,8,0:0:0:0:
240,312,28187,2,0,L|136:296,1,89.999990463257,2|10,0:0|0:0,0:0:0:0:
100,124,28787,2,0,B|159:188|159:188|252:180,1,179.999980926514
356,216,29687,2,0,L|368:160,2,44.9999952316285,10|0|0,0:0|0:0|0:0,0:0:0:0:
404,312,30287,5,8,0:0:0:0:
304,356,30587,2,0,L|208:332,1,89.999990463257,2|10,0:0|0:0,0:0:0:0:
112,316,31187,2,0,P|152:224|124:128,1,179.999980926514,0|2,0:0|0:0,0:0:0:0:
32,124,32087,2,0,L|40:176,2,44.9999952316285,10|0|0,0:0|0:0|0:0,0:0:0:0:
104,44,32687,5,0,0:0:0:0:
208,72,32987,2,0,P|280:88|372:24,1,179.999980926514,2|0,0:0|0:0,0:0:0:0:
344,256,34187,2,0,L|264:244,2,44.9999952316285,2|2|10,0:0|0:0|0:0,0:0:0:0:
432,192,34787,6,0,B|416:72|416:72|344:120,1,179.999980926514,2|2,3:0|0:0,0:0:0:0:
292,184,35687,1,10,0:0:0:0:
192,140,35987,2,0,L|132:132,2,44.9999952316285,2|2|10,0:0|0:0|0:0,0:0:0:0:
256,52,36587,1,0,0:0:0:0:
344,112,36887,1,8,0:0:0:0:
440,60,37187,6,0,L|416:340,1,269.999971389771
316,288,38387,2,0,L|196:312,2,89.999990463257,0|8|0,0:0|0:0|0:0,0:0:0:0:
324,180,39287,1,2,2:2:0:0:
216,180,39587,6,0,P|174:76|116:167,1,269.999971389771
156,268,40787,2,0,L|268:284,1,89.999990463257,0|8,0:0|0:0,0:0:0:0:
352,300,41387,2,0,B|340:233|340:233|364:201|364:201|352:129,1,179.999980926514,0|4,0:0|0:0,0:0:0:0:
252,172,42287,6,0,P|160:196|84:112,1,179.999980926514
0,104,43187,2,0,L|8:216,1,89.999990463257,0|8,0:0|0:0,0:0:0:0:
80,272,43787,2,0,L|88:384,1,89.999990463257,0|8,0:0|0:0,0:0:0:0:
256,192,44387,12,4,46787,0:2:0:0:
377,216,47387,6,0,P|312:226|256:192,1,134.999990844726,0|0,0:0|0:0,0:0:0:0:
108,120,48587,2,0,L|124:208,1,67.4999954223632,0|0,0:0|0:0,0:0:0:0:
48,316,49187,6,0,L|116:258,1,67.4999954223632,0|0,0:0|0:0,0:0:0:0:
247,269,49787,2,0,L|162:238,1,67.4999954223632,0|0,0:0|0:0,0:0:0:0:
192,160,50387,2,0,B|297:182|283:103|388:125,1,202.49998626709,0|0,0:0|0:0,0:0:0:0:
488,220,51587,6,0,B|440:256|440:256|347:240,1,134.999990844726,8|0,0:0|0:0,0:0:0:0:
24,164,52787,2,0,B|71:127|71:127|164:143,1,134.999990844726,8|0,0:0|0:0,0:0:0:0:
256,320,53987,5,8,0:0:0:0:
288,228,54287,1,8,0:0:0:0:
224,156,54587,1,8,0:0:0:0:
256,64,54887,1,8,0:0:0:0:
256,192,55187,12,4,56387,0:0:0:0:
495,242,57587,6,0,B|513:190|513:190|410:172|410:172|408:228,1,215.999977111817
436,324,58787,6,0,B|325:352|341:258|230:286,1,215.999977111817
168,212,59987,6,0,B|76:236|76:236|0:91|0:91|162:47|162:47|166:124,1,503.999946594239
284,240,62387,6,0,B|356:224|356:224|420:256|420:256|490:241,1,215.999977111817
440,148,63587,6,0,P|416:60|349:120,1,215.999977111817
320,216,64787,6,0,B|387:291|387:291|188:331|188:331|252:141,1,503.999946594239
348,100,67187,6,0,P|262:32|172:76,1,215.999977111817
220,164,68387,6,0,B|297:157|336:222|336:222|306:279|306:316,1,215.999977111817
208,308,69587,5,0,0:0:0:0:
136,236,69887,2,0,L|40:256,2,71.9999923706056,0|0|0,0:0|0:0|0:0,0:0:0:0:
164,104,70787,2,0,B|200:160|200:160|276:116|352:168,1,215.999977111817,0|0,0:0|0:0,0:0:0:0:
376,256,71987,5,0,0:0:0:0:
472,224,72287,2,0,L|484:112,2,107.999988555908,0|0|0,0:0|0:0|0:0,0:0:0:0:
384,172,73487,2,0,L|396:60,2,107.999988555908,0|0|0,0:0|0:0|0:0,0:0:0:0:
280,200,74687,2,0,L|292:96,1,71.9999923706056,0|0,0:0|0:0,0:0:0:0:
144,80,75287,5,0,0:0:0:0:
144,80,75437,2,0,L|164:176,1,71.9999923706056,10|10,0:0|0:0,0:0:0:0:
176,252,76037,2,0,L|112:244,1,35.9999961853028,10|10,0:0|0:0,0:0:0:0:
68,316,76487,1,0,0:0:0:0:
16,160,76787,6,0,B|127:193|109:90|220:123,1,215.999977111817,0|0,0:0|0:0,0:0:0:0:
284,200,77987,2,0,L|276:292,2,71.9999923706056,2|10|2,0:0|0:0|0:0,0:0:0:0:
380,172,78887,1,2,2:0:0:0:
312,100,79187,6,0,B|201:129|217:34|107:63,1,215.999977111817,0|8,0:0|0:0,0:0:0:0:
68,188,80387,2,0,L|168:164,1,71.9999923706056,2|10,0:0|0:0,0:0:0:0:
204,248,80987,2,0,L|272:232,2,35.9999961853028,2|8|8,0:0|0:2|0:2,0:0:0:0:
192,352,81587,6,0,B|320:288|320:416|480:384|480:192|480:192|416:40|184:192|416:344|480:192|480:192|480:88|416:12|304:24,1,1079.99988555908,0|8,0:0|0:0,0:0:0:0:
244,104,86387,6,0,L|152:96,2,71.9999923706056,4|2|0,3:0|3:0|0:0,0:0:0:0:
308,180,87287,1,0,3:0:0:0:
212,204,87587,2,0,P|238:256|117:228,1,287.999969482422,12|0,3:0|0:0,0:0:0:0:
212,44,89387,6,0,P|280:92|351:84,1,143.999984741211,0|0,0:0|0:0,0:0:0:0:
416,276,90587,2,0,L|336:260,1,71.9999923706056,0|0,0:0|0:0,0:0:0:0:
240,188,91187,6,0,L|264:356,1,143.999984741211,0|0,0:0|0:0,0:0:0:0:
164,360,92087,1,0,0:0:0:0:
80,300,92387,2,0,L|4:312,1,71.9999923706056,0|0,0:0|0:0,0:0:0:0:
12,116,92987,2,0,L|83:127,1,71.9999923706056,0|2,0:0|2:0,0:0:0:0:
148,212,93587,6,0,P|195:251|305:223,1,152.99998670578,0|0,0:0|0:0,0:0:0:0:
340,156,94487,1,4,3:0:0:0:
272,72,94787,6,0,P|224:111|114:83,1,152.99998670578,0|0,0:0|0:0,0:0:0:0:
80,16,95687,1,4,3:0:0:0:
0,88,95987,6,0,L|20:172,1,76.49999335289,0|4,0:0|3:0,0:0:0:0:
116,200,96587,2,0,L|136:284,1,76.49999335289,0|4,0:0|3:0,0:0:0:0:
255,334,97187,6,0,B|232:228|232:228|280:156|280:156|256:48,1,305.99997341156,0|0,0:0|0:0,0:0:0:0:
160,100,98687,6,0,B|88:76|88:76|116:232,1,229.49998005867,0|0,0:0|0:0,0:0:0:0:
212,272,99887,2,0,L|284:224,2,76.49999335289
116,228,100787,2,0,L|96:120,2,76.49999335289
32,296,101687,1,0,0:0:0:0:
136,340,101987,6,2,B|188:334|188:334|222:308|222:308|275:302,1,148.499988796234,4|2,0:0|0:0,0:0:0:0:
312,336,102587,2,0,L|320:268,2,49.4999962654113,2|0|10,0:0|0:0|0:0,0:0:0:0:
448,344,103187,6,2,B|436:232|436:232|401:262,1,148.499988796234,0|2,0:0|0:0,0:0:0:0:
380,216,103787,2,0,L|320:204,2,49.4999962654113,2|0|10,0:0|0:0|0:0,0:0:0:0:
500,116,104387,6,2,B|430:126|430:126|377:89|377:89|308:99,1,197.999985061645,0|2,0:0|0:0,0:0:0:0:
228,144,105287,2,0,L|215:95,1,49.4999962654113,10|0,0:0|0:0,0:0:0:0:
236,52,105587,2,0,L|128:36,1,98.9999925308227,2|10,0:0|0:0,0:0:0:0:
124,136,106187,2,0,L|16:120,1,98.9999925308227,2|10,0:0|0:0,0:0:0:0:
76,244,106787,6,2,B|175:275|168:195|267:227,1,197.999985061645,0|2,0:0|0:0,0:0:0:0:
256,324,107687,1,10,0:0:0:0:
364,292,107987,2,2,L|352:180,2,98.9999925308227,0|10|2,0:0|0:0|0:0,0:0:0:0:
460,320,108887,1,10,0:0:0:0:
512,204,109187,6,2,B|372:284|372:124|232:204,1,296.999977592468,0|10,0:0|0:0,0:0:0:0:
72,260,110387,6,0,B|88:324|88:324|172:296|172:296|268:336,1,242.999966835023,0|0,0:0|0:0,3:0:0:0:
336,276,111587,6,0,L|344:228,2,49.4999962654113,4|0|10,0:0|0:0|0:0,0:0:0:0:
416,336,112187,1,2,0:0:0:0:
496,280,112487,1,10,0:0:0:0:
432,204,112787,6,0,L|368:192,1,49.4999962654113
376,144,113087,2,0,L|312:132,1,49.4999962654113,10|0,0:0|0:0,0:0:0:0:
284,160,113387,2,0,B|300:112|300:112|288:56,1,98.9999925308227,2|10,0:0|0:0,0:0:0:0:
196,104,113987,6,2,B|143:85|143:85|172:236,1,197.999985061645,4|10,0:0|0:0,0:0:0:0:
176,324,114887,2,0,L|236:304,1,49.4999962654113
272,316,115187,6,0,B|252:272|252:272|256:204,1,98.9999925308227,2|10,0:0|0:0,0:0:0:0:
276,124,115787,1,2,0:0:0:0:
368,156,116087,1,10,0:0:0:0:
464,32,116387,6,2,B|364:60|364:60|292:4|292:4|192:32,1,296.999977592468,0|8,0:0|0:0,0:0:0:0:
100,64,117587,1,0,0:0:0:0:
92,164,117887,2,2,B|189:179|189:179|268:116,1,197.999985061645,8|10,0:0|0:0,0:0:0:0:
364,100,118787,6,0,L|360:164,1,49.4999962654113
408,164,119087,2,0,L|404:228,1,49.4999962654113,10|0,0:0|0:0,0:0:0:0:
452,228,119387,2,0,L|448:292,2,49.4999962654113,2|0|10,0:0|0:0|0:0,0:0:0:0:
360,304,119987,6,0,B|312:268|312:268|256:304|256:304|204:280|204:280|132:280,1,242.999966835023,0|8,0:0|0:0,3:0:0:0:
68,208,121187,5,4,0:2:0:0:
444,176,122387,5,2,2:2:0:0:
256,292,123587,6,0,B|216:192|296:192|256:92,1,202.49998626709,0|2,2:0|2:0,0:0:0:0:
156,72,124787,2,0,L|168:152,1,67.4999954223632,0|2,2:0|2:0,0:0:0:0:
72,152,125387,2,0,L|84:232,1,67.4999954223632,0|2,2:0|2:0,0:0:0:0:
44,312,125987,6,0,B|149:334|135:255|240:277,1,202.49998626709,0|0,0:0|0:0,0:0:0:0:
412,272,127187,2,0,P|412:208|328:260,1,202.49998626709,0|0,0:0|0:0,0:0:0:0:
236,276,128387,6,0,B|187:268|136:284|136:284|143:231|127:185,1,202.49998626709,0|0,0:0|0:0,0:0:0:0:
196,72,129587,6,0,L|208:140,1,67.4999954223632,0|2,0:0|0:2,0:0:0:0:
304,138,130187,2,0,L|316:72,2,67.4999954223632,0|2|4,0:0|0:2|0:0,0:0:0:0:
256,192,130937,12,0,134349,2:0:0:0:
