osu file format v14

[General]
AudioFilename: Calamity Fortune.mp3
AudioLeadIn: 0
PreviewTime: 11687
Countdown: 0
SampleSet: Normal
StackLeniency: 0.6
Mode: 0
LetterboxInBreaks: 0
WidescreenStoryboard: 1

[Editor]
DistanceSpacing: 0.3
BeatDivisor: 4
GridSize: 4
TimelineZoom: 2.599999

[Metadata]
Title:Calamity Fortune
TitleUnicode:Calamity Fortune
Artist:LeaF
ArtistUnicode:LeaF
Creator:Frostings
Version:Insane
Source:BMS
Tags:東方Project 少女が見た日本の原風景 The Primal Scene of Japan the Girl Saw Touhou sanae kochiya 東風谷 早苗 東方風神録 ~ Mountain of Faith ZUN Remix Optie
BeatmapID:866256
BeatmapSetID:359168

[Difficulty]
HPDrainRate:6
CircleSize:4
OverallDifficulty:8
ApproachRate:9
SliderMultiplier:1.39999990463257
SliderTickRate:1

[Events]
//Background and Video events
0,0,"BG.jpg",0,0
//Break Periods
//Storyboard Layer 0 (Background)
//Storyboard Layer 1 (Fail)
//Storyboard Layer 2 (Pass)
//Storyboard Layer 3 (Foreground)
//Storyboard Sound Samples

[TimingPoints]
1187,300,4,3,1,60,1,0
2387,-100,4,1,1,60,0,0
3587,-100,4,2,1,60,0,0
4787,-100,4,1,1,60,0,0
6587,-136.986301369863,4,1,1,60,0,0
7037,-100,4,1,1,60,0,0
9587,-200,4,1,1,60,0,0
10787,-100,4,1,1,60,0,0
11087,-200,4,1,1,60,0,0
11387,-80,4,1,1,60,0,0
11987,-90.9090909090909,4,1,1,60,0,0
46787,-90.9090909090909,4,2,1,60,0,0
47387,-133.333333333333,4,2,1,60,0,0
48587,-166.666666666667,4,2,1,60,0,0
51587,-100,4,1,1,60,0,0
52187,-133.333333333333,4,1,1,60,0,0
52787,-100,4,1,1,60,0,0
53387,-133.333333333333,4,1,1,60,0,0
53987,-100,4,1,1,60,0,0
55187,-83.3333333333333,4,1,1,60,0,0
57587,-125,4,1,1,80,0,0
59987,-153.846153846154,4,1,1,80,0,0
62387,-125,4,1,1,80,0,0
62687,-140.845070422535,4,1,1,80,0,0
63587,-125,4,1,1,80,0,0
63887,-140.845070422535,4,1,1,80,0,0
64787,-140.845070422535,4,1,1,80,0,0
67187,-200,4,1,1,80,0,0
71237,-200,4,1,1,60,0,0
71987,-66.6666666666667,4,1,1,60,0,0
72287,-200,4,1,1,60,0,0
73187,-66.6666666666667,4,1,1,60,0,0
73487,-200,4,1,1,60,0,0
79187,-100,4,1,1,60,0,0
86387,-133.333333333333,4,1,1,60,0,0
86687,-66.6666666666667,4,1,1,60,0,0
86987,-100,4,1,1,60,0,0
87287,-50,4,1,1,60,0,0
87587,-83.3333333333333,4,1,1,60,0,0
88787,-133.333333333333,4,1,1,60,0,0
93587,-66.6666666666667,4,1,1,60,0,0
101987,-76.9230769230769,4,1,1,60,0,1
102587,-100,4,1,1,60,0,1
103187,-76.9230769230769,4,1,1,60,0,1
103787,-100,4,1,1,60,0,1
104387,-76.9230769230769,4,1,1,60,0,1
104987,-100,4,1,1,60,0,1
107087,-76.9230769230769,4,1,1,60,0,1
107387,-100,4,1,1,60,0,1
107987,-76.9230769230769,4,1,1,60,0,1
108587,-100,4,1,1,60,0,1
109187,-76.9230769230769,4,1,1,60,0,1
109787,-100,4,1,1,60,0,1
111587,-76.9230769230769,4,1,1,60,0,1
112187,-100,4,1,1,60,0,1
112787,-76.9230769230769,4,1,1,60,0,1
113387,-100,4,1,1,60,0,1
113987,-76.9230769230769,4,1,1,60,0,1
114587,-100,4,1,1,60,0,1
116387,-76.9230769230769,4,1,1,60,0,1
116987,-100,4,1,1,60,0,1
117587,-76.9230769230769,4,1,1,60,0,1
118187,-100,4,1,1,60,0,1
118787,-76.9230769230769,4,1,1,60,0,1
119387,-100,4,1,1,60,0,1
121187,-200,4,1,1,60,0,0
123587,-200,4,1,1,40,0,0
128387,-133.333333333333,4,1,1,30,0,0

[Colours]
Combo1 : 252,27,27
Combo2 : 33,233,243
Combo3 : 244,85,228
Combo4 : 255,255,40
Combo5 : 14,222,165
Combo6 : 131,84,226
Combo7 : 243,139,46
Combo8 : 19,64,244

[HitObjects]
256,192,1187,12,0,2237,0:0:0:0:
96,236,2387,6,0,L|192:216,1,69.9999952316285
72,220,2687,2,0,L|168:200,1,69.9999952316285,8|0,0:0|0:0,0:0:0:0:
48,204,2987,2,0,L|144:184,1,69.9999952316285
24,188,3287,2,0,L|120:168,1,69.9999952316285,8|0,0:0|0:0,0:0:0:0:
176,76,3587,6,0,L|156:140,3,34.9999976158143,2|0|0|0,3:0|0:0|0:0|0:0,0:0:0:0:
256,108,3887,2,0,L|256:172,3,34.9999976158143,4|0|0|0,3:0|0:0|0:0|3:0,0:0:0:0:
336,76,4187,2,0,L|356:140,2,34.9999976158143,0|0|0,3:0|3:0|3:0,0:0:0:0:
436,116,4487,5,2,0:1:0:0:
224,272,4787,6,0,L|312:240,1,69.9999952316285,0|0,0:0|0:0,0:0:0:0:
332,144,5087,2,0,L|319:212,1,69.9999952316285,8|0,0:0|0:0,0:0:0:0:
388,301,5387,2,0,L|334:255,1,69.9999952316285,0|0,0:0|0:0,0:0:0:0:
295,345,5687,1,8,0:0:0:0:
416,204,5837,1,0,0:0:0:0:
486,276,5987,5,0,0:0:0:0:
315,186,6137,1,0,0:0:0:0:
506,160,6287,1,0,0:0:0:0:
367,293,6437,1,0,0:0:0:0:
401,104,6587,2,2,L|416:208,1,102.199995845184,0|2,0:0|0:0,0:0:0:0:
192,160,7037,5,0,0:0:0:0:
192,160,7112,1,0,0:0:0:0:
192,160,7187,2,0,L|212:92,1,69.9999952316285
128,248,7487,2,0,P|82:197|-9:193,1,139.999990463257,8|0,0:0|0:0,0:0:0:0:
8,284,7937,1,0,0:0:0:0:
0,80,8087,2,0,L|84:96,1,69.9999952316285,8|0,0:0|0:0,0:0:0:0:
180,156,8387,6,0,L|156:72,1,69.9999952316285
364,76,8687,2,0,L|360:148,1,69.9999952316285,8|0,0:0|0:0,0:0:0:0:
329,252,8987,2,0,P|275:192|276:120,1,139.999990463257,0|8,0:0|0:0,0:0:0:0:
271,135,9437,1,0,0:0:0:0:
420,220,9587,5,8,3:0:0:0:
499,160,9812,1,8,3:0:0:0:
499,160,9887,1,8,3:0:0:0:
360,141,10037,1,4,3:0:0:0:
480,299,10187,1,8,3:0:0:0:
171,251,10487,1,8,3:0:0:0:
264,216,10637,1,8,3:0:0:0:
341,280,10787,5,2,0:0:0:0:
280,117,10937,1,2,0:0:0:0:
171,251,11087,1,2,0:0:0:0:
396,176,11387,6,0,B|328:189|328:189|265:151,1,131.249991059303,2|0,0:0|2:0,0:0:0:0:
256,164,11687,2,0,L|264:100,3,43.7499970197678
168,204,11987,5,4,0:0:0:0:
48,92,12287,2,0,L|68:176,1,76.9999971046448,8|0,0:0|0:0,0:0:0:0:
164,84,12587,2,0,L|160:28,2,38.4999985523224,2|2|0,0:0|0:0|0:0,0:0:0:0:
261,120,12887,2,0,L|276:66,2,38.4999985523224,10|2|0,0:0|0:0|0:0,0:0:0:0:
280,264,13187,6,0,P|220:252|176:168,1,153.99999420929,4|8,3:0|0:0,0:0:0:0:
72,152,13637,1,0,0:0:0:0:
100,252,13787,2,0,L|92:304,2,38.4999985523224,2|0|0,0:0|0:0|0:0,0:0:0:0:
276,168,14087,2,0,L|268:116,2,38.4999985523224,10|0|0,0:0|0:0|0:0,0:0:0:0:
76,80,14387,6,0,P|144:84|220:16,1,153.99999420929,4|8,3:0|0:0,0:0:0:0:
312,48,14837,1,0,0:0:0:0:
184,168,14987,2,0,L|168:252,1,76.9999971046448,2|0,0:0|0:0,0:0:0:0:
388,232,15287,2,0,L|380:168,2,38.4999985523224,10|0|0,0:0|0:0|0:0,0:0:0:0:
284,144,15587,5,2,0:0:0:0:
288,292,15737,1,0,0:0:0:0:
140,296,15887,1,10,0:0:0:0:
136,148,16037,1,0,0:0:0:0:
216,220,16187,5,2,0:0:0:0:
435,133,16487,1,8,0:0:0:0:
432,152,16562,1,0,0:0:0:0:
429,171,16637,1,0,0:0:0:0:
426,190,16712,1,0,0:0:0:0:
423,209,16787,6,0,B|345:223|354:168|275:182,1,153.99999420929,4|8,3:3|0:0,0:0:0:0:
200,260,17237,1,0,0:0:0:0:
400,308,17387,2,0,L|407:385,1,76.9999971046448,2|0,0:0|0:0,0:0:0:0:
292,320,17687,2,0,L|299:282,2,38.4999985523224,10|0|0,0:0|0:0|0:0,0:0:0:0:
160,160,17987,6,0,P|240:192|284:180,1,115.499995656967,4|0,3:0|0:0,0:0:0:0:
284,204,18287,2,0,P|274:146|276:116,1,76.9999971046448,8|0,0:0|0:0,0:0:0:0:
400,96,18587,2,0,L|392:156,2,38.4999985523224,2|0|0,0:0|0:0|0:0,0:0:0:0:
500,160,18887,2,0,L|505:198,2,38.4999985523224,10|2|0,0:0|0:0|0:0,0:0:0:0:
460,352,19187,6,0,P|396:292|396:220,1,153.99999420929,4|8,3:0|0:0,0:0:0:0:
312,152,19637,1,0,0:0:0:0:
208,264,19787,2,0,L|120:280,1,76.9999971046448,2|0,0:0|0:0,0:0:0:0:
128,68,20087,2,0,L|216:84,1,76.9999971046448,10|0,0:0|0:0,0:0:0:0:
56,176,20387,5,0,0:0:0:0:
152,172,20537,1,0,0:0:0:0:
4,94,20687,1,8,0:0:0:0:
11,261,20837,1,0,0:0:0:0:
101,91,20987,1,0,0:0:0:0:
101,91,21062,1,0,0:0:0:0:
101,91,21137,1,0,0:0:0:0:
203,253,21287,1,8,0:0:0:0:
360,196,21587,6,0,B|319:192|319:192|265:154,2,76.9999971046448,4|0|8,0:0|0:0|0:0,0:0:0:0:
408,108,22037,1,0,0:0:0:0:
458,214,22187,1,0,0:0:0:0:
372,295,22337,1,0,0:0:0:0:
372,295,22412,1,0,0:0:0:0:
372,295,22487,1,8,0:0:0:0:
233,247,22637,6,0,P|285:193|360:196,1,153.99999420929
200,344,23087,1,8,0:0:0:0:
132,264,23237,1,0,0:0:0:0:
132,264,23312,1,0,0:0:0:0:
132,264,23387,1,0,0:0:0:0:
324,284,23537,1,0,0:0:0:0:
400,172,23987,6,0,L|300:188,1,76.9999971046448
100,96,24287,2,0,B|156:108|156:108|188:84|188:84|244:96,1,153.99999420929,8|0,0:0|0:0,0:0:0:0:
216,208,24737,1,0,0:0:0:0:
216,208,24812,1,0,0:0:0:0:
216,208,24887,1,8,0:0:0:0:
112,192,25037,6,0,L|132:352,1,153.99999420929
8,176,25487,2,0,L|14:138,2,38.4999985523224,8|0|0,0:0|0:0|0:0,0:0:0:0:
216,208,25787,2,0,L|224:256,2,38.4999985523224,0|0|0,0:0|0:0|0:0,0:0:0:0:
128,112,26087,1,2,2:1:0:0:
336,136,26387,6,0,L|372:124,3,38.4999985523224,0|0|0|0,0:0|0:0|0:0|0:0,0:0:0:0:
360,152,26687,2,0,L|396:140,3,38.4999985523224,8|0|0|0,0:0|0:0|0:0|0:0,0:0:0:0:
384,168,26987,2,0,L|420:156,3,38.4999985523224,0|0|0|0,0:0|0:0|0:0|0:0,0:0:0:0:
408,184,27287,2,0,L|444:172,3,38.4999985523224,8|0|0|0,0:0|0:0|0:0|0:0,0:0:0:0:
432,200,27587,6,0,P|372:208|328:308,1,153.99999420929,0|8,0:0|0:0,0:0:0:0:
416,328,28037,1,0,0:0:0:0:
224,264,28187,2,0,L|236:324,2,38.4999985523224,2|0|0,0:0|0:0|0:0,0:0:0:0:
120,320,28487,2,0,L|124:216,1,76.9999971046448,10|2,0:0|0:0,0:0:0:0:
24,280,28787,5,0,0:0:0:0:
40,174,28937,2,2,L|32:136,2,38.4999985523224,0|0|10,0:0|0:0|0:0,0:0:0:0:
220,206,29237,1,0,0:0:0:0:
139,138,29387,1,0,0:0:0:0:
139,138,29462,1,0,0:0:0:0:
139,138,29537,1,0,0:0:0:0:
312,124,29687,2,0,L|220:108,1,76.9999971046448,10|0,0:0|0:0,0:0:0:0:
384,56,29987,5,0,0:0:0:0:
488,244,30287,2,0,L|504:140,1,76.9999971046448,8|0,0:0|0:0,0:0:0:0:
296,180,30587,2,0,L|304:232,2,38.4999985523224,2|0|0,0:0|0:0|0:0,0:0:0:0:
396,168,30887,1,10,0:0:0:0:
388,280,31037,1,2,0:0:0:0:
172,252,31187,6,0,B|199:216|199:216|228:333,1,153.99999420929,0|10,0:0|0:0,0:0:0:0:
80,288,31637,1,0,0:0:0:0:
96,184,31787,1,2,0:0:0:0:
96,184,31862,1,0,0:0:0:0:
96,184,31937,1,0,0:0:0:0:
316,304,32087,2,0,L|324:216,1,76.9999971046448,10|2,0:0|0:0,0:0:0:0:
192,336,32387,5,0,0:0:0:0:
140,136,32687,2,0,L|160:232,1,76.9999971046448,10|0,0:0|0:0,0:0:0:0:
252,124,32987,2,0,L|256:68,2,38.4999985523224,2|0|0,0:0|0:0|0:0,0:0:0:0:
348,176,33287,2,0,L|379:129,2,38.4999985523224,10|0|2,0:0|0:0|0:0,0:0:0:0:
364,288,33587,6,0,L|268:264,1,76.9999971046448
272,252,33812,2,0,L|276:320,3,38.4999985523224,0|10|0|0,0:0|0:0|0:0|0:0,0:0:0:0:
168,220,34187,2,0,L|164:324,1,76.9999971046448,2|2,0:0|0:0,0:0:0:0:
60,208,34487,2,0,L|48:128,1,76.9999971046448,10|2,0:0|0:0,0:0:0:0:
272,188,34787,1,2,3:0:0:0:
196,112,35012,5,0,0:0:0:0:
196,112,35087,1,8,0:0:0:0:
320,92,35237,1,2,0:0:0:0:
378,204,35387,1,0,0:0:0:0:
176,236,35687,1,10,0:0:0:0:
288,294,35837,1,2,0:0:0:0:
272,188,35987,5,2,0:0:0:0:
204,360,36137,1,2,0:0:0:0:
387,333,36287,1,2,0:0:0:0:
179,306,36587,6,2,B|235:318|235:318|295:290,1,115.499995656967,0|2,0:0|2:1,0:0:0:0:
304,312,36887,2,0,L|308:248,3,38.4999985523224,8|0|0|0,0:0|0:0|0:0|0:0,0:0:0:0:
408,352,37187,5,0,0:0:0:0:
256,192,37262,12,0,38237,0:0:0:0:
183,267,38387,5,0,0:0:0:0:
161,146,38537,1,0,0:0:0:0:
161,146,38612,1,0,0:0:0:0:
161,146,38687,1,8,0:0:0:0:
359,173,38837,1,0,0:0:0:0:
305,284,38987,1,0,0:0:0:0:
270,88,39287,5,2,2:2:0:0:
256,192,39587,5,0,0:0:0:0:
256,192,39662,12,0,40637,0:0:0:0:
156,180,40787,6,0,L|164:252,1,38.4999985523224
352,216,41012,2,0,L|356:177,1,38.4999985523224,0|8,0:0|0:0,0:0:0:0:
252,108,41237,1,0,0:0:0:0:
264,276,41387,1,0,0:0:0:0:
256,192,41537,6,0,L|208:200,5,38.4999985523224,0|0|8|0|0|0,0:0|0:0|0:0|0:0|0:0|0:0,0:0:0:0:
376,264,41987,5,0,0:0:0:0:
256,192,42062,12,0,43037,0:0:0:0:
350,246,43187,5,0,0:0:0:0:
161,137,43487,1,8,0:0:0:0:
310,97,43787,1,0,0:0:0:0:
201,286,44087,1,8,0:0:0:0:
256,192,44387,5,0,0:0:0:0:
256,192,44462,12,0,45587,0:0:0:0:
256,192,45662,12,4,46787,0:2:0:0:
112,244,47387,5,0,0:0:0:0:
211,102,47612,1,0,0:0:0:0:
284,259,47837,1,0,0:0:0:0:
64,229,47987,6,0,P|127:185|202:201,1,157.499995279312,0|0,0:0|0:0,0:0:0:0:
232,324,48587,2,0,L|171:307,2,62.9999937858584,0|0|0,0:0|0:0|0:0,0:0:0:0:
364,244,49187,6,0,P|363:199|372:144,1,83.9999917144779,0|0,0:0|0:0,0:0:0:0:
142,160,49787,2,0,P|148:202|148:244,1,83.9999917144779,0|0,0:0|0:0,0:0:0:0:
256,312,50387,6,0,B|196:192|316:192|256:72,1,251.999975143434,0|0,0:0|0:0,0:0:0:0:
128,224,51587,6,0,L|136:292,7,34.9999976158143,8|0|0|0|0|0|0|0,0:0|0:0|0:0|0:0|0:0|0:0|0:0|0:0,0:0:0:0:
152,200,52187,2,0,P|87:187|72:172,2,78.7499976396561
344,140,52787,6,0,L|352:72,7,34.9999976158143,8|0|0|0|0|0|0|0,0:0|0:0|0:0|0:0|0:0|0:0|0:0|0:0,0:0:0:0:
320,164,53387,2,0,P|385:177|400:192,2,78.7499976396561
244,232,53987,6,0,L|256:280,3,34.9999976158143,8|0|0|0,0:0|0:0|0:0|0:0,0:0:0:0:
216,224,54287,2,0,L|228:272,3,34.9999976158143,8|0|0|0,0:0|0:0|0:0|0:0,0:0:0:0:
188,216,54587,2,0,L|200:264,3,34.9999976158143,8|0|0|0,0:0|0:0|0:0|0:0,0:0:0:0:
160,208,54887,2,0,L|172:256,3,34.9999976158143,8|0|0|0,0:0|0:0|0:0|0:0,0:0:0:0:
132,200,55187,6,0,L|116:72,1,125.999987571717,4|0,0:0|0:0,0:0:0:0:
116,74,55487,1,4,3:0:0:0:
220,124,55637,1,4,3:0:0:0:
32,156,55787,1,4,3:0:0:0:
88,256,56087,1,4,3:0:0:0:
424,128,56387,5,4,0:0:0:0:
256,192,56462,12,8,57287,3:3:0:0:
376,164,57587,6,0,L|380:124,3,27.9999980926514,0|0|0|0,2:0|2:0|2:0|2:0,2:0:0:0:
277,120,57887,2,0,L|283:175,1,55.9999961853028
468,212,58187,2,0,B|488:168|488:168|464:84,1,111.999992370606
84,160,58787,5,0,0:0:0:0:
96,157,58862,1,0,0:0:0:0:
108,154,58937,1,0,0:0:0:0:
268,248,59087,2,0,P|220:228|152:244,1,111.999992370606
132,328,59537,1,0,0:0:0:0:
92,176,59687,1,0,0:0:0:0:
280,168,59987,6,0,B|361:159|361:159|381:78|381:78|414:155|414:155|498:147|498:147|436:204|436:204|471:286|471:286|395:240|395:240|329:298,1,682.499922266011,0|0,1:0|1:0,2:0:0:0:
208,292,62387,6,0,L|212:240,3,27.9999980926514
116,320,62687,2,0,B|89:149|89:149|168:180,1,248.499970559313
248,132,63587,6,0,L|248:80,3,27.9999980926514
344,152,63887,2,0,B|343:88|343:88|461:109|461:109|438:170,1,248.499970559313
452,280,64787,5,0,0:0:0:0:
444,278,64862,1,0,0:0:0:0:
436,277,64937,1,0,0:0:0:0:
340,312,65087,2,0,L|332:244,1,49.6999941118625
244,224,65387,1,0,0:0:0:0:
172,284,65537,1,0,0:0:0:0:
172,284,65612,1,0,0:0:0:0:
172,284,65687,1,0,0:0:0:0:
148,144,65837,6,0,L|152:200,1,49.6999941118625
248,136,66137,2,0,L|244:80,1,49.6999941118625
336,164,66437,2,0,B|408:148|408:148|396:276,1,198.79997644745
84,120,67187,6,0,L|92:192,1,69.9999952316285,0|0,0:0|0:0,0:0:0:0:
200,256,67787,1,0,0:0:0:0:
0,240,67937,1,0,0:0:0:0:
0,240,68237,1,0,0:0:0:0:
108,340,68387,6,0,L|100:270,1,69.9999952316285
0,240,68987,1,0,0:0:0:0:
192,176,69137,1,0,0:0:0:0:
192,176,69437,1,0,0:0:0:0:
92,84,69587,6,0,L|99:153,1,69.9999952316285,0|0,0:0|0:0,0:0:0:0:
192,176,70187,1,0,0:0:0:0:
6,130,70337,1,0,0:0:0:0:
32,222,70487,1,0,0:0:0:0:
99,153,70637,1,0,0:0:0:0:
125,245,70787,5,0,0:0:0:0:
125,245,70862,1,0,0:0:0:0:
125,245,70937,1,0,0:0:0:0:
192,176,71087,1,0,0:0:0:0:
192,176,71162,1,0,0:0:0:0:
192,176,71237,2,0,L|272:160,1,69.9999952316285
356,124,71687,2,0,L|352:167,1,34.9999976158143,0|0,0:0|0:0,0:0:0:0:
420,232,71987,6,0,L|464:224,6,26.2499992132187,0|0|0|0|0|0|0,0:0|0:0|0:0|0:0|0:0|0:0|0:0,0:0:0:0:
352,312,72287,2,0,B|268:276|268:348|184:312,1,174.999988079071,0|0,0:0|0:0,0:0:0:0:
116,228,73187,6,0,L|108:184,6,26.2499992132187,0|0|0|0|0|0|0,0:0|0:0|0:0|0:0|0:0|0:0|0:0,0:0:0:0:
228,212,73487,2,0,B|217:88|217:88|271:115,1,174.999988079071,0|0,0:0|0:0,0:0:0:0:
348,160,74387,5,0,0:0:0:0:
348,160,74462,1,0,0:0:0:0:
348,160,74537,1,0,0:0:0:0:
432,216,74687,2,0,L|444:168,1,34.9999976158143,0|0,0:0|0:0,0:0:0:0:
348,64,74987,1,0,0:0:0:0:
348,64,75062,1,0,0:0:0:0:
348,64,75137,1,0,0:0:0:0:
236,112,75287,1,0,0:0:0:0:
138,39,75437,5,10,0:0:0:0:
148,128,75737,5,10,0:0:0:0:
160,216,76037,5,10,0:0:0:0:
68,184,76187,2,0,L|24:196,1,34.9999976158143,10|8,0:0|3:0,0:0:0:0:
236,160,76487,2,0,L|272:160,1,34.9999976158143,0|0,0:0|0:0,0:0:0:0:
144,104,76787,6,0,L|165:356,1,244.9999833107,0|0,0:0|0:0,0:0:0:0:
164,348,77987,5,2,0:0:0:0:
252,324,78287,5,10,0:0:0:0:
339,299,78587,5,2,0:0:0:0:
64,248,78887,5,2,2:0:0:0:
204,140,79187,6,0,L|200:212,1,69.9999952316285,0|0,0:0|0:0,0:0:0:0:
200,209,79412,1,0,0:0:0:0:
200,209,79487,1,8,0:0:0:0:
292,240,79637,1,0,0:0:0:0:
109,179,79787,1,0,0:0:0:0:
128,273,79937,1,0,0:0:0:0:
128,273,80012,1,0,0:0:0:0:
128,273,80087,1,8,0:0:0:0:
220,304,80237,1,0,0:0:0:0:
181,114,80387,5,2,0:0:0:0:
200,209,80687,5,10,0:0:0:0:
128,273,80987,5,2,0:0:0:0:
181,114,81137,1,8,0:2:0:0:
292,239,81287,1,8,0:2:0:0:
436,172,81587,6,0,P|392:179|324:138,1,104.999992847443,0|0,0:0|0:0,0:0:0:0:
316,168,81887,2,0,L|320:80,1,69.9999952316285,8|0,0:0|0:0,0:0:0:0:
208,52,82187,1,0,0:0:0:0:
216,140,82337,1,0,0:0:0:0:
72,128,82487,1,8,0:0:0:0:
156,296,82787,6,0,L|144:212,1,69.9999952316285,0|0,0:0|0:0,0:0:0:0:
372,240,83087,2,0,L|362:309,1,69.9999952316285,8|0,0:0|0:0,0:0:0:0:
260,328,83387,2,0,L|256:180,1,139.999990463257,0|8,0:0|0:0,0:0:0:0:
256,88,83837,1,0,0:0:0:0:
168,216,83987,6,0,L|88:236,1,69.9999952316285,0|0,0:0|0:0,0:0:0:0:
96,40,84287,2,0,L|167:52,1,69.9999952316285,8|0,0:0|0:0,0:0:0:0:
32,144,84587,1,0,0:0:0:0:
272,256,84887,2,0,L|280:180,1,69.9999952316285,8|0,0:0|0:0,0:0:0:0:
188,128,85187,5,0,0:0:0:0:
188,128,85262,1,0,0:0:0:0:
188,128,85337,1,0,0:0:0:0:
376,204,85487,1,8,0:0:0:0:
348,56,85637,1,0,0:0:0:0:
480,128,85787,2,0,L|392:112,1,69.9999952316285,0|0,0:0|0:0,0:0:0:0:
420,332,86087,2,0,L|508:316,1,69.9999952316285,8|0,0:0|0:0,0:0:0:0:
344,232,86387,6,0,L|272:232,1,52.4999984264374,4|0,3:0|2:0,0:0:0:0:
100,124,86687,6,0,B|152:136|152:136|208:104,1,104.999996852875,2|0,3:0|2:0,0:0:0:0:
312,124,86987,6,0,L|320:68,2,34.9999976158143
460,248,87287,6,0,B|364:224|364:224|376:272,1,139.999990463257,0|2,3:0|3:0,0:0:0:0:
152,272,87587,6,0,L|248:256,1,83.9999917144779,12|0,3:0|0:0,0:0:0:0:
272,188,87812,1,0,0:0:0:0:
272,188,87887,1,0,0:0:0:0:
280,348,88037,1,0,0:0:0:0:
280,348,88112,2,0,L|216:344,1,41.999995857239,0|0,0:0|0:0,0:0:0:0:
320,272,88262,2,0,L|416:256,1,83.9999917144779,0|0,0:0|0:0,0:0:0:0:
424,236,88487,2,0,L|416:300,2,41.999995857239,0|0|0,0:0|0:0|0:0,0:0:0:0:
272,188,88787,5,4,0:0:0:0:
64,232,89387,2,0,L|80:316,2,78.7499976396561,0|2|0,0:0|2:0|2:0,0:0:0:0:
40,120,89987,6,0,P|87:156|189:141,1,157.499995279312,0|0,0:0|2:0,0:0:0:0:
256,112,90587,2,0,L|248:196,2,78.7499976396561,0|2|0,0:0|2:0|2:0,0:0:0:0:
361,166,91187,1,0,0:0:0:0:
307,291,91487,1,0,0:0:0:0:
170,277,91787,1,0,0:0:0:0:
142,142,92087,1,0,0:0:0:0:
260,74,92387,5,0,0:0:0:0:
248,190,92687,1,0,0:0:0:0:
361,166,92987,1,0,3:0:0:0:
361,166,93062,1,0,3:0:0:0:
361,166,93137,1,0,3:0:0:0:
142,142,93287,1,2,2:0:0:0:
352,272,93587,6,0,L|415:261,3,52.4999984264374
368,296,93887,2,0,L|431:285,3,52.4999984264374,0|0|0|0,0:0|0:0|0:0|0:0,0:0:0:0:
384,320,94187,1,0,0:0:0:0:
300,172,94487,1,4,3:0:0:0:
124,200,94787,6,0,L|60:189,3,52.4999984264374
108,224,95087,2,0,L|44:213,3,52.4999984264374,0|0|0|0,0:0|0:0|0:0|0:0,0:0:0:0:
92,248,95387,1,0,0:0:0:0:
176,100,95687,1,4,3:0:0:0:
348,156,95987,6,0,L|416:144,3,52.4999984264374,0|0|0|0,0:0|0:0|0:0|0:0,0:0:0:0:
384,236,96287,1,4,3:0:0:0:
164,156,96587,6,0,L|96:144,3,52.4999984264374,0|0|0|0,0:0|0:0|0:0|0:0,0:0:0:0:
128,236,96887,1,4,3:0:0:0:
256,192,97187,5,0,0:0:0:0:
256,192,97262,12,0,98387,0:0:0:0:
376,100,98687,6,0,L|368:172,3,52.4999984264374
464,164,98987,2,0,L|443:212,3,52.4999984264374
280,132,99288,2,0,L|291:183,3,52.4999984264374
190,188,99587,6,0,P|144:249|68:262,1,157.499995279312,0|0,0:0|2:0,0:0:0:0:
47,204,99887,6,0,P|123:212|189:151,1,157.499995279312,0|0,0:0|2:0,0:0:0:0:
184,142,100187,6,0,P|112:171|41:144,1,157.499995279312,0|0,0:0|2:0,0:0:0:0:
51,84,100487,6,0,P|113:128|189:118,1,157.499995279312,0|0,0:0|2:0,0:0:0:0:
200,97,100787,5,0,0:0:0:0:
201,287,101087,1,0,0:0:0:0:
366,191,101387,1,0,0:0:0:0:
256,192,101687,6,0,L|252:160,6,26.2499992132187
332,248,101987,6,2,L|448:228,1,90.9999896354681,4|2,0:0|0:0,0:0:0:0:
432,212,102212,2,0,L|424:292,1,45.4999948177341,0|8,0:0|0:0,0:0:0:0:
352,140,102437,1,0,0:0:0:0:
184,180,102587,2,0,L|276:160,1,69.9999952316285,2|0,0:0|0:0,0:0:0:0:
108,108,102887,2,0,L|39:93,1,69.9999952316285,10|0,0:0|0:0,0:0:0:0:
60,320,103187,6,2,P|117:297|148:267,1,90.9999896354681,0|2,0:0|0:0,0:0:0:0:
144,256,103412,2,0,L|164:324,1,45.4999948177341,0|10,0:0|0:0,0:0:0:0:
256,340,103637,1,0,0:0:0:0:
352,232,103787,2,0,L|348:324,1,69.9999952316285,2|0,0:0|0:0,0:0:0:0:
244,228,104087,2,0,L|231:159,1,69.9999952316285,10|0,0:0|0:0,0:0:0:0:
436,128,104387,6,2,P|364:119|322:79,1,90.9999896354681,0|2,0:0|0:0,0:0:0:0:
336,92,104612,2,0,L|332:156,1,45.4999948177341,2|8,0:0|0:0,0:0:0:0:
388,228,104837,1,0,0:0:0:0:
231,159,104987,2,0,L|151:179,1,69.9999952316285,2|0,0:0|0:0,0:0:0:0:
36,88,105287,2,0,L|103:104,1,69.9999952316285,10|0,0:0|0:0,0:0:0:0:
72,192,105587,6,0,L|68:248,3,34.9999976158143,2|0|0|0,0:0|0:0|0:0|0:0,0:0:0:0:
156,268,105887,2,0,L|153:233,3,34.9999976158143,10|0|0|0,0:0|0:0|0:0|0:0,0:0:0:0:
240,192,106187,2,0,L|236:248,3,34.9999976158143,2|0|0|0,0:0|0:0|0:0|0:0,0:0:0:0:
324,268,106487,2,0,L|321:233,3,34.9999976158143,10|0|0|0,0:0|0:0|0:0|0:0,0:0:0:0:
408,236,106787,5,2,0:0:0:0:
472,148,106937,1,2,0:0:0:0:
472,148,107012,1,0,0:0:0:0:
472,148,107087,2,0,P|424:145|384:124,1,90.9999896354681,8|0,0:0|0:0,0:0:0:0:
292,44,107387,2,0,L|284:116,1,69.9999952316285,2|0,0:0|0:0,0:0:0:0:
96,108,107687,2,0,L|88:38,1,69.9999952316285,10|0,0:0|0:0,0:0:0:0:
188,148,107987,5,2,0:0:0:0:
264,224,108137,2,0,L|316:216,1,45.4999948177341,2|0,0:0|0:0,0:0:0:0:
356,180,108287,2,0,L|352:288,1,90.9999896354681,8|0,0:0|0:0,0:0:0:0:
184,308,108587,2,0,L|164:212,1,69.9999952316285,2|0,0:0|0:0,0:0:0:0:
40,164,108887,2,0,L|133:194,1,69.9999952316285,10|0,0:0|0:0,0:0:0:0:
253,98,109187,6,2,L|183:157,1,90.9999896354681,0|2,0:0|0:0,0:0:0:0:
183,157,109412,1,2,0:0:0:0:
183,157,109487,1,8,0:0:0:0:
120,88,109637,1,0,0:0:0:0:
284,276,109787,2,0,L|272:188,1,69.9999952316285,2|0,0:0|0:0,0:0:0:0:
484,232,110087,2,0,L|468:300,1,69.9999952316285,10|0,0:0|0:0,0:0:0:0:
376,176,110387,6,0,L|376:120,2,34.9999976158143,0|0|0,0:0|0:0|0:0,0:0:0:0:
274,206,110687,1,8,0:0:0:0:
176,176,110837,1,0,0:0:0:0:
176,176,110912,2,0,L|164:96,1,69.9999952316285,0|0,0:0|0:0,0:0:0:0:
292,44,111212,1,0,0:0:0:0:
292,44,111287,2,0,L|284:128,1,69.9999952316285,8|0,0:0|0:0,0:0:0:0:
376,176,111587,5,4,0:0:0:0:
88,312,111887,2,2,L|72:208,1,90.9999896354681,8|2,0:0|0:0,0:0:0:0:
96,140,112187,2,0,L|52:132,3,34.9999976158143,2|0|0|0,0:0|0:0|0:0|0:0,0:0:0:0:
192,212,112487,2,0,L|148:204,3,34.9999976158143,10|0|0|0,0:0|0:0|0:0|0:0,0:0:0:0:
368,196,112787,6,2,P|328:144|240:136,1,136.499984453202,0|2,0:0|0:0,0:0:0:0:
240,136,113087,2,0,L|254:77,2,45.4999948177341,8|0|0,0:0|0:0|0:0,0:0:0:0:
316,280,113387,2,0,L|266:230,1,69.9999952316285,2|0,0:0|0:0,0:0:0:0:
112,232,113687,2,0,L|179:213,1,69.9999952316285,10|0,0:0|0:0,0:0:0:0:
116,28,113987,6,2,L|16:92,1,90.9999896354681,0|2,0:0|0:0,0:0:0:0:
40,100,114212,2,0,L|0:72,1,45.4999948177341,0|8,0:0|0:0,0:0:0:0:
204,100,114437,1,0,0:0:0:0:
116,244,114587,2,0,L|108:164,1,69.9999952316285,2|0,0:0|0:0,0:0:0:0:
320,192,114887,2,0,L|304:284,1,69.9999952316285,10|0,0:0|0:0,0:0:0:0:
208,272,115187,6,0,L|212:204,3,34.9999976158143,2|0|0|0,0:0|0:0|0:0|0:0,0:0:0:0:
116,244,115487,2,0,L|112:176,3,34.9999976158143,10|0|0|0,0:0|0:0|0:0|0:0,0:0:0:0:
188,148,115787,2,0,L|192:80,3,34.9999976158143,2|0|0|0,0:0|0:0|0:0|0:0,0:0:0:0:
28,172,116087,2,0,L|1:115,3,34.9999976158143,10|0|0|0,0:0|0:0|0:0|0:0,0:0:0:0:
100,36,116387,6,2,P|93:93|110:139,1,90.9999896354681,0|2,0:0|0:0,0:0:0:0:
116,144,116612,2,0,L|176:128,1,45.4999948177341,0|10,0:0|0:0,0:0:0:0:
248,176,116837,1,0,0:0:0:0:
348,140,116987,2,0,L|356:56,1,69.9999952316285,2|0,0:0|0:0,0:0:0:0:
440,200,117287,2,0,L|446:269,1,69.9999952316285,10|0,0:0|0:0,0:0:0:0:
232,324,117587,6,2,P|269:268|334:257,1,136.499984453202,0|2,0:0|0:0,0:0:0:0:
348,276,117887,2,0,L|332:212,2,45.4999948177341,10|0|0,0:0|0:0|0:0,0:0:0:0:
492,336,118187,2,0,L|420:324,1,69.9999952316285,2|0,0:0|0:0,0:0:0:0:
416,160,118487,2,0,L|488:144,1,69.9999952316285,10|0,0:0|0:0,0:0:0:0:
280,88,118787,6,2,L|308:228,1,136.499984453202,0|2,0:0|0:0,0:0:0:0:
324,240,119087,2,0,L|248:236,2,45.4999948177341,10|0|0,0:0|0:0|0:0,0:0:0:0:
120,180,119387,2,0,L|200:152,1,69.9999952316285,2|0,0:0|0:0,0:0:0:0:
132,348,119687,2,0,L|204:356,1,69.9999952316285,10|0,0:0|0:0,0:0:0:0:
180,260,119987,5,0,0:0:0:0:
180,260,120062,1,0,0:0:0:0:
180,260,120137,1,0,0:0:0:0:
336,220,120287,2,0,L|266:212,1,69.9999952316285,8|0,0:0|0:0,0:0:0:0:
268,192,120512,1,0,0:0:0:0:
172,128,120662,2,0,L|178:162,2,34.9999976158143,0|0|0,0:0|0:0|0:0,0:0:0:0:
72,232,120887,2,0,L|80:144,1,69.9999952316285,8|0,0:0|0:0,0:0:0:0:
180,260,121187,5,4,0:2:0:0:
448,208,122387,6,0,B|341:237|357:143|251:173,1,209.999985694886,0|2,2:0|2:0,0:0:0:0:
236,348,123587,6,0,P|245:292|153:333,1,209.999985694886,0|2,2:0|2:0,0:0:0:0:
80,224,124787,6,0,L|72:152,1,69.9999952316285,0|2,2:0|2:0,0:0:0:0:
288,164,125387,2,0,L|280:240,1,69.9999952316285,0|2,2:0|2:0,0:0:0:0:
172,132,125987,6,0,L|168:104,6,17.4999988079071
268,180,126587,1,0,2:0:0:0:
460,208,127187,6,0,L|464:180,6,17.4999988079071
364,256,127787,1,0,2:0:0:0:
228,116,128387,6,0,L|216:80,7,26.2499992132187
307,129,128987,2,0,L|332:101,7,26.2499992132187
335,205,129587,6,0,L|372:213,3,26.2499992132187
284,268,129887,2,0,L|296:304,3,26.2499992132187
204,254,130187,2,0,L|179:282,3,26.2499992132187
176,178,130487,2,0,L|139:170,3,26.2499992132187
256,192,130787,5,0,0:0:0:0:
256,192,130862,12,0,134349,2:0:0:0:
