osu file format v14

[General]
AudioFilename: audio.mp3
AudioLeadIn: 0
PreviewTime: 25580
Countdown: 0
SampleSet: None
StackLeniency: 0.7
Mode: 3
LetterboxInBreaks: 0
SpecialStyle: 0
WidescreenStoryboard: 1

[Editor]
DistanceSpacing: 1
BeatDivisor: 4
GridSize: 8
TimelineZoom: 1

[Metadata]
Title:Calamity Fortune
TitleUnicode:Calamity Fortune
Artist:LeaF
ArtistUnicode:LeaF
Creator:Alsty-
Version:Hard
Source:
Tags:
BeatmapID:1062533
BeatmapSetID:496233

[Difficulty]
HPDrainRate:7.7
CircleSize:7
OverallDifficulty:8
ApproachRate:5
SliderMultiplier:1.4
SliderTickRate:1

[Events]
//Background and Video events
0,0,"tumblr_mt3ttdoss61rkpwt3o1_1280.png.jpg",0,0
//Break Periods
//Storyboard Layer 0 (Background)
//Storyboard Layer 1 (Fail)
//Storyboard Layer 2 (Pass)
//Storyboard Layer 3 (Foreground)
//Storyboard Sound Samples

[TimingPoints]
1280,300,4,1,0,20,1,0

[HitObjects]
36,192,1280,5,0,0:0:0:0:
329,192,1280,1,0,0:0:0:0:
109,192,1430,1,0,0:0:0:0:
256,192,1505,1,0,0:0:0:0:
475,192,1580,1,0,0:0:0:0:
402,192,1580,1,0,0:0:0:0:
329,192,1730,1,0,0:0:0:0:
256,192,1805,1,0,0:0:0:0:
182,192,1955,1,0,0:0:0:0:
109,192,1955,1,0,0:0:0:0:
329,192,2030,1,0,0:0:0:0:
402,192,2030,1,0,0:0:0:0:
109,192,2105,1,0,0:0:0:0:
182,192,2105,1,0,0:0:0:0:
256,192,2180,1,0,0:0:0:0:
36,192,2330,1,0,0:0:0:0:
329,192,2330,1,0,0:0:0:0:
109,192,2480,1,0,0:0:0:0:
256,192,2480,1,0,0:0:0:0:
402,192,2480,1,0,0:0:0:0:
182,192,2630,128,0,2780:0:0:0:0:
329,192,2780,1,0,0:0:0:0:
36,192,2780,1,0,0:0:0:0:
475,192,2780,1,0,0:0:0:0:
256,192,2930,128,0,3080:0:0:0:0:
182,192,3080,1,0,0:0:0:0:
109,192,3080,1,0,0:0:0:0:
329,192,3230,128,0,3380:0:0:0:0:
36,192,3380,1,0,0:0:0:0:
256,192,3380,1,0,0:0:0:0:
475,192,3380,1,0,0:0:0:0:
402,192,3530,128,0,3680:0:0:0:0:
109,192,3680,1,0,0:0:0:0:
329,192,3680,1,0,0:0:0:0:
182,192,3830,1,0,0:0:0:0:
256,192,3980,1,0,0:0:0:0:
475,192,3980,1,0,0:0:0:0:
36,192,4130,1,0,0:0:0:0:
182,192,4205,1,0,0:0:0:0:
329,192,4280,1,0,0:0:0:0:
475,192,4280,1,0,0:0:0:0:
256,192,4355,1,0,0:0:0:0:
109,192,4430,1,0,0:0:0:0:
36,192,4430,1,0,0:0:0:0:
182,192,4580,128,0,4880:0:0:0:0:
329,192,4580,128,0,4880:0:0:0:0:
256,192,4880,1,0,0:0:0:0:
36,192,4880,1,0,0:0:0:0:
475,192,4880,1,0,0:0:0:0:
402,192,5030,128,0,5180:0:0:0:0:
329,192,5180,1,0,0:0:0:0:
182,192,5180,1,0,0:0:0:0:
109,192,5180,1,0,0:0:0:0:
256,192,5330,128,0,5480:0:0:0:0:
402,192,5480,1,0,0:0:0:0:
475,192,5480,1,0,0:0:0:0:
109,192,5630,128,0,5780:0:0:0:0:
36,192,5780,1,0,0:0:0:0:
256,192,5780,1,0,0:0:0:0:
329,192,5780,1,0,0:0:0:0:
182,192,5930,128,0,6080:0:0:0:0:
402,192,6080,128,0,6230:0:0:0:0:
475,192,6080,128,0,6230:0:0:0:0:
109,192,6230,128,0,6380:0:0:0:0:
256,192,6230,128,0,6380:0:0:0:0:
182,192,6380,128,0,6530:0:0:0:0:
329,192,6380,128,0,6530:0:0:0:0:
402,192,6530,128,0,6680:0:0:0:0:
475,192,6530,128,0,6680:0:0:0:0:
109,192,6680,128,0,6830:0:0:0:0:
36,192,6680,128,0,6830:0:0:0:0:
182,192,6830,128,0,6980:0:0:0:0:
256,192,6980,128,0,7130:0:0:0:0:
329,192,7130,128,0,7280:0:0:0:0:
402,192,7130,1,0,0:0:0:0:
109,192,7205,1,0,0:0:0:0:
36,192,7205,1,0,0:0:0:0:
402,192,7280,1,0,0:0:0:0:
475,192,7280,1,0,0:0:0:0:
182,192,7280,1,0,0:0:0:0:
109,192,7430,128,0,7580:0:0:0:0:
256,192,7580,1,0,0:0:0:0:
329,192,7580,1,0,0:0:0:0:
475,192,7580,1,0,0:0:0:0:
402,192,7730,128,0,7880:0:0:0:0:
182,192,7880,1,0,0:0:0:0:
109,192,7880,1,0,0:0:0:0:
36,192,8030,128,0,8180:0:0:0:0:
256,192,8180,1,0,0:0:0:0:
402,192,8180,1,0,0:0:0:0:
475,192,8180,1,0,0:0:0:0:
329,192,8330,128,0,8480:0:0:0:0:
182,192,8480,1,0,0:0:0:0:
109,192,8480,1,0,0:0:0:0:
256,192,8630,128,0,8780:0:0:0:0:
402,192,8780,1,0,0:0:0:0:
475,192,8780,1,0,0:0:0:0:
36,192,8780,1,0,0:0:0:0:
109,192,8930,128,0,9080:0:0:0:0:
182,192,9080,1,0,0:0:0:0:
329,192,9080,1,0,0:0:0:0:
402,192,9230,128,0,9380:0:0:0:0:
256,192,9380,1,0,0:0:0:0:
36,192,9380,1,0,0:0:0:0:
109,192,9380,1,0,0:0:0:0:
475,192,9530,128,0,9680:0:0:0:0:
329,192,9680,1,0,0:0:0:0:
182,192,9680,1,0,0:0:0:0:
36,192,9905,1,0,0:0:0:0:
109,192,9905,1,0,0:0:0:0:
402,192,9980,1,0,0:0:0:0:
475,192,9980,1,0,0:0:0:0:
329,192,10130,1,0,0:0:0:0:
256,192,10130,1,0,0:0:0:0:
182,192,10280,1,0,0:0:0:0:
109,192,10280,1,0,0:0:0:0:
329,192,10580,1,0,0:0:0:0:
402,192,10580,1,0,0:0:0:0:
109,192,10730,1,0,0:0:0:0:
36,192,10730,1,0,0:0:0:0:
402,192,10880,1,0,0:0:0:0:
475,192,10880,1,0,0:0:0:0:
329,192,10880,1,0,0:0:0:0:
109,192,11030,1,0,0:0:0:0:
36,192,11030,1,0,0:0:0:0:
182,192,11030,1,0,0:0:0:0:
329,192,11180,1,0,0:0:0:0:
402,192,11180,1,0,0:0:0:0:
475,192,11180,1,0,0:0:0:0:
182,192,11480,1,0,0:0:0:0:
329,192,11480,1,0,0:0:0:0:
256,192,11480,128,0,11630:0:0:0:0:
109,192,11780,1,0,0:0:0:0:
182,192,11855,1,0,0:0:0:0:
256,192,11930,1,0,0:0:0:0:
329,192,12005,1,0,0:0:0:0:
402,192,12080,1,0,0:0:0:0:
475,192,12080,1,0,0:0:0:0:
36,192,12080,1,0,0:0:0:0:
182,192,12230,1,0,0:0:0:0:
329,192,12380,1,0,0:0:0:0:
109,192,12380,1,0,0:0:0:0:
475,192,12380,1,0,0:0:0:0:
256,192,12530,1,0,0:0:0:0:
182,192,12680,1,0,0:0:0:0:
109,192,12680,1,0,0:0:0:0:
402,192,12830,1,0,0:0:0:0:
329,192,12980,1,0,0:0:0:0:
256,192,12980,1,0,0:0:0:0:
36,192,12980,1,0,0:0:0:0:
475,192,13130,1,0,0:0:0:0:
109,192,13280,1,0,0:0:0:0:
182,192,13280,1,0,0:0:0:0:
329,192,13430,1,0,0:0:0:0:
475,192,13580,1,0,0:0:0:0:
256,192,13580,1,0,0:0:0:0:
36,192,13580,1,0,0:0:0:0:
402,192,13730,1,0,0:0:0:0:
182,192,13880,1,0,0:0:0:0:
109,192,13880,1,0,0:0:0:0:
329,192,14030,1,0,0:0:0:0:
475,192,14180,1,0,0:0:0:0:
402,192,14180,1,0,0:0:0:0:
256,192,14180,1,0,0:0:0:0:
36,192,14330,1,0,0:0:0:0:
109,192,14480,1,0,0:0:0:0:
182,192,14480,1,0,0:0:0:0:
329,192,14630,1,0,0:0:0:0:
475,192,14780,1,0,0:0:0:0:
256,192,14780,1,0,0:0:0:0:
36,192,14780,1,0,0:0:0:0:
109,192,14930,1,0,0:0:0:0:
329,192,15080,1,0,0:0:0:0:
402,192,15080,1,0,0:0:0:0:
256,192,15230,1,0,0:0:0:0:
182,192,15380,1,0,0:0:0:0:
36,192,15380,1,0,0:0:0:0:
475,192,15380,1,0,0:0:0:0:
402,192,15530,1,0,0:0:0:0:
329,192,15680,1,0,0:0:0:0:
182,192,15680,1,0,0:0:0:0:
256,192,15830,1,0,0:0:0:0:
182,192,15980,1,0,0:0:0:0:
402,192,15980,1,0,0:0:0:0:
109,192,15980,1,0,0:0:0:0:
329,192,16130,1,0,0:0:0:0:
256,192,16280,1,0,0:0:0:0:
182,192,16280,1,0,0:0:0:0:
109,192,16430,1,0,0:0:0:0:
329,192,16580,1,0,0:0:0:0:
475,192,16580,1,0,0:0:0:0:
36,192,16580,1,0,0:0:0:0:
256,192,16730,1,0,0:0:0:0:
182,192,16880,1,0,0:0:0:0:
109,192,16880,1,0,0:0:0:0:
402,192,17030,1,0,0:0:0:0:
329,192,17180,1,0,0:0:0:0:
256,192,17180,1,0,0:0:0:0:
36,192,17180,1,0,0:0:0:0:
182,192,17330,1,0,0:0:0:0:
402,192,17480,1,0,0:0:0:0:
475,192,17480,1,0,0:0:0:0:
256,192,17630,1,0,0:0:0:0:
36,192,17780,1,0,0:0:0:0:
182,192,17780,1,0,0:0:0:0:
329,192,17780,1,0,0:0:0:0:
402,192,17930,1,0,0:0:0:0:
329,192,18080,1,0,0:0:0:0:
256,192,18080,1,0,0:0:0:0:
182,192,18230,1,0,0:0:0:0:
36,192,18380,1,0,0:0:0:0:
475,192,18380,1,0,0:0:0:0:
329,192,18380,1,0,0:0:0:0:
256,192,18530,1,0,0:0:0:0:
182,192,18680,1,0,0:0:0:0:
109,192,18680,1,0,0:0:0:0:
329,192,18830,1,0,0:0:0:0:
256,192,18980,1,0,0:0:0:0:
36,192,18980,1,0,0:0:0:0:
402,192,18980,1,0,0:0:0:0:
182,192,19130,1,0,0:0:0:0:
402,192,19280,1,0,0:0:0:0:
475,192,19280,1,0,0:0:0:0:
256,192,19430,1,0,0:0:0:0:
182,192,19580,1,0,0:0:0:0:
36,192,19580,1,0,0:0:0:0:
329,192,19580,1,0,0:0:0:0:
256,192,19730,1,0,0:0:0:0:
329,192,19880,1,0,0:0:0:0:
475,192,19880,1,0,0:0:0:0:
182,192,20030,1,0,0:0:0:0:
36,192,20180,1,0,0:0:0:0:
256,192,20180,1,0,0:0:0:0:
402,192,20180,1,0,0:0:0:0:
109,192,20330,1,0,0:0:0:0:
402,192,20480,1,0,0:0:0:0:
475,192,20480,1,0,0:0:0:0:
182,192,20630,1,0,0:0:0:0:
256,192,20780,1,0,0:0:0:0:
329,192,20780,1,0,0:0:0:0:
36,192,20780,1,0,0:0:0:0:
475,192,20930,1,0,0:0:0:0:
402,192,21080,1,0,0:0:0:0:
182,192,21080,1,0,0:0:0:0:
256,192,21230,1,0,0:0:0:0:
329,192,21380,1,0,0:0:0:0:
475,192,21380,1,0,0:0:0:0:
109,192,21380,1,0,0:0:0:0:
256,192,21530,1,0,0:0:0:0:
182,192,21680,1,0,0:0:0:0:
36,192,21680,1,0,0:0:0:0:
402,192,21680,1,0,0:0:0:0:
329,192,21830,1,0,0:0:0:0:
256,192,21980,1,0,0:0:0:0:
109,192,21980,1,0,0:0:0:0:
329,192,22280,1,0,0:0:0:0:
402,192,22280,1,0,0:0:0:0:
109,192,22430,1,0,0:0:0:0:
182,192,22430,1,0,0:0:0:0:
402,192,22505,1,0,0:0:0:0:
475,192,22505,1,0,0:0:0:0:
109,192,22580,1,0,0:0:0:0:
36,192,22580,1,0,0:0:0:0:
256,192,22730,1,0,0:0:0:0:
329,192,22730,1,0,0:0:0:0:
182,192,23030,1,0,0:0:0:0:
109,192,23030,1,0,0:0:0:0:
329,192,23180,1,0,0:0:0:0:
475,192,23180,1,0,0:0:0:0:
256,192,23480,1,0,0:0:0:0:
182,192,23480,1,0,0:0:0:0:
329,192,23555,1,0,0:0:0:0:
109,192,23630,1,0,0:0:0:0:
402,192,23630,1,0,0:0:0:0:
36,192,23780,128,0,24080:0:0:0:0:
182,192,24080,1,0,0:0:0:0:
256,192,24080,1,0,0:0:0:0:
402,192,24230,1,0,0:0:0:0:
475,192,24230,1,0,0:0:0:0:
329,192,24380,1,0,0:0:0:0:
109,192,24380,1,0,0:0:0:0:
36,192,24680,1,0,0:0:0:0:
109,192,24680,1,0,0:0:0:0:
402,192,24830,1,0,0:0:0:0:
475,192,24830,1,0,0:0:0:0:
256,192,24905,1,0,0:0:0:0:
182,192,24905,1,0,0:0:0:0:
402,192,24980,1,0,0:0:0:0:
475,192,24980,1,0,0:0:0:0:
109,192,25130,1,0,0:0:0:0:
36,192,25130,1,0,0:0:0:0:
182,192,25430,1,0,0:0:0:0:
256,192,25430,1,0,0:0:0:0:
329,192,25580,1,0,0:0:0:0:
475,192,25580,1,0,0:0:0:0:
182,192,25880,1,0,0:0:0:0:
109,192,25880,1,0,0:0:0:0:
256,192,25955,1,0,0:0:0:0:
329,192,26030,1,0,0:0:0:0:
402,192,26105,1,0,0:0:0:0:
475,192,26180,128,0,26480:0:0:0:0:
36,192,26480,1,0,0:0:0:0:
109,192,26555,1,0,0:0:0:0:
182,192,26630,1,0,0:0:0:0:
256,192,26705,1,0,0:0:0:0:
475,192,26780,1,0,0:0:0:0:
402,192,26855,1,0,0:0:0:0:
329,192,26930,1,0,0:0:0:0:
256,192,27005,1,0,0:0:0:0:
36,192,27080,1,0,0:0:0:0:
109,192,27155,1,0,0:0:0:0:
182,192,27230,1,0,0:0:0:0:
256,192,27305,1,0,0:0:0:0:
475,192,27380,1,0,0:0:0:0:
402,192,27455,1,0,0:0:0:0:
329,192,27530,1,0,0:0:0:0:
256,192,27605,1,0,0:0:0:0:
36,192,27680,1,0,0:0:0:0:
109,192,27680,1,0,0:0:0:0:
182,192,27680,1,0,0:0:0:0:
329,192,27830,1,0,0:0:0:0:
256,192,27980,1,0,0:0:0:0:
475,192,27980,1,0,0:0:0:0:
109,192,27980,1,0,0:0:0:0:
402,192,28130,1,0,0:0:0:0:
109,192,28280,1,0,0:0:0:0:
36,192,28280,1,0,0:0:0:0:
182,192,28430,1,0,0:0:0:0:
256,192,28580,1,0,0:0:0:0:
475,192,28580,1,0,0:0:0:0:
329,192,28580,1,0,0:0:0:0:
182,192,28730,1,0,0:0:0:0:
109,192,28880,1,0,0:0:0:0:
36,192,28880,1,0,0:0:0:0:
475,192,29030,1,0,0:0:0:0:
329,192,29180,1,0,0:0:0:0:
256,192,29180,1,0,0:0:0:0:
109,192,29180,1,0,0:0:0:0:
402,192,29330,1,0,0:0:0:0:
182,192,29480,1,0,0:0:0:0:
36,192,29480,1,0,0:0:0:0:
256,192,29630,1,0,0:0:0:0:
329,192,29780,1,0,0:0:0:0:
475,192,29780,1,0,0:0:0:0:
109,192,29780,1,0,0:0:0:0:
402,192,29930,1,0,0:0:0:0:
256,192,30080,1,0,0:0:0:0:
182,192,30080,1,0,0:0:0:0:
329,192,30230,1,0,0:0:0:0:
109,192,30380,1,0,0:0:0:0:
36,192,30380,1,0,0:0:0:0:
402,192,30380,1,0,0:0:0:0:
256,192,30530,1,0,0:0:0:0:
329,192,30680,1,0,0:0:0:0:
475,192,30680,1,0,0:0:0:0:
182,192,30830,1,0,0:0:0:0:
36,192,30980,1,0,0:0:0:0:
256,192,30980,1,0,0:0:0:0:
402,192,30980,1,0,0:0:0:0:
109,192,31130,1,0,0:0:0:0:
182,192,31280,1,0,0:0:0:0:
329,192,31280,1,0,0:0:0:0:
256,192,31430,1,0,0:0:0:0:
402,192,31580,1,0,0:0:0:0:
475,192,31580,1,0,0:0:0:0:
109,192,31580,1,0,0:0:0:0:
182,192,31730,1,0,0:0:0:0:
109,192,31880,1,0,0:0:0:0:
36,192,31880,1,0,0:0:0:0:
329,192,32030,1,0,0:0:0:0:
256,192,32180,1,0,0:0:0:0:
402,192,32180,1,0,0:0:0:0:
182,192,32180,1,0,0:0:0:0:
109,192,32330,1,0,0:0:0:0:
329,192,32480,1,0,0:0:0:0:
475,192,32480,1,0,0:0:0:0:
182,192,32630,1,0,0:0:0:0:
36,192,32780,1,0,0:0:0:0:
256,192,32780,1,0,0:0:0:0:
402,192,32780,1,0,0:0:0:0:
109,192,32930,1,0,0:0:0:0:
329,192,33080,1,0,0:0:0:0:
402,192,33080,1,0,0:0:0:0:
182,192,33230,1,0,0:0:0:0:
256,192,33380,1,0,0:0:0:0:
109,192,33380,1,0,0:0:0:0:
475,192,33380,1,0,0:0:0:0:
402,192,33530,1,0,0:0:0:0:
329,192,33680,1,0,0:0:0:0:
182,192,33680,1,0,0:0:0:0:
36,192,33830,1,0,0:0:0:0:
109,192,33980,1,0,0:0:0:0:
256,192,33980,1,0,0:0:0:0:
402,192,33980,1,0,0:0:0:0:
329,192,34130,1,0,0:0:0:0:
402,192,34280,1,0,0:0:0:0:
475,192,34280,1,0,0:0:0:0:
182,192,34430,1,0,0:0:0:0:
36,192,34580,1,0,0:0:0:0:
109,192,34580,1,0,0:0:0:0:
329,192,34580,1,0,0:0:0:0:
329,192,34880,1,0,0:0:0:0:
182,192,34880,1,0,0:0:0:0:
36,192,35105,1,0,0:0:0:0:
109,192,35105,1,0,0:0:0:0:
402,192,35180,1,0,0:0:0:0:
475,192,35180,1,0,0:0:0:0:
182,192,35330,1,0,0:0:0:0:
256,192,35330,1,0,0:0:0:0:
329,192,35330,1,0,0:0:0:0:
109,192,35480,1,0,0:0:0:0:
36,192,35480,1,0,0:0:0:0:
329,192,35780,1,0,0:0:0:0:
402,192,35780,1,0,0:0:0:0:
182,192,35930,1,0,0:0:0:0:
36,192,35930,1,0,0:0:0:0:
475,192,36080,128,0,36230:0:0:0:0:
329,192,36080,1,0,0:0:0:0:
402,192,36230,128,0,36380:0:0:0:0:
256,192,36230,1,0,0:0:0:0:
329,192,36380,128,0,36530:0:0:0:0:
182,192,36380,1,0,0:0:0:0:
256,192,36530,128,0,36680:0:0:0:0:
36,192,36680,1,0,0:0:0:0:
182,192,36680,128,0,37280:0:0:0:0:
329,192,36980,1,0,0:0:0:0:
475,192,36980,1,0,0:0:0:0:
402,192,37280,1,0,0:0:0:0:
256,192,37280,1,0,0:0:0:0:
36,192,37280,1,0,0:0:0:0:
182,192,37430,128,0,37580:0:0:0:0:
475,192,37580,1,0,0:0:0:0:
329,192,37580,1,0,0:0:0:0:
36,192,37580,1,0,0:0:0:0:
256,192,37730,128,0,37880:0:0:0:0:
109,192,37880,1,0,0:0:0:0:
182,192,37880,1,0,0:0:0:0:
329,192,38030,128,0,38180:0:0:0:0:
256,192,38180,1,0,0:0:0:0:
475,192,38180,1,0,0:0:0:0:
36,192,38180,1,0,0:0:0:0:
402,192,38330,128,0,38480:0:0:0:0:
109,192,38480,1,0,0:0:0:0:
182,192,38480,1,0,0:0:0:0:
475,192,38630,1,0,0:0:0:0:
402,192,38705,1,0,0:0:0:0:
329,192,38780,1,0,0:0:0:0:
256,192,38780,1,0,0:0:0:0:
109,192,38930,1,0,0:0:0:0:
36,192,38930,1,0,0:0:0:0:
182,192,39080,1,0,0:0:0:0:
402,192,39080,1,0,0:0:0:0:
256,192,39230,1,0,0:0:0:0:
329,192,39230,1,0,0:0:0:0:
475,192,39380,128,0,39680:0:0:0:0:
36,192,39680,1,0,0:0:0:0:
182,192,39680,1,0,0:0:0:0:
329,192,39680,1,0,0:0:0:0:
402,192,39830,128,0,39980:0:0:0:0:
182,192,39980,1,0,0:0:0:0:
329,192,39980,1,0,0:0:0:0:
109,192,39980,1,0,0:0:0:0:
256,192,40130,128,0,40280:0:0:0:0:
402,192,40280,1,0,0:0:0:0:
475,192,40280,1,0,0:0:0:0:
109,192,40430,128,0,40580:0:0:0:0:
36,192,40580,1,0,0:0:0:0:
329,192,40580,1,0,0:0:0:0:
256,192,40580,1,0,0:0:0:0:
182,192,40730,128,0,40880:0:0:0:0:
475,192,40880,128,0,40955:0:0:0:0:
36,192,40955,128,0,41030:0:0:0:0:
329,192,41105,128,0,41180:0:0:0:0:
182,192,41180,128,0,41330:0:0:0:0:
256,192,41330,128,0,41480:0:0:0:0:
109,192,41480,128,0,42080:0:0:0:0:
475,192,41630,1,0,0:0:0:0:
402,192,41705,1,0,0:0:0:0:
182,192,41780,1,0,0:0:0:0:
256,192,41855,1,0,0:0:0:0:
329,192,41930,1,0,0:0:0:0:
402,192,42005,1,0,0:0:0:0:
475,192,42080,1,0,0:0:0:0:
36,192,42080,1,0,0:0:0:0:
256,192,42230,128,0,42380:0:0:0:0:
36,192,42380,1,0,0:0:0:0:
402,192,42380,1,0,0:0:0:0:
475,192,42380,1,0,0:0:0:0:
109,192,42530,128,0,42680:0:0:0:0:
329,192,42680,1,0,0:0:0:0:
182,192,42680,1,0,0:0:0:0:
402,192,42830,128,0,42980:0:0:0:0:
109,192,42980,1,0,0:0:0:0:
256,192,42980,1,0,0:0:0:0:
36,192,42980,1,0,0:0:0:0:
475,192,43130,128,0,43280:0:0:0:0:
329,192,43130,1,0,0:0:0:0:
182,192,43280,128,0,43430:0:0:0:0:
109,192,43280,128,0,43430:0:0:0:0:
36,192,43430,1,0,0:0:0:0:
475,192,43580,128,0,43730:0:0:0:0:
402,192,43580,128,0,43730:0:0:0:0:
329,192,43730,1,0,0:0:0:0:
256,192,43880,128,0,44030:0:0:0:0:
182,192,43880,128,0,44030:0:0:0:0:
109,192,44030,1,0,0:0:0:0:
329,192,44180,128,0,44330:0:0:0:0:
475,192,44180,128,0,44330:0:0:0:0:
36,192,44480,1,0,0:0:0:0:
402,192,44480,1,0,0:0:0:0:
109,192,44555,1,0,0:0:0:0:
182,192,44630,1,0,0:0:0:0:
256,192,44705,1,0,0:0:0:0:
329,192,44780,1,0,0:0:0:0:
402,192,44855,1,0,0:0:0:0:
475,192,44930,1,0,0:0:0:0:
36,192,45005,1,0,0:0:0:0:
109,192,45080,1,0,0:0:0:0:
402,192,45080,1,0,0:0:0:0:
182,192,45155,1,0,0:0:0:0:
256,192,45230,1,0,0:0:0:0:
329,192,45305,1,0,0:0:0:0:
402,192,45380,1,0,0:0:0:0:
475,192,45455,1,0,0:0:0:0:
36,192,45530,1,0,0:0:0:0:
109,192,45605,1,0,0:0:0:0:
182,192,45680,1,0,0:0:0:0:
402,192,45680,1,0,0:0:0:0:
256,192,45830,128,0,45905:0:0:0:0:
182,192,45905,128,0,45980:0:0:0:0:
109,192,45980,128,0,46055:0:0:0:0:
329,192,46130,128,0,46205:0:0:0:0:
402,192,46205,128,0,46280:0:0:0:0:
36,192,46355,128,0,46430:0:0:0:0:
109,192,46430,1,0,0:0:0:0:
475,192,46505,128,0,46580:0:0:0:0:
256,192,46580,128,0,46730:0:0:0:0:
182,192,46730,128,0,46880:0:0:0:0:
329,192,46730,128,0,46880:0:0:0:0:
109,192,46880,128,0,48080:0:0:0:0:
402,192,46880,128,0,48080:0:0:0:0:
256,192,48080,128,0,49280:0:0:0:0:
475,192,48080,128,0,49280:0:0:0:0:
402,192,49280,128,0,49880:0:0:0:0:
182,192,49280,128,0,49880:0:0:0:0:
256,192,49880,128,0,50480:0:0:0:0:
36,192,49880,128,0,50480:0:0:0:0:
109,192,50480,128,0,51680:0:0:0:0:
402,192,50480,128,0,51680:0:0:0:0:
182,192,51680,128,0,52280:0:0:0:0:
256,192,51680,128,0,52280:0:0:0:0:
329,192,51680,128,0,52280:0:0:0:0:
36,192,52280,128,0,52505:0:0:0:0:
109,192,52505,128,0,52730:0:0:0:0:
182,192,52730,128,0,52880:0:0:0:0:
256,192,52880,128,0,53480:0:0:0:0:
475,192,53480,128,0,53705:0:0:0:0:
402,192,53705,128,0,53930:0:0:0:0:
329,192,53930,128,0,54080:0:0:0:0:
256,192,54080,128,0,54380:0:0:0:0:
109,192,54380,128,0,54680:0:0:0:0:
402,192,54680,128,0,54980:0:0:0:0:
182,192,54980,128,0,55280:0:0:0:0:
329,192,55280,128,0,55580:0:0:0:0:
256,192,55280,1,0,0:0:0:0:
36,192,55580,128,0,55730:0:0:0:0:
109,192,55580,1,0,0:0:0:0:
256,192,55730,128,0,55880:0:0:0:0:
182,192,55730,1,0,0:0:0:0:
475,192,55880,128,0,56180:0:0:0:0:
402,192,55880,1,0,0:0:0:0:
329,192,56180,128,0,56480:0:0:0:0:
182,192,56180,128,0,56480:0:0:0:0:
256,192,56180,1,0,0:0:0:0:
402,192,57380,128,0,57680:0:0:0:0:
256,192,57680,1,0,0:0:0:0:
182,192,57755,1,0,0:0:0:0:
109,192,57830,1,0,0:0:0:0:
36,192,57905,1,0,0:0:0:0:
182,192,57980,1,0,0:0:0:0:
256,192,58055,1,0,0:0:0:0:
329,192,58130,1,0,0:0:0:0:
402,192,58205,1,0,0:0:0:0:
475,192,58280,1,0,0:0:0:0:
36,192,58355,1,0,0:0:0:0:
109,192,58430,1,0,0:0:0:0:
182,192,58505,1,0,0:0:0:0:
256,192,58580,1,0,0:0:0:0:
329,192,58655,1,0,0:0:0:0:
402,192,58730,1,0,0:0:0:0:
475,192,58805,1,0,0:0:0:0:
36,192,58880,1,0,0:0:0:0:
109,192,58955,1,0,0:0:0:0:
182,192,59030,1,0,0:0:0:0:
256,192,59105,1,0,0:0:0:0:
109,192,59180,1,0,0:0:0:0:
182,192,59255,1,0,0:0:0:0:
256,192,59330,1,0,0:0:0:0:
329,192,59405,1,0,0:0:0:0:
402,192,59480,1,0,0:0:0:0:
475,192,59555,1,0,0:0:0:0:
36,192,59630,1,0,0:0:0:0:
109,192,59705,1,0,0:0:0:0:
182,192,59780,1,0,0:0:0:0:
256,192,59855,1,0,0:0:0:0:
329,192,59930,1,0,0:0:0:0:
402,192,60005,1,0,0:0:0:0:
36,192,60080,1,0,0:0:0:0:
182,192,60155,1,0,0:0:0:0:
329,192,60230,1,0,0:0:0:0:
475,192,60305,1,0,0:0:0:0:
256,192,60380,1,0,0:0:0:0:
329,192,60455,1,0,0:0:0:0:
402,192,60530,1,0,0:0:0:0:
475,192,60605,1,0,0:0:0:0:
36,192,60680,1,0,0:0:0:0:
109,192,60755,1,0,0:0:0:0:
182,192,60830,1,0,0:0:0:0:
256,192,60905,1,0,0:0:0:0:
329,192,60980,1,0,0:0:0:0:
402,192,61055,1,0,0:0:0:0:
475,192,61130,1,0,0:0:0:0:
182,192,61205,1,0,0:0:0:0:
402,192,61280,1,0,0:0:0:0:
329,192,61355,1,0,0:0:0:0:
256,192,61430,1,0,0:0:0:0:
182,192,61505,1,0,0:0:0:0:
109,192,61580,1,0,0:0:0:0:
36,192,61655,1,0,0:0:0:0:
475,192,61730,1,0,0:0:0:0:
402,192,61805,1,0,0:0:0:0:
329,192,61880,1,0,0:0:0:0:
256,192,61955,1,0,0:0:0:0:
182,192,62030,1,0,0:0:0:0:
109,192,62105,1,0,0:0:0:0:
36,192,62180,1,0,0:0:0:0:
475,192,62180,1,0,0:0:0:0:
402,192,62255,1,0,0:0:0:0:
329,192,62330,1,0,0:0:0:0:
256,192,62405,1,0,0:0:0:0:
182,192,62480,1,0,0:0:0:0:
109,192,62555,1,0,0:0:0:0:
36,192,62630,1,0,0:0:0:0:
182,192,62705,1,0,0:0:0:0:
256,192,62780,1,0,0:0:0:0:
329,192,62855,1,0,0:0:0:0:
402,192,62930,1,0,0:0:0:0:
475,192,63005,1,0,0:0:0:0:
36,192,63080,1,0,0:0:0:0:
109,192,63155,1,0,0:0:0:0:
182,192,63230,1,0,0:0:0:0:
256,192,63305,1,0,0:0:0:0:
329,192,63380,1,0,0:0:0:0:
402,192,63455,1,0,0:0:0:0:
475,192,63530,1,0,0:0:0:0:
36,192,63605,1,0,0:0:0:0:
109,192,63680,1,0,0:0:0:0:
182,192,63755,1,0,0:0:0:0:
256,192,63830,1,0,0:0:0:0:
109,192,63905,1,0,0:0:0:0:
182,192,63980,1,0,0:0:0:0:
256,192,64055,1,0,0:0:0:0:
329,192,64130,1,0,0:0:0:0:
402,192,64205,1,0,0:0:0:0:
475,192,64280,1,0,0:0:0:0:
36,192,64355,1,0,0:0:0:0:
109,192,64430,1,0,0:0:0:0:
182,192,64505,1,0,0:0:0:0:
256,192,64580,1,0,0:0:0:0:
329,192,64655,1,0,0:0:0:0:
402,192,64730,1,0,0:0:0:0:
36,192,64805,1,0,0:0:0:0:
182,192,64880,1,0,0:0:0:0:
329,192,64955,1,0,0:0:0:0:
475,192,65030,1,0,0:0:0:0:
256,192,65105,1,0,0:0:0:0:
329,192,65180,1,0,0:0:0:0:
402,192,65255,1,0,0:0:0:0:
475,192,65330,1,0,0:0:0:0:
36,192,65405,1,0,0:0:0:0:
109,192,65480,1,0,0:0:0:0:
182,192,65555,1,0,0:0:0:0:
256,192,65630,1,0,0:0:0:0:
329,192,65705,1,0,0:0:0:0:
402,192,65780,1,0,0:0:0:0:
475,192,65855,1,0,0:0:0:0:
182,192,65930,1,0,0:0:0:0:
402,192,66005,1,0,0:0:0:0:
329,192,66080,1,0,0:0:0:0:
256,192,66155,1,0,0:0:0:0:
182,192,66230,1,0,0:0:0:0:
109,192,66305,1,0,0:0:0:0:
36,192,66380,1,0,0:0:0:0:
475,192,66455,1,0,0:0:0:0:
402,192,66530,1,0,0:0:0:0:
329,192,66605,1,0,0:0:0:0:
256,192,66680,1,0,0:0:0:0:
182,192,66755,1,0,0:0:0:0:
109,192,66830,1,0,0:0:0:0:
36,192,66905,1,0,0:0:0:0:
329,192,66905,1,0,0:0:0:0:
256,192,66980,1,0,0:0:0:0:
182,192,67055,1,0,0:0:0:0:
109,192,67130,1,0,0:0:0:0:
36,192,67205,1,0,0:0:0:0:
329,192,67280,128,0,67430:0:0:0:0:
402,192,67430,128,0,67580:0:0:0:0:
475,192,67580,128,0,67730:0:0:0:0:
182,192,67730,128,0,67880:0:0:0:0:
109,192,67880,128,0,68030:0:0:0:0:
36,192,68030,128,0,68180:0:0:0:0:
256,192,68180,128,0,68330:0:0:0:0:
329,192,68330,128,0,68480:0:0:0:0:
182,192,68480,128,0,68630:0:0:0:0:
109,192,68630,128,0,68780:0:0:0:0:
36,192,68780,128,0,68930:0:0:0:0:
329,192,68930,128,0,69080:0:0:0:0:
402,192,69080,128,0,69230:0:0:0:0:
475,192,69230,128,0,69380:0:0:0:0:
256,192,69380,128,0,69530:0:0:0:0:
182,192,69530,128,0,69680:0:0:0:0:
36,192,69680,128,0,69830:0:0:0:0:
109,192,69830,128,0,69980:0:0:0:0:
256,192,69980,128,0,70130:0:0:0:0:
475,192,70130,128,0,70280:0:0:0:0:
402,192,70280,128,0,70430:0:0:0:0:
256,192,70430,128,0,70580:0:0:0:0:
182,192,70580,128,0,70730:0:0:0:0:
329,192,70730,128,0,70880:0:0:0:0:
182,192,70880,128,0,71030:0:0:0:0:
402,192,71030,128,0,71180:0:0:0:0:
109,192,71180,128,0,71330:0:0:0:0:
256,192,71330,128,0,71630:0:0:0:0:
182,192,71630,128,0,71780:0:0:0:0:
109,192,71780,128,0,71930:0:0:0:0:
36,192,71930,128,0,72080:0:0:0:0:
475,192,72080,128,0,72230:0:0:0:0:
402,192,72230,128,0,72380:0:0:0:0:
329,192,72380,128,0,72530:0:0:0:0:
36,192,72530,128,0,72680:0:0:0:0:
109,192,72680,128,0,72830:0:0:0:0:
182,192,72830,128,0,72980:0:0:0:0:
329,192,72980,128,0,73130:0:0:0:0:
256,192,73130,128,0,73280:0:0:0:0:
36,192,73280,128,0,73430:0:0:0:0:
109,192,73430,128,0,73580:0:0:0:0:
182,192,73580,128,0,73730:0:0:0:0:
475,192,73730,128,0,73880:0:0:0:0:
402,192,73880,128,0,74030:0:0:0:0:
329,192,74030,128,0,74180:0:0:0:0:
182,192,74180,128,0,74330:0:0:0:0:
256,192,74330,128,0,74480:0:0:0:0:
109,192,74480,128,0,74630:0:0:0:0:
36,192,74630,128,0,74780:0:0:0:0:
256,192,74780,128,0,74930:0:0:0:0:
402,192,74930,128,0,75080:0:0:0:0:
475,192,75080,128,0,75230:0:0:0:0:
256,192,75230,128,0,75380:0:0:0:0:
182,192,75380,1,0,0:0:0:0:
109,192,75380,1,0,0:0:0:0:
329,192,75530,1,0,0:0:0:0:
402,192,75530,1,0,0:0:0:0:
182,192,75830,1,0,0:0:0:0:
256,192,75830,1,0,0:0:0:0:
329,192,75830,1,0,0:0:0:0:
402,192,76130,1,0,0:0:0:0:
475,192,76130,1,0,0:0:0:0:
36,192,76280,1,0,0:0:0:0:
109,192,76280,1,0,0:0:0:0:
256,192,76430,1,0,0:0:0:0:
329,192,76430,1,0,0:0:0:0:
36,192,76580,128,0,76880:0:0:0:0:
182,192,76580,1,0,0:0:0:0:
109,192,76880,1,0,0:0:0:0:
402,192,76880,1,0,0:0:0:0:
256,192,76880,1,0,0:0:0:0:
182,192,77030,128,0,77180:0:0:0:0:
36,192,77180,1,0,0:0:0:0:
475,192,77180,1,0,0:0:0:0:
329,192,77180,1,0,0:0:0:0:
256,192,77330,128,0,77480:0:0:0:0:
109,192,77480,1,0,0:0:0:0:
182,192,77480,1,0,0:0:0:0:
329,192,77630,128,0,77780:0:0:0:0:
256,192,77780,1,0,0:0:0:0:
36,192,77780,1,0,0:0:0:0:
475,192,77780,1,0,0:0:0:0:
402,192,77930,128,0,78080:0:0:0:0:
109,192,78080,1,0,0:0:0:0:
329,192,78080,1,0,0:0:0:0:
256,192,78380,1,0,0:0:0:0:
475,192,78380,1,0,0:0:0:0:
402,192,78380,1,0,0:0:0:0:
182,192,78530,1,0,0:0:0:0:
109,192,78680,1,0,0:0:0:0:
36,192,78680,1,0,0:0:0:0:
475,192,78980,128,0,79280:0:0:0:0:
256,192,79280,1,0,0:0:0:0:
109,192,79280,1,0,0:0:0:0:
402,192,79280,1,0,0:0:0:0:
329,192,79430,128,0,79580:0:0:0:0:
182,192,79580,1,0,0:0:0:0:
36,192,79580,1,0,0:0:0:0:
475,192,79580,1,0,0:0:0:0:
256,192,79730,128,0,79880:0:0:0:0:
329,192,79880,1,0,0:0:0:0:
402,192,79880,1,0,0:0:0:0:
182,192,80030,128,0,80180:0:0:0:0:
36,192,80180,1,0,0:0:0:0:
475,192,80180,1,0,0:0:0:0:
256,192,80180,1,0,0:0:0:0:
109,192,80330,128,0,80480:0:0:0:0:
182,192,80480,1,0,0:0:0:0:
402,192,80480,1,0,0:0:0:0:
256,192,80630,1,0,0:0:0:0:
182,192,80780,1,0,0:0:0:0:
329,192,80780,1,0,0:0:0:0:
36,192,80780,1,0,0:0:0:0:
256,192,80930,1,0,0:0:0:0:
402,192,81080,1,0,0:0:0:0:
475,192,81080,1,0,0:0:0:0:
109,192,81230,1,0,0:0:0:0:
329,192,81230,1,0,0:0:0:0:
109,192,81380,1,0,0:0:0:0:
329,192,81380,1,0,0:0:0:0:
36,192,81530,128,0,81680:0:0:0:0:
182,192,81680,1,0,0:0:0:0:
256,192,81680,1,0,0:0:0:0:
402,192,81680,1,0,0:0:0:0:
329,192,81830,1,0,0:0:0:0:
182,192,81980,1,0,0:0:0:0:
36,192,81980,1,0,0:0:0:0:
475,192,81980,1,0,0:0:0:0:
256,192,82130,1,0,0:0:0:0:
329,192,82280,1,0,0:0:0:0:
402,192,82280,1,0,0:0:0:0:
182,192,82430,1,0,0:0:0:0:
36,192,82580,1,0,0:0:0:0:
256,192,82580,1,0,0:0:0:0:
475,192,82580,1,0,0:0:0:0:
36,192,82880,1,0,0:0:0:0:
182,192,82880,1,0,0:0:0:0:
402,192,82880,1,0,0:0:0:0:
329,192,83030,1,0,0:0:0:0:
256,192,83180,1,0,0:0:0:0:
475,192,83180,1,0,0:0:0:0:
109,192,83180,1,0,0:0:0:0:
402,192,83330,1,0,0:0:0:0:
109,192,83480,1,0,0:0:0:0:
36,192,83480,1,0,0:0:0:0:
182,192,83630,1,0,0:0:0:0:
256,192,83780,1,0,0:0:0:0:
475,192,83780,1,0,0:0:0:0:
329,192,83780,1,0,0:0:0:0:
182,192,83930,1,0,0:0:0:0:
109,192,84080,1,0,0:0:0:0:
36,192,84080,1,0,0:0:0:0:
475,192,84230,1,0,0:0:0:0:
329,192,84380,1,0,0:0:0:0:
256,192,84380,1,0,0:0:0:0:
109,192,84380,1,0,0:0:0:0:
402,192,84530,1,0,0:0:0:0:
182,192,84680,1,0,0:0:0:0:
36,192,84680,1,0,0:0:0:0:
256,192,84830,1,0,0:0:0:0:
329,192,84980,1,0,0:0:0:0:
475,192,84980,1,0,0:0:0:0:
109,192,84980,1,0,0:0:0:0:
402,192,85130,1,0,0:0:0:0:
256,192,85280,1,0,0:0:0:0:
182,192,85280,1,0,0:0:0:0:
329,192,85430,1,0,0:0:0:0:
109,192,85580,1,0,0:0:0:0:
36,192,85580,1,0,0:0:0:0:
402,192,85580,1,0,0:0:0:0:
256,192,85730,1,0,0:0:0:0:
329,192,85880,1,0,0:0:0:0:
475,192,85880,1,0,0:0:0:0:
182,192,86030,1,0,0:0:0:0:
36,192,86180,1,0,0:0:0:0:
256,192,86180,1,0,0:0:0:0:
402,192,86180,1,0,0:0:0:0:
109,192,86330,1,0,0:0:0:0:
182,192,86480,1,0,0:0:0:0:
329,192,86480,1,0,0:0:0:0:
109,192,86630,128,0,86780:0:0:0:0:
402,192,86780,128,0,87080:0:0:0:0:
329,192,86930,128,0,87080:0:0:0:0:
256,192,87080,1,0,0:0:0:0:
182,192,87155,1,0,0:0:0:0:
109,192,87230,1,0,0:0:0:0:
329,192,87305,1,0,0:0:0:0:
475,192,87380,1,0,0:0:0:0:
36,192,87380,1,0,0:0:0:0:
256,192,87530,128,0,87680:0:0:0:0:
182,192,87680,1,0,0:0:0:0:
36,192,87980,1,0,0:0:0:0:
256,192,87980,1,0,0:0:0:0:
475,192,87980,1,0,0:0:0:0:
182,192,88280,1,0,0:0:0:0:
256,192,88280,1,0,0:0:0:0:
329,192,88280,1,0,0:0:0:0:
182,192,88880,1,0,0:0:0:0:
329,192,88880,1,0,0:0:0:0:
475,192,88880,1,0,0:0:0:0:
36,192,88880,128,0,89480:0:0:0:0:
182,192,89480,128,0,89705:0:0:0:0:
256,192,89705,128,0,89930:0:0:0:0:
329,192,89930,128,0,90080:0:0:0:0:
475,192,90080,128,0,90680:0:0:0:0:
329,192,90680,128,0,90905:0:0:0:0:
256,192,90905,128,0,91130:0:0:0:0:
182,192,91130,128,0,91280:0:0:0:0:
402,192,91280,128,0,91580:0:0:0:0:
256,192,91580,128,0,91880:0:0:0:0:
109,192,91880,128,0,92180:0:0:0:0:
182,192,92180,128,0,92480:0:0:0:0:
329,192,92480,128,0,93080:0:0:0:0:
256,192,93080,1,0,0:0:0:0:
182,192,93155,1,0,0:0:0:0:
109,192,93230,1,0,0:0:0:0:
402,192,93305,1,0,0:0:0:0:
329,192,93380,128,0,93680:0:0:0:0:
402,192,93680,1,0,0:0:0:0:
36,192,93680,1,0,0:0:0:0:
109,192,93755,1,0,0:0:0:0:
182,192,93830,1,0,0:0:0:0:
256,192,93905,1,0,0:0:0:0:
329,192,93980,1,0,0:0:0:0:
109,192,93980,1,0,0:0:0:0:
402,192,94055,1,0,0:0:0:0:
475,192,94130,1,0,0:0:0:0:
36,192,94205,1,0,0:0:0:0:
109,192,94280,1,0,0:0:0:0:
402,192,94280,1,0,0:0:0:0:
182,192,94355,1,0,0:0:0:0:
256,192,94430,1,0,0:0:0:0:
329,192,94505,1,0,0:0:0:0:
402,192,94580,1,0,0:0:0:0:
36,192,94580,1,0,0:0:0:0:
109,192,94880,1,0,0:0:0:0:
475,192,94880,1,0,0:0:0:0:
402,192,94955,1,0,0:0:0:0:
329,192,95030,1,0,0:0:0:0:
256,192,95105,1,0,0:0:0:0:
402,192,95180,1,0,0:0:0:0:
182,192,95180,1,0,0:0:0:0:
109,192,95255,1,0,0:0:0:0:
36,192,95330,1,0,0:0:0:0:
475,192,95405,1,0,0:0:0:0:
402,192,95480,1,0,0:0:0:0:
109,192,95480,1,0,0:0:0:0:
329,192,95555,1,0,0:0:0:0:
256,192,95630,1,0,0:0:0:0:
182,192,95705,1,0,0:0:0:0:
109,192,95780,1,0,0:0:0:0:
329,192,95780,1,0,0:0:0:0:
475,192,95780,1,0,0:0:0:0:
256,192,96080,1,0,0:0:0:0:
182,192,96155,1,0,0:0:0:0:
109,192,96230,1,0,0:0:0:0:
36,192,96305,1,0,0:0:0:0:
329,192,96380,1,0,0:0:0:0:
475,192,96380,1,0,0:0:0:0:
256,192,96680,1,0,0:0:0:0:
329,192,96755,1,0,0:0:0:0:
402,192,96830,1,0,0:0:0:0:
475,192,96905,1,0,0:0:0:0:
182,192,96980,1,0,0:0:0:0:
36,192,96980,1,0,0:0:0:0:
109,192,97280,128,0,98480:0:0:0:0:
256,192,97580,128,0,98480:0:0:0:0:
402,192,97880,128,0,98480:0:0:0:0:
36,192,98180,128,0,98480:0:0:0:0:
475,192,98180,128,0,98480:0:0:0:0:
329,192,98480,1,0,0:0:0:0:
182,192,98480,1,0,0:0:0:0:
256,192,98780,1,0,0:0:0:0:
36,192,98855,1,0,0:0:0:0:
109,192,98930,1,0,0:0:0:0:
182,192,99005,1,0,0:0:0:0:
256,192,99080,1,0,0:0:0:0:
475,192,99155,1,0,0:0:0:0:
402,192,99230,1,0,0:0:0:0:
329,192,99305,1,0,0:0:0:0:
256,192,99380,1,0,0:0:0:0:
182,192,99455,1,0,0:0:0:0:
109,192,99530,1,0,0:0:0:0:
36,192,99605,1,0,0:0:0:0:
475,192,99680,1,0,0:0:0:0:
329,192,99680,1,0,0:0:0:0:
402,192,99680,1,0,0:0:0:0:
36,192,99980,1,0,0:0:0:0:
109,192,99980,1,0,0:0:0:0:
182,192,99980,1,0,0:0:0:0:
329,192,100280,1,0,0:0:0:0:
402,192,100280,1,0,0:0:0:0:
475,192,100280,1,0,0:0:0:0:
36,192,100580,1,0,0:0:0:0:
109,192,100580,1,0,0:0:0:0:
182,192,100580,1,0,0:0:0:0:
182,192,100880,1,0,0:0:0:0:
256,192,100880,1,0,0:0:0:0:
329,192,100880,1,0,0:0:0:0:
36,192,101180,1,0,0:0:0:0:
256,192,101180,1,0,0:0:0:0:
475,192,101180,1,0,0:0:0:0:
109,192,101480,1,0,0:0:0:0:
256,192,101480,1,0,0:0:0:0:
402,192,101480,1,0,0:0:0:0:
182,192,101630,1,0,0:0:0:0:
256,192,101705,1,0,0:0:0:0:
329,192,101780,1,0,0:0:0:0:
402,192,101855,1,0,0:0:0:0:
475,192,101930,128,0,102080:0:0:0:0:
256,192,102080,1,0,0:0:0:0:
109,192,102080,1,0,0:0:0:0:
36,192,102080,1,0,0:0:0:0:
402,192,102230,1,0,0:0:0:0:
329,192,102380,1,0,0:0:0:0:
109,192,102380,1,0,0:0:0:0:
182,192,102380,1,0,0:0:0:0:
36,192,102530,1,0,0:0:0:0:
329,192,102680,1,0,0:0:0:0:
109,192,102680,1,0,0:0:0:0:
256,192,102830,1,0,0:0:0:0:
402,192,102980,1,0,0:0:0:0:
475,192,102980,1,0,0:0:0:0:
182,192,102980,1,0,0:0:0:0:
109,192,103130,1,0,0:0:0:0:
256,192,103280,1,0,0:0:0:0:
329,192,103280,1,0,0:0:0:0:
182,192,103430,1,0,0:0:0:0:
109,192,103580,1,0,0:0:0:0:
36,192,103580,1,0,0:0:0:0:
329,192,103580,1,0,0:0:0:0:
256,192,103730,1,0,0:0:0:0:
329,192,103805,1,0,0:0:0:0:
402,192,103880,1,0,0:0:0:0:
475,192,103880,1,0,0:0:0:0:
182,192,104030,1,0,0:0:0:0:
256,192,104180,1,0,0:0:0:0:
109,192,104180,1,0,0:0:0:0:
36,192,104180,1,0,0:0:0:0:
402,192,104330,1,0,0:0:0:0:
329,192,104480,1,0,0:0:0:0:
182,192,104480,1,0,0:0:0:0:
109,192,104630,1,0,0:0:0:0:
256,192,104780,1,0,0:0:0:0:
402,192,104780,1,0,0:0:0:0:
475,192,104780,1,0,0:0:0:0:
329,192,104930,1,0,0:0:0:0:
182,192,105080,1,0,0:0:0:0:
36,192,105080,1,0,0:0:0:0:
256,192,105230,1,0,0:0:0:0:
329,192,105380,1,0,0:0:0:0:
402,192,105380,1,0,0:0:0:0:
109,192,105380,1,0,0:0:0:0:
475,192,105530,1,0,0:0:0:0:
329,192,105680,1,0,0:0:0:0:
109,192,105680,1,0,0:0:0:0:
182,192,105830,1,0,0:0:0:0:
256,192,105980,1,0,0:0:0:0:
329,192,105980,1,0,0:0:0:0:
475,192,105980,1,0,0:0:0:0:
402,192,106130,1,0,0:0:0:0:
329,192,106205,1,0,0:0:0:0:
36,192,106280,1,0,0:0:0:0:
109,192,106280,1,0,0:0:0:0:
256,192,106430,1,0,0:0:0:0:
36,192,106580,1,0,0:0:0:0:
182,192,106580,1,0,0:0:0:0:
402,192,106580,1,0,0:0:0:0:
329,192,106730,1,0,0:0:0:0:
256,192,106880,1,0,0:0:0:0:
109,192,106880,1,0,0:0:0:0:
182,192,107030,1,0,0:0:0:0:
475,192,107180,1,0,0:0:0:0:
329,192,107180,1,0,0:0:0:0:
36,192,107180,1,0,0:0:0:0:
109,192,107330,1,0,0:0:0:0:
256,192,107480,1,0,0:0:0:0:
182,192,107480,1,0,0:0:0:0:
402,192,107630,1,0,0:0:0:0:
329,192,107780,1,0,0:0:0:0:
182,192,107780,1,0,0:0:0:0:
36,192,107780,1,0,0:0:0:0:
475,192,107930,1,0,0:0:0:0:
402,192,108080,1,0,0:0:0:0:
256,192,108080,1,0,0:0:0:0:
109,192,108230,1,0,0:0:0:0:
182,192,108380,1,0,0:0:0:0:
329,192,108380,1,0,0:0:0:0:
475,192,108380,1,0,0:0:0:0:
402,192,108530,1,0,0:0:0:0:
329,192,108605,1,0,0:0:0:0:
182,192,108680,1,0,0:0:0:0:
36,192,108680,1,0,0:0:0:0:
109,192,108830,1,0,0:0:0:0:
256,192,108980,1,0,0:0:0:0:
402,192,108980,1,0,0:0:0:0:
475,192,108980,1,0,0:0:0:0:
329,192,109130,1,0,0:0:0:0:
109,192,109280,1,0,0:0:0:0:
36,192,109280,128,0,110480:0:0:0:0:
182,192,109430,1,0,0:0:0:0:
256,192,109580,1,0,0:0:0:0:
329,192,109580,1,0,0:0:0:0:
475,192,109580,1,0,0:0:0:0:
109,192,109730,1,0,0:0:0:0:
402,192,109880,1,0,0:0:0:0:
182,192,109880,1,0,0:0:0:0:
256,192,110030,1,0,0:0:0:0:
329,192,110180,1,0,0:0:0:0:
109,192,110180,1,0,0:0:0:0:
182,192,110180,1,0,0:0:0:0:
402,192,110330,1,0,0:0:0:0:
256,192,110480,1,0,0:0:0:0:
109,192,110555,1,0,0:0:0:0:
402,192,110630,1,0,0:0:0:0:
256,192,110780,1,0,0:0:0:0:
329,192,110930,1,0,0:0:0:0:
182,192,111005,1,0,0:0:0:0:
109,192,111155,1,0,0:0:0:0:
36,192,111305,1,0,0:0:0:0:
256,192,111380,1,0,0:0:0:0:
475,192,111380,1,0,0:0:0:0:
402,192,111530,1,0,0:0:0:0:
109,192,111680,1,0,0:0:0:0:
182,192,111680,1,0,0:0:0:0:
36,192,111680,1,0,0:0:0:0:
256,192,111830,1,0,0:0:0:0:
475,192,111980,1,0,0:0:0:0:
329,192,111980,1,0,0:0:0:0:
36,192,111980,1,0,0:0:0:0:
402,192,112130,1,0,0:0:0:0:
182,192,112280,1,0,0:0:0:0:
109,192,112280,1,0,0:0:0:0:
329,192,112430,1,0,0:0:0:0:
475,192,112580,1,0,0:0:0:0:
36,192,112580,1,0,0:0:0:0:
182,192,112580,1,0,0:0:0:0:
256,192,112730,1,0,0:0:0:0:
402,192,112880,1,0,0:0:0:0:
109,192,112880,1,0,0:0:0:0:
182,192,113030,1,0,0:0:0:0:
256,192,113180,1,0,0:0:0:0:
329,192,113180,1,0,0:0:0:0:
475,192,113180,1,0,0:0:0:0:
402,192,113330,1,0,0:0:0:0:
329,192,113405,1,0,0:0:0:0:
109,192,113480,1,0,0:0:0:0:
36,192,113480,1,0,0:0:0:0:
182,192,113630,1,0,0:0:0:0:
329,192,113780,1,0,0:0:0:0:
402,192,113780,1,0,0:0:0:0:
109,192,113780,1,0,0:0:0:0:
256,192,113930,1,0,0:0:0:0:
182,192,114080,1,0,0:0:0:0:
36,192,114080,1,0,0:0:0:0:
329,192,114230,1,0,0:0:0:0:
402,192,114380,1,0,0:0:0:0:
475,192,114380,1,0,0:0:0:0:
109,192,114380,1,0,0:0:0:0:
256,192,114530,1,0,0:0:0:0:
182,192,114680,1,0,0:0:0:0:
36,192,114680,1,0,0:0:0:0:
329,192,114830,1,0,0:0:0:0:
475,192,114980,1,0,0:0:0:0:
256,192,114980,1,0,0:0:0:0:
109,192,114980,1,0,0:0:0:0:
402,192,115130,1,0,0:0:0:0:
329,192,115280,1,0,0:0:0:0:
182,192,115280,1,0,0:0:0:0:
109,192,115430,1,0,0:0:0:0:
256,192,115580,1,0,0:0:0:0:
402,192,115580,1,0,0:0:0:0:
475,192,115580,1,0,0:0:0:0:
329,192,115730,1,0,0:0:0:0:
182,192,115805,1,0,0:0:0:0:
109,192,115880,1,0,0:0:0:0:
36,192,115880,1,0,0:0:0:0:
256,192,116030,1,0,0:0:0:0:
329,192,116180,1,0,0:0:0:0:
402,192,116180,1,0,0:0:0:0:
109,192,116180,1,0,0:0:0:0:
182,192,116330,1,0,0:0:0:0:
256,192,116480,1,0,0:0:0:0:
329,192,116480,1,0,0:0:0:0:
475,192,116630,1,0,0:0:0:0:
109,192,116780,1,0,0:0:0:0:
182,192,116780,1,0,0:0:0:0:
402,192,116780,1,0,0:0:0:0:
36,192,116930,1,0,0:0:0:0:
329,192,117080,1,0,0:0:0:0:
109,192,117080,1,0,0:0:0:0:
256,192,117230,1,0,0:0:0:0:
402,192,117380,1,0,0:0:0:0:
475,192,117380,1,0,0:0:0:0:
182,192,117380,1,0,0:0:0:0:
109,192,117530,1,0,0:0:0:0:
256,192,117680,1,0,0:0:0:0:
329,192,117680,1,0,0:0:0:0:
182,192,117830,1,0,0:0:0:0:
109,192,117980,1,0,0:0:0:0:
36,192,117980,1,0,0:0:0:0:
329,192,117980,1,0,0:0:0:0:
256,192,118130,1,0,0:0:0:0:
329,192,118205,1,0,0:0:0:0:
402,192,118280,1,0,0:0:0:0:
475,192,118280,1,0,0:0:0:0:
182,192,118430,1,0,0:0:0:0:
256,192,118580,1,0,0:0:0:0:
109,192,118580,1,0,0:0:0:0:
36,192,118580,1,0,0:0:0:0:
402,192,118730,1,0,0:0:0:0:
329,192,118880,1,0,0:0:0:0:
182,192,118880,1,0,0:0:0:0:
109,192,119030,1,0,0:0:0:0:
256,192,119180,1,0,0:0:0:0:
402,192,119180,1,0,0:0:0:0:
475,192,119180,1,0,0:0:0:0:
329,192,119330,1,0,0:0:0:0:
182,192,119480,1,0,0:0:0:0:
36,192,119480,1,0,0:0:0:0:
256,192,119630,1,0,0:0:0:0:
329,192,119780,1,0,0:0:0:0:
402,192,119780,1,0,0:0:0:0:
109,192,119780,1,0,0:0:0:0:
475,192,119930,1,0,0:0:0:0:
329,192,120080,1,0,0:0:0:0:
182,192,120080,1,0,0:0:0:0:
109,192,120155,1,0,0:0:0:0:
402,192,120230,1,0,0:0:0:0:
256,192,120380,1,0,0:0:0:0:
329,192,120530,1,0,0:0:0:0:
182,192,120605,1,0,0:0:0:0:
36,192,120755,1,0,0:0:0:0:
475,192,120755,1,0,0:0:0:0:
109,192,120905,1,0,0:0:0:0:
402,192,120905,1,0,0:0:0:0:
182,192,120980,1,0,0:0:0:0:
329,192,120980,1,0,0:0:0:0:
256,192,121130,1,0,0:0:0:0:
36,192,121280,128,0,122480:0:0:0:0:
109,192,121280,1,0,0:0:0:0:
329,192,121430,1,0,0:0:0:0:
402,192,121505,1,0,0:0:0:0:
329,192,121730,1,0,0:0:0:0:
256,192,121880,1,0,0:0:0:0:
182,192,122030,1,0,0:0:0:0:
109,192,122180,1,0,0:0:0:0:
329,192,122330,1,0,0:0:0:0:
182,192,122480,128,0,123680:0:0:0:0:
256,192,122480,1,0,0:0:0:0:
402,192,122630,1,0,0:0:0:0:
475,192,122705,1,0,0:0:0:0:
402,192,122930,1,0,0:0:0:0:
329,192,123080,1,0,0:0:0:0:
256,192,123230,1,0,0:0:0:0:
109,192,123380,1,0,0:0:0:0:
329,192,123530,1,0,0:0:0:0:
402,192,123680,128,0,126080:0:0:0:0:
36,192,123680,1,0,0:0:0:0:
256,192,123830,1,0,0:0:0:0:
329,192,123905,1,0,0:0:0:0:
182,192,124130,1,0,0:0:0:0:
109,192,124280,1,0,0:0:0:0:
256,192,124430,1,0,0:0:0:0:
475,192,124580,1,0,0:0:0:0:
329,192,124730,1,0,0:0:0:0:
182,192,124880,1,0,0:0:0:0:
36,192,125030,1,0,0:0:0:0:
256,192,125105,1,0,0:0:0:0:
329,192,125180,1,0,0:0:0:0:
182,192,125330,1,0,0:0:0:0:
256,192,125405,1,0,0:0:0:0:
109,192,125480,1,0,0:0:0:0:
36,192,125630,1,0,0:0:0:0:
329,192,125780,1,0,0:0:0:0:
182,192,126080,128,0,127280:0:0:0:0:
109,192,126080,1,0,0:0:0:0:
329,192,126530,1,0,0:0:0:0:
256,192,126680,1,0,0:0:0:0:
402,192,126830,1,0,0:0:0:0:
109,192,126980,1,0,0:0:0:0:
329,192,127130,1,0,0:0:0:0:
402,192,127280,128,0,128480:0:0:0:0:
475,192,127280,1,0,0:0:0:0:
256,192,127505,1,0,0:0:0:0:
109,192,127655,1,0,0:0:0:0:
36,192,127730,1,0,0:0:0:0:
329,192,127930,1,0,0:0:0:0:
256,192,128080,1,0,0:0:0:0:
109,192,128230,1,0,0:0:0:0:
475,192,128330,1,0,0:0:0:0:
182,192,128480,128,0,129680:0:0:0:0:
36,192,128480,1,0,0:0:0:0:
256,192,128630,1,0,0:0:0:0:
402,192,128780,1,0,0:0:0:0:
475,192,128930,1,0,0:0:0:0:
329,192,129080,1,0,0:0:0:0:
256,192,129230,1,0,0:0:0:0:
109,192,129380,1,0,0:0:0:0:
475,192,129530,1,0,0:0:0:0:
36,192,129680,128,0,130880:0:0:0:0:
256,192,129680,1,0,0:0:0:0:
329,192,129830,1,0,0:0:0:0:
402,192,129905,1,0,0:0:0:0:
475,192,129980,1,0,0:0:0:0:
182,192,130130,1,0,0:0:0:0:
256,192,130205,1,0,0:0:0:0:
109,192,130280,1,0,0:0:0:0:
329,192,130430,1,0,0:0:0:0:
475,192,130580,1,0,0:0:0:0:
109,192,130880,1,0,0:0:0:0:
256,192,130880,1,0,0:0:0:0:
402,192,130880,1,0,0:0:0:0:
