osu file format v14

[General]
AudioFilename: LeaF - Armageddon.mp3
AudioLeadIn: 0
PreviewTime: 109160
Countdown: 0
SampleSet: Soft
StackLeniency: 0.7
Mode: 3
LetterboxInBreaks: 0
SpecialStyle: 0
WidescreenStoryboard: 0

[Editor]
Bookmarks: 12017,18874,23446,32589,41731,44017,50874,60017,68017,77160,80589,87446,96589,105731,109160
DistanceSpacing: 1.3
BeatDivisor: 4
GridSize: 4
TimelineZoom: 2

[Metadata]
Title:Armageddon
TitleUnicode:Armageddon
Artist:LeaF
ArtistUnicode:LeaF
Creator:FAMoss
Version:Normal
Source:東方地霊殿 ~ Subterranean Animism.
Tags:zun bms touhou toho chireiden optie 霊知の太陽信仰 Reichi no Taiyou Shinkou Nuclear Fusion Okuu Utsuho Reiuji 霊烏路 空 crow raven power bird propaganda final boss stage yatagarasu Hell of Blazing Fires ondan yuugi 東方音弾遊戯9 video game electronic instrumental remix featured artist
BeatmapID:2355635
BeatmapSetID:1127488

[Difficulty]
HPDrainRate:7.5
CircleSize:4
OverallDifficulty:7.5
ApproachRate:5
SliderMultiplier:1.4
SliderTickRate:1

[Events]
//Background and Video events
0,0,"Armageddon_Jacket.jpg",0,0
//Break Periods
//Storyboard Layer 0 (Background)
//Storyboard Layer 1 (Fail)
//Storyboard Layer 2 (Pass)
//Storyboard Layer 3 (Foreground)
//Storyboard Layer 4 (Overlay)
//Storyboard Sound Samples
Sample,15446,0,"piano1_7.wav",100
Sample,15731,0,"piano1_7.wav",100
Sample,16017,0,"piano1_10.wav",100
Sample,16446,0,"piano1_11.wav",100
Sample,16874,0,"piano1_13.wav",100
Sample,17303,0,"piano1_14.wav",100
Sample,17731,0,"piano1_17.wav",100
Sample,19874,0,"piano_fx1_007.wav",100
Sample,19946,0,"piano_fx1_008.wav",100
Sample,21017,0,"piano_fx1_007.wav",100
Sample,21089,0,"piano_fx1_008.wav",100
Sample,22160,0,"piano_fx1_007.wav",100
Sample,22231,0,"piano_fx1_008.wav",100
Sample,23731,0,"piano_fx2_002.wav",100
Sample,24017,0,"piano_fx2_004.wav",100
Sample,24303,0,"piano_fx2_006.wav",100
Sample,24589,0,"piano_fx2_008.wav",100
Sample,24874,0,"piano_fx2_010.wav",100
Sample,25160,0,"piano_fx2_012.wav",100
Sample,25446,0,"piano_fx2_014.wav",100
Sample,25589,0,"piano_fx2_015.wav",100
Sample,26017,0,"piano_fx2_002.wav",100
Sample,26303,0,"piano_fx2_004.wav",100
Sample,26589,0,"piano_fx2_006.wav",100
Sample,26874,0,"piano_fx2_008.wav",100
Sample,27160,0,"piano_fx2_010.wav",100
Sample,27446,0,"piano_fx2_012.wav",100
Sample,27731,0,"piano_fx2_014.wav",100
Sample,27874,0,"piano_fx2_015.wav",100
Sample,28303,0,"piano_fx2_002.wav",100
Sample,28589,0,"piano_fx2_004.wav",100
Sample,28874,0,"piano_fx2_006.wav",100
Sample,29160,0,"piano_fx2_008.wav",100
Sample,29446,0,"piano_fx2_010.wav",100
Sample,29731,0,"piano_fx2_012.wav",100
Sample,30017,0,"piano_fx2_014.wav",100
Sample,30160,0,"piano_fx2_015.wav",100
Sample,30589,0,"piano_fx2_002.wav",100
Sample,30874,0,"piano_fx2_004.wav",100
Sample,31160,0,"piano_fx2_006.wav",100
Sample,32874,0,"piano_fx2_002.wav",100
Sample,33160,0,"piano_fx2_004.wav",100
Sample,33446,0,"piano_fx2_006.wav",100
Sample,33731,0,"piano_fx2_008.wav",100
Sample,34017,0,"piano_fx2_010.wav",100
Sample,34303,0,"piano_fx2_012.wav",100
Sample,34589,0,"piano_fx2_014.wav",100
Sample,34731,0,"piano_fx2_015.wav",100
Sample,35160,0,"piano_fx2_002.wav",100
Sample,35446,0,"piano_fx2_004.wav",100
Sample,35731,0,"piano_fx2_006.wav",100
Sample,36017,0,"piano_fx2_008.wav",100
Sample,36303,0,"piano_fx2_010.wav",100
Sample,36589,0,"piano_fx2_012.wav",100
Sample,36874,0,"piano_fx2_014.wav",100
Sample,37017,0,"piano_fx2_015.wav",100
Sample,37446,0,"piano_fx2_002.wav",100
Sample,37731,0,"piano_fx2_004.wav",100
Sample,38017,0,"piano_fx2_006.wav",100
Sample,38303,0,"piano_fx2_008.wav",100
Sample,38589,0,"piano_fx2_010.wav",100
Sample,38874,0,"piano_fx2_012.wav",100
Sample,39160,0,"piano_fx2_014.wav",100
Sample,39303,0,"piano_fx2_015.wav",100
Sample,39731,0,"piano_fx2_002.wav",100
Sample,40017,0,"piano_fx2_004.wav",100
Sample,40303,0,"piano_fx2_006.wav",100
Sample,60589,0,"musicbox4_000.wav",100
Sample,60779,0,"piano4_000.wav",100
Sample,60779,0,"musicbox3_004.wav",100
Sample,60969,0,"piano4_003.wav",100
Sample,60969,0,"musicbox3_004.wav",100
Sample,61160,0,"musicbox4_001.wav",100
Sample,61350,0,"musicbox4_002.wav",100
Sample,61350,0,"piano4_006.wav",100
Sample,61541,0,"musicbox4_006.wav",100
Sample,61541,0,"piano4_008.wav",100
Sample,61731,0,"musicbox4_003.wav",100
Sample,61922,0,"piano4_012.wav",100
Sample,61922,0,"musicbox4_004.wav",100
Sample,62112,0,"piano4_014.wav",100
Sample,62112,0,"musicbox4_008.wav",100
Sample,62303,0,"musicbox4_005.wav",100
Sample,62493,0,"musicbox4_006.wav",100
Sample,62684,0,"musicbox4_010.wav",100
Sample,62874,0,"musicbox4_007.wav",100
Sample,63065,0,"piano4_020.wav",100
Sample,63065,0,"musicbox4_007.wav",100
Sample,63255,0,"piano4_022.wav",100
Sample,63255,0,"musicbox4_012.wav",100
Sample,63446,0,"musicbox4_009.wav",100
Sample,63636,0,"musicbox4_010.wav",100
Sample,63636,0,"piano4_024.wav",100
Sample,63827,0,"musicbox4_014.wav",100
Sample,63827,0,"piano4_024.wav",100
Sample,64017,0,"musicbox4_011.wav",100
Sample,64208,0,"piano4_028.wav",100
Sample,64208,0,"musicbox4_012.wav",100
Sample,64398,0,"piano4_030.wav",100
Sample,64398,0,"musicbox4_013.wav",100
Sample,64589,0,"piano4_032.wav",100
Sample,65160,0,"musicbox4_000.wav",100
Sample,65350,0,"piano4_000.wav",100
Sample,65350,0,"musicbox3_004.wav",100
Sample,65541,0,"piano4_003.wav",100
Sample,65541,0,"musicbox3_004.wav",100
Sample,65731,0,"musicbox4_001.wav",100
Sample,65922,0,"musicbox4_002.wav",100
Sample,65922,0,"piano4_006.wav",100
Sample,66112,0,"musicbox4_006.wav",100
Sample,66112,0,"piano4_008.wav",100
Sample,66303,0,"musicbox4_003.wav",100
Sample,66493,0,"musicbox4_004.wav",100
Sample,66684,0,"musicbox4_008.wav",100
Sample,66874,0,"musicbox4_005.wav",100
Sample,67065,0,"musicbox4_006.wav",100
Sample,67255,0,"musicbox4_010.wav",100
Sample,67446,0,"musicbox4_007.wav",100
Sample,67636,0,"piano4_020.wav",100
Sample,67636,0,"musicbox4_007.wav",100
Sample,67827,0,"piano4_022.wav",100
Sample,67827,0,"musicbox4_012.wav",100
Sample,79065,0,"piano5_002.wav",100
Sample,79255,0,"piano5_003.wav",100
Sample,79636,0,"piano5_005.wav",100
Sample,79827,0,"piano5_006.wav",100
Sample,80017,0,"fx_clap2.wav",100
Sample,81398,0,"harp3_1_x_017.wav",100
Sample,81446,0,"harp3_1_x_018.wav",100
Sample,81493,0,"harp3_1_x_019.wav",100
Sample,81541,0,"harp3_1_x_020.wav",100
Sample,81636,0,"harp3_1_x_022.wav",100
Sample,81684,0,"harp3_1_x_023.wav",100
Sample,81731,0,"harp3_000.wav",100
Sample,81874,0,"harp3_001.wav",100
Sample,82017,0,"harp3_003.wav",100
Sample,82231,0,"harp3_006.wav",100
Sample,82874,0,"gloken4_003.wav",100
Sample,83922,0,"musicbox6_009.wav",100
Sample,83969,0,"musicbox6_010.wav",100
Sample,83993,0,"gloken4_002.wav",100
Sample,84017,0,"gloken4_004.wav",100
Sample,84493,0,"musicbox6_012.wav",100
Sample,84541,0,"musicbox6_013.wav",100
Sample,84565,0,"gloken4_002.wav",100
Sample,84589,0,"gloken4_005.wav",100
Sample,85065,0,"musicbox5_000.wav",100
Sample,85112,0,"musicbox5_001.wav",100
Sample,85136,0,"gloken4_006.wav",100
Sample,85160,0,"gloken4_007.wav",100
Sample,102303,0,"piano1_7.wav",100
Sample,102589,0,"piano1_7.wav",100
Sample,102874,0,"piano1_10.wav",100
Sample,103303,0,"piano1_11.wav",100
Sample,103731,0,"piano1_13.wav",100
Sample,104160,0,"piano1_14.wav",100
Sample,104589,0,"piano1_17.wav",100
Sample,106731,0,"piano_fx1_007.wav",100
Sample,106803,0,"piano_fx1_008.wav",100
Sample,107874,0,"piano_fx1_007.wav",100
Sample,107946,0,"piano_fx1_008.wav",100
Sample,109017,0,"piano_fx1_007.wav",100
Sample,109089,0,"piano_fx1_008.wav",100
Sample,110327,0,"piano6_28.wav",100
Sample,110350,0,"piano6_29.wav",100
Sample,116017,0,"piano6_011.wav",100
Sample,116017,0,"piano6_15.wav",100
Sample,125160,0,"piano6_011.wav",100
Sample,125160,0,"piano6_15.wav",100
Sample,134303,0,"piano6_011.wav",100
Sample,134446,0,"piano6_16.wav",100
Sample,134589,0,"piano6_17.wav",100
Sample,134731,0,"piano6_18.wav",100

[TimingPoints]
589,285.714285714286,4,2,1,60,1,0
111446,-100,4,2,1,60,0,1
117160,-100,4,2,1,60,0,0
119446,-100,4,2,1,60,0,1
126303,-100,4,2,1,60,0,0
128589,-100,4,2,1,60,0,1
135446,-100,4,2,1,60,0,0

[HitObjects]
64,192,589,5,2,0:0:0:0:
192,192,589,1,0,0:0:0:0:
64,192,1589,1,6,0:0:0:0:
192,192,1660,1,6,0:0:0:0:
320,192,1731,1,2,0:0:0:0:
448,192,1731,1,4,0:0:0:0:
320,192,2731,1,6,0:0:0:0:
64,192,2874,1,2,0:0:0:0:
192,192,2874,1,4,0:0:0:0:
64,192,3303,1,2,0:0:0:0:
192,192,3303,1,4,0:0:0:0:
320,192,3589,1,4,0:0:0:0:
448,192,3589,1,2,0:0:0:0:
192,192,3731,128,6,3874:0:0:0:0:
448,192,3874,1,6,0:0:0:0:
320,192,3946,1,6,0:0:0:0:
64,192,4017,1,2,0:0:0:0:
192,192,4017,1,4,0:0:0:0:
320,192,4160,1,4,0:0:0:0:
448,192,4160,1,2,0:0:0:0:
64,192,4446,1,2,0:0:0:0:
192,192,4446,1,4,0:0:0:0:
64,192,4731,1,2,0:0:0:0:
192,192,4731,128,4,4874:0:0:0:0:
320,192,4874,128,6,5017:0:0:0:0:
64,192,5017,1,6,0:0:0:0:
192,192,5089,1,6,0:0:0:0:
320,192,5160,1,4,0:0:0:0:
448,192,5160,1,2,0:0:0:0:
64,192,5446,1,2,0:0:0:0:
192,192,5446,1,4,0:0:0:0:
320,192,5874,1,0,0:0:0:0:
64,192,6303,1,0,0:0:0:0:
320,192,6731,1,4,0:0:0:0:
448,192,6731,1,2,0:0:0:0:
192,192,6803,1,6,0:0:0:0:
64,192,7017,128,2,7160:0:0:0:0:
192,192,7017,1,4,0:0:0:0:
448,192,7160,128,6,7303:0:0:0:0:
192,192,7303,1,6,0:0:0:0:
320,192,7374,1,6,0:0:0:0:
64,192,7446,1,4,0:0:0:0:
448,192,7446,1,2,0:0:0:0:
320,192,7731,1,4,0:0:0:0:
448,192,7731,1,2,0:0:0:0:
192,192,8160,1,0,0:0:0:0:
64,192,8589,1,0,0:0:0:0:
320,192,8731,1,2,0:0:0:0:
448,192,8731,1,4,0:0:0:0:
64,192,9017,1,2,0:0:0:0:
192,192,9017,1,4,0:0:0:0:
320,192,9303,1,4,0:0:0:0:
448,192,9303,128,2,9446:0:0:0:0:
64,192,9446,128,6,9589:0:0:0:0:
320,192,9589,1,6,0:0:0:0:
192,192,9660,1,6,0:0:0:0:
64,192,9731,1,2,0:0:0:0:
448,192,9731,1,4,0:0:0:0:
64,192,10017,1,4,0:0:0:0:
192,192,10017,1,2,0:0:0:0:
320,192,10446,1,0,0:0:0:0:
448,192,10874,1,0,0:0:0:0:
64,192,11017,1,2,0:0:0:0:
192,192,11017,1,4,0:0:0:0:
320,192,11089,1,6,0:0:0:0:
320,192,11303,1,4,0:0:0:0:
448,192,11303,1,2,0:0:0:0:
64,192,11589,1,2,0:0:0:0:
192,192,11589,128,4,11731:0:0:0:0:
448,192,11731,128,6,11874:0:0:0:0:
192,192,11874,1,6,0:0:0:0:
320,192,11946,1,6,0:0:0:0:
64,192,12017,1,2,0:0:0:0:
448,192,12017,1,4,0:0:0:0:
320,192,12303,1,2,0:0:0:0:
448,192,12303,1,4,0:0:0:0:
64,192,12731,1,4,0:0:0:0:
192,192,12731,1,2,0:0:0:0:
320,192,13160,1,2,0:0:0:0:
448,192,13160,128,4,13589:0:0:0:0:
64,192,13589,128,4,14017:0:0:0:0:
192,192,13589,1,2,0:0:0:0:
320,192,14017,1,2,0:0:0:0:
448,192,14017,128,4,14160:0:0:0:0:
64,192,14160,1,6,0:0:0:0:
192,192,14231,1,6,0:0:0:0:
320,192,14303,1,4,0:0:0:0:
448,192,14303,1,2,0:0:0:0:
64,192,14589,1,2,0:0:0:0:
192,192,14731,1,0,0:0:0:0:
448,192,14874,1,2,0:0:0:0:
320,192,15017,1,0,0:0:0:0:
64,192,15160,1,2,0:0:0:0:
192,192,15160,1,0,0:0:0:0:
320,192,15303,1,0,0:0:0:100:piano1_5.wav
192,192,15374,1,0,0:0:0:100:piano1_6.wav
64,192,15446,1,2,0:0:0:0:
320,192,15589,1,0,0:0:0:100:piano1_8.wav
192,192,15731,1,2,0:0:0:0:
448,192,15874,1,0,0:0:0:100:piano1_9.wav
64,192,16017,1,2,0:0:0:0:
192,192,16160,1,0,0:0:0:100:piano1_11.wav
320,192,16303,1,2,0:0:0:0:
448,192,16303,1,0,0:0:0:100:piano1_7.wav
64,192,16589,1,2,0:0:0:0:
448,192,16589,1,0,0:0:0:100:piano1_12.wav
320,192,16731,1,2,0:0:0:0:
192,192,16874,1,2,0:0:0:0:
64,192,17017,1,2,0:0:0:0:
448,192,17160,1,2,0:0:0:0:
192,192,17303,1,2,0:0:0:0:
320,192,17446,1,2,0:0:0:0:
448,192,17589,1,2,0:0:0:0:
192,192,17731,128,2,17874:0:0:0:0:
448,192,17874,1,2,0:0:0:0:
320,192,17946,1,2,0:0:0:0:
64,192,18017,128,2,18160:0:0:0:0:
448,192,18160,1,2,0:0:0:0:
320,192,18231,1,2,0:0:0:0:
64,192,18303,1,6,0:0:0:0:
192,192,18303,1,0,0:0:0:100:piano1_25.wav
192,192,18874,1,0,0:0:0:100:piano_fx1_000.wav
448,192,19017,1,0,0:0:0:100:piano_fx1_001.wav
320,192,19160,1,0,0:0:0:100:piano_fx1_002.wav
64,192,19303,1,0,0:0:0:100:piano_fx1_003.wav
192,192,19446,1,0,0:0:0:100:piano_fx1_004.wav
448,192,19589,1,0,0:0:0:100:piano_fx1_005.wav
64,192,19731,1,0,0:0:0:100:piano_fx1_006.wav
320,192,20017,1,0,0:0:0:100:piano_fx1_000.wav
64,192,20160,1,0,0:0:0:100:piano_fx1_001.wav
192,192,20303,1,0,0:0:0:100:piano_fx1_002.wav
448,192,20446,1,0,0:0:0:100:piano_fx1_003.wav
320,192,20589,1,0,0:0:0:100:piano_fx1_004.wav
64,192,20731,1,0,0:0:0:100:piano_fx1_005.wav
448,192,20874,1,0,0:0:0:100:piano_fx1_006.wav
192,192,21160,1,0,0:0:0:100:piano_fx1_000.wav
448,192,21303,1,0,0:0:0:100:piano_fx1_001.wav
320,192,21446,1,0,0:0:0:100:piano_fx1_002.wav
64,192,21589,1,0,0:0:0:100:piano_fx1_003.wav
192,192,21731,1,0,0:0:0:100:piano_fx1_004.wav
448,192,21874,1,0,0:0:0:100:piano_fx1_005.wav
64,192,22017,1,0,0:0:0:100:piano_fx1_006.wav
192,192,22303,1,6,0:0:0:0:
320,192,22374,1,6,0:0:0:0:
448,192,22446,128,6,22589:0:0:0:0:
64,192,22589,1,6,0:0:0:0:
192,192,22660,1,6,0:0:0:0:
320,192,22731,128,6,22874:0:0:0:0:
448,192,22874,1,6,0:0:0:0:
192,192,22946,1,6,0:0:0:0:
64,192,23017,128,6,23160:0:0:0:0:
448,192,23160,1,6,0:0:0:0:
320,192,23231,1,6,0:0:0:0:
192,192,23303,128,6,23446:0:0:0:0:
64,192,23446,1,6,0:0:0:0:
448,192,23446,1,0,0:0:0:100:piano_fx2_000.wav
320,192,23589,1,0,0:0:0:100:piano_fx2_001.wav
192,192,23731,1,2,0:0:0:0:
448,192,23874,1,0,0:0:0:100:piano_fx2_003.wav
320,192,24017,1,2,0:0:0:0:
64,192,24160,1,0,0:0:0:100:piano_fx2_005.wav
192,192,24303,1,2,0:0:0:0:
448,192,24446,1,0,0:0:0:100:piano_fx2_007.wav
320,192,24589,1,2,0:0:0:0:
64,192,24731,1,0,0:0:0:100:piano_fx2_009.wav
320,192,24874,1,2,0:0:0:0:
192,192,25017,1,0,0:0:0:100:piano_fx2_011.wav
448,192,25160,1,2,0:0:0:0:
192,192,25303,1,0,0:0:0:100:piano_fx2_013.wav
320,192,25446,1,2,0:0:0:0:
64,192,25731,1,2,0:0:0:0:
448,192,25731,1,0,0:0:0:100:piano_fx2_000.wav
192,192,25874,1,0,0:0:0:100:piano_fx2_001.wav
320,192,26017,1,2,0:0:0:0:
64,192,26160,1,0,0:0:0:100:piano_fx2_003.wav
192,192,26303,1,2,0:0:0:0:
448,192,26446,1,0,0:0:0:100:piano_fx2_005.wav
320,192,26589,1,2,0:0:0:0:
64,192,26731,1,0,0:0:0:100:piano_fx2_007.wav
192,192,26874,1,2,0:0:0:0:
448,192,27017,1,0,0:0:0:100:piano_fx2_009.wav
192,192,27160,1,2,0:0:0:0:
320,192,27303,1,0,0:0:0:100:piano_fx2_011.wav
64,192,27446,1,2,0:0:0:0:
320,192,27589,1,0,0:0:0:100:piano_fx2_013.wav
192,192,27731,1,2,0:0:0:0:
64,192,28017,1,2,0:0:0:0:
448,192,28017,1,0,0:0:0:100:piano_fx2_000.wav
320,192,28160,1,0,0:0:0:100:piano_fx2_001.wav
192,192,28303,1,2,0:0:0:0:
448,192,28446,1,0,0:0:0:100:piano_fx2_003.wav
320,192,28589,1,2,0:0:0:0:
64,192,28731,1,0,0:0:0:100:piano_fx2_005.wav
192,192,28874,1,2,0:0:0:0:
448,192,29017,1,0,0:0:0:100:piano_fx2_007.wav
320,192,29160,1,2,0:0:0:0:
64,192,29303,1,0,0:0:0:100:piano_fx2_009.wav
320,192,29446,1,2,0:0:0:0:
192,192,29589,1,0,0:0:0:100:piano_fx2_011.wav
448,192,29731,1,2,0:0:0:0:
192,192,29874,1,0,0:0:0:100:piano_fx2_013.wav
320,192,30017,1,2,0:0:0:0:
64,192,30303,1,2,0:0:0:0:
448,192,30303,1,0,0:0:0:100:piano_fx2_000.wav
192,192,30446,1,0,0:0:0:100:piano_fx2_001.wav
320,192,30589,1,2,0:0:0:0:
64,192,30731,1,0,0:0:0:100:piano_fx2_003.wav
192,192,30874,1,2,0:0:0:0:
448,192,31017,1,0,0:0:0:100:piano_fx2_005.wav
320,192,31160,1,2,0:0:0:0:
64,192,31303,1,0,0:0:0:100:piano_fx2_007.wav
192,192,31446,128,6,31589:0:0:0:0:
448,192,31589,1,6,0:0:0:0:
64,192,31660,1,6,0:0:0:0:
320,192,31731,128,6,31874:0:0:0:0:
192,192,31874,1,6,0:0:0:0:
448,192,31946,1,6,0:0:0:0:
64,192,32017,128,6,32160:0:0:0:0:
320,192,32160,1,6,0:0:0:0:
192,192,32231,1,6,0:0:0:0:
448,192,32303,128,6,32446:0:0:0:0:
192,192,32446,1,6,0:0:0:0:
320,192,32517,1,6,0:0:0:0:
64,192,32589,1,6,0:0:0:0:
448,192,32589,1,0,0:0:0:100:piano_fx2_000.wav
192,192,32731,1,0,0:0:0:100:piano_fx2_001.wav
320,192,32874,1,2,0:0:0:0:
64,192,33017,1,0,0:0:0:100:piano_fx2_003.wav
192,192,33160,1,2,0:0:0:0:
448,192,33303,1,0,0:0:0:100:piano_fx2_005.wav
320,192,33446,1,2,0:0:0:0:
64,192,33589,1,0,0:0:0:100:piano_fx2_007.wav
192,192,33731,1,2,0:0:0:0:
448,192,33874,1,0,0:0:0:100:piano_fx2_009.wav
192,192,34017,1,2,0:0:0:0:
320,192,34160,1,0,0:0:0:100:piano_fx2_011.wav
64,192,34303,1,2,0:0:0:0:
320,192,34446,1,0,0:0:0:100:piano_fx2_013.wav
320,192,34589,1,2,0:0:0:0:
64,192,34874,1,2,0:0:0:0:
448,192,34874,1,0,0:0:0:100:piano_fx2_000.wav
320,192,35017,1,0,0:0:0:100:piano_fx2_001.wav
192,192,35160,1,2,0:0:0:0:
448,192,35303,1,0,0:0:0:100:piano_fx2_003.wav
320,192,35446,1,2,0:0:0:0:
64,192,35589,1,0,0:0:0:100:piano_fx2_005.wav
192,192,35731,1,2,0:0:0:0:
448,192,35874,1,0,0:0:0:100:piano_fx2_007.wav
320,192,36017,1,2,0:0:0:0:
64,192,36160,1,0,0:0:0:100:piano_fx2_009.wav
320,192,36303,1,2,0:0:0:0:
192,192,36446,1,0,0:0:0:100:piano_fx2_011.wav
448,192,36589,1,2,0:0:0:0:
192,192,36731,1,0,0:0:0:100:piano_fx2_013.wav
192,192,36874,1,2,0:0:0:0:
64,192,37160,1,2,0:0:0:0:
448,192,37160,1,0,0:0:0:100:piano_fx2_000.wav
192,192,37303,1,0,0:0:0:100:piano_fx2_001.wav
320,192,37446,1,2,0:0:0:0:
64,192,37589,1,0,0:0:0:100:piano_fx2_003.wav
192,192,37731,1,2,0:0:0:0:
448,192,37874,1,0,0:0:0:100:piano_fx2_005.wav
320,192,38017,1,2,0:0:0:0:
64,192,38160,1,0,0:0:0:100:piano_fx2_007.wav
192,192,38303,1,2,0:0:0:0:
448,192,38446,1,0,0:0:0:100:piano_fx2_009.wav
192,192,38589,1,2,0:0:0:0:
320,192,38731,1,0,0:0:0:100:piano_fx2_011.wav
64,192,38874,1,2,0:0:0:0:
320,192,39017,1,0,0:0:0:100:piano_fx2_013.wav
320,192,39160,1,2,0:0:0:0:
64,192,39446,1,2,0:0:0:0:
448,192,39446,1,0,0:0:0:100:piano_fx2_000.wav
320,192,39589,1,0,0:0:0:100:piano_fx2_001.wav
192,192,39731,1,2,0:0:0:0:
448,192,39874,1,0,0:0:0:100:piano_fx2_003.wav
320,192,40017,1,2,0:0:0:0:
64,192,40160,1,0,0:0:0:100:piano_fx2_005.wav
192,192,40303,1,2,0:0:0:0:
448,192,40446,1,0,0:0:0:100:piano_fx2_007.wav
320,192,40589,128,6,40731:0:0:0:0:
64,192,40731,1,6,0:0:0:0:
448,192,40803,1,6,0:0:0:0:
192,192,40874,128,6,41017:0:0:0:0:
320,192,41017,1,6,0:0:0:0:
64,192,41089,1,6,0:0:0:0:
448,192,41160,128,6,41303:0:0:0:0:
192,192,41303,1,6,0:0:0:0:
320,192,41374,1,6,0:0:0:0:
64,192,41446,128,6,41589:0:0:0:0:
320,192,41589,1,6,0:0:0:0:
192,192,41660,1,6,0:0:0:0:
64,192,41731,1,6,0:0:0:0:
448,192,41731,1,0,0:0:0:100:piano_fx3_000.wav
320,192,41922,1,0,0:0:0:100:piano_fx3_001.wav
64,192,42112,1,0,0:0:0:100:piano_fx3_002.wav
192,192,42303,1,0,0:0:0:100:piano_fx3_003.wav
448,192,42493,1,0,0:0:0:100:piano_fx3_004.wav
64,192,42684,1,0,0:0:0:100:piano_fx3_005.wav
320,192,42874,1,6,0:0:0:0:
192,192,42969,1,6,0:0:0:0:
448,192,43065,1,6,0:0:0:0:
320,192,43160,1,6,0:0:0:0:
64,192,43255,1,6,0:0:0:0:
192,192,43350,1,6,0:0:0:0:
448,192,43446,1,6,0:0:0:0:
64,192,43541,1,6,0:0:0:0:
320,192,43636,1,6,0:0:0:0:
192,192,43731,1,6,0:0:0:0:
448,192,43827,1,6,0:0:0:0:
320,192,43922,1,6,0:0:0:0:
64,192,44017,1,4,0:0:0:0:
192,192,44017,1,0,0:0:0:0:
320,192,44160,1,0,0:0:0:0:
64,192,44303,1,0,0:0:0:100:snare_f_b.wav
448,192,44303,1,0,0:0:0:0:
192,192,44446,1,0,0:0:0:0:
320,192,44589,1,2,0:0:0:0:
448,192,44589,1,0,0:0:0:0:
64,192,44779,1,2,0:0:0:0:
192,192,44779,1,0,0:0:0:0:
320,192,44969,128,2,45160:0:0:0:0:
64,192,45160,128,0,45446:0:0:0:0:
320,192,45303,1,0,0:0:0:0:
448,192,45446,128,0,45731:0:0:0:0:
192,192,45589,1,0,0:0:0:0:
64,192,45731,1,2,0:0:0:0:
320,192,45874,1,0,0:0:0:0:
64,192,46017,1,0,0:0:0:100:snare_ff.wav
448,192,46017,1,0,0:0:0:0:
64,192,46303,1,4,0:0:0:0:
192,192,46303,1,0,0:0:0:0:
64,192,46589,1,0,0:0:0:100:snare_f_b.wav
448,192,46589,1,0,0:0:0:0:
192,192,46731,1,0,0:0:0:0:
448,192,46874,1,2,0:0:0:0:
320,192,46946,1,0,0:0:0:0:
192,192,47017,1,0,0:0:0:0:
448,192,47160,1,2,0:0:0:0:
192,192,47303,1,0,0:0:0:0:
64,192,47446,128,2,47731:0:0:0:0:
448,192,47589,1,0,0:0:0:0:
320,192,47731,128,0,48017:0:0:0:0:
192,192,47874,1,0,0:0:0:0:
64,192,48017,1,2,0:0:0:0:
448,192,48160,1,0,0:0:0:0:
192,192,48303,128,2,48589:0:0:0:0:
448,192,48589,128,2,48874:0:0:0:0:
192,192,48731,1,0,0:0:0:0:
64,192,48874,1,0,0:0:0:100:snare_f_b.wav
320,192,48874,1,0,0:0:0:0:
192,192,49017,1,0,0:0:0:0:
448,192,49160,1,2,0:0:0:0:
192,192,49303,1,0,0:0:0:0:
320,192,49374,1,0,0:0:0:0:
448,192,49446,1,2,0:0:0:0:
192,192,49589,1,0,0:0:0:0:
64,192,49731,128,2,50017:0:0:0:0:
320,192,50017,128,0,50303:0:0:0:0:
192,192,50303,128,2,50446:0:0:0:0:
448,192,50446,1,2,0:0:0:0:
320,192,50517,1,2,0:0:0:0:
64,192,50589,128,0,50874:0:0:0:100:gabba.wav
192,192,50589,1,0,0:0:0:0:
320,192,50874,1,4,0:0:0:0:
448,192,50874,1,2,0:0:0:0:
64,192,51160,1,0,0:0:0:100:snare_f_b.wav
192,192,51160,1,0,0:0:0:0:
320,192,51303,1,0,0:0:0:0:
192,192,51446,1,2,0:0:0:0:
448,192,51589,1,2,0:0:0:0:
64,192,51731,1,2,0:0:0:0:
320,192,51874,1,0,0:0:0:0:
192,192,52017,128,2,52303:0:0:0:0:
320,192,52303,1,2,0:0:0:0:
64,192,52446,1,0,0:0:0:0:
192,192,52517,1,0,0:0:0:0:
320,192,52589,1,2,0:0:0:0:
448,192,52731,1,0,0:0:0:0:
320,192,52803,1,0,0:0:0:0:
192,192,52874,1,2,0:0:0:0:
320,192,53160,1,4,0:0:0:0:
448,192,53160,1,0,0:0:0:0:
192,192,53303,1,0,0:0:0:0:
64,192,53446,1,0,0:0:0:100:snare_f_b.wav
448,192,53446,1,0,0:0:0:0:
320,192,53589,1,0,0:0:0:0:
64,192,53731,1,2,0:0:0:0:
192,192,53731,1,0,0:0:0:0:
320,192,53922,1,2,0:0:0:0:
448,192,53922,1,0,0:0:0:0:
192,192,54112,128,2,54303:0:0:0:0:
448,192,54303,128,0,54589:0:0:0:0:
192,192,54446,1,0,0:0:0:0:
64,192,54589,128,0,54874:0:0:0:0:
320,192,54731,1,0,0:0:0:0:
448,192,54874,1,2,0:0:0:0:
192,192,55017,1,0,0:0:0:0:
64,192,55160,1,0,0:0:0:100:snare_ff.wav
448,192,55160,1,0,0:0:0:0:
320,192,55446,1,4,0:0:0:0:
448,192,55446,1,0,0:0:0:0:
64,192,55731,1,0,0:0:0:100:snare_f_b.wav
448,192,55731,1,0,0:0:0:0:
320,192,55874,1,0,0:0:0:0:
64,192,56017,1,2,0:0:0:0:
192,192,56089,1,0,0:0:0:0:
320,192,56160,1,0,0:0:0:0:
64,192,56303,1,2,0:0:0:0:
320,192,56446,1,0,0:0:0:0:
448,192,56589,128,2,56874:0:0:0:0:
64,192,56731,1,0,0:0:0:0:
192,192,56874,128,0,57160:0:0:0:0:
320,192,57017,1,0,0:0:0:0:
448,192,57160,1,2,0:0:0:0:
64,192,57303,1,0,0:0:0:0:
320,192,57446,128,2,57731:0:0:0:0:
64,192,57731,128,2,58017:0:0:0:0:
320,192,57874,1,0,0:0:0:0:
192,192,58017,1,0,0:0:0:100:snare_f_b.wav
448,192,58017,1,0,0:0:0:0:
320,192,58160,1,0,0:0:0:0:
64,192,58303,1,2,0:0:0:0:
320,192,58446,1,0,0:0:0:0:
192,192,58517,1,0,0:0:0:0:
64,192,58589,1,2,0:0:0:0:
320,192,58731,1,0,0:0:0:0:
64,192,58874,128,0,59160:0:0:0:0:
448,192,59160,128,0,59446:0:0:0:0:
192,192,59446,128,0,60017:0:0:0:0:
64,192,60017,1,2,0:0:0:0:
448,192,60017,1,0,0:0:0:0:
320,192,60589,1,6,0:0:0:0:
448,192,60589,1,0,0:0:0:100:piano4_1_000.wav
192,192,60779,1,2,0:0:0:0:
320,192,60969,1,2,0:0:0:0:
64,192,61160,1,2,0:0:0:0:
448,192,61160,1,0,0:0:0:100:piano4_004.wav
192,192,61350,1,2,0:0:0:0:
320,192,61541,1,2,0:0:0:0:
64,192,61731,1,2,0:0:0:0:
192,192,61731,1,0,0:0:0:100:piano4_010.wav
320,192,61922,1,2,0:0:0:0:
192,192,62112,1,2,0:0:0:0:
64,192,62303,1,2,0:0:0:0:
448,192,62303,1,0,0:0:0:100:piano4_016.wav
320,192,62493,1,0,0:0:0:100:piano4_016.wav
192,192,62684,1,0,0:0:0:100:piano4_016.wav
320,192,62874,1,2,0:0:0:0:
448,192,62874,1,0,0:0:0:100:piano4_018.wav
192,192,63065,1,2,0:0:0:0:
320,192,63255,1,2,0:0:0:0:
64,192,63446,1,2,0:0:0:0:
448,192,63446,1,0,0:0:0:100:piano4_024.wav
192,192,63636,1,2,0:0:0:0:
320,192,63827,1,2,0:0:0:0:
64,192,64017,1,2,0:0:0:0:
192,192,64017,1,0,0:0:0:100:piano4_026.wav
320,192,64589,128,2,65160:0:0:0:0:
64,192,65160,1,6,0:0:0:0:
192,192,65160,1,0,0:0:0:100:piano4_1_000.wav
320,192,65350,1,2,0:0:0:0:
192,192,65541,1,2,0:0:0:0:
64,192,65731,1,2,0:0:0:0:
448,192,65731,1,0,0:0:0:100:piano4_004.wav
320,192,65922,1,2,0:0:0:0:
192,192,66112,1,2,0:0:0:0:
320,192,66303,1,2,0:0:0:0:
448,192,66303,1,0,0:0:0:100:piano4_010.wav
192,192,66493,1,0,0:0:0:100:piano4_012.wav
320,192,66684,1,0,0:0:0:100:piano4_014.wav
64,192,66874,1,2,0:0:0:0:
448,192,66874,1,0,0:0:0:100:piano4_016.wav
192,192,67065,1,0,0:0:0:100:piano4_016.wav
320,192,67255,1,0,0:0:0:100:piano4_016.wav
64,192,67446,1,2,0:0:0:0:
192,192,67446,1,0,0:0:0:100:piano4_018.wav
320,192,67636,1,2,0:0:0:0:
192,192,67827,1,2,0:0:0:0:
320,192,68017,1,4,0:0:0:0:
448,192,68017,128,2,68208:0:0:0:0:
192,192,68208,128,6,68398:0:0:0:0:
320,192,68398,128,6,68589:0:0:0:0:
64,192,68589,128,2,68779:0:0:0:0:
192,192,68589,1,4,0:0:0:0:
320,192,68779,128,6,68969:0:0:0:0:
192,192,68969,128,6,69160:0:0:0:0:
320,192,69160,1,4,0:0:0:0:
448,192,69160,128,2,69446:0:0:0:0:
64,192,69446,1,8,0:0:0:0:
192,192,69446,1,2,0:0:0:0:
320,192,69589,1,0,0:0:0:0:
192,192,69660,1,0,0:0:0:0:
64,192,69731,1,2,0:0:0:0:
320,192,69874,1,0,0:0:0:0:
192,192,70017,1,10,0:0:0:0:
448,192,70160,1,0,0:0:0:0:
320,192,70231,1,0,0:0:0:0:
64,192,70303,128,2,70589:0:0:0:0:
448,192,70589,1,10,0:0:0:0:
192,192,70684,1,0,0:0:0:0:
320,192,70874,1,2,0:0:0:0:
192,192,71065,1,0,0:0:0:0:
448,192,71160,1,10,0:0:0:0:
64,192,71255,1,0,0:0:0:0:
320,192,71350,1,0,0:0:0:0:
192,192,71446,128,2,71731:0:0:0:0:
64,192,71731,1,8,0:0:0:0:
448,192,71731,1,2,0:0:0:0:
320,192,71874,1,0,0:0:0:0:
192,192,72017,1,2,0:0:0:0:
448,192,72160,1,0,0:0:0:0:
320,192,72231,1,0,0:0:0:0:
192,192,72303,1,10,0:0:0:0:
64,192,72446,1,0,0:0:0:0:
320,192,72589,128,2,72874:0:0:0:0:
64,192,72874,1,10,0:0:0:0:
192,192,72969,1,0,0:0:0:0:
320,192,73065,1,0,0:0:0:0:
448,192,73160,1,2,0:0:0:0:
192,192,73303,1,0,0:0:0:0:
320,192,73446,1,10,0:0:0:0:
64,192,73589,1,0,0:0:0:0:
192,192,73660,1,0,0:0:0:0:
448,192,73731,128,2,74017:0:0:0:0:
64,192,74017,1,8,0:0:0:0:
192,192,74017,1,2,0:0:0:0:
320,192,74160,1,0,0:0:0:0:
64,192,74303,1,2,0:0:0:0:
320,192,74446,1,0,0:0:0:0:
192,192,74589,1,10,0:0:0:0:
448,192,74731,1,0,0:0:0:0:
320,192,74803,1,0,0:0:0:0:
64,192,74874,128,2,75160:0:0:0:0:
448,192,75160,1,10,0:0:0:0:
192,192,75255,1,0,0:0:0:0:
320,192,75446,1,2,0:0:0:0:
64,192,75541,1,0,0:0:0:0:
192,192,75636,1,0,0:0:0:0:
448,192,75731,1,10,0:0:0:0:
192,192,75827,1,0,0:0:0:0:
320,192,75922,1,0,0:0:0:0:
64,192,76017,1,2,0:0:0:0:
448,192,76160,1,0,0:0:0:0:
320,192,76231,1,0,0:0:0:0:
192,192,76303,1,10,0:0:0:0:
320,192,76446,1,0,0:0:0:0:
64,192,76589,1,2,0:0:0:0:
320,192,76731,1,0,0:0:0:0:
192,192,76803,1,0,0:0:0:0:
64,192,76874,1,10,0:0:0:0:
448,192,77017,1,0,0:0:0:0:
64,192,77160,128,4,77350:0:0:0:0:
192,192,77160,1,2,0:0:0:0:
320,192,77350,128,6,77541:0:0:0:0:
192,192,77541,128,6,77731:0:0:0:0:
320,192,77731,1,2,0:0:0:0:
448,192,77731,128,4,77922:0:0:0:0:
192,192,77922,128,6,78112:0:0:0:0:
320,192,78112,128,6,78303:0:0:0:0:
64,192,78303,1,6,0:0:0:0:
192,192,78303,1,0,0:0:0:100:piano5_000.wav
320,192,78874,1,6,0:0:0:0:
448,192,78874,1,0,0:0:0:100:piano5_001.wav
192,192,79065,1,6,0:0:0:0:
320,192,79255,1,6,0:0:0:0:
64,192,79446,1,6,0:0:0:0:
192,192,79446,1,0,0:0:0:100:piano5_004.wav
320,192,79636,1,6,0:0:0:0:
192,192,79827,1,6,0:0:0:0:
64,192,80017,1,6,0:0:0:0:
448,192,80017,1,0,0:0:0:100:piano5_007.wav
320,192,80589,1,2,0:0:0:0:
448,192,80589,1,0,0:0:0:100:piano5_008.wav
192,192,81589,128,0,81731:0:0:0:100:harp3_1_x_021.wav
448,192,81731,1,0,0:0:0:100:piano5_009.wav
64,192,82160,1,0,0:0:0:100:harp3_005.wav
320,192,82303,1,0,0:0:0:100:harp3_007.wav
192,192,82446,1,0,0:0:0:100:gloken4_000.wav
448,192,82589,1,0,0:0:0:100:gloken4_001.wav
320,192,82731,1,0,0:0:0:100:gloken4_002.wav
64,192,82874,1,0,0:0:0:100:piano5_010.wav
320,192,83874,128,0,84017:0:0:0:0:
64,192,84017,1,0,0:0:0:100:piano5_011.wav
192,192,84446,128,0,84589:0:0:0:0:
448,192,84589,1,0,0:0:0:100:piano5_012.wav
320,192,85017,128,0,85160:0:0:0:0:
64,192,85160,1,0,0:0:0:100:piano5_013.wav
320,192,86303,128,0,87446:0:0:0:0:
64,192,87446,1,4,0:0:0:0:
448,192,87446,1,2,0:0:0:0:
320,192,87731,1,2,0:0:0:0:
448,192,87731,1,4,0:0:0:0:
192,192,88160,1,0,0:0:0:0:
320,192,88589,1,4,0:0:0:0:
448,192,88589,1,2,0:0:0:0:
64,192,88803,1,6,0:0:0:0:
320,192,88874,1,6,0:0:0:0:
64,192,89017,1,4,0:0:0:0:
192,192,89017,1,2,0:0:0:0:
448,192,89231,1,6,0:0:0:0:
192,192,89303,1,6,0:0:0:0:
64,192,89446,128,6,89589:0:0:0:0:
320,192,89589,1,6,0:0:0:0:
192,192,89660,1,6,0:0:0:0:
64,192,89731,1,4,0:0:0:0:
448,192,89731,1,2,0:0:0:0:
64,192,90017,1,4,0:0:0:0:
192,192,90017,1,2,0:0:0:0:
320,192,90446,1,2,0:0:0:0:
448,192,90446,1,4,0:0:0:0:
192,192,90589,1,6,0:0:0:0:
320,192,90731,1,6,0:0:0:0:
448,192,90874,1,6,0:0:0:0:
192,192,90946,1,6,0:0:0:0:
320,192,91089,1,2,0:0:0:0:
448,192,91089,1,4,0:0:0:0:
64,192,91231,1,6,0:0:0:0:
320,192,91303,1,6,0:0:0:0:
64,192,91446,1,2,0:0:0:0:
192,192,91446,1,4,0:0:0:0:
320,192,91589,1,6,0:0:0:0:
448,192,91731,128,6,91874:0:0:0:0:
192,192,91874,1,6,0:0:0:0:
320,192,91946,1,6,0:0:0:0:
64,192,92017,1,2,0:0:0:0:
448,192,92017,1,4,0:0:0:0:
320,192,92303,1,4,0:0:0:0:
448,192,92303,1,2,0:0:0:0:
192,192,92731,1,0,0:0:0:0:
320,192,92874,1,4,0:0:0:0:
448,192,92874,1,2,0:0:0:0:
64,192,93017,1,6,0:0:0:0:
320,192,93089,1,6,0:0:0:0:
64,192,93231,1,2,0:0:0:0:
192,192,93231,1,4,0:0:0:0:
448,192,93374,1,6,0:0:0:0:
192,192,93446,1,6,0:0:0:0:
320,192,93589,1,4,0:0:0:0:
448,192,93589,1,2,0:0:0:0:
64,192,93731,1,6,0:0:0:0:
320,192,93874,1,2,0:0:0:0:
448,192,93874,1,4,0:0:0:0:
64,192,94017,128,6,94160:0:0:0:0:
320,192,94160,1,6,0:0:0:0:
192,192,94231,1,6,0:0:0:0:
64,192,94303,1,2,0:0:0:0:
448,192,94303,1,4,0:0:0:0:
64,192,94589,1,2,0:0:0:0:
192,192,94589,1,4,0:0:0:0:
320,192,95017,1,4,0:0:0:0:
448,192,95017,1,2,0:0:0:0:
64,192,95446,128,2,95874:0:0:0:0:
192,192,95446,1,4,0:0:0:0:
320,192,95874,1,4,0:0:0:0:
448,192,95874,128,2,96303:0:0:0:0:
64,192,96303,128,2,96446:0:0:0:0:
192,192,96303,1,4,0:0:0:0:
448,192,96446,1,6,0:0:0:0:
320,192,96517,1,6,0:0:0:0:
64,192,96589,1,4,0:0:0:0:
192,192,96589,1,2,0:0:0:0:
448,192,96874,1,2,0:0:0:0:
64,192,97017,1,0,0:0:0:0:
320,192,97160,1,2,0:0:0:0:
192,192,97303,1,0,0:0:0:0:
320,192,97446,1,2,0:0:0:0:
448,192,97446,1,0,0:0:0:0:
64,192,97589,1,0,0:0:0:0:
320,192,97731,1,2,0:0:0:0:
192,192,97874,1,0,0:0:0:0:
448,192,98017,1,2,0:0:0:0:
64,192,98160,1,0,0:0:0:0:
192,192,98303,1,2,0:0:0:0:
320,192,98446,1,0,0:0:0:0:
64,192,98589,1,2,0:0:0:0:
448,192,98589,1,0,0:0:0:0:
320,192,98874,1,2,0:0:0:0:
192,192,99017,1,0,0:0:0:0:
320,192,99160,1,2,0:0:0:0:
448,192,99303,1,0,0:0:0:0:
192,192,99446,1,2,0:0:0:0:
320,192,99589,1,0,0:0:0:0:
64,192,99731,1,2,0:0:0:0:
192,192,99731,1,0,0:0:0:0:
448,192,99874,1,0,0:0:0:0:
192,192,100017,1,2,0:0:0:0:
320,192,100160,1,0,0:0:0:0:
64,192,100303,1,2,0:0:0:0:
448,192,100446,1,0,0:0:0:0:
320,192,100589,1,2,0:0:0:0:
192,192,100731,1,0,0:0:0:0:
64,192,100874,1,2,0:0:0:0:
448,192,100874,1,0,0:0:0:0:
64,192,101160,1,2,0:0:0:0:
192,192,101160,1,4,0:0:0:0:
448,192,101303,1,0,0:0:0:0:
192,192,101446,1,2,0:0:0:0:
320,192,101589,1,0,0:0:0:0:
64,192,101731,1,2,0:0:0:0:
192,192,101874,1,0,0:0:0:0:
320,192,102017,1,2,0:0:0:0:
448,192,102017,1,0,0:0:0:0:
192,192,102160,1,0,0:0:0:100:piano1_5.wav
320,192,102231,1,0,0:0:0:100:piano1_6.wav
448,192,102303,1,2,0:0:0:0:
192,192,102446,1,0,0:0:0:100:piano1_8.wav
320,192,102589,1,2,0:0:0:0:
64,192,102731,1,0,0:0:0:100:piano1_9.wav
448,192,102874,1,2,0:0:0:0:
320,192,103017,1,0,0:0:0:100:piano1_11.wav
64,192,103160,1,2,0:0:0:0:
192,192,103160,1,0,0:0:0:100:piano1_7.wav
64,192,103446,1,2,0:0:0:0:
448,192,103446,1,0,0:0:0:100:piano1_12.wav
192,192,103589,1,2,0:0:0:0:
320,192,103731,1,2,0:0:0:0:
448,192,103874,1,2,0:0:0:0:
64,192,104017,1,2,0:0:0:0:
192,192,104017,1,0,0:0:0:0:
320,192,104160,1,2,0:0:0:0:
192,192,104303,1,2,0:0:0:0:
64,192,104446,1,2,0:0:0:0:
320,192,104589,128,2,104731:0:0:0:0:
64,192,104731,1,2,0:0:0:0:
192,192,104803,1,2,0:0:0:0:
448,192,104874,128,2,105017:0:0:0:0:
64,192,105017,1,2,0:0:0:0:
192,192,105089,1,2,0:0:0:0:
320,192,105160,1,6,0:0:0:0:
448,192,105160,1,0,0:0:0:100:piano1_25.wav
320,192,105731,1,0,0:0:0:100:piano_fx1_000.wav
64,192,105874,1,0,0:0:0:100:piano_fx1_001.wav
192,192,106017,1,0,0:0:0:100:piano_fx1_002.wav
448,192,106160,1,0,0:0:0:100:piano_fx1_003.wav
320,192,106303,1,0,0:0:0:100:piano_fx1_004.wav
64,192,106446,1,0,0:0:0:100:piano_fx1_005.wav
448,192,106589,1,0,0:0:0:100:piano_fx1_006.wav
192,192,106874,1,0,0:0:0:100:piano_fx1_000.wav
448,192,107017,1,0,0:0:0:100:piano_fx1_001.wav
320,192,107160,1,0,0:0:0:100:piano_fx1_002.wav
64,192,107303,1,0,0:0:0:100:piano_fx1_003.wav
192,192,107446,1,0,0:0:0:100:piano_fx1_004.wav
448,192,107589,1,0,0:0:0:100:piano_fx1_005.wav
64,192,107731,1,0,0:0:0:100:piano_fx1_006.wav
320,192,108017,1,0,0:0:0:100:piano_fx1_000.wav
64,192,108160,1,0,0:0:0:100:piano_fx1_001.wav
192,192,108303,1,0,0:0:0:100:piano_fx1_002.wav
448,192,108446,1,0,0:0:0:100:piano_fx1_003.wav
320,192,108589,1,0,0:0:0:100:piano_fx1_004.wav
64,192,108731,1,0,0:0:0:100:piano_fx1_005.wav
448,192,108874,1,0,0:0:0:100:piano_fx1_006.wav
320,192,109160,1,6,0:0:0:0:
192,192,109231,1,6,0:0:0:0:
64,192,109303,128,6,109446:0:0:0:0:
448,192,109446,1,6,0:0:0:0:
320,192,109517,1,6,0:0:0:0:
192,192,109589,128,6,109731:0:0:0:0:
64,192,109731,1,6,0:0:0:0:
320,192,109803,1,6,0:0:0:0:
448,192,109874,128,6,110017:0:0:0:0:
64,192,110017,1,6,0:0:0:0:
192,192,110089,1,6,0:0:0:0:
320,192,110160,128,6,110303:0:0:0:0:
64,192,110303,1,0,0:0:0:100:piano6_27.wav
320,192,110874,1,6,0:0:0:0:
192,192,110946,1,6,0:0:0:0:
64,192,111017,128,6,111160:0:0:0:0:
448,192,111160,1,6,0:0:0:0:
320,192,111231,1,6,0:0:0:0:
192,192,111303,128,6,111446:0:0:0:0:
64,192,111446,1,6,0:0:0:0:
448,192,111446,1,0,0:0:0:100:fx_clap2.wav
320,192,111589,1,0,0:0:0:0:
64,192,111731,1,8,0:0:0:0:
192,192,111731,1,2,0:0:0:0:
320,192,111874,1,0,0:0:0:0:
64,192,112017,1,2,0:0:0:0:
192,192,112160,1,0,0:0:0:0:
320,192,112303,1,8,0:0:0:0:
448,192,112303,1,2,0:0:0:0:
64,192,112589,1,2,0:0:0:0:
192,192,112731,1,0,0:0:0:0:
320,192,112874,1,8,0:0:0:0:
448,192,112874,1,2,0:0:0:0:
192,192,113017,1,0,0:0:0:0:
448,192,113160,1,2,0:0:0:0:
320,192,113303,1,0,0:0:0:0:
64,192,113446,1,8,0:0:0:0:
192,192,113446,1,2,0:0:0:0:
448,192,113589,1,0,0:0:0:0:
192,192,113731,1,2,0:0:0:0:
320,192,113874,1,0,0:0:0:0:
64,192,114017,1,8,0:0:0:0:
448,192,114017,1,2,0:0:0:0:
192,192,114160,1,0,0:0:0:0:
320,192,114303,1,2,0:0:0:0:
192,192,114446,1,0,0:0:0:0:
320,192,114589,1,8,0:0:0:0:
448,192,114589,1,2,0:0:0:0:
192,192,114874,1,2,0:0:0:0:
320,192,115017,1,0,0:0:0:0:
64,192,115160,1,8,0:0:0:0:
448,192,115160,1,2,0:0:0:0:
192,192,115303,1,0,0:0:0:0:
448,192,115446,1,2,0:0:0:0:
320,192,115589,1,0,0:0:0:0:
64,192,115731,1,8,0:0:0:0:
192,192,115731,1,2,0:0:0:0:
320,192,115874,1,0,0:0:0:0:
192,192,116017,1,2,0:0:0:0:
192,192,116160,1,0,0:0:0:100:piano6_16.wav
320,192,116303,1,10,0:0:0:0:
448,192,116303,1,0,0:0:0:100:piano6_17.wav
64,192,116446,1,0,0:0:0:100:piano6_18.wav
448,192,116589,1,2,0:0:0:0:
320,192,116731,1,0,0:0:0:0:
64,192,116874,1,8,0:0:0:0:
192,192,116874,1,2,0:0:0:0:
320,192,117160,1,2,0:0:0:0:
448,192,117160,1,0,0:0:0:0:
192,192,117303,1,2,0:0:0:0:
448,192,117446,1,10,0:0:0:0:
320,192,117589,1,2,0:0:0:0:
64,192,117731,1,2,0:0:0:0:
192,192,117731,1,0,0:0:0:0:
320,192,117874,1,2,0:0:0:0:
448,192,118017,1,10,0:0:0:0:
192,192,118160,1,2,0:0:0:0:
320,192,118303,128,6,118446:0:0:0:0:
64,192,118446,1,6,0:0:0:0:
448,192,118517,1,6,0:0:0:0:
192,192,118589,128,6,118731:0:0:0:0:
320,192,118731,1,6,0:0:0:0:
64,192,118803,1,6,0:0:0:0:
448,192,118874,128,6,119017:0:0:0:0:
192,192,119017,1,6,0:0:0:0:
320,192,119089,1,6,0:0:0:0:
64,192,119160,128,6,119303:0:0:0:0:
320,192,119303,1,6,0:0:0:0:
192,192,119374,1,6,0:0:0:0:
64,192,119446,1,4,0:0:0:0:
448,192,119446,1,2,0:0:0:0:
64,192,119731,1,8,0:0:0:0:
448,192,119731,1,2,0:0:0:0:
192,192,119874,1,0,0:0:0:0:
448,192,120017,1,2,0:0:0:0:
320,192,120160,1,0,0:0:0:0:
64,192,120303,1,8,0:0:0:0:
192,192,120303,1,2,0:0:0:0:
320,192,120446,1,0,0:0:0:0:
64,192,120589,1,2,0:0:0:0:
192,192,120731,1,0,0:0:0:0:
320,192,120874,1,2,0:0:0:0:
448,192,120874,1,8,0:0:0:0:
192,192,121017,1,0,0:0:0:0:
448,192,121160,1,2,0:0:0:0:
320,192,121303,1,0,0:0:0:0:
64,192,121446,1,2,0:0:0:0:
192,192,121446,1,8,0:0:0:0:
448,192,121731,1,2,0:0:0:0:
320,192,121874,1,0,0:0:0:0:
64,192,122017,1,8,0:0:0:0:
192,192,122017,1,2,0:0:0:0:
320,192,122160,1,0,0:0:0:0:
64,192,122303,1,2,0:0:0:0:
192,192,122446,1,0,0:0:0:0:
320,192,122589,1,8,0:0:0:0:
448,192,122589,1,2,0:0:0:0:
64,192,122731,1,0,0:0:0:0:
320,192,122874,1,2,0:0:0:0:
192,192,123017,1,0,0:0:0:0:
64,192,123160,1,8,0:0:0:0:
448,192,123160,1,2,0:0:0:0:
320,192,123303,1,0,0:0:0:0:
192,192,123446,1,2,0:0:0:0:
320,192,123589,1,0,0:0:0:0:
64,192,123731,1,8,0:0:0:0:
192,192,123731,1,2,0:0:0:0:
320,192,124017,1,2,0:0:0:0:
192,192,124160,1,0,0:0:0:0:
64,192,124303,1,8,0:0:0:0:
448,192,124303,1,2,0:0:0:0:
320,192,124446,1,0,0:0:0:0:
64,192,124589,1,2,0:0:0:0:
192,192,124731,1,0,0:0:0:0:
320,192,124874,1,8,0:0:0:0:
448,192,124874,1,2,0:0:0:0:
192,192,125017,1,0,0:0:0:0:
320,192,125160,1,2,0:0:0:0:
320,192,125303,1,0,0:0:0:100:piano6_16.wav
64,192,125446,1,10,0:0:0:0:
192,192,125446,1,0,0:0:0:100:piano6_17.wav
448,192,125589,1,0,0:0:0:100:piano6_18.wav
64,192,125731,1,2,0:0:0:0:
192,192,125874,1,0,0:0:0:0:
320,192,126017,1,8,0:0:0:0:
448,192,126017,1,2,0:0:0:0:
64,192,126303,1,2,0:0:0:0:
192,192,126303,1,0,0:0:0:0:
320,192,126446,1,2,0:0:0:0:
64,192,126589,1,10,0:0:0:0:
192,192,126731,1,2,0:0:0:0:
320,192,126874,1,2,0:0:0:0:
448,192,126874,1,0,0:0:0:0:
192,192,127017,1,2,0:0:0:0:
64,192,127160,1,10,0:0:0:0:
320,192,127303,1,2,0:0:0:0:
192,192,127446,128,6,127589:0:0:0:0:
448,192,127589,1,6,0:0:0:0:
64,192,127660,1,6,0:0:0:0:
320,192,127731,128,6,127874:0:0:0:0:
192,192,127874,1,6,0:0:0:0:
448,192,127946,1,6,0:0:0:0:
64,192,128017,128,6,128160:0:0:0:0:
320,192,128160,1,6,0:0:0:0:
192,192,128231,1,6,0:0:0:0:
448,192,128303,128,6,128446:0:0:0:0:
192,192,128446,1,6,0:0:0:0:
320,192,128517,1,6,0:0:0:0:
64,192,128589,1,4,0:0:0:0:
448,192,128589,1,2,0:0:0:0:
64,192,128874,1,8,0:0:0:0:
448,192,128874,1,2,0:0:0:0:
320,192,129017,1,0,0:0:0:0:
64,192,129160,1,2,0:0:0:0:
192,192,129303,1,0,0:0:0:0:
320,192,129446,1,8,0:0:0:0:
448,192,129446,1,2,0:0:0:0:
192,192,129589,1,0,0:0:0:0:
448,192,129731,1,2,0:0:0:0:
320,192,129874,1,0,0:0:0:0:
64,192,130017,1,8,0:0:0:0:
192,192,130017,1,2,0:0:0:0:
320,192,130160,1,0,0:0:0:0:
64,192,130303,1,2,0:0:0:0:
192,192,130446,1,0,0:0:0:0:
320,192,130589,1,8,0:0:0:0:
448,192,130589,1,2,0:0:0:0:
64,192,130874,1,2,0:0:0:0:
192,192,131017,1,0,0:0:0:0:
320,192,131160,1,8,0:0:0:0:
448,192,131160,1,2,0:0:0:0:
192,192,131303,1,0,0:0:0:0:
448,192,131446,1,2,0:0:0:0:
320,192,131589,1,0,0:0:0:0:
64,192,131731,1,8,0:0:0:0:
192,192,131731,1,2,0:0:0:0:
448,192,131874,1,0,0:0:0:0:
192,192,132017,1,2,0:0:0:0:
320,192,132160,1,0,0:0:0:0:
64,192,132303,1,8,0:0:0:0:
448,192,132303,1,2,0:0:0:0:
192,192,132446,1,0,0:0:0:0:
320,192,132589,1,2,0:0:0:0:
192,192,132731,1,0,0:0:0:0:
320,192,132874,1,8,0:0:0:0:
448,192,132874,1,2,0:0:0:0:
64,192,133160,1,2,0:0:0:0:
192,192,133160,1,0,0:0:0:0:
320,192,133303,1,2,0:0:0:0:
64,192,133446,1,10,0:0:0:0:
192,192,133589,1,2,0:0:0:0:
320,192,133731,1,2,0:0:0:0:
448,192,133731,1,0,0:0:0:0:
192,192,133874,1,2,0:0:0:0:
64,192,134017,1,10,0:0:0:0:
320,192,134160,1,2,0:0:0:0:
64,192,134303,1,2,0:0:0:0:
448,192,134303,1,0,0:0:0:100:piano6_15.wav
192,192,134446,1,2,0:0:0:0:
448,192,134589,1,10,0:0:0:0:
320,192,134731,1,2,0:0:0:0:
64,192,134874,1,2,0:0:0:0:
192,192,134874,1,0,0:0:0:0:
320,192,135017,1,2,0:0:0:0:
448,192,135160,1,10,0:0:0:0:
192,192,135303,1,2,0:0:0:0:
320,192,135446,1,2,0:0:0:0:
192,192,135517,1,2,0:0:0:0:
64,192,135589,128,2,135731:0:0:0:0:
448,192,135731,1,10,0:0:0:0:
320,192,135803,1,2,0:0:0:0:
192,192,135874,128,2,136017:0:0:0:0:
64,192,136017,1,2,0:0:0:0:
320,192,136089,1,2,0:0:0:0:
448,192,136160,128,2,136303:0:0:0:0:
64,192,136303,1,10,0:0:0:0:
192,192,136374,1,2,0:0:0:0:
320,192,136446,128,2,136589:0:0:0:0:
64,192,136589,128,6,137017:0:0:0:0:
448,192,136589,1,0,0:0:0:100:fx_clap2.wav
320,192,137017,1,2,0:0:0:0:
448,192,137017,1,4,0:0:0:0:
64,192,137160,1,2,0:0:0:0:
192,192,137160,1,4,0:0:0:0:
