osu file format v14

[General]
AudioFilename: audio.mp3
AudioLeadIn: 0
PreviewTime: 76484
Countdown: 0
SampleSet: Soft
StackLeniency: 0.7
Mode: 0
LetterboxInBreaks: 0
WidescreenStoryboard: 1

[Editor]
DistanceSpacing: 0.9
BeatDivisor: 6
GridSize: 32
TimelineZoom: 3.699998

[Metadata]
Title:Arianrhod
TitleUnicode:Arianrhod
Artist:LeaF
ArtistUnicode:LeaF
Creator:Zelq
Version:Lunatic
Source:東方紅魔郷 ~ the Embodiment of Scarlet Devil.
Tags:mbc4 featured artist monthly beatmapping contest fa mappers' guild mpg sakuya izayoi instrumental 東方Project zun touhou theme Lunar Clock ~ Luna Dial 月時計 ~ ルナ・ダイアル video game osu!
BeatmapID:2551517
BeatmapSetID:1174631

[Difficulty]
HPDrainRate:5
CircleSize:4.2
OverallDifficulty:8
ApproachRate:9
SliderMultiplier:2
SliderTickRate:1

[Events]
//Background and Video events
0,0,"mbc4.jpg",0,0
//Break Periods
//Storyboard Layer 0 (Background)
//Storyboard Layer 1 (Fail)
//Storyboard Layer 2 (Pass)
//Storyboard Layer 3 (Foreground)
//Storyboard Layer 4 (Overlay)
//Storyboard Sound Samples

[TimingPoints]
1484,375,4,2,1,70,1,0
1484,-125,4,2,1,70,0,0
2984,-125,4,2,1,60,0,0
4296,-125,4,2,1,70,0,0
4484,-83.3333333333333,4,2,2,80,0,0
4671,-100,4,2,1,75,0,0
5140,-100,4,1,100,75,0,0
5233,-100,4,2,1,75,0,0
5890,-100,4,1,100,75,0,0
5983,-100,4,2,1,75,0,0
6734,-100,4,2,1,65,0,0
7484,-83.3333333333333,4,2,1,75,0,0
7671,-100,4,2,1,75,0,0
8140,-100,4,1,100,75,0,0
8233,-100,4,2,1,75,0,0
8890,-100,4,1,100,75,0,0
8983,-100,4,2,1,75,0,0
9734,-100,4,2,1,65,0,0
10484,-100,4,2,2,80,0,0
10609,-100,4,2,1,80,0,0
10671,-100,4,2,100,80,0,0
10734,-100,4,2,100,70,0,0
10859,-100,4,2,1,80,0,0
11109,-100,4,2,1,70,0,0
11234,-100,4,2,1,80,0,0
11484,-100,4,2,1,70,0,0
11609,-100,4,2,1,80,0,0
11859,-100,4,2,1,70,0,0
11984,-100,4,2,1,80,0,0
12734,-100,4,2,1,70,0,0
13484,-100,4,2,1,80,0,0
14984,-100,4,2,1,70,0,0
16484,-83.3333333333333,4,2,3,95,0,1
16671,-83.3333333333333,4,2,1,85,0,1
20984,-83.3333333333333,4,2,1,90,0,1
21265,-83.3333333333333,4,2,1,70,0,1
21359,-83.3333333333333,4,2,1,90,0,1
22296,-83.3333333333333,4,2,1,95,0,1
22483,-83.3333333333333,4,2,3,95,0,1
22671,-83.3333333333333,4,2,1,85,0,1
25297,-83.3333333333333,4,3,100,85,0,1
25483,-83.3333333333333,4,2,2,90,0,1
25671,-83.3333333333333,4,2,1,85,0,1
26984,-83.3333333333333,4,2,1,90,0,1
28358,-83.3333333333333,4,2,1,70,0,1
28484,-83.3333333333333,4,2,2,85,0,0
28671,-83.3333333333333,4,1,101,75,0,0
28765,-83.3333333333333,4,2,1,75,0,0
28859,-100,4,2,1,75,0,0
30046,-100,4,3,100,75,0,0
30077,-100,4,2,100,70,0,0
30171,-100,4,2,1,75,0,0
31202,-100,4,2,1,70,0,0
31296,-100,4,2,1,75,0,0
31484,-100,4,2,1,80,0,0
31859,-100,4,2,1,75,0,0
32984,-83.3333333333333,4,2,1,75,0,0
33171,-83.3333333333333,4,2,1,70,0,0
33296,-83.3333333333333,4,2,1,75,0,0
33359,-83.3333333333333,4,2,1,80,0,0
33967,-83.3333333333333,4,3,101,80,0,0
33983,-83.3333333333333,4,2,101,70,0,0
34014,-83.3333333333333,4,3,100,80,0,0
34045,-83.3333333333333,4,2,100,70,0,0
34109,-83.3333333333333,4,2,1,80,0,0
34484,-83.3333333333333,4,2,2,85,0,0
34671,-83.3333333333333,4,2,1,75,0,0
35327,-83.3333333333333,4,2,1,70,0,0
35358,-83.3333333333333,4,3,100,75,0,0
35420,-83.3333333333333,4,2,1,75,0,0
36734,-83.3333333333333,4,2,1,80,0,0
37484,-90.9090909090909,4,2,2,85,0,0
37671,-90.9090909090909,4,2,1,75,0,0
43484,-90.9090909090909,4,2,2,85,0,0
43671,-90.9090909090909,4,2,1,75,0,0
46484,-83.3333333333333,4,2,3,90,0,0
46546,-83.3333333333333,4,2,1,70,0,0
46859,-83.3333333333333,4,2,3,90,0,0
46921,-83.3333333333333,4,2,1,70,0,0
47234,-83.3333333333333,4,2,3,90,0,0
47296,-83.3333333333333,4,2,1,70,0,0
47609,-83.3333333333333,4,2,3,90,0,0
47734,-83.3333333333333,4,2,1,70,0,0
48171,-125,4,2,1,65,0,0
49484,-142.857142857143,4,3,2,70,0,0
50046,-142.857142857143,4,3,2,65,0,0
51640,-142.857142857143,4,2,2,70,0,0
51734,-142.857142857143,4,3,2,65,0,0
51827,-142.857142857143,4,3,101,65,0,0
51921,-142.857142857143,4,2,101,70,0,0
52015,-142.857142857143,4,3,2,65,0,0
52202,-142.857142857143,4,2,2,70,0,0
52296,-142.857142857143,4,3,2,65,0,0
52484,-142.857142857143,4,3,2,70,0,0
52671,-142.857142857143,4,3,101,65,0,0
52858,-142.857142857143,4,3,2,65,0,0
54452,-142.857142857143,4,3,101,65,0,0
54640,-142.857142857143,4,3,2,65,0,0
54827,-142.857142857143,4,2,2,70,0,0
54921,-142.857142857143,4,3,2,65,0,0
55484,-111.111111111111,4,2,2,75,0,0
55609,-111.111111111111,4,2,2,70,0,0
55671,-111.111111111111,4,2,1,75,0,0
55984,-111.111111111111,4,2,1,70,0,0
56046,-111.111111111111,4,2,1,75,0,0
57452,-111.111111111111,4,3,101,75,0,0
57483,-111.111111111111,4,2,101,70,0,0
57546,-111.111111111111,4,2,1,75,0,0
57796,-111.111111111111,4,2,1,70,0,0
57921,-111.111111111111,4,2,1,75,0,0
58484,-111.111111111111,4,2,1,85,0,0
59046,-111.111111111111,4,2,1,75,0,0
60171,-90.9090909090908,4,2,1,75,0,0
60358,-90.9090909090908,4,2,1,70,0,0
60452,-83.3333333333333,4,2,1,75,0,0
60639,-83.3333333333333,4,2,1,70,0,0
60734,-76.9230769230769,4,2,1,75,0,0
60921,-76.9230769230769,4,2,1,70,0,0
61015,-71.4285714285714,4,2,1,75,0,0
61484,-100,4,2,1,85,0,0
64484,-90.9090909090909,4,2,1,85,0,0
65984,-76.9230769230769,4,2,2,80,0,0
66030,-76.9230769230769,4,2,1,75,0,0
67484,-71.4285714285714,4,2,1,85,0,0
68984,-71.4285714285714,4,2,1,95,0,0
70671,-100,4,2,1,75,0,0
71984,-100,4,2,2,85,0,0
72171,-100,4,2,1,75,0,0
73671,-76.9230769230769,4,2,1,75,0,0
73858,-76.9230769230769,4,2,1,70,0,0
73952,-76.9230769230769,4,2,1,75,0,0
74139,-76.9230769230769,4,2,1,70,0,0
74234,-76.9230769230769,4,2,1,75,0,0
74984,-76.9230769230769,4,2,1,85,0,0
76484,-125,4,3,2,60,0,0
80421,-125,4,3,101,60,0,0
80609,-125,4,3,2,60,0,0
81359,-125,4,2,2,70,0,0
81546,-125,4,3,2,60,0,0
82483,-125,4,3,2,70,0,0
84359,-125,4,2,2,70,0,0
84546,-125,4,3,2,70,0,0
85296,-125,4,3,101,70,0,0
85484,-125,4,3,2,70,0,0
87171,-125,4,3,101,70,0,0
87359,-125,4,3,2,70,0,0
87734,-100,4,3,2,70,0,0
88109,-100,4,3,1,70,0,0
88296,-100,4,2,1,70,0,0
88484,-100,4,3,2,75,0,0
89234,-100,4,3,2,80,0,0
89984,-83.3333333333333,4,2,3,95,0,1
90171,-83.3333333333333,4,2,1,85,0,1
92140,-83.3333333333333,4,2,1,70,0,1
92234,-83.3333333333333,4,2,1,85,0,1
94484,-83.3333333333333,4,2,1,90,0,1
95796,-83.3333333333333,4,2,1,95,0,1
95984,-83.3333333333333,4,2,3,95,0,1
96171,-83.3333333333333,4,2,1,85,0,1
98140,-83.3333333333333,4,2,1,70,0,1
98234,-83.3333333333333,4,2,1,85,0,1
98514,-83.3333333333333,4,2,1,70,0,1
98609,-83.3333333333333,4,2,1,85,0,1
98797,-83.3333333333333,4,3,100,85,0,1
98983,-83.3333333333333,4,2,2,90,0,1
99171,-83.3333333333333,4,2,1,85,0,1
100484,-83.3333333333333,4,2,1,90,0,1
100983,-83.3333333333333,4,2,1,70,0,1
101046,-83.3333333333333,4,2,1,90,0,1
101108,-83.3333333333333,4,2,1,70,0,1
101234,-83.3333333333333,4,2,1,90,0,1
101984,-83.3333333333333,4,2,3,95,0,1
102030,-83.3333333333333,4,2,3,70,0,1
102077,-83.3333333333333,4,2,1,80,0,1
102734,-83.3333333333333,4,2,1,60,0,1
102921,-100,4,2,1,85,0,1
103484,-90.9090909090909,4,2,2,85,0,0
103671,-90.9090909090909,4,2,1,75,0,0
109109,-90.9090909090909,4,2,1,80,0,0
109484,-90.9090909090909,4,2,2,85,0,0
109671,-90.9090909090909,4,2,1,75,0,0
109765,-90.9090909090909,4,2,1,70,0,0
109795,-90.9090909090909,4,3,101,75,0,0
109858,-90.9090909090909,4,2,1,75,0,0
110140,-90.9090909090909,4,2,1,70,0,0
110170,-90.9090909090909,4,3,101,75,0,0
110233,-90.9090909090909,4,2,1,75,0,0
110515,-90.9090909090909,4,2,1,70,0,0
110545,-90.9090909090909,4,3,101,75,0,0
110608,-90.9090909090909,4,2,1,75,0,0
110890,-90.9090909090909,4,2,1,70,0,0
110920,-90.9090909090909,4,3,101,75,0,0
110983,-90.9090909090909,4,2,1,75,0,0
112484,-90.9090909090909,4,2,3,90,0,0
112546,-90.9090909090909,4,2,1,70,0,0
112859,-90.9090909090909,4,2,3,90,0,0
112921,-90.9090909090909,4,2,1,70,0,0
113234,-90.9090909090909,4,2,3,90,0,0
113296,-90.9090909090909,4,2,1,70,0,0
113609,-90.9090909090909,4,2,3,90,0,0
113734,-90.9090909090909,4,2,1,70,0,0
114171,-90.9090909090909,4,2,1,60,0,0
115859,-90.9090909090909,4,2,3,85,0,0
116046,-90.9090909090909,4,2,3,81,0,0
116234,-90.9090909090909,4,2,3,77,0,0
116421,-90.9090909090909,4,2,3,73,0,0
116609,-90.9090909090909,4,2,3,69,0,0
116796,-90.9090909090909,4,2,3,65,0,0
116984,-90.9090909090909,4,2,3,61,0,0
117171,-90.9090909090909,4,2,3,57,0,0
117359,-90.9090909090909,4,2,3,53,0,0
117546,-90.9090909090909,4,2,3,49,0,0
117734,-90.9090909090909,4,2,3,45,0,0
117921,-90.9090909090909,4,2,3,41,0,0
118109,-90.9090909090909,4,2,3,37,0,0
118296,-90.9090909090909,4,2,3,33,0,0
118484,-90.9090909090909,4,2,3,29,0,0
118671,-90.9090909090909,4,2,3,25,0,0
118859,-90.9090909090909,4,2,3,21,0,0
119046,-90.9090909090909,4,2,3,17,0,0
119234,-90.9090909090909,4,2,3,13,0,0
119421,-90.9090909090909,4,2,3,9,0,0
119609,-90.9090909090909,4,2,3,5,0,0

[Colours]
Combo1 : 255,91,91
Combo2 : 207,207,207
Combo3 : 199,141,141
Combo4 : 85,170,255

[HitObjects]
0,87,1484,5,2,0:0:0:0:
87,21,1671,2,0,L|187:30,1,80,8|2,0:0|3:2,0:0:0:0:
195,54,1952,1,0,3:0:0:0:
195,54,2046,1,2,3:2:0:0:
293,13,2234,6,0,B|310:29|310:29|322:105,1,80,10|0,0:0|0:0,0:0:0:0:
398,116,2515,2,0,B|406:60|406:60|423:44,1,80,8|0,0:0|0:0,0:0:0:0:
505,18,2796,1,10,0:0:0:0:
479,147,2984,5,2,1:2:0:0:
398,116,3359,5,10,1:2:0:0:
318,84,3734,5,2,1:2:0:0:
485,154,4296,6,2,L|494:122,3,20,0|0|2|0,3:2|3:2|3:2|0:0,3:2:0:0:
482,176,4484,6,0,B|456:201|456:201|368:190,1,119.999996337891,6|2,3:2|1:2,0:0:0:0:
299,181,4765,1,0,3:0:0:0:
299,181,4859,1,10,3:2:0:0:
413,287,5046,2,0,L|311:273,1,100,0|8,1:0|1:0,0:0:0:0:
203,257,5421,1,2,1:2:0:0:
203,257,5515,1,0,3:0:0:0:
203,257,5609,1,10,3:2:0:0:
346,373,5796,2,0,L|244:359,1,100,0|8,1:0|1:0,0:0:0:0:
136,343,6171,1,2,1:2:0:0:
136,343,6265,1,0,3:0:0:0:
136,343,6359,1,10,3:2:0:0:
19,250,6546,5,0,1:0:0:0:
19,250,6640,1,0,1:0:0:0:
19,250,6734,2,0,P|56:264|115:235,1,100,10|2,1:0|0:0,0:0:0:0:
76,125,7109,1,10,3:2:0:0:
76,125,7202,2,0,P|51:124|27:131,1,50,0|2,3:2|3:2,0:0:0:0:
148,167,7484,6,0,B|173:159|173:159|239:180|239:180|282:165,1,119.999996337891,4|2,0:0|1:2,0:0:0:0:
281,97,7765,1,0,3:0:0:0:
281,97,7859,1,10,3:2:0:0:
204,256,8046,2,0,B|239:269|239:269|307:245,1,100,0|8,1:0|1:0,0:0:0:0:
399,204,8421,1,2,1:2:0:0:
399,204,8515,1,0,3:0:0:0:
399,204,8609,1,10,3:2:0:0:
205,351,8796,2,0,B|240:364|240:364|308:340,1,100,0|8,1:0|1:0,0:0:0:0:
399,300,9171,1,2,1:2:0:0:
399,300,9265,1,0,3:0:0:0:
399,300,9359,1,10,3:2:0:0:
475,133,9546,5,0,1:0:0:0:
475,133,9640,1,0,1:0:0:0:
475,133,9734,2,0,L|366:116,1,100,10|2,1:0|0:0,0:0:0:0:
289,105,10109,1,10,0:0:0:0:
346,31,10296,5,0,3:0:0:0:
346,31,10390,1,0,3:0:0:0:
346,31,10484,2,0,L|425:17,2,66.6666666666667,6|2|0,3:2|0:0|0:0,0:0:0:0:
239,98,10859,5,10,3:2:0:0:
186,124,10984,1,2,0:0:0:0:
128,112,11109,1,0,0:0:0:0:
91,65,11234,5,2,3:2:0:0:
140,98,11359,1,2,0:0:0:0:
158,154,11484,1,0,0:0:0:0:
135,209,11609,5,10,3:2:0:0:
140,150,11734,1,2,0:0:0:0:
179,106,11859,1,0,0:0:0:0:
239,98,11984,6,0,L|308:107,3,50,2|2|0|0,3:2|0:0|0:0|0:0,0:0:0:0:
270,186,12359,2,0,L|325:193,3,50,8|0|0|0,0:0|0:0|0:0|0:0,0:0:0:0:
223,259,12734,2,0,L|179:266,4,33.3333333333333,2|0|0|2|0,3:2|3:0|3:0|3:2|0:0,3:0:0:0:
301,308,13109,2,0,L|345:315,4,33.3333333333333,8|0|0|0|0,0:0|3:0|3:0|3:0|0:0,0:0:0:0:
256,384,13484,5,6,0:0:0:0:
256,260,13671,1,0,0:0:0:0:
256,260,13765,1,0,0:0:0:0:
256,260,13859,1,8,0:0:0:0:
256,130,14046,1,0,0:0:0:0:
256,130,14140,1,0,0:0:0:0:
256,130,14234,1,0,0:0:0:0:
256,0,14421,1,0,0:0:0:0:
256,0,14515,1,0,0:0:0:0:
256,0,14609,6,0,L|186:11,1,50,8|0,1:2|1:0,0:0:0:0:
128,74,14796,6,0,L|58:63,1,50,2|0,1:2|1:0,0:0:0:0:
0,0,14984,5,2,1:2:0:0:
0,384,16296,5,2,3:2:0:0:
66,329,16484,2,0,B|85:317|85:317|216:333,1,119.999996337891,4|2,0:0|3:2,0:0:0:0:
195,347,16734,2,0,L|242:354,1,39.9999987792969,0|0,3:0|3:0,0:0:0:0:
265,369,16859,2,0,P|296:331|250:254,1,119.999996337891,8|0,0:0|0:0,0:0:0:0:
183,228,17234,1,0,1:0:0:0:
302,193,17421,1,2,0:0:0:0:
420,159,17609,5,10,3:2:0:0:
420,159,17702,1,0,3:2:0:0:
420,159,17796,1,2,3:2:0:0:
420,159,17890,1,0,3:2:0:0:
420,159,17984,2,0,P|413:71|429:1,1,119.999996337891,2|2,3:2|3:2,0:0:0:0:
438,31,18234,2,0,L|491:21,2,39.9999987792969,0|0|8,3:0|3:0|0:0,0:0:0:0:
290,64,18546,1,0,0:0:0:0:
145,84,18734,2,0,L|20:58,1,119.999996337891,0|2,1:0|0:0,0:0:0:0:
204,10,19109,1,10,0:2:0:0:
275,153,19296,5,2,3:2:0:0:
275,153,19390,1,2,3:2:0:0:
275,153,19484,2,0,P|303:218|276:271,1,119.999996337891,2|2,3:2|3:2,0:0:0:0:
259,270,19734,2,0,L|220:275,1,39.9999987792969,0|0,3:0|3:0,0:0:0:0:
191,273,19859,2,0,P|163:208|190:155,1,119.999996337891,8|0,0:0|0:0,0:0:0:0:
378,300,20234,2,0,P|335:356|276:359,1,119.999996337891,0|2,1:0|0:0,0:0:0:0:
37,367,20609,5,10,3:2:0:0:
37,367,20702,1,2,3:2:0:0:
37,367,20796,1,2,3:2:0:0:
37,367,20890,1,2,3:2:0:0:
37,367,20984,2,0,L|168:359,1,119.999996337891,2|2,3:2|3:2,0:0:0:0:
241,355,21265,1,0,0:0:0:0:
241,355,21359,1,8,3:2:0:0:
122,265,21546,1,2,3:2:0:0:
122,265,21640,1,0,3:2:0:0:
122,265,21734,1,2,1:2:0:0:
26,199,21921,1,2,3:2:0:0:
26,199,22015,1,0,3:2:0:0:
26,199,22109,1,8,3:2:0:0:
92,86,22296,2,0,L|99:26,2,59.9999981689454,2|2|4,0:0|0:0|1:2,0:0:0:0:
260,71,22671,6,0,L|220:62,2,39.9999987792969,2|0|0,3:2|3:0|3:0,3:0:0:0:
293,70,22859,2,0,P|363:33|401:48,1,119.999996337891,8|0,0:0|0:0,0:0:0:0:
420,156,23234,2,0,P|350:193|312:178,1,119.999996337891,0|2,1:0|0:0,0:0:0:0:
476,24,23609,2,0,L|465:83,1,59.9999981689454,10|0,3:2|3:2,0:0:0:0:
502,159,23796,2,0,L|488:238,1,59.9999981689454,2|0,3:2|3:2,0:0:0:0:
476,304,23984,5,2,3:2:0:0:
392,357,24171,2,0,L|385:317,2,39.9999987792969,2|0|0,3:2|3:0|3:0,3:0:0:0:
378,375,24359,2,0,L|259:354,1,119.999996337891,8|0,0:0|0:0,0:0:0:0:
31,340,24734,2,0,B|59:363|59:363|147:343,1,119.999996337891,0|2,1:0|0:0,0:0:0:0:
260,231,25109,2,0,B|222:266|222:266|33:234,1,239.999992675781,10|6,0:2|3:2,0:0:0:0:
51,51,25671,5,2,3:2:0:0:
51,51,25734,2,0,L|65:102,1,39.9999987792969,0|0,3:0|3:0,0:0:0:0:
74,123,25859,2,0,B|123:113|123:113|143:118|143:118|191:106,1,119.999996337891,8|0,0:0|0:0,0:0:0:0:
313,25,26234,2,0,L|433:39,1,119.999996337891,0|2,1:0|0:0,0:0:0:0:
501,173,26609,5,2,1:2:0:0:
422,194,26734,1,2,1:2:0:0:
343,213,26859,1,2,3:2:0:0:
260,231,26984,6,0,L|269:151,1,79.9999975585938,2|2,1:2|0:0,0:0:0:0:
193,34,27234,1,2,0:0:0:0:
193,34,27359,2,0,L|135:50,2,39.9999987792969,8|0|0,3:2|3:0|3:0,3:0:0:0:
112,22,27546,2,0,L|54:38,2,39.9999987792969,2|0|0,3:2|3:0|3:0,3:0:0:0:
25,10,27734,5,2,1:2:0:0:
45,123,28109,5,2,1:2:0:0:
75,237,28296,6,0,L|63:195,2,39.9999987792969,2|0|0,0:2|0:0|0:0,0:0:0:0:
73,262,28484,6,0,B|111:238|167:269|149:278|193:303|252:272,1,179.999994506836,4|0,0:0|3:0,0:0:0:0:
267,254,28859,1,10,3:2:0:0:
360,357,29046,1,0,1:0:0:0:
360,357,29140,1,0,1:0:0:0:
360,357,29234,1,8,1:0:0:0:
479,287,29421,1,2,1:2:0:0:
479,287,29515,1,0,3:0:0:0:
479,287,29609,1,10,3:2:0:0:
448,168,29796,5,0,1:0:0:0:
448,168,29890,1,0,1:0:0:0:
448,168,29984,2,0,L|399:156,1,50,8|0,1:0|0:0,0:0:0:0:
310,161,30171,2,0,L|255:150,2,50,2|0|8,3:2|3:2|3:2,0:0:0:0:
347,92,30452,1,0,0:0:0:0:
347,92,30546,2,0,L|314:85,2,33.3333333333333,2|0|0,3:2|3:0|3:0,3:0:0:0:
377,70,30734,2,0,L|476:94,2,100,2|0|8,1:2|0:0|0:0,0:0:0:0:
346,0,31202,1,0,0:0:0:0:
346,0,31296,1,2,1:2:0:0:
201,1,31484,5,2,1:2:0:0:
243,66,31609,1,2,1:2:0:0:
243,144,31734,1,2,1:2:0:0:
191,206,31859,6,0,B|74:229,1,100,12|0,0:0|1:0,0:0:0:0:
27,190,32140,1,0,1:0:0:0:
27,190,32234,1,8,1:0:0:0:
227,291,32421,1,2,1:2:0:0:
227,291,32515,1,0,3:0:0:0:
227,291,32609,1,10,3:2:0:0:
49,384,32796,1,0,1:0:0:0:
49,384,32890,1,0,1:0:0:0:
49,384,32984,6,0,B|15:374|15:374|35:279,1,119.999996337891,8|0,1:0|0:0,0:0:0:0:
152,362,33296,1,0,0:0:0:0:
152,362,33359,2,0,B|150:346|150:346|139:337|139:311,1,39.9999987792969,10|0,3:2|3:2,3:2:0:0:
250,265,33546,2,0,B|258:274|258:274|243:285|237:316,1,39.9999987792969,2|0,3:2|3:2,3:2:0:0:
335,359,33734,2,0,B|343:368|343:368|328:379|326:330,1,39.9999987792969,2|0,3:2|3:2,3:2:0:0:
444,306,33921,2,0,B|461:300|461:300|471:306|471:306|495:307,2,39.9999987792969,2|0|0,3:2|0:0|0:0,0:2:0:0:
424,298,34109,5,10,0:0:0:0:
424,298,34484,6,0,L|439:165,1,119.999996337891,4|2,0:0|1:2,0:0:0:0:
466,158,34765,1,0,3:0:0:0:
466,158,34859,2,0,L|481:25,1,119.999996337891,10|0,3:2|1:0,0:0:0:0:
416,6,35140,2,0,P|387:-4|354:2,1,59.9999981689454,0|8,1:0|1:0,0:0:0:0:
242,45,35327,2,0,P|271:48|299:39,1,59.9999981689454,0|2,0:0|3:2,0:0:0:0:
398,116,35515,1,0,3:2:0:0:
398,116,35609,2,0,P|360:71|301:68,1,119.999996337891,8|0,3:2|0:0,0:0:0:0:
56,177,36171,5,2,1:2:0:0:
18,59,36359,1,10,1:2:0:0:
135,23,36546,1,2,1:2:0:0:
173,141,36734,2,0,L|161:211,1,59.9999981689454,0|0,3:2|3:2,0:0:0:0:
43,264,36921,6,0,L|1:253,2,29.9999990844727,2|0|0,3:2|0:2|0:2,3:2:0:0:
29,342,37109,2,0,L|-13:331,2,29.9999990844727,10|0|0,0:0|0:0|0:0,0:0:0:0:
104,309,37296,1,0,3:2:0:0:
150,297,37390,1,0,3:2:0:0:
195,311,37484,6,0,B|228:334|228:334|295:317,1,110.000003356934,4|2,3:2|1:2,0:0:0:0:
368,299,37765,1,0,3:0:0:0:
338,331,37859,1,10,3:2:0:0:
214,195,38046,1,0,1:0:0:0:
244,227,38140,1,0,1:0:0:0:
287,231,38234,1,8,1:0:0:0:
447,140,38421,1,2,1:2:0:0:
417,172,38515,1,0,3:0:0:0:
374,176,38609,1,10,3:2:0:0:
259,1,38796,5,2,1:2:0:0:
302,5,38890,1,2,1:2:0:0:
332,37,38984,1,10,1:0:0:0:
144,40,39171,1,2,1:2:0:0:
101,44,39265,1,0,3:0:0:0:
71,76,39359,1,10,3:2:0:0:
208,101,39546,1,0,1:0:0:0:
251,105,39640,1,0,1:0:0:0:
281,137,39734,1,8,1:0:0:0:
188,209,39921,2,0,L|134:197,1,55.0000016784668,2|0,1:2|3:0,3:0:0:0:
58,187,40109,2,0,L|74:295,1,110.000003356934,10|2,3:2|0:0,0:0:0:0:
37,38,40484,6,0,B|62:27|62:27|143:39,1,110.000003356934,6|2,0:0|1:2,0:0:0:0:
208,101,40765,1,0,3:0:0:0:
164,110,40859,1,10,3:2:0:0:
252,24,41046,1,0,1:0:0:0:
294,34,41140,1,0,1:0:0:0:
336,44,41234,1,8,1:0:0:0:
506,20,41421,1,2,1:2:0:0:
464,10,41515,1,0,3:0:0:0:
422,0,41609,1,10,3:2:0:0:
281,137,41796,5,2,1:2:0:0:
323,147,41890,1,2,1:2:0:0:
365,157,41984,1,10,1:0:0:0:
486,298,42171,1,2,1:2:0:0:
444,288,42265,1,0,3:0:0:0:
402,278,42359,1,10,3:2:0:0:
406,168,42546,1,0,1:0:0:0:
448,178,42640,1,0,1:0:0:0:
490,188,42734,1,8,1:0:0:0:
362,269,42921,2,0,L|304:254,1,55.0000016784668,0|0,3:0|3:0,0:0:0:0:
196,344,43109,5,8,1:2:0:0:
222,273,43234,1,2,1:2:0:0:
174,219,43359,1,2,1:2:0:0:
147,288,43484,6,0,L|21:268,1,110.000003356934,6|2,3:2|3:2,0:0:0:0:
24,269,43734,2,0,L|17:226,1,36.6666677856446,0|0,3:2|3:2,0:0:0:0:
5,162,43859,1,10,3:2:0:0:
140,174,44046,2,0,L|146:211,2,36.6666677856446,2|0|0,3:2|3:2|3:2,3:2:0:0:
127,101,44234,1,2,1:2:0:0:
262,119,44421,2,0,L|268:156,2,36.6666677856446,2|0|0,3:2|3:2|3:2,3:2:0:0:
245,49,44609,2,0,P|266:1|318:-1,1,110.000003356934,10|2,3:2|3:2,0:0:0:0:
341,16,44859,2,0,L|348:53,2,36.6666677856446,0|0|2,3:2|3:2|1:2,0:0:0:0:
426,57,45171,5,2,1:0:0:0:
447,53,45234,1,0,1:0:0:0:
468,50,45296,1,0,1:0:0:0:
489,47,45359,1,8,1:2:0:0:
384,135,45546,6,0,L|335:124,2,36.6666677856446,2|0|0,1:0|1:0|1:0,0:0:0:0:
459,135,45734,1,2,1:0:0:0:
352,226,45921,5,0,1:0:0:0:
373,222,45984,1,0,1:0:0:0:
394,219,46046,1,0,1:0:0:0:
415,214,46109,2,0,L|396:325,1,110.000003356934,10|2,1:2|1:2,0:0:0:0:
195,370,46484,6,0,L|110:354,1,79.9999975585938,4|0,1:2|1:2,1:2:0:0:
66,291,46734,1,0,1:2:0:0:
109,221,46859,6,0,L|194:205,1,79.9999975585938,4|0,1:2|1:2,1:2:0:0:
238,142,47109,1,0,1:2:0:0:
191,79,47234,6,0,L|106:63,1,79.9999975585938,4|0,1:2|1:2,1:2:0:0:
62,0,47484,1,0,1:2:0:0:
0,50,47609,5,4,1:2:0:0:
48,112,47734,1,0,1:2:0:0:
112,64,47859,1,0,1:2:0:0:
407,24,48171,6,0,L|486:36,2,80,2|10|0,1:2|1:2|0:0,0:0:0:0:
317,51,48734,2,0,P|334:86|341:126,1,80,2|2,1:2|1:2,0:0:0:0:
416,177,49109,2,0,P|451:159|491:152,1,80,10|2,1:2|0:0,0:0:0:0:
334,229,49484,6,0,B|267:212|267:212|198:229|198:229|129:211,1,209.999993591309,6|0,3:2|0:0,0:0:0:0:
37,184,50234,1,10,0:2:0:0:
48,314,50515,1,0,0:0:0:0:
129,211,50796,1,0,0:0:0:0:
149,347,50984,5,10,0:0:0:0:
149,347,51077,1,0,0:0:0:0:
149,347,51171,1,2,0:0:0:0:
250,327,51359,1,2,3:0:0:0:
250,327,51452,1,0,3:0:0:0:
358,304,51640,1,0,0:0:0:0:
358,304,51734,2,0,B|387:298|387:298|424:313,1,69.9999978637696,10|0,3:2|0:0,0:0:0:0:
449,321,52015,1,0,0:0:0:0:
449,321,52109,2,0,L|482:312,2,34.9999989318848
488,173,52484,6,0,B|459:203|459:203|357:181,1,139.999995727539,6|0,3:2|0:0,0:0:0:0:
238,94,53140,1,2,0:0:0:0:
241,73,53234,1,10,3:2:0:0:
243,52,53327,1,0,0:0:0:0:
245,31,53421,1,0,0:0:0:0:
345,22,53609,1,2,0:0:0:0:
398,96,53796,1,0,0:0:0:0:
261,194,53984,6,0,L|192:180,1,69.9999978637696,10|0,0:0|0:0,0:0:0:0:
91,238,54359,2,0,L|80:109,1,104.999996795654,2|0,0:0|0:0,0:0:0:0:
54,114,54734,2,0,L|49:79,1,34.9999989318848,10|0,1:2|0:0,0:0:0:0:
26,52,54921,1,2,1:0:0:0:
153,0,55109,5,8,1:2:0:0:
153,0,55484,5,4,3:2:0:0:
242,40,55609,1,0,0:0:0:0:
242,40,55671,2,0,L|306:58,2,44.999998626709,2|0|8,3:2|3:0|3:2,3:0:0:0:
256,136,55984,1,0,0:0:0:0:
256,136,56046,2,0,L|320:154,2,44.999998626709,2|0|2,3:2|3:0|1:2,3:0:0:0:
159,171,56327,5,0,0:0:0:0:
159,171,56374,5,0,0:0:0:0:
159,171,56421,6,0,L|151:227,2,44.999998626709,2|0|8,3:2|3:2|3:2,3:2:0:0:
263,233,56749,5,0,0:0:0:0:
263,233,56796,6,0,L|317:253,1,44.999998626709,2|0,3:2|3:2,3:2:0:0:
199,302,56984,6,0,L|195:353,2,29.9999990844727,2|0|0,1:2|3:0|3:0,0:0:0:0:
274,333,57171,2,0,L|271:362,2,29.9999990844727,2|0|0,3:2|3:0|3:0,0:0:0:0:
356,359,57359,2,0,L|434:345,1,59.9999981689454,8|0,3:2|0:0,0:0:0:0:
490,359,57546,1,2,3:2:0:0:
497,332,57640,1,0,3:0:0:0:
501,305,57734,2,0,L|456:285,2,29.9999990844727,0|0|0,1:0|0:0|0:0,0:0:0:0:
462,217,57921,1,2,3:2:0:0:
459,190,58015,1,0,3:0:0:0:
456,163,58109,2,0,L|354:182,1,89.9999972534181,8|2,3:2|1:2,0:0:0:0:
403,62,58484,5,6,3:2:0:0:
403,62,59046,5,2,3:0:0:0:
385,59,59109,1,0,3:0:0:0:
367,56,59171,1,0,3:0:0:0:
349,53,59234,1,0,1:0:0:0:
181,21,59609,1,10,1:2:0:0:
262,38,59796,1,2,1:2:0:0:
262,38,60171,6,0,P|244:97|244:171,1,110.000003356934,4|0,1:2|0:0,0:0:0:0:
214,219,60452,6,0,P|196:161|193:102,1,119.999996337891,4|0,1:2|0:0,0:0:0:0:
180,21,60734,6,0,P|156:80|146:144,1,129.999994049073,4|0,1:2|0:0,0:0:0:0:
83,211,61015,6,0,P|10:198|58:87,1,209.999993591309,6|6,1:2|1:2,0:0:0:0:
262,38,61484,6,0,L|423:15,2,150,4|2|0,1:2|1:2|1:0,0:0:0:0:
83,10,62234,5,2,1:2:0:0:
34,90,62359,2,0,L|-22:74,2,33.3333333333333,2|0|0,3:2|3:0|3:0,3:0:0:0:
133,128,62609,2,0,L|182:111,2,33.3333333333333,10|0|0,3:2|3:0|3:0,3:0:0:0:
83,211,62859,1,2,0:0:0:0:
320,136,62984,6,0,L|481:113,2,150,4|2|0,1:2|1:2|1:0,0:0:0:0:
133,128,63734,5,2,1:2:0:0:
83,211,63859,2,0,L|27:195,2,33.3333333333333,2|0|0,3:2|3:0|3:0,3:0:0:0:
182,249,64109,2,0,L|231:232,2,33.3333333333333,10|0|0,3:2|3:0|3:0,3:0:0:0:
125,332,64359,1,2,0:0:0:0:
326,282,64484,6,0,B|369:272|369:272|441:298|441:298|483:285,2,165.000005035401,4|2|0,1:2|1:2|1:0,0:0:0:0:
200,351,65234,2,0,B|157:341|157:341|85:367|85:367|42:354,2,165.000005035401,4|2|0,1:2|1:2|1:0,0:0:0:0:
309,149,65984,6,0,P|293:100|260:84,2,86.6666626993817,4|0|0,1:2|1:2|1:2,0:0:0:0:
344,244,66359,2,0,P|394:254|424:234,2,86.6666626993817,2|0|0,1:2|1:2|1:2,0:0:0:0:
245,227,66734,2,0,P|210:265|213:301,2,86.6666626993817,2|0|0,1:2|1:2|1:2,0:0:0:0:
301,204,67109,1,10,1:2:0:0:
109,107,67359,5,10,1:2:0:0:
78,42,67484,2,0,P|39:7|-2:5,2,93.3333304850261,4|0|0,1:2|1:2|1:2,0:0:0:0:
182,120,67859,2,0,P|231:103|247:62,2,93.3333304850261,2|0|0,1:2|1:2|1:2,0:0:0:0:
72,171,68234,2,0,P|61:221|84:257,2,93.3333304850261,2|0|0,1:2|1:2|1:2,0:0:0:0:
109,107,68609,1,10,1:2:0:0:
211,298,68859,5,10,1:2:0:0:
270,362,68984,2,0,L|386:372,1,93.3333304850261,4|0,1:2|1:2,0:0:0:0:
461,291,69234,5,0,1:2:0:0:
400,213,69359,2,0,L|284:203,1,93.3333304850261,2|0,1:2|1:2,0:0:0:0:
182,120,69609,5,0,1:2:0:0:
249,43,69734,2,0,L|365:33,1,93.3333304850261,2|0,1:2|1:2,0:0:0:0:
475,161,69984,1,0,1:2:0:0:
512,69,70109,5,10,1:2:0:0:
449,0,70234,1,2,1:2:0:0:
412,88,70359,1,2,1:2:0:0:
512,69,70671,5,2,1:2:0:0:
449,0,70952,5,2,1:2:0:0:
412,88,71234,6,0,B|380:112|380:112|251:91,1,150,2|2,1:2|0:0,0:0:0:0:
204,50,71609,2,0,L|195:11,2,25,2|0|0,0:0|0:0|0:0,0:0:0:0:
135,88,71796,2,0,L|140:112,2,25
25,36,71984,6,0,P|45:88|47:149,1,100,6|2,3:2|1:2,0:0:0:0:
4,202,72265,1,0,3:0:0:0:
4,202,72359,1,10,3:2:0:0:
113,225,72546,1,0,1:0:0:0:
113,225,72640,1,0,1:0:0:0:
113,225,72734,1,8,1:0:0:0:
149,333,72921,1,2,1:2:0:0:
149,333,73015,1,0,3:0:0:0:
149,333,73109,1,10,3:2:0:0:
259,354,73296,2,0,L|269:300,1,50,0|0,1:0|1:0,0:0:0:0:
256,230,73484,5,10,1:0:0:0:
255,230,73671,6,0,P|318:217|373:249,1,129.999994049073,4|0,1:2|0:0,0:2:0:0:
410,319,73952,2,0,P|367:271|367:207,1,129.999994049073,2|0,1:2|0:0,0:0:0:0:
410,142,74234,2,0,P|389:202|334:233,1,129.999994049073,2|2,1:2|3:2,0:0:0:0:
255,230,74515,1,2,3:2:0:0:
255,230,74609,2,0,L|264:172,5,43.3333313496908,10|0|0|0|0|0,3:2|3:0|3:0|3:0|3:0|3:0,3:0:0:0:
160,250,74984,2,0,L|169:192,5,43.3333313496908,2|0|0|2|0|0,1:2|3:0|3:0|3:2|3:0|3:0,3:0:0:0:
65,276,75359,1,10,3:2:0:0:
69,250,75421,1,0,3:0:0:0:
73,224,75484,1,2,3:2:0:0:
78,198,75546,2,0,L|27:213,2,43.3333313496908,0|2|0,3:0|3:2|3:0,0:0:0:0:
131,133,75734,6,0,P|88:24|-22:65,2,259.999988098145,2|10|6,1:2|1:2|3:2,0:0:0:0:
131,133,77140,5,2,0:2:0:0:
136,106,77234,1,2,0:2:0:0:
236,92,77515,1,2,0:2:0:0:
241,65,77609,1,0,0:0:0:0:
346,50,77796,1,2,0:0:0:0:
444,13,77984,1,10,0:2:0:0:
444,13,78359,6,0,L|434:79,1,40,2|0,0:2|0:0,0:0:0:0:
483,122,78546,2,0,L|473:188,1,40,2|0,0:2|0:0,0:0:0:0:
387,170,78734,2,0,P|351:155|311:150,1,80,2|2,0:2|0:0,0:0:0:0:
202,248,79109,2,0,P|165:263|125:268,1,80,0|2,0:0|0:2,0:0:0:0:
0,192,79484,1,10,0:2:0:0:
30,361,80046,6,0,L|22:320,2,26.6666666666667,2|0|0,0:2|0:0|0:0,0:0:0:0:
61,352,80234,2,0,B|106:344|106:344|173:367|173:367|235:357,1,160,2|0,0:2|0:0,0:0:0:0:
312,339,80796,1,2,0:2:0:0:
414,314,80984,2,0,L|431:146,1,160,10|0,0:2|0:0,0:0:0:0:
399,40,81546,1,2,0:2:0:0:
297,65,81734,2,0,L|280:233,1,160,10|2,0:2|0:2,0:0:0:0:
254,252,82202,1,0,0:0:0:0:
254,252,82296,2,0,L|203:244,2,40,2|0|14,0:2|0:0|0:2,0:0:0:0:
21,69,82952,6,0,L|26:29,2,40,2|0|0,0:2|0:0|0:0,0:0:0:0:
114,39,83234,2,0,L|119:0,2,40,2|0|0,0:2|0:0|0:0,0:0:0:0:
194,98,83609,1,2,0:2:0:0:
266,157,83796,1,2,0:0:0:0:
345,110,83984,2,0,L|516:81,1,160,10|0,0:2|0:0,0:0:0:0:
240,42,84546,2,0,L|275:48,2,26.6666666666667,2|0|0,0:2|0:0|0:0,0:0:0:0:
193,98,84734,2,0,P|176:133|168:172,1,80,2|2,0:2|0:0,0:0:0:0:
12,183,85109,2,0,P|67:192|87:307,1,160,2|10,0:2|0:2,0:0:0:0:
50,349,85577,5,0,0:0:0:0:
50,349,85671,2,0,L|89:354,2,40,2|0|0,0:2|0:0|0:0,0:0:0:0:
164,341,85952,2,0,L|203:346,2,40,2|0|0,0:2|0:0|0:0,0:0:0:0:
276,325,86234,2,2,L|315:330,1,40,2|2,0:2|0:2,0:2:0:0:
398,314,86421,1,2,0:2:0:0:
398,314,86515,2,0,L|437:320,1,40,0|2,0:0|0:0,0:0:0:0:
217,263,86796,1,2,0:2:0:0:
376,176,86984,6,0,B|356:147|356:147|204:122,1,160,10|0,2:0|0:0,0:0:0:0:
60,92,87546,1,0,0:0:0:0:
56,68,87640,1,0,0:0:0:0:
50,44,87734,2,0,L|148:28,1,100,2|2,0:2|0:2,0:2:0:0:
286,35,88109,2,0,L|384:50,1,100,6|0,0:2|0:0,0:0:0:0:
122,162,88484,5,10,0:2:0:0:
75,175,88577,1,0,1:0:0:0:
29,189,88671,1,0,1:0:0:0:
319,244,88859,5,2,1:2:0:0:
0,384,89234,5,2,1:2:0:0:
0,384,89484,5,2,1:2:0:0:
71,341,89609,1,2,1:2:0:0:
155,321,89734,1,0,1:0:0:0:
245,333,89859,1,0,1:0:0:0:
357,379,89984,6,0,P|378:331|344:267,1,119.999996337891,4|2,0:0|3:2,0:0:0:0:
336,273,90234,2,0,L|323:324,2,39.9999987792969,0|0|8,3:0|3:0|0:0,0:0:0:0:
363,179,90546,1,0,0:0:0:0:
399,78,90734,1,0,1:0:0:0:
261,149,90921,1,2,0:0:0:0:
131,210,91109,5,10,3:2:0:0:
131,210,91202,1,0,3:2:0:0:
131,210,91296,1,2,3:2:0:0:
131,210,91390,1,0,3:2:0:0:
131,210,91484,2,0,P|126:148|95:66,1,119.999996337891,2|2,3:2|3:2,0:0:0:0:
90,73,91734,2,0,L|47:81,2,39.9999987792969,0|0|8,3:0|3:0|0:0,0:0:0:0:
236,46,92046,1,0,0:0:0:0:
236,46,92140,1,0,0:0:0:0:
236,46,92234,1,0,1:0:0:0:
361,16,92421,1,2,0:0:0:0:
492,0,92609,2,0,L|472:144,1,119.999996337891,10|2,0:2|3:2,0:0:0:0:
495,214,92890,5,2,3:2:0:0:
495,214,92984,2,0,P|428:195|383:246,1,119.999996337891,2|2,3:2|3:2,0:0:0:0:
386,249,93234,2,0,L|395:311,1,39.9999987792969,0|0,3:0|3:0,0:0:0:0:
396,325,93359,2,0,P|346:355|292:333,1,119.999996337891,8|0,0:0|0:0,0:0:0:0:
235,238,93734,1,0,1:0:0:0:
281,130,93921,1,2,0:0:0:0:
184,33,94109,5,10,3:2:0:0:
149,41,94202,1,2,3:2:0:0:
113,49,94296,1,2,3:2:0:0:
77,57,94390,1,2,3:2:0:0:
42,66,94484,2,0,L|27:219,1,119.999996337891,2|2,3:2|3:2,0:0:0:0:
42,206,94734,2,0,L|-3:224,2,39.9999987792969,0|0|8,3:2|3:2|3:2,0:0:0:0:
138,290,95046,5,2,3:2:0:0:
153,322,95140,1,0,3:2:0:0:
156,357,95234,1,2,1:2:0:0:
203,202,95421,5,2,3:2:0:0:
248,196,95515,1,0,3:2:0:0:
291,210,95609,1,8,3:2:0:0:
145,110,95796,5,2,0:0:0:0:
196,69,95890,1,2,0:0:0:0:
257,48,95984,2,0,P|316:51|373:70,1,119.999996337891,4|2,1:2|3:2,0:0:0:0:
396,78,96234,2,0,L|442:62,1,39.9999987792969,0|0,3:0|3:0,0:0:0:0:
468,49,96359,1,8,0:0:0:0:
456,168,96546,1,0,0:0:0:0:
437,285,96734,1,0,1:0:0:0:
291,210,96921,1,2,0:0:0:0:
175,301,97109,5,10,3:2:0:0:
140,311,97202,1,0,3:2:0:0:
105,321,97296,1,2,3:2:0:0:
70,332,97390,1,0,3:2:0:0:
33,342,97484,2,0,L|45:222,1,119.999996337891,2|2,3:2|3:2,0:0:0:0:
29,188,97734,5,0,3:0:0:0:
29,188,97796,2,0,L|36:122,1,39.9999987792969,0|8,3:0|0:0,0:0:0:0:
111,34,98046,1,0,0:0:0:0:
146,27,98140,1,0,0:0:0:0:
181,21,98234,1,0,1:0:0:0:
338,106,98421,2,0,L|271:120,1,59.9999981689454,2|0,0:0|0:0,0:0:0:0:
205,135,98609,2,0,P|316:117|373:214,1,239.999992675781,10|6,0:2|3:2,0:0:0:0:
373,214,99171,5,2,3:2:0:0:
373,214,99234,2,0,L|334:201,1,39.9999987792969,0|0,3:0|3:0,0:0:0:0:
322,222,99359,2,0,B|354:235|354:235|376:276|337:317,1,119.999996337891,10|2,0:0|3:2,0:0:0:0:
237,283,99734,1,2,1:2:0:0:
111,320,99921,1,2,1:2:0:0:
268,369,100109,5,10,1:2:0:0:
355,339,100234,1,2,1:2:0:0:
443,309,100359,1,2,3:2:0:0:
475,198,100484,6,0,L|483:118,1,79.9999975585938,2|2,1:2|0:0,0:0:0:0:
433,28,100734,1,2,0:0:0:0:
287,55,100859,6,0,L|295:134,1,79.9999975585938,10|0,3:2|0:0,0:0:0:0:
283,151,101046,2,0,L|217:140,1,39.9999987792969,2|0,3:2|0:0,0:0:0:0:
145,123,101234,5,2,3:2:0:0:
145,123,101327,1,0,3:0:0:0:
407,37,101609,5,10,3:2:0:0:
407,37,101702,1,0,3:0:0:0:
50,1,101984,5,6,1:2:0:0:
256,192,102030,12,0,102734,0:0:0:0:
61,100,102921,6,0,L|49:0,2,100,2|10|2,1:2|1:2|1:2,0:0:0:0:
17,219,103484,6,0,B|59:210|59:210|82:217|82:217|138:206,1,110.000003356934,4|2,3:2|1:2,0:0:0:0:
158,203,103765,1,0,3:0:0:0:
158,203,103859,1,10,3:2:0:0:
173,312,104046,1,0,1:0:0:0:
173,312,104140,1,0,1:0:0:0:
173,312,104234,1,8,1:0:0:0:
293,346,104421,1,2,1:2:0:0:
293,346,104515,1,0,3:0:0:0:
293,346,104609,1,10,3:2:0:0:
355,241,104796,1,2,1:2:0:0:
355,241,104890,1,2,1:2:0:0:
355,241,104984,1,10,1:0:0:0:
272,136,105171,6,0,L|217:126,1,55.0000016784668,2|0,1:2|3:0,3:0:0:0:
191,111,105359,2,0,L|176:1,1,110.000003356934,10|0,3:2|1:0,0:0:0:0:
144,0,105640,1,0,1:0:0:0:
144,0,105734,1,8,1:0:0:0:
331,61,105921,2,0,P|355:72|368:96,1,55.0000016784668,2|0,1:2|3:0,3:0:0:0:
399,111,106109,2,0,P|436:57|399:10,1,110.000003356934,10|2,3:2|0:0,0:0:0:0:
191,110,106484,6,0,B|163:126|163:126|84:112,1,110.000003356934,6|2,0:0|1:2,0:0:0:0:
51,104,106765,1,0,3:0:0:0:
51,104,106859,1,10,3:2:0:0:
14,187,107046,1,0,1:0:0:0:
14,187,107140,1,0,1:0:0:0:
14,187,107234,1,8,1:0:0:0:
96,266,107421,1,2,1:2:0:0:
96,266,107515,1,0,3:0:0:0:
96,266,107609,1,10,3:2:0:0:
33,357,107796,1,2,1:2:0:0:
33,357,107890,1,2,1:2:0:0:
33,357,107984,2,0,L|174:376,1,110.000003356934,10|2,1:0|1:2,0:0:0:0:
227,350,108265,5,0,3:0:0:0:
227,350,108359,2,0,P|212:298|238:251,1,110.000003356934,10|0,3:2|1:0,0:0:0:0:
324,248,108640,1,0,1:0:0:0:
324,248,108734,2,0,L|465:267,1,110.000003356934,8|0,1:0|3:0,0:0:0:0:
486,210,109015,1,0,3:0:0:0:
486,210,109109,5,8,1:2:0:0:
472,130,109234,1,2,1:2:0:0:
460,53,109359,1,2,1:2:0:0:
381,16,109484,6,0,L|368:152,1,110.000003356934,6|2,3:2|3:2,0:0:0:0:
353,134,109765,2,0,L|293:127,1,55.0000016784668,0|10,0:0|3:2,0:0:0:0:
191,37,110046,1,2,3:2:0:0:
191,37,110140,2,0,L|263:27,1,55.0000016784668,0|2,0:0|1:2,0:0:0:0:
139,142,110421,1,2,3:2:0:0:
139,142,110515,2,0,L|67:152,1,55.0000016784668,0|10,0:0|3:2,0:0:0:0:
7,17,110796,1,2,3:2:0:0:
7,17,110890,2,0,L|80:27,1,55.0000016784668,0|2,0:0|1:2,0:0:0:0:
245,29,111171,6,0,L|236:86,3,36.6666677856446,2|0|0|8,1:0|1:0|1:0|1:2,0:0:0:0:
298,127,111546,2,0,L|289:184,3,36.6666677856446,2|0|0|2,1:0|1:0|1:0|1:0,0:0:0:0:
358,212,111921,1,2,1:0:0:0:
353,233,111984,1,0,1:0:0:0:
349,254,112046,1,0,1:0:0:0:
345,275,112109,1,2,1:0:0:0:
197,325,112296,1,2,1:2:0:0:
42,371,112484,6,0,L|55:265,1,73.3333355712891,4|0,1:2|1:2,1:2:0:0:
15,224,112734,1,0,1:2:0:0:
167,333,112859,6,0,L|180:227,1,73.3333355712891,4|0,1:2|1:2,1:2:0:0:
140,186,113109,1,0,1:2:0:0:
289,294,113234,6,0,L|302:188,1,73.3333355712891,4|0,1:2|1:2,1:2:0:0:
262,147,113484,1,0,1:2:0:0:
414,251,113609,5,4,1:2:0:0:
425,164,113734,1,0,1:2:0:0:
437,79,113859,1,0,1:2:0:0:
437,79,114171,5,2,0:0:0:0:
340,56,114359,1,2,1:2:0:0:
243,35,114546,1,2,0:0:0:0:
145,14,114734,1,2,1:2:0:0:
109,118,114921,5,2,0:0:0:0:
256,68,115109,1,2,1:2:0:0:
403,21,115296,1,2,1:2:0:0:
256,384,115859,5,6,1:2:0:0:
256,192,115952,12,0,119609,0:0:0:0:
