osu file format v14

[General]
AudioFilename: audio.mp3
AudioLeadIn: 0
PreviewTime: 76765
Countdown: 0
SampleSet: Soft
StackLeniency: 0.2
Mode: 0
LetterboxInBreaks: 0
WidescreenStoryboard: 1

[Editor]
Bookmarks: 45921,65984
DistanceSpacing: 1
BeatDivisor: 12
GridSize: 32
TimelineZoom: 1.6

[Metadata]
Title:Arianrhod
TitleUnicode:Arianrhod
Artist:LeaF
ArtistUnicode:LeaF
Creator:Riana
Version:Normal
Source:東方紅魔郷 ~ the Embodiment of Scarlet Devil.
Tags:mbc4 featured artist monthly beatmapping contest fa mappers' guild mpg sakuya izayoi instrumental 東方Project zun touhou theme Lunar Clock ~ Luna Dial 月時計 ~ ルナ・ダイアル video game osu! electronic -_ex_- - ex - Yorita Yoshino -ClariS-
BeatmapID:2786103
BeatmapSetID:1163990

[Difficulty]
HPDrainRate:3
CircleSize:3
OverallDifficulty:4
ApproachRate:5
SliderMultiplier:1.2
SliderTickRate:1

[Events]
//Background and Video events
0,0,"41915800_p0.jpg",0,0
//Break Periods
2,48194,54294
2,76694,81294
//Storyboard Layer 0 (Background)
//Storyboard Layer 1 (Fail)
//Storyboard Layer 2 (Pass)
//Storyboard Layer 3 (Foreground)
//Storyboard Layer 4 (Overlay)
//Storyboard Sound Samples

[TimingPoints]
1494,375,4,2,1,70,1,0
1494,-100,4,2,1,70,0,0
2994,-100,4,2,1,55,0,0
4494,-100,4,2,1,70,0,0
6744,-100,4,2,1,40,0,0
7494,-100,4,2,1,70,0,0
10494,-100,4,2,1,70,0,0
12744,-100,4,2,1,60,0,0
13494,-100,4,2,1,70,0,0
14994,-100,4,2,1,40,0,0
16119,-100,4,2,1,80,0,0
16494,-90.9090909090909,4,2,1,100,0,1
16869,-90.9090909090909,4,2,1,100,0,1
17619,-90.9090909090909,4,2,1,100,0,1
17994,-90.9090909090909,4,2,1,100,0,1
18369,-90.9090909090909,4,2,1,100,0,1
19494,-90.9090909090909,4,2,1,100,0,1
19869,-90.9090909090909,4,2,1,100,0,1
20994,-90.9090909090909,4,2,1,100,0,1
21369,-90.9090909090909,4,2,1,100,0,1
22494,-90.9090909090909,4,2,1,100,0,1
22869,-90.9090909090909,4,2,1,100,0,1
23619,-90.9090909090909,4,2,1,100,0,1
23994,-90.9090909090909,4,2,1,100,0,1
24369,-90.9090909090909,4,2,1,100,0,1
25494,-90.9090909090909,4,2,1,100,0,1
25869,-90.9090909090909,4,2,1,100,0,1
27744,-100,4,2,1,50,0,0
28306,-100,4,2,1,70,0,0
30369,-100,4,2,1,70,0,0
31869,-100,4,2,1,70,0,0
32994,-100,4,2,1,70,0,0
33369,-100,4,2,1,70,0,0
34119,-100,4,2,1,70,0,0
34142,-100,4,2,1,50,0,0
34494,-100,4,2,1,70,0,0
35244,-100,4,2,1,70,0,0
37119,-100,4,2,1,80,0,0
37494,-90.9090909090909,4,2,1,90,0,1
37869,-90.9090909090909,4,2,1,90,0,1
38431,-90.9090909090909,4,2,1,90,0,1
38994,-90.9090909090909,4,2,1,90,0,1
39556,-90.9090909090909,4,2,1,90,0,1
40869,-90.9090909090909,4,2,1,90,0,1
41431,-90.9090909090909,4,2,1,90,0,1
41994,-90.9090909090909,4,2,1,90,0,1
42556,-90.9090909090909,4,2,1,90,0,1
43494,-90.9090909090909,4,2,1,90,0,1
45181,-90.9090909090909,4,2,1,90,0,1
47869,-100,4,2,1,50,0,0
49494,-100,4,2,1,40,0,0
55119,-100,4,2,1,60,0,0
56619,-100,4,2,1,60,0,0
57837,-100,4,2,1,60,0,0
59056,-100,4,2,1,80,0,0
60181,-100,4,2,1,70,0,0
62244,-100,4,2,1,70,0,0
65994,-90.9090909090909,4,2,1,90,0,0
70494,-100,4,2,1,50,0,0
70681,-100,4,2,1,60,0,0
71619,-100,4,2,1,80,0,0
71994,-100,4,2,1,70,0,0
73494,-100,4,2,1,70,0,0
73517,-100,4,2,1,5,0,0
73681,-100,4,2,1,70,0,0
76494,-100,4,2,1,40,0,0
77244,-100,4,2,1,40,0,0
82494,-100,4,2,1,55,0,0
86619,-100,4,2,1,60,0,0
88119,-100,4,2,1,60,0,0
89994,-90.9090909090909,4,2,1,100,0,1
90369,-90.9090909090909,4,2,1,100,0,1
91119,-90.9090909090909,4,2,1,100,0,1
91494,-90.9090909090909,4,2,1,100,0,1
91869,-90.9090909090909,4,2,1,100,0,1
92244,-90.9090909090909,4,2,1,100,0,1
92619,-90.9090909090909,4,2,1,100,0,1
92994,-90.9090909090909,4,2,1,100,0,1
93369,-90.9090909090909,4,2,1,100,0,1
93931,-90.9090909090909,4,2,1,100,0,1
94494,-90.9090909090909,4,2,1,100,0,1
94869,-90.9090909090909,4,2,1,100,0,1
95244,-90.9090909090909,4,2,1,100,0,1
95619,-90.9090909090909,4,2,1,100,0,1
95994,-90.9090909090909,4,2,1,100,0,1
96369,-90.9090909090909,4,2,1,100,0,1
97119,-90.9090909090909,4,2,1,100,0,1
97494,-90.9090909090909,4,2,1,100,0,1
97869,-90.9090909090909,4,2,1,100,0,1
98619,-90.9090909090909,4,2,1,100,0,1
99369,-90.9090909090909,4,2,1,100,0,1
99744,-90.9090909090909,4,2,1,100,0,1
99994,-90.9090909090909,4,2,1,100,0,1
100494,-90.9090909090909,4,2,1,100,0,1
100869,-90.9090909090909,4,2,1,100,0,1
101244,-100,4,2,1,80,0,0
101454,-100,4,2,1,60,0,0
101525,-100,4,2,1,80,0,0
101806,-100,4,2,1,70,0,0
102931,-100,4,2,1,60,0,0
103494,-100,4,2,1,70,0,0
109494,-100,4,2,1,70,0,0
111181,-100,4,2,1,70,0,0
112744,-100,4,2,1,70,0,0
113994,-100,4,2,1,40,0,0
114181,-111.111111111111,4,2,1,40,0,0
115869,-100,4,2,1,60,0,0
119244,-100,4,2,1,5,0,0

[Colours]
Combo1 : 249,164,6
Combo2 : 206,191,123
Combo3 : 210,105,0
Combo4 : 215,43,43

[HitObjects]
320,232,1494,6,0,L|342:327,2,59.9999999999999,2|8|2,1:0|0:0|0:0,0:0:0:0:
287,181,2056,1,8,0:0:0:0:
287,181,2244,2,0,P|230:202|185:198,2,89.9999999999999,0|8|0,1:0|0:0|1:0,0:0:0:0:
328,137,2994,1,10,0:0:0:0:
250,45,3369,1,0,1:0:0:0:
133,71,3744,1,10,0:0:0:0:
28,287,4494,6,0,L|169:296,1,120,4|0,1:0|1:0,0:0:0:0:
202,270,5056,1,8,0:0:0:0:
202,270,5244,1,0,1:0:0:0:
321,324,5619,1,0,1:0:0:0:
321,324,5806,1,8,0:0:0:0:
321,324,5994,1,0,1:0:0:0:
388,225,6369,1,0,1:0:0:0:
488,158,6744,2,0,P|468:128|369:110,1,120,2|2,0:0|0:0,0:0:0:0:
276,67,7494,6,0,L|260:191,1,120,4|0,1:0|1:0,0:0:0:0:
210,215,8056,1,8,0:0:0:0:
210,215,8244,2,0,L|230:344,1,120,0|0,1:0|1:0,0:0:0:0:
182,370,8806,1,8,0:0:0:0:
182,370,8994,1,0,1:0:0:0:
70,325,9369,1,0,1:0:0:0:
25,213,9744,2,0,L|35:138,1,59.9999999999999,2|2,0:0|0:0,0:0:0:0:
67,103,10119,1,10,0:0:0:0:
178,59,10494,6,0,P|245:33|311:39,1,120,12|8,0:0|0:0,0:0:0:0:
324,150,11244,2,0,P|256:175|191:170,1,120,8|8,0:0|0:0,0:0:0:0:
134,268,11994,2,0,L|208:273,1,59.9999999999999,8|8,0:0|0:0,0:0:0:0:
233,317,12369,2,0,L|307:312,1,59.9999999999999,8|8,0:0|0:0,0:0:0:0:
341,347,12744,2,0,P|392:288|454:277,1,120,2|2,3:2|3:2,0:0:0:0:
465,161,13494,2,0,L|449:27,1,120,4|0,1:0|1:0,0:0:0:0:
399,10,14056,1,8,0:0:0:0:
399,10,14244,1,0,1:0:0:0:
301,80,14619,5,0,1:0:0:0:
301,80,14806,1,0,1:0:0:0:
301,80,14994,2,0,P|226:88|168:55,2,120,2|2|2,0:0|0:0|0:0,0:0:0:0:
339,256,16306,5,2,0:0:0:0:
339,256,16494,2,0,L|181:271,1,132.00000402832,14|2,1:2|1:2,0:0:0:0:
162,316,17056,1,10,0:2:0:0:
162,316,17244,2,0,L|81:307,1,66.0000020141602,2|10,0:2|0:2,0:0:0:0:
39,274,17619,1,2,1:2:0:0:
33,142,17994,6,0,P|84:155|109:177,1,66.0000020141602,6|10,1:2|0:2,0:0:0:0:
149,201,18369,2,0,P|202:182|248:113,1,132.00000402832,2|2,1:2|1:2,0:0:0:0:
247,61,18931,1,10,0:2:0:0:
247,61,19119,1,2,1:2:0:0:
378,59,19494,6,0,L|363:217,1,132.00000402832,6|2,1:2|1:2,0:0:0:0:
427,227,20056,1,2,0:2:0:0:
427,227,20244,2,0,L|436:308,1,66.0000020141602,2|8,1:2|0:2,0:0:0:0:
396,347,20619,1,2,1:2:0:0:
264,331,20994,6,0,L|178:340,1,66.0000020141602,6|10,1:2|0:2,0:0:0:0:
138,365,21369,2,0,P|119:312|50:266,1,132.00000402832,2|2,1:2|1:2,0:0:0:0:
0,268,21931,1,10,0:2:0:0:
0,268,22119,1,2,1:2:0:0:
52,147,22494,6,0,L|210:162,1,132.00000402832,6|2,1:2|1:2,0:0:0:0:
229,207,23056,1,10,0:2:0:0:
229,207,23244,2,0,L|310:198,1,66.0000020141602,2|8,1:2|0:2,0:0:0:0:
352,165,23619,1,2,1:2:0:0:
465,231,23994,6,0,P|478:282|500:307,1,66.0000020141602,6|0,1:2|0:2,0:0:0:0:
462,354,24369,2,0,P|419:317|336:312,1,132.00000402832,2|2,1:2|1:2,0:0:0:0:
296,351,24931,1,10,0:2:0:0:
296,351,25119,1,2,1:2:0:0:
244,229,25494,6,0,L|86:214,1,132.00000402832,6|2,1:2|1:2,0:0:0:0:
87,161,26056,1,10,0:2:0:0:
87,161,26244,2,0,L|78:80,1,66.0000020141602,2|10,1:2|0:2,0:0:0:0:
128,51,26619,1,6,1:2:0:0:
257,18,26994,6,0,P|308:57|373:55,2,132.00000402832,2|0|2,1:2|1:2|0:2,0:0:0:0:
137,3,28119,1,2,0:0:0:0:
57,92,28494,6,0,L|48:233,1,120,4|0,1:0|1:0,0:0:0:0:
74,266,29056,1,8,0:0:0:0:
74,266,29244,1,0,1:0:0:0:
190,329,29619,1,0,1:0:0:0:
190,329,29806,1,8,0:0:0:0:
190,329,29994,1,0,1:0:0:0:
269,239,30369,2,0,L|288:165,1,59.9999999999999,8|0,0:0|1:0,0:0:0:0:
323,135,30744,1,8,0:0:0:0:
288,20,31119,2,0,P|211:18|160:-12,1,120,0|0,1:0|1:0,0:0:0:0:
81,73,31869,5,4,1:0:0:0:
81,73,32056,1,8,0:0:0:0:
81,73,32244,2,0,L|61:202,1,120,0|0,1:0|1:0,0:0:0:0:
100,246,32806,1,8,0:0:0:0:
100,246,32994,1,0,1:0:0:0:
178,341,33369,2,0,L|42:358,2,120,2|2|2,1:2|1:2|0:1,0:0:0:0:
247,242,34494,6,0,P|215:175|223:115,1,120,4|0,1:0|1:0,0:0:0:0:
294,38,35244,2,0,L|356:45,1,59.9999999999999,2|10,1:2|0:0,0:0:0:0:
408,20,35619,1,0,1:0:0:0:
408,20,35806,1,8,0:0:0:0:
453,131,36181,2,0,L|537:118,2,59.9999999999999,0|0|8,1:0|1:0|0:0,0:0:0:0:
404,167,36744,1,8,0:0:0:0:
185,315,37494,6,0,P|157:239|177:175,1,132.00000402832,6|2,1:2|1:2,0:0:0:0:
220,151,38056,1,10,0:2:0:0:
220,151,38244,2,0,P|248:75|228:11,1,132.00000402832,2|2,0:2|1:2,0:0:0:0:
106,44,38994,2,0,L|26:35,2,66.0000020141602,6|10|2,1:2|0:2|1:2,0:0:0:0:
126,174,39744,2,0,L|39:182,1,66.0000020141602,2|10,1:2|0:2,0:0:0:0:
2,207,40119,1,2,1:2:0:0:
72,318,40494,6,0,P|142:289|197:291,1,132.00000402832,6|2,1:2|1:2,0:0:0:0:
256,320,41056,1,8,0:0:0:0:
256,320,41244,2,0,P|348:328|383:307,1,132.00000402832,2|2,1:2|1:2,0:0:0:0:
423,259,41806,1,10,0:2:0:0:
423,259,41994,1,6,1:2:0:0:
445,128,42369,1,2,1:2:0:0:
343,43,42744,2,0,L|262:37,1,66.0000020141602,2|10,1:2|0:2,0:0:0:0:
221,73,43119,1,10,0:2:0:0:
91,98,43494,6,0,L|87:191,1,66.0000020141602,4|10,1:2|0:2,0:0:0:0:
41,210,43869,2,0,L|45:303,1,66.0000020141602,2|10,1:2|0:2,0:0:0:0:
80,331,44244,2,0,P|130:303|225:291,1,132.00000402832,2|4,1:2|1:2,0:0:0:0:
334,330,44994,1,6,1:2:0:0:
334,330,45181,2,0,L|330:251,1,66.0000020141602,10|2,0:2|1:2,0:0:0:0:
383,224,45556,2,0,L|387:145,1,66.0000020141602,10|2,0:2|1:2,0:0:0:0:
336,114,45931,2,0,L|332:35,1,66.0000020141602,10|2,0:2|1:2,0:0:0:0:
383,5,46306,1,2,1:2:0:0:
256,192,46494,12,0,47994,0:0:0:0:
38,108,55494,6,0,P|135:87|162:84,1,120,2|8,1:2|0:0,0:0:0:0:
204,129,56056,1,10,0:0:0:0:
204,129,56244,2,0,P|272:133|340:130,1,120,2|10,1:2|0:0,0:0:0:0:
412,49,56994,1,8,0:0:0:0:
412,49,57181,2,0,L|422:159,1,89.9999999999999,10|0,0:0|1:0,0:0:0:0:
462,219,57744,2,0,P|404:231|360:265,2,89.9999999999999,10|2|2,0:0|1:2|1:2,0:0:0:0:
511,253,58494,5,14,0:0:0:0:
354,341,59056,1,8,0:0:0:0:
354,341,59244,1,12,0:0:0:0:
237,369,59619,1,0,1:0:0:0:
177,360,59806,1,0,1:0:0:0:
87,280,60181,2,0,L|77:178,1,89.9999999999999,0|0,1:0|1:0,0:0:0:0:
149,135,60744,2,0,L|159:33,1,89.9999999999999,0|0,1:0|1:0,0:0:0:0:
252,47,61306,1,0,1:0:0:0:
252,47,61494,6,0,P|305:30|466:143,1,240,6|2,1:2|1:2,0:0:0:0:
266,261,62994,2,0,P|213:244|52:357,1,240,6|2,1:2|1:2,0:0:0:0:
84,88,64494,2,0,P|195:35|321:44,2,240,6|6|10,1:2|1:2|0:1,0:0:0:0:
56,217,66369,6,0,L|208:222,1,132.00000402832,10|10,0:1|0:1,0:0:0:0:
303,286,67119,2,0,P|324:218|361:191,1,88.000002685547,10|10,0:1|0:1,0:0:0:0:
372,184,67494,1,10,0:1:0:0:
501,210,67869,2,0,L|481:42,1,132.00000402832,10|10,0:1|0:1,0:0:0:0:
371,11,68619,2,0,P|303:32|276:69,1,88.000002685547,10|10,0:1|0:1,0:0:0:0:
269,80,68994,1,10,0:1:0:0:
138,99,69369,2,0,L|122:261,1,132.00000402832,10|10,0:1|0:1,0:0:0:0:
41,332,70119,2,0,L|146:340,1,88.000002685547,10|2,0:1|1:2,0:0:0:0:
224,367,70681,6,0,P|273:314|299:307,2,90,0|0|0,3:0|3:0|3:0,0:0:0:0:
143,277,71619,1,8,0:0:0:0:
143,277,71806,1,8,0:0:0:0:
143,277,71994,6,0,L|157:133,1,120,4|0,1:0|1:0,0:0:0:0:
208,128,72556,1,8,0:0:0:0:
208,128,72744,2,0,L|196:6,1,120,0|0,1:0|1:0,0:0:0:0:
304,61,73494,1,2,1:0:0:0:
304,61,73681,2,0,P|373:56|394:49,2,90,6|6|6,1:2|1:2|1:0,0:0:0:0:
353,170,74619,2,0,P|376:240|378:295,1,120,10|6,0:0|0:0,0:0:0:0:
146,346,75744,5,2,1:2:0:0:
28,321,76119,1,0,1:0:0:0:
53,203,76494,1,12,0:0:0:0:
167,310,82494,5,2,0:0:0:0:
259,233,82869,2,0,L|268:167,1,60,0|2,3:0|0:0,0:0:0:0:
243,118,83244,1,2,0:0:0:0:
327,33,83619,1,2,0:0:0:0:
430,94,83994,5,2,0:0:0:0:
352,256,84556,1,2,0:0:0:0:
352,256,84744,1,2,0:0:0:0:
239,298,85119,1,10,0:0:0:0:
124,334,85494,5,2,1:2:0:0:
124,334,85681,2,0,L|22:318,2,90,2|2|2,0:0|0:0|3:2,0:0:0:0:
158,218,86619,2,0,P|160:159|115:101,1,120,10|2,0:0|0:0,0:0:0:0:
285,24,87556,1,2,0:0:0:0:
285,24,87744,1,2,0:0:0:0:
389,83,88119,1,12,0:0:0:0:
355,198,88494,2,0,L|369:327,1,120,12|8,0:0|0:2,0:0:0:0:
262,375,89244,1,8,0:0:0:0:
81,182,89994,6,0,L|239:167,1,132.00000402832,14|2,1:2|1:2,0:0:0:0:
258,122,90556,1,10,0:2:0:0:
258,122,90744,2,0,L|339:131,1,66.0000020141602,2|10,0:2|0:2,0:0:0:0:
381,164,91119,1,2,1:2:0:0:
404,293,91494,6,0,P|353:280|328:258,1,66.0000020141602,6|10,1:2|0:2,0:0:0:0:
288,234,91869,2,0,P|235:253|188:322,1,132.00000402832,2|2,1:2|1:2,0:0:0:0:
190,374,92431,1,10,0:2:0:0:
190,374,92619,1,2,1:2:0:0:
70,317,92994,6,0,L|85:159,1,132.00000402832,6|2,1:2|1:2,0:0:0:0:
29,156,93556,1,2,0:2:0:0:
29,156,93744,2,0,L|20:75,1,66.0000020141602,2|8,1:2|0:2,0:0:0:0:
52,30,94119,1,2,1:2:0:0:
183,14,94494,6,0,L|174:100,1,66.0000020141602,6|10,1:2|0:2,0:0:0:0:
149,140,94869,2,0,P|202:159|248:228,1,132.00000402832,2|2,1:2|1:2,0:0:0:0:
246,278,95431,1,10,0:2:0:0:
246,278,95619,1,2,1:2:0:0:
349,359,95994,6,0,L|364:201,1,132.00000402832,6|2,1:2|1:2,0:0:0:0:
409,182,96556,1,10,0:2:0:0:
409,182,96744,2,0,L|400:101,1,66.0000020141602,2|8,1:2|0:2,0:0:0:0:
367,59,97119,1,2,1:2:0:0:
253,126,97494,6,0,P|202:113|177:90,1,66.0000020141602,6|10,1:2|0:2,0:0:0:0:
146,57,97869,2,0,P|156:112|119:187,1,132.00000402832,2|2,1:2|1:2,0:0:0:0:
66,202,98431,1,10,0:2:0:0:
66,202,98619,1,2,1:2:0:0:
117,323,98994,5,6,1:2:0:0:
117,323,99181,1,10,0:2:0:0:
117,323,99369,2,0,P|162:307|186:305,1,66.0000020141602,2|10,1:0|0:2,0:0:0:0:
308,336,99931,1,10,0:2:0:0:
308,336,100119,2,0,P|308:268|323:180,1,132.00000402832,6|2,1:0|1:2,0:0:0:0:
187,178,100869,1,2,1:1:0:0:
68,156,101244,6,0,P|67:88|49:17,2,120,0|2|0,1:2|1:0|0:0,0:0:0:0:
367,135,102931,2,0,L|374:72,2,60,6|2|2,1:2|1:2|1:2,0:0:0:0:
397,186,103494,6,0,P|346:199|274:252,1,120,6|2,1:2|1:2,0:0:0:0:
247,347,104244,2,0,P|197:313|139:297,1,120,2|2,1:2|1:2,0:0:0:0:
84,320,104806,1,10,0:2:0:0:
84,320,104994,2,0,L|77:186,1,120,2|2,1:2|1:2,0:0:0:0:
175,130,105744,2,0,L|192:0,1,120,2|2,1:2|1:2,0:0:0:0:
310,8,106494,6,0,P|361:21|433:74,1,120,6|2,1:2|1:2,0:0:0:0:
461,168,107244,2,0,P|403:183|353:217,1,120,2|2,1:2|1:2,0:0:0:0:
330,274,107806,1,10,0:2:0:0:
330,274,107994,2,0,L|196:267,1,120,2|2,1:2|1:2,0:0:0:0:
152,162,108744,2,0,L|240:153,1,60,2|10,1:2|0:2,0:0:0:0:
263,124,109119,1,8,0:1:0:0:
376,162,109494,6,0,P|394:91|453:65,2,120,6|0|2,1:2|1:2|1:2,0:0:0:0:
395,224,110431,1,10,0:2:0:0:
395,224,110619,1,2,1:2:0:0:
319,318,110994,1,2,0:2:0:0:
319,318,111181,1,4,0:3:0:0:
319,318,111369,2,0,L|180:337,2,120,8|8|2,3:3|3:3|0:2,0:0:0:0:
262,212,112494,6,0,P|188:157|139:144,1,120,14|14,0:1|0:1,0:0:0:0:
98,46,113244,2,0,P|24:101|-25:114,1,120,14|14,0:1|0:1,0:0:0:0:
34,286,114181,6,0,P|100:263|331:360,1,323.999990112305,2|2,0:0|0:0,0:0:0:0:
477,255,115869,1,2,0:0:0:0:
