osu file format v14

[General]
AudioFilename: audio.mp3
AudioLeadIn: 0
PreviewTime: 76765
Countdown: 0
SampleSet: Soft
StackLeniency: 0.2
Mode: 0
LetterboxInBreaks: 0
WidescreenStoryboard: 0

[Editor]
Bookmarks: 65984
DistanceSpacing: 0.8
BeatDivisor: 12
GridSize: 32
TimelineZoom: 4.199998

[Metadata]
Title:Arianrhod
TitleUnicode:Arianrhod
Artist:LeaF
ArtistUnicode:LeaF
Creator:Riana
Version:Myth
Source:東方紅魔郷 ~ the Embodiment of Scarlet Devil.
Tags:mbc4 featured artist monthly beatmapping contest fa mappers' guild mpg sakuya izayoi instrumental 東方Project zun touhou theme Lunar Clock ~ Luna Dial 月時計 ~ ルナ・ダイアル video game osu! electronic -_ex_- - ex - Yorita Yoshino -ClariS-
BeatmapID:2428214
BeatmapSetID:1163990

[Difficulty]
HPDrainRate:6
CircleSize:3
OverallDifficulty:9
ApproachRate:9.4
SliderMultiplier:2.7
SliderTickRate:1

[Events]
//Background and Video events
0,0,"41915800_p0.jpg",0,0
//Break Periods
//Storyboard Layer 0 (Background)
//Storyboard Layer 1 (Fail)
//Storyboard Layer 2 (Pass)
//Storyboard Layer 3 (Foreground)
//Storyboard Layer 4 (Overlay)
//Storyboard Sound Samples

[TimingPoints]
1494,375,4,2,1,70,1,0
1494,-66.6666666666667,4,2,1,70,0,0
2994,-66.6666666666667,4,2,1,55,0,0
4494,-66.6666666666667,4,2,1,70,0,0
6744,-66.6666666666667,4,2,1,40,0,0
7494,-66.6666666666667,4,2,1,70,0,0
10494,-50,4,2,1,70,0,0
12744,-50,4,2,1,60,0,0
13494,-50,4,2,1,70,0,0
14994,-100,4,2,1,40,0,0
16119,-50,4,2,1,80,0,0
16494,-50,4,2,1,100,0,1
16869,-66.6666666666667,4,2,1,100,0,1
17619,-40,4,2,1,100,0,1
17994,-50,4,2,1,100,0,1
18369,-66.6666666666667,4,2,1,100,0,1
19494,-50,4,2,1,100,0,1
19869,-66.6666666666667,4,2,1,100,0,1
20994,-50,4,2,1,100,0,1
21369,-66.6666666666667,4,2,1,100,0,1
22494,-50,4,2,1,100,0,1
22869,-66.6666666666667,4,2,1,100,0,1
23619,-40,4,2,1,100,0,1
23994,-50,4,2,1,100,0,1
24369,-66.6666666666667,4,2,1,100,0,1
25494,-50,4,2,1,100,0,1
25869,-66.6666666666667,4,2,1,100,0,1
27744,-133.333333333333,4,2,1,50,0,0
28306,-66.6666666666667,4,2,1,70,0,0
30369,-50,4,2,1,70,0,0
31869,-66.6666666666667,4,2,1,70,0,0
32994,-100,4,2,1,70,0,0
33369,-40,4,2,1,70,0,0
34119,-500,4,2,1,70,0,0
34142,-500,4,2,1,50,0,0
34494,-66.6666666666667,4,2,1,70,0,0
35244,-50,4,2,1,70,0,0
37119,-66.6666666666667,4,2,1,80,0,0
37494,-66.6666666666667,4,2,1,90,0,1
37869,-50,4,2,1,90,0,1
38431,-66.6666666666667,4,2,1,90,0,1
38994,-50,4,2,1,90,0,1
39556,-66.6666666666667,4,2,1,90,0,1
40869,-50,4,2,1,90,0,1
41431,-66.6666666666667,4,2,1,90,0,1
41994,-50,4,2,1,90,0,1
42556,-66.6666666666667,4,2,1,90,0,1
43494,-57.1428571428571,4,2,1,90,0,1
45181,-57.1428571428571,4,2,1,90,0,1
47869,-57.1428571428571,4,2,1,50,0,0
49494,-100,4,2,1,40,0,0
55119,-66.6666666666667,4,2,1,60,0,0
56619,-50,4,2,1,60,0,0
57837,-66.6666666666667,4,2,1,60,0,0
59056,-50,4,2,1,80,0,0
60181,-66.6666666666667,4,2,1,70,0,0
62244,-66.6666666666667,4,2,1,70,0,0
65994,-50,4,2,1,90,0,1
67369,-33.3333333333333,4,2,1,90,0,1
67494,-40,4,2,1,90,0,1
68869,-28.5714285714286,4,2,1,90,0,1
68994,-33.3333333333333,4,2,1,90,0,1
70494,-33.3333333333333,4,2,1,50,0,0
70681,-100,4,2,1,60,0,0
71619,-66.6666666666667,4,2,1,80,0,0
71994,-66.6666666666667,4,2,1,70,0,0
73494,-500,4,2,1,70,0,0
73517,-200,4,2,1,5,0,0
73681,-66.6666666666667,4,2,1,70,0,0
76494,-100,4,2,1,40,0,0
77244,-100,4,2,1,40,0,0
82494,-100,4,2,1,55,0,0
86619,-76.9230769230769,4,2,1,60,0,0
88119,-100,4,2,1,60,0,0
89994,-50,4,2,1,100,0,1
90369,-66.6666666666667,4,2,1,100,0,1
91119,-40,4,2,1,100,0,1
91494,-50,4,2,1,100,0,1
91869,-66.6666666666667,4,2,1,100,0,1
92244,-66.6666666666667,4,2,1,100,0,1
92619,-50,4,2,1,100,0,1
92994,-50,4,2,1,100,0,1
93369,-66.6666666666667,4,2,1,100,0,1
93931,-40,4,2,1,100,0,1
94494,-50,4,2,1,100,0,1
94869,-66.6666666666667,4,2,1,100,0,1
95244,-66.6666666666667,4,2,1,100,0,1
95619,-50,4,2,1,100,0,1
95994,-50,4,2,1,100,0,1
96369,-66.6666666666667,4,2,1,100,0,1
97119,-40,4,2,1,100,0,1
97494,-50,4,2,1,100,0,1
97869,-66.6666666666667,4,2,1,100,0,1
98619,-50,4,2,1,100,0,1
99369,-40,4,2,1,100,0,1
99744,-66.6666666666667,4,2,1,100,0,1
99994,-200,4,2,1,100,0,1
100494,-40,4,2,1,100,0,1
100869,-33.3333333333333,4,2,1,100,0,1
101244,-133.333333333333,4,2,1,80,0,0
101454,-133.333333333333,4,2,1,60,0,0
101525,-133.333333333333,4,2,1,80,0,0
101806,-50,4,2,1,70,0,0
102931,-66.6666666666667,4,2,1,60,0,0
103494,-66.6666666666667,4,2,1,70,0,0
109494,-66.6666666666667,4,2,1,70,0,0
111181,-50,4,2,1,70,0,0
112744,-50,4,2,1,70,0,0
113994,-50,4,2,1,40,0,0
115869,-100,4,2,1,60,0,0
119244,-50,4,2,1,5,0,0

[Colours]
Combo1 : 249,164,6
Combo2 : 206,191,123
Combo3 : 210,105,0
Combo4 : 215,43,43

[HitObjects]
272,107,1494,6,0,B|359:122|359:122|397:99|397:99|500:115,2,202.500007724762,2|8|2,1:0|0:0|0:0,0:0:0:0:
126,220,1962,1,0,1:0:0:0:
104,191,2056,1,8,0:0:0:0:
131,50,2244,2,0,B|21:156|21:156|202:120,2,303.750011587143,0|8|0,1:0|0:0|1:0,0:0:0:0:
360,172,2994,6,0,B|414:100|496:141|496:141|448:165,4,202.500007724762,10|2|0|2|10,0:0|0:1|1:0|0:1|0:0,0:0:0:0:
352,207,3837,1,2,0:0:0:0:
344,241,3931,1,2,0:0:0:0:
296,232,4119,5,2,0:0:0:0:
310,280,4212,1,2,0:0:0:0:
323,329,4306,2,0,L|316:364,3,33.7500012874604,2|0|0|0,1:0|1:0|1:0|1:0,0:0:0:0:
199,290,4494,5,4,1:0:0:0:
33,217,4681,2,0,B|81:195|81:195|165:215,2,101.250003862381,8|0|0,0:0|1:0|1:0,0:0:0:0:
230,120,5056,1,8,0:0:0:0:
228,125,5150,1,0,1:0:0:0:
233,125,5244,1,0,1:0:0:0:
412,85,5431,2,0,B|364:63|364:63|280:83,2,101.250003862381,8|0|0,0:0|1:0|1:0,0:0:0:0:
334,203,5806,1,8,0:0:0:0:
336,208,5900,1,0,1:0:0:0:
331,208,5994,1,0,1:0:0:0:
25,277,6181,2,0,B|73:255|73:255|157:275,2,101.250003862381,8|0|0,0:0|1:0|1:0,0:0:0:0:
208,217,6556,1,8,0:0:0:0:
210,222,6650,1,0,1:0:0:0:
204,223,6744,5,2,0:0:0:0:
125,167,6931,1,2,0:0:0:0:
211,123,7119,1,2,0:0:0:0:
201,80,7212,1,2,0:0:0:0:
191,36,7306,1,2,0:0:0:0:
191,36,7494,5,4,1:0:0:0:
101,56,7681,1,8,0:0:0:0:
100,61,7775,1,0,1:0:0:0:
105,59,7869,1,0,1:0:0:0:
63,151,8056,1,8,0:0:0:0:
65,155,8150,1,0,1:0:0:0:
67,150,8244,1,0,1:0:0:0:
108,261,8431,1,8,0:0:0:0:
115,262,8525,1,0,1:0:0:0:
112,256,8619,1,0,1:0:0:0:
236,309,8806,1,8,0:0:0:0:
242,306,8900,1,0,1:0:0:0:
236,303,8994,1,0,1:0:0:0:
379,233,9181,1,8,0:0:0:0:
380,222,9275,1,0,1:0:0:0:
372,226,9369,1,0,1:0:0:0:
425,60,9556,1,8,0:0:0:0:
420,52,9650,1,0,1:0:0:0:
414,60,9744,5,2,0:0:0:0:
305,13,9931,1,2,0:0:0:0:
323,129,10119,1,10,0:0:0:0:
295,311,10306,5,8,0:0:0:0:
295,311,10400,1,8,0:0:0:0:
295,311,10494,2,0,B|174:337|174:337|99:286,2,180,12|8|8,0:0|0:0|0:0,0:0:0:0:
414,60,10869,2,0,B|447:236,2,180,8|8|8,0:0|0:0|0:0,0:0:0:0:
295,311,11244,6,0,B|269:185|269:185|328:99,2,180,8|8|8,0:0|0:0|0:0,0:0:0:0:
512,131,11619,2,0,B|481:328,2,180,8|8|8,0:0|0:0|0:0,0:0:0:0:
147,201,11994,6,0,B|176:141|176:141|158:32,3,135,8|8|8|8,0:0|0:0|0:0|0:0,0:0:0:0:
25,55,12369,2,0,B|-5:114|-5:114|13:223,3,135,8|8|8|8,0:0|0:0|0:0|0:0,0:0:0:0:
124,362,12744,6,0,L|224:373,2,90,2|0|0,3:2|3:0|3:0,0:0:0:0:
93,300,12931,2,0,L|-7:311,2,90,2|0|0,3:2|3:0|3:0,0:0:0:0:
130,246,13119,2,0,L|230:257,5,90,2|0|0|2|0|0,3:2|3:0|3:0|3:2|3:0|3:0,0:0:0:0:
305,207,13494,5,4,1:0:0:0:
371,13,13681,2,0,B|377:72|377:72|383:81|383:81|396:180,2,135,8|0|0,0:0|1:0|1:0,0:0:0:0:
171,78,14056,1,8,0:0:0:0:
164,80,14150,1,0,1:0:0:0:
164,73,14244,1,0,1:0:0:0:
144,248,14431,5,8,0:0:0:0:
93,292,14525,1,0,1:0:0:0:
36,251,14619,1,0,1:0:0:0:
56,188,14712,1,0,1:0:0:0:
121,186,14806,1,0,1:0:0:0:
144,248,14900,1,0,1:0:0:0:
144,248,14994,6,0,B|185:298|284:284|244:225|341:216|388:275,3,270,2|2|2|2,0:0|0:0|0:0|0:0,0:0:0:0:
57,137,16306,6,0,L|33:236,2,67.5,2|0|0,0:0|0:0|0:0,0:0:0:0:
337,70,16494,6,0,B|405:88|405:88|495:58,2,135,14|0|10,1:2|1:2|0:2,0:2:0:0:
270,72,16744,1,2,0:2:0:0:
230,128,16806,1,2,0:2:0:0:
256,195,16869,2,0,L|229:310,2,101.250003862381,2|0|10,1:2|1:2|0:2,0:2:0:0:
316,229,17119,5,2,0:2:0:0:
365,277,17181,1,2,0:2:0:0:
354,345,17244,1,2,0:2:0:0:
354,345,17431,2,0,L|443:360,2,67.5000025749207,10|2|2,0:2|0:2|0:2,0:2:0:0:
256,344,17619,6,0,P|200:317|259:318,3,168.75,2|2|10|2,1:2|0:2|0:2|0:2,0:2:0:0:
239,190,17994,6,0,B|217:49,2,135,6|0|10,1:2|1:2|0:2,0:2:0:0:
170,192,18244,1,2,0:2:0:0:
108,220,18306,1,2,0:2:0:0:
87,284,18369,2,0,L|75:389,2,101.250003862381,2|0|10,1:2|1:2|0:2,0:2:0:0:
21,261,18619,5,2,0:2:0:0:
3,201,18681,1,2,0:2:0:0:
27,145,18744,2,0,B|64:70|64:70|50:-10|50:-10|84:22,2,202.500007724762,2|10|2,1:2|0:2|1:2,0:2:0:0:
190,46,19306,5,10,0:2:0:0:
303,7,19400,1,8,0:0:0:0:
378,100,19494,2,0,L|520:90,2,135,6|0|10,1:2|1:2|0:2,0:2:0:0:
392,160,19744,1,2,0:2:0:0:
409,222,19806,1,2,0:2:0:0:
368,273,19869,2,8,B|340:313|340:313|355:385,2,101.250003862381,2|0|2,1:2|1:2|0:2,0:2:0:0:
316,238,20119,5,2,0:2:0:0:
260,203,20181,1,2,0:2:0:0:
200,229,20244,1,2,1:2:0:0:
278,113,20431,1,8,0:2:0:0:
126,366,20619,5,2,1:2:0:0:
78,282,20712,1,2,0:2:0:0:
126,192,20806,1,10,0:2:0:0:
80,104,20900,1,2,0:2:0:0:
126,18,20994,6,0,B|69:-3|69:-3|-8:26,2,135,6|0|10,1:2|1:2|0:2,0:2:0:0:
176,48,21244,1,2,0:2:0:0:
231,73,21306,1,2,0:2:0:0:
285,92,21369,2,0,B|311:46|311:46|284:-36,2,101.250003862381,2|0|10,1:2|1:2|0:2,0:2:0:0:
263,146,21619,5,2,0:2:0:0:
276,204,21681,1,2,0:2:0:0:
319,235,21744,2,0,B|409:275|409:275|531:223,2,202.500007724762,2|10|2,1:2|0:2|1:2,0:2:0:0:
210,45,22306,5,8,0:2:0:0:
146,147,22400,1,8,0:2:0:0:
204,256,22494,2,0,B|175:315|175:315|219:434,2,135,6|0|10,1:2|1:2|0:2,0:2:0:0:
256,224,22744,1,2,0:2:0:0:
310,252,22806,1,2,0:2:0:0:
319,318,22869,2,0,L|462:341,2,101.250003862381,2|0|10,1:2|1:2|0:2,0:2:0:0:
270,341,23119,5,2,0:2:0:0:
213,314,23181,1,2,0:2:0:0:
204,256,23244,1,2,1:2:0:0:
204,256,23431,2,0,L|195:174,2,67.5000025749207,8|2|2,0:2|0:2|0:2,0:2:0:0:
116,297,23619,6,0,P|62:292|112:288,3,168.75,2|2|10|2,1:2|0:2|0:2|0:2,0:2:0:0:
40,138,23994,6,0,B|5:83|5:83|26:9,2,135,6|0|0,1:2|0:2|0:2,0:2:0:0:
88,178,24244,1,2,0:2:0:0:
149,166,24306,1,2,0:2:0:0:
194,130,24369,2,0,L|341:148,2,101.250003862381,2|0|8,1:2|1:2|1:2,0:2:0:0:
149,166,24619,5,2,0:2:0:0:
129,221,24681,1,2,0:2:0:0:
156,275,24744,2,0,B|222:309|222:309|315:298|315:298|228:355,2,202.500007724762,2|10|2,1:2|0:2|1:2,0:2:0:0:
368,217,25306,1,8,0:2:0:0:
464,256,25400,1,8,0:2:0:0:
512,153,25494,6,0,L|488:285,2,135,6|0|10,1:2|1:2|0:2,0:2:0:0:
491,98,25744,1,2,0:2:0:0:
427,80,25806,1,2,0:2:0:0:
379,121,25869,2,0,B|229:105,2,101.250003862381,2|0|10,1:2|1:2|0:2,0:2:0:0:
398,175,26119,5,2,0:2:0:0:
389,237,26181,1,2,0:2:0:0:
343,282,26244,2,0,B|211:301,2,101.250003862381,2|0|10,1:2|1:2|0:2,0:2:0:0:
437,322,26494,5,2,0:2:0:0:
437,322,26556,1,2,0:2:0:0:
437,322,26619,5,6,1:2:0:0:
248,379,26744,1,10,0:2:0:0:
297,198,26869,1,10,0:2:0:0:
297,198,26931,1,2,0:0:0:0:
297,198,26994,5,2,1:2:0:0:
181,308,27119,1,10,0:2:0:0:
163,157,27244,1,10,0:2:0:0:
38,258,27369,6,0,B|52:308,2,33.7500012874604,0|0|0,1:2|0:2|1:2,0:2:0:0:
10,217,27494,1,10,0:0:0:0:
10,217,27556,1,10,0:0:0:0:
10,217,27619,1,10,0:2:0:0:
77,124,27744,5,2,0:2:0:0:
85,106,28119,1,2,0:0:0:0:
153,224,28306,2,0,B|179:229|179:229|185:229|185:229|208:234,2,50.6250019311906,8|8|8,0:0|3:0|3:0,0:0:0:0:
254,137,28494,5,4,1:0:0:0:
444,191,28681,2,0,B|394:177|394:177|310:208,2,101.250003862381,8|8|0,0:0|0:0|1:0,0:0:0:0:
290,299,29056,1,8,0:0:0:0:
292,294,29150,1,8,0:0:0:0:
287,294,29244,1,0,1:0:0:0:
156,132,29431,2,0,B|207:121|207:121|290:149,2,101.250003862381,8|8|0,0:0|0:0|1:0,0:0:0:0:
288,38,29806,1,8,0:0:0:0:
286,33,29900,1,8,0:0:0:0:
291,33,29994,5,0,1:0:0:0:
450,6,30181,1,8,0:3:0:0:
468,69,30275,1,8,0:3:0:0:
484,132,30369,6,0,L|466:232,2,67.5,8|0|0,0:0|0:0|1:0,0:0:0:0:
358,282,30556,1,0,1:0:0:0:
358,282,30619,1,0,1:0:0:0:
358,282,30681,1,0,1:0:0:0:
358,282,30744,2,0,L|383:418,2,90,8|0|0,0:0|1:0|1:0,0:0:0:0:
384,263,30931,1,8,0:3:0:0:
234,305,31119,5,0,1:0:0:0:
211,271,31212,1,8,0:0:0:0:
226,240,31306,2,0,L|220:193,3,45,0|0|0|0,1:0|3:0|3:0|3:0,0:0:0:0:
287,105,31494,6,0,L|259:291,3,180,0|0|0|4,1:0|1:0|1:0|1:0,0:0:0:0:
109,358,32056,5,8,0:0:0:0:
111,353,32150,1,8,0:0:0:0:
106,353,32244,1,0,1:0:0:0:
246,185,32431,1,8,0:0:0:0:
244,180,32525,1,8,0:0:0:0:
249,180,32619,1,0,1:0:0:0:
21,153,32806,1,8,0:0:0:0:
26,153,32900,1,8,0:0:0:0:
26,153,32994,6,0,L|64:156,4,33.75,0|0|0|0|0,1:0|3:0|3:0|3:0|3:0,0:0:0:0:
159,0,33369,2,0,B|157:34|178:62|178:62|184:95|159:131|159:131|143:45,2,168.75,2|0|0,1:2|3:0|3:0,0:0:0:0:
312,289,33744,2,0,B|283:266|248:274|248:274|208:267|198:223|198:223|287:277,2,168.75,2|0|0,1:2|3:0|3:0,0:0:0:0:
92,243,34119,6,0,L|91:249,9,4.5,2|0|0|0|0|0|0|0|0|0,0:1|0:0|0:0|0:0|0:0|0:0|0:0|0:0|0:0|0:0,0:0:0:0:
200,225,34494,5,4,1:0:0:0:
290,245,34681,1,8,0:0:0:0:
291,250,34775,1,8,0:0:0:0:
286,248,34869,1,0,1:0:0:0:
328,340,35056,1,8,0:0:0:0:
326,344,35150,1,8,0:0:0:0:
326,344,35244,6,0,L|492:361,3,135,2|2|10|2,1:2|0:0|0:0|0:0,0:0:0:0:
425,57,35619,1,0,1:0:0:0:
260,0,35806,1,8,0:0:0:0:
262,273,36181,5,0,1:0:0:0:
288,173,36369,1,0,1:0:0:0:
232,371,36556,1,8,0:0:0:0:
232,371,36744,5,8,0:0:0:0:
170,352,36837,1,8,0:0:0:0:
108,330,36931,2,0,L|46:339,3,45,0|0|0|0,1:0|3:0|3:0|3:0,0:0:0:0:
201,85,37119,5,2,1:0:0:0:
72,240,37306,1,10,0:0:0:0:
10,160,37400,1,10,0:0:0:0:
62,72,37494,5,6,1:2:0:0:
62,72,37681,2,0,L|47:-7,2,67.5000025749207,10|2|2,0:2|0:2|0:2,0:2:0:0:
94,89,37869,1,2,1:2:0:0:
283,15,38056,1,10,0:2:0:0:
283,15,38119,1,2,0:2:0:0:
283,15,38181,1,2,0:2:0:0:
283,15,38244,1,2,0:2:0:0:
255,188,38431,5,10,0:2:0:0:
255,188,38494,1,2,0:2:0:0:
255,188,38556,1,2,0:2:0:0:
255,188,38619,1,2,1:2:0:0:
440,172,38806,2,0,L|506:184,2,67.5000025749207,10|2|2,0:2|0:2|0:2,0:2:0:0:
419,190,38994,5,6,1:2:0:0:
294,288,39181,1,10,0:2:0:0:
289,318,39243,1,2,0:2:0:0:
285,348,39306,1,2,0:2:0:0:
281,378,39368,1,2,1:2:0:0:
199,89,39556,1,10,0:2:0:0:
199,89,39619,1,2,0:2:0:0:
199,89,39681,1,2,0:2:0:0:
199,89,39744,5,2,1:2:0:0:
14,241,39931,2,0,L|-8:338,2,67.5000025749207,10|2|2,0:2|0:2|0:2,0:2:0:0:
1,217,40119,1,2,1:2:0:0:
196,316,40306,1,10,0:2:0:0:
331,168,40494,5,6,1:2:0:0:
331,168,40681,2,0,L|410:153,2,67.5000025749207,10|2|2,0:2|0:2|0:2,0:2:0:0:
308,194,40869,1,2,1:2:0:0:
469,69,41056,1,8,0:0:0:0:
469,69,41119,1,2,0:2:0:0:
469,69,41181,1,2,0:2:0:0:
469,69,41244,1,2,1:2:0:0:
401,280,41431,5,10,0:2:0:0:
401,280,41494,1,2,0:2:0:0:
401,280,41556,1,2,0:2:0:0:
401,280,41619,1,2,1:2:0:0:
131,144,41806,2,0,L|64:156,2,67.5000025749207,10|0|0,0:2|0:2|0:2,0:2:0:0:
160,156,41994,5,6,1:2:0:0:
213,365,42181,1,10,0:2:0:0:
243,360,42243,1,2,0:2:0:0:
273,356,42306,1,2,0:2:0:0:
303,352,42368,1,2,1:2:0:0:
439,162,42556,1,10,0:2:0:0:
439,162,42619,1,2,0:2:0:0:
439,162,42681,1,2,0:2:0:0:
439,162,42744,5,2,1:2:0:0:
251,65,42931,2,0,L|273:-32,2,67.5000025749207,10|2|2,0:2|0:2|0:2,0:2:0:0:
260,93,43119,5,10,0:2:0:0:
140,249,43244,1,10,0:2:0:0:
366,75,43369,1,10,0:2:0:0:
354,307,43494,6,0,P|403:308|354:313,2,118.125001126528,4|0|10,1:2|1:2|0:2,0:2:0:0:
258,304,43744,1,2,0:2:0:0:
258,304,43806,1,2,0:2:0:0:
258,304,43869,2,0,P|215:320|263:311,2,118.125001126528,2|0|10,1:2|1:2|0:2,0:2:0:0:
310,221,44119,1,2,0:2:0:0:
310,221,44181,1,2,0:2:0:0:
310,221,44244,6,0,P|300:171|316:219,2,118.125001126528,2|0|10,1:2|1:2|0:2,0:2:0:0:
363,314,44494,1,2,0:2:0:0:
363,314,44556,1,2,0:2:0:0:
354,307,44619,2,0,P|403:308|354:313,2,118.125001126528,4|0|10,1:2|1:2|0:2,0:2:0:0:
258,304,44869,1,2,0:2:0:0:
258,304,44931,1,2,0:2:0:0:
258,304,44994,1,6,1:2:0:0:
105,98,45181,5,10,0:2:0:0:
157,92,45243,1,10,0:2:0:0:
209,86,45306,1,10,0:2:0:0:
261,80,45368,1,2,1:2:0:0:
404,211,45556,5,10,0:2:0:0:
352,205,45618,1,10,0:2:0:0:
300,199,45681,1,10,0:2:0:0:
248,193,45743,1,2,1:2:0:0:
0,263,45931,5,10,0:2:0:0:
52,257,45993,1,10,0:2:0:0:
104,251,46056,1,10,0:2:0:0:
156,245,46118,1,2,1:2:0:0:
360,345,46306,5,2,1:2:0:0:
261,80,46494,5,14,0:2:0:0:
512,153,46619,1,2,1:2:0:0:
323,235,46744,1,2,1:2:0:0:
423,97,46869,5,14,0:2:0:0:
296,210,46994,1,2,1:2:0:0:
455,268,47119,1,2,1:2:0:0:
293,88,47244,5,14,0:2:0:0:
199,255,47369,1,2,1:2:0:0:
94,93,47494,1,2,1:2:0:0:
92,205,47619,5,14,0:2:0:0:
187,23,47744,1,2,1:2:0:0:
296,210,47869,1,2,1:2:0:0:
313,229,48181,5,2,0:0:0:0:
404,222,48369,1,2,0:0:0:0:
492,215,48556,1,2,0:0:0:0:
406,183,48744,1,2,0:0:0:0:
332,249,48931,5,2,0:0:0:0:
272,159,49119,1,10,0:0:0:0:
161,190,49306,1,2,0:0:0:0:
159,306,49494,1,6,1:0:0:0:
25,250,49869,5,10,0:2:0:0:
155,212,50056,1,2,1:2:0:0:
259,308,50244,2,0,L|286:94,2,202.5,2|2|2,1:2|0:0|0:0,0:0:0:0:
259,308,51181,1,2,1:2:0:0:
374,226,51462,1,2,1:2:0:0:
247,173,51744,5,2,1:2:0:0:
201,159,51837,1,2,1:2:0:0:
363,65,52119,1,10,1:2:0:0:
317,79,52212,1,2,1:2:0:0:
512,88,52494,5,2,0:0:0:0:
502,127,52681,1,0,0:0:0:0:
491,175,52869,1,10,0:0:0:0:
374,226,53056,1,2,1:2:0:0:
374,226,53150,1,10,0:0:0:0:
374,226,53244,2,0,B|275:209|275:209|161:267,2,202.5,2|2|2,1:2|0:0|0:0,0:0:0:0:
352,87,54087,5,2,1:2:0:0:
352,87,54369,2,0,L|362:153,2,67.5,10|0|0,0:0|1:0|1:0,0:0:0:0:
202,117,54744,5,2,1:2:0:0:
249,130,54837,1,2,1:2:0:0:
115,219,55025,1,2,1:2:0:0:
158,204,55119,2,0,L|140:287,2,50.6250019311906,6|0|0,1:2|3:0|3:0,0:0:0:0:
358,324,55494,5,2,1:2:0:0:
260,359,55619,1,0,1:0:0:0:
260,359,55681,2,0,B|248:307|248:307|281:244,2,101.250003862381,8|0|8,0:0|1:0|0:0,0:0:0:0:
435,222,55994,1,0,1:0:0:0:
435,222,56056,1,10,0:0:0:0:
331,140,56244,5,2,1:2:0:0:
367,118,56337,2,0,L|381:66,2,50.6250019311906,2|0|8,1:2|1:0|0:0,0:0:0:0:
280,51,56525,1,2,1:2:0:0:
242,25,56619,2,0,B|137:10|137:10|85:26|85:26|71:16|71:16|-31:-1,2,270,10|2|8,0:0|1:2|0:0,0:0:0:0:
173,46,57056,5,0,1:0:0:0:
168,72,57118,1,0,1:0:0:0:
163,98,57181,1,10,0:0:0:0:
157,125,57243,1,0,1:0:0:0:
152,151,57306,1,0,1:0:0:0:
148,178,57369,2,0,B|127:218|127:218|176:329,2,135,10|0|8,0:0|1:0|0:0,0:0:0:0:
343,265,57650,5,0,1:0:0:0:
327,222,57744,1,10,0:0:0:0:
283,207,57837,2,0,L|199:221,2,50.6250019311906,0|0|8,1:0|1:0|0:0,0:0:0:0:
396,137,58025,5,2,1:2:0:0:
416,98,58119,1,8,0:0:0:0:
294,87,58306,5,2,1:2:0:0:
281,45,58400,1,0,1:0:0:0:
269,7,58494,1,14,0:0:0:0:
79,118,59056,6,0,L|249:146,3,90,8|8|8|12,0:0|0:0|0:0|0:0,0:0:0:0:
256,205,59619,1,0,1:0:0:0:
232,273,59806,1,0,1:0:0:0:
453,291,60181,6,0,B|504:308|504:308|305:355|305:355|355:366,4,303.750011587143,0|0|0|0|0,1:0|1:0|1:0|1:0|1:0,0:0:0:0:
225,239,61494,6,0,B|589:164,2,303.750011587143,6|14|6,1:2|0:2|1:2,0:2:0:0:
103,228,62244,5,2,1:2:0:0:
103,228,62306,1,2,1:2:0:0:
103,228,62369,2,0,B|125:204|125:204|112:114,2,67.5000025749207,10|0|2,0:2|0:2|0:2,0:2:0:0:
3,279,62619,1,2,1:2:0:0:
211,92,62744,1,2,1:2:0:0:
87,53,62869,1,2,1:2:0:0:
340,336,62994,6,0,B|-13:388,2,303.750011587143,6|14|6,1:2|0:2|1:2,0:2:0:0:
434,254,63744,1,2,1:2:0:0:
434,254,63806,1,2,1:2:0:0:
434,254,63869,2,0,B|417:223|417:223|423:161,2,67.5000025749207,10|0|2,0:2|0:2|0:2,0:2:0:0:
512,328,64119,1,2,1:2:0:0:
316,147,64244,1,2,1:2:0:0:
460,92,64369,1,2,1:2:0:0:
179,92,64494,6,0,B|503:47,2,303.750011587143,6|14|6,1:2|0:2|1:2,0:2:0:0:
335,311,65244,2,0,B|-6:272,2,303.750011587143,6|14|6,1:2|0:2|1:2,0:2:0:0:
512,326,65994,5,10,0:1:0:0:
456,234,66119,1,2,1:2:0:0:
359,281,66244,1,2,1:2:0:0:
343,246,66369,5,10,0:1:0:0:
268,351,66494,1,2,1:2:0:0:
178,276,66619,1,2,1:2:0:0:
153,307,66744,5,10,0:1:0:0:
89,223,66869,1,2,1:2:0:0:
0,278,66994,1,2,1:2:0:0:
19,126,67119,5,10,0:1:0:0:
19,126,67369,2,0,L|314:89,2,270.000010299683,10|10|0,0:1|0:1|0:0,0:0:0:0:
109,55,67744,1,2,1:2:0:0:
239,216,67869,5,10,0:1:0:0:
281,44,67994,1,2,1:2:0:0:
119,91,68119,1,2,1:2:0:0:
272,132,68244,5,10,0:1:0:0:
127,117,68369,1,2,1:2:0:0:
195,253,68494,1,2,1:2:0:0:
281,44,68619,5,10,0:1:0:0:
281,44,68869,2,0,L|244:371,2,315.000003004074,10|10|0,0:1|0:1|0:0,0:0:0:0:
355,146,69244,1,2,1:2:0:0:
403,49,69369,5,10,0:1:0:0:
249,174,69494,1,2,1:2:0:0:
424,241,69619,1,2,1:2:0:0:
232,134,69744,5,10,0:1:0:0:
386,262,69869,1,2,1:2:0:0:
416,71,69994,1,2,1:2:0:0:
288,251,70119,5,10,0:1:0:0:
179,41,70244,1,2,1:2:0:0:
47,244,70369,1,2,1:2:0:0:
478,132,70681,6,0,B|472:186|422:206|422:206|363:137|282:176,3,202.5,0|0|0|0,3:0|3:0|3:0|3:0,3:0:0:0:
332,273,71619,6,0,L|324:330,2,50.6250019311906,8|0|0,0:0|3:0|3:0,0:0:0:0:
190,374,71806,2,0,L|181:317,2,50.6250019311906,8|0|0,0:0|3:0|3:0,0:0:0:0:
132,229,71994,5,4,1:0:0:0:
347,355,72181,2,0,B|390:333|390:333|456:344,2,101.250003862381,8|8|0,0:0|0:0|1:0,0:0:0:0:
252,272,72556,1,8,0:0:0:0:
254,277,72650,1,8,0:0:0:0:
254,277,72744,1,0,1:0:0:0:
151,181,72931,2,0,B|103:163|103:163|23:181,2,101.250003862381,8|8|0,0:0|0:0|1:0,0:0:0:0:
293,74,73306,1,8,0:0:0:0:
303,67,73400,1,8,0:0:0:0:
291,61,73494,6,0,L|293:58,3,4.5,2|0|0|0,1:0|0:0|0:0|0:0,0:0:0:0:
238,146,73681,1,6,1:2:0:0:
110,35,73962,1,6,1:2:0:0:
123,244,74244,6,0,L|106:183,2,50.6250019311906,6|0|0,1:0|3:0|3:0,0:0:0:0:
116,366,74431,1,2,1:0:0:0:
172,358,74525,1,0,1:0:0:0:
218,333,74619,2,0,L|231:271,6,50.6250019311906,10|2|2|2|2|2|2,0:0|0:0|0:0|0:0|0:0|0:0|0:0,0:0:0:0:
328,79,74994,5,6,0:0:0:0:
411,212,75119,1,2,0:0:0:0:
401,212,75181,1,2,0:0:0:0:
394,199,75244,1,2,0:0:0:0:
403,185,75306,1,2,0:0:0:0:
424,185,75369,1,2,0:0:0:0:
446,203,75431,1,2,0:0:0:0:
454,237,75494,1,2,0:0:0:0:
430,270,75556,1,2,0:0:0:0:
383,281,75619,1,2,0:0:0:0:
340,250,75681,1,2,0:0:0:0:
326,193,75744,2,0,B|283:44|134:83|134:83|103:119|128:181|128:181|171:181|207:70,2,405.000015449524,2|0|12,1:2|1:0|0:0,0:0:0:0:
256,320,77150,5,2,0:0:0:0:
210,326,77243,1,2,0:0:0:0:
142,384,77525,1,2,0:0:0:0:
95,378,77618,1,2,0:0:0:0:
0,282,77806,1,2,0:0:0:0:
96,192,77994,1,2,0:0:0:0:
96,192,78369,5,2,0:0:0:0:
121,168,78462,1,2,0:0:0:0:
132,137,78556,1,2,0:0:0:0:
128,104,78650,1,2,0:0:0:0:
108,79,78744,5,2,3:0:0:0:
237,144,78931,1,2,0:0:0:0:
318,74,79119,1,2,3:0:0:0:
394,104,79306,1,2,0:0:0:0:
445,53,79494,1,2,3:0:0:0:
436,69,80056,2,0,L|447:12,2,45,2|2|2,0:0|0:0|0:0,0:0:0:0:
454,79,80244,5,2,3:0:0:0:
461,159,80431,1,2,0:0:0:0:
409,233,80619,1,2,0:0:0:0:
304,242,80806,1,2,0:0:0:0:
212,129,80994,1,2,3:0:0:0:
212,129,81556,5,2,0:0:0:0:
301,41,81744,1,2,3:0:0:0:
218,157,82119,5,2,0:0:0:0:
203,127,82212,1,2,0:0:0:0:
177,105,82306,1,2,0:0:0:0:
146,95,82400,1,2,0:0:0:0:
112,97,82494,5,2,0:0:0:0:
112,97,82681,1,2,0:0:0:0:
19,192,82869,2,2,L|10:95,2,67.5,0|2|2,3:0|0:0|0:0,0:0:0:0:
99,288,83244,1,2,0:0:0:0:
99,288,83337,1,2,0:0:0:0:
99,288,83431,1,2,0:0:0:0:
201,305,83619,1,2,0:0:0:0:
288,239,83806,1,2,0:0:0:0:
285,122,83994,5,2,0:0:0:0:
285,122,84181,1,2,1:2:0:0:
375,58,84369,1,2,0:3:0:0:
447,139,84556,6,0,L|510:151,2,45,2|2|2,0:0|0:0|0:0,0:0:0:0:
431,156,84744,1,2,0:0:0:0:
355,218,84931,1,2,0:0:0:0:
285,122,85119,1,10,0:0:0:0:
285,122,85212,1,2,0:0:0:0:
285,122,85306,1,2,0:0:0:0:
94,328,85494,5,2,1:2:0:0:
124,215,85681,2,0,P|109:124|0:96,2,202.5,2|2|2,0:0|0:0|3:2,0:0:0:0:
124,215,86337,1,2,3:2:0:0:
124,215,86431,1,2,3:2:0:0:
62,338,86619,6,0,P|195:273|250:322,2,175.499991966248,10|2|2,0:0|0:0|0:0,0:0:0:0:
0,207,87181,1,0,1:0:0:0:
109,124,87369,1,8,0:3:0:0:
305,120,87556,5,2,0:0:0:0:
307,90,87649,1,2,0:0:0:0:
309,61,87743,1,2,0:0:0:0:
371,318,87931,1,2,0:0:0:0:
434,170,88119,6,0,L|288:144,2,135,12|0|12,0:0|0:0|0:0,0:0:0:0:
276,231,88681,1,0,1:0:0:0:
116,291,88869,1,8,0:2:0:0:
116,291,89244,5,8,0:0:0:0:
107,137,89494,5,0,1:0:0:0:
13,183,89619,1,8,1:0:0:0:
22,79,89744,1,8,1:0:0:0:
107,137,89869,1,8,1:0:0:0:
175,314,89994,6,0,B|106:335|106:335|-41:274,2,135,14|0|10,1:2|1:2|0:2,0:2:0:0:
241,334,90244,1,2,0:2:0:0:
277,276,90306,1,2,0:2:0:0:
238,219,90369,2,0,L|271:88,2,101.250003862381,2|0|10,1:2|1:2|0:2,0:2:0:0:
173,248,90619,5,2,0:2:0:0:
124,200,90681,1,2,0:2:0:0:
135,132,90744,1,2,0:2:0:0:
135,132,90931,2,0,L|25:119,2,67.5000025749207,10|2|2,0:2|0:2|0:2,0:2:0:0:
224,96,91119,6,0,P|280:70|221:70,3,168.75,2|2|10|2,1:2|0:2|0:2|0:2,0:2:0:0:
345,189,91494,6,0,B|374:368,2,135,6|0|10,1:2|1:2|0:2,0:2:0:0:
406,212,91744,1,2,0:2:0:0:
466,180,91806,1,2,0:2:0:0:
487,111,91869,2,0,L|504:-12,2,101.250003862381,2|0|10,1:2|1:2|0:2,0:2:0:0:
455,49,92119,5,2,0:2:0:0:
394,31,92181,1,2,0:2:0:0:
338,61,92244,2,0,B|242:99|242:99|183:78|183:78|241:66,2,202.500007724762,2|10|2,1:2|0:2|1:2,0:2:0:0:
387,338,92806,5,10,0:2:0:0:
274,377,92900,1,8,0:0:0:0:
199,284,92994,2,0,L|39:295,2,135,6|0|10,1:2|1:2|0:2,0:2:0:0:
249,246,93244,1,2,0:2:0:0:
266,184,93306,1,2,0:2:0:0:
225,133,93369,2,8,B|197:93|197:93|215:20,2,101.250003862381,2|0|2,1:2|1:2|0:2,0:2:0:0:
266,184,93619,5,2,0:2:0:0:
330,197,93681,1,2,0:2:0:0:
378,152,93744,1,2,1:2:0:0:
488,0,93931,1,8,0:2:0:0:
149,15,94119,5,2,1:2:0:0:
101,99,94212,1,2,0:2:0:0:
149,189,94306,1,10,0:2:0:0:
103,277,94400,1,2,0:2:0:0:
149,363,94494,6,0,B|80:380|80:380|10:348,2,135,6|0|10,1:2|1:2|0:2,0:2:0:0:
183,314,94744,1,2,0:2:0:0:
242,299,94806,1,2,0:2:0:0:
289,334,94869,2,0,B|424:349,2,101.250003862381,2|0|10,1:2|1:2|0:2,0:2:0:0:
342,304,95119,5,2,0:2:0:0:
364,245,95181,1,2,0:2:0:0:
333,192,95244,2,0,B|275:168|275:168|164:192|164:192|200:165,2,202.500007724762,2|10|2,1:2|0:2|1:2,0:2:0:0:
150,320,95806,5,8,0:2:0:0:
252,384,95900,1,8,0:2:0:0:
347,321,95994,2,0,B|555:344,2,135,6|0|10,1:2|1:2|0:2,0:2:0:0:
288,301,96244,1,2,0:2:0:0:
263,252,96306,1,2,0:2:0:0:
291,201,96369,2,0,L|279:78,2,101.250003862381,2|0|10,1:2|1:2|0:2,0:2:0:0:
349,201,96619,5,2,0:2:0:0:
392,161,96681,1,2,0:2:0:0:
398,105,96744,1,2,1:2:0:0:
398,105,96931,2,0,L|488:91,2,67.5000025749207,8|2|2,0:2|0:2|0:2,0:2:0:0:
306,66,97119,6,0,P|252:71|302:75,3,168.75,2|2|10|2,1:2|0:2|0:2|0:2,0:2:0:0:
112,196,97494,6,0,B|88:135|88:135|112:70,2,135,6|0|10,1:2|1:2|0:2,0:2:0:0:
161,231,97744,1,2,0:2:0:0:
219,220,97806,1,2,0:2:0:0:
251,172,97869,2,0,L|436:195,2,101.250003862381,2|0|8,1:2|1:2|1:2,0:2:0:0:
219,220,98119,5,2,0:2:0:0:
202,277,98181,1,2,0:2:0:0:
229,331,98244,2,0,B|295:365|295:365|363:340|363:340|301:411,2,202.500007724762,2|10|2,1:2|0:2|1:2,0:2:0:0:
373,151,98806,1,8,0:2:0:0:
496,122,98900,1,8,0:2:0:0:
512,241,98994,6,0,L|489:385,2,135,6|0|10,1:2|1:2|0:2,0:2:0:0:
468,288,99244,1,2,0:2:0:0:
405,306,99306,1,2,0:2:0:0:
346,277,99369,6,0,B|308:256|308:256|350:242,4,84.375,2|0|0|0|10,1:0|1:0|1:2|0:0|0:2,0:0:0:0:
239,116,99619,5,2,0:2:0:0:
188,99,99681,1,2,0:2:0:0:
129,124,99744,2,0,B|-9:106,2,101.250003862381,2|0|10,1:2|1:2|0:2,0:0:0:0:
192,189,99994,6,0,L|188:205,2,11.25,2|0|2,1:0|0:0|0:2,0:0:0:0:
298,218,100119,2,0,L|294:201,2,11.25,6|0|0,1:0|0:0|0:0,0:0:0:0:
399,170,100244,2,0,L|393:157,2,11.25,10|0|0,0:1|0:0|0:0,0:0:0:0:
499,181,100369,2,0,L|495:198,2,11.25,10|0|0,0:1|0:0|0:0,0:0:0:0:
290,93,100494,5,2,1:2:0:0:
244,307,100619,1,10,0:2:0:0:
98,142,100744,1,10,0:2:0:0:
92,318,100869,6,0,L|74:402,2,67.5000025749207,2|0|0,1:1|0:2|1:2,0:0:0:0:
98,305,100994,1,10,0:2:0:0:
105,291,101056,1,10,0:0:0:0:
112,278,101119,1,10,0:2:0:0:
360,303,101244,5,0,1:2:0:0:
427,249,101337,1,0,1:0:0:0:
399,170,101431,2,0,L|397:138,3,16.8750006437302,10|0|0|0,0:2|0:0|0:0|0:0,0:0:0:0:
318,167,101619,1,2,1:0:0:0:
256,113,101712,1,0,1:0:0:0:
270,33,101806,2,0,L|319:24,3,45,10|0|0|0,0:2|3:0|3:0|3:0,0:0:0:0:
256,192,101994,12,0,102650,0:0:0:0:
256,192,102744,5,2,0:2:0:0:
368,48,102931,1,6,1:2:0:0:
387,86,103025,1,2,1:2:0:0:
368,48,103119,6,0,L|375:4,3,33.7500012874604,2|0|0|0,1:2|3:2|3:2|3:2,0:2:0:0:
504,97,103306,1,2,1:2:0:0:
332,309,103494,6,0,L|198:328,2,101.250003862381,6|0|10,1:2|1:2|0:2,0:2:0:0:
322,164,103775,1,8,0:2:0:0:
256,192,103869,2,0,L|119:167,2,101.250003862381,2|0|10,1:2|1:2|0:2,0:2:0:0:
447,186,104150,1,8,0:2:0:0:
475,252,104244,6,0,L|448:373,2,101.250003862381,2|0|10,1:2|1:2|0:2,0:2:0:0:
350,98,104525,1,8,0:2:0:0:
322,164,104619,2,0,L|343:306,2,101.250003862381,2|0|10,1:2|1:2|0:2,0:2:0:0:
238,37,104900,1,8,0:2:0:0:
170,55,104994,6,0,B|124:143|124:143|151:248,2,202.500007724762,2|10|2,1:2|0:2|1:2,0:2:0:0:
207,330,105556,1,10,0:2:0:0:
288,314,105650,1,10,0:2:0:0:
365,292,105744,6,0,L|489:306,2,101.250003862381,2|0|10,1:2|1:2|0:2,0:2:0:0:
393,156,106025,1,8,0:2:0:0:
451,95,106119,2,0,B|488:59|488:59|471:220,2,202.500007724762,2|10|6,1:2|0:2|1:2,0:2:0:0:
259,338,106681,5,10,0:2:0:0:
185,353,106775,1,8,0:2:0:0:
132,299,106869,2,0,L|0:315,2,101.250003862381,2|0|10,1:2|1:2|0:2,0:2:0:0:
341,217,107150,1,8,0:2:0:0:
369,151,107244,6,0,L|352:17,2,101.250003862381,2|0|10,1:2|1:2|0:2,0:2:0:0:
484,360,107525,1,8,0:2:0:0:
512,294,107619,2,0,L|495:146,2,101.250003862381,2|0|10,1:2|1:2|0:2,0:2:0:0:
335,317,107900,1,8,0:2:0:0:
262,335,107994,6,0,B|211:239|211:239|250:144,2,202.500007724762,2|10|2,1:2|0:2|1:2,0:2:0:0:
64,239,108556,1,10,0:2:0:0:
45,160,108650,1,10,0:2:0:0:
100,100,108744,6,0,L|125:-39,2,101.250003862381,2|0|10,1:2|1:2|0:2,0:2:0:0:
283,162,109025,1,8,0:2:0:0:
247,78,109119,5,8,0:1:0:0:
100,100,109244,1,8,0:1:0:0:
199,224,109369,1,8,0:1:0:0:
247,78,109494,6,0,P|312:70|359:119,2,101.250003862381,6|0|8,1:2|1:2|0:2,0:2:0:0:
422,161,109744,1,2,0:2:0:0:
422,161,109806,1,2,0:2:0:0:
422,161,109869,2,0,L|441:27,2,101.250003862381,0|0|8,1:2|1:2|0:2,0:2:0:0:
503,258,110119,1,2,0:2:0:0:
503,258,110181,1,2,0:2:0:0:
503,258,110244,6,0,P|438:250|387:304,2,101.250003862381,2|0|10,1:2|1:2|0:2,0:2:0:0:
332,363,110494,1,2,0:2:0:0:
332,363,110556,1,2,0:2:0:0:
332,363,110619,2,0,L|307:236,2,101.250003862381,2|0|10,1:2|1:2|0:2,0:2:0:0:
199,320,110869,1,2,0:2:0:0:
199,320,110931,1,2,0:2:0:0:
199,320,110994,5,2,0:2:0:0:
199,320,111181,2,0,P|148:305|93:335,2,90,4|4|4,0:3|0:3|0:3,0:2:0:0:
292,287,111369,1,8,3:3:0:0:
292,287,111556,2,0,P|305:338|358:371,2,90,2|2|2,3:2|3:2|3:2,0:2:0:0:
219,222,111744,1,8,3:3:0:0:
219,222,111931,2,0,P|258:185|260:122,2,90,2|2|2,3:2|3:2|3:2,0:2:0:0:
199,320,112119,1,2,0:2:0:0:
199,320,112306,2,0,P|148:305|93:335,2,90,4|4|4,0:3|0:3|0:3,0:2:0:0:
219,222,112494,5,14,0:1:0:0:
392,306,112619,1,2,1:2:0:0:
493,272,112744,1,2,1:2:0:0:
321,223,112869,2,0,B|363:341|363:341|303:418,2,180,14|0|0,0:1|1:1|1:1,0:0:0:0:
72,220,113244,5,14,0:1:0:0:
250,114,113369,1,0,1:2:0:0:
349,140,113494,1,0,1:2:0:0:
182,194,113619,2,0,B|224:76|224:76|164:-1,2,180,14|0|0,0:1|1:2|1:2,0:2:0:0:
429,270,114181,5,2,0:0:0:0:
463,279,114369,1,2,0:0:0:0:
474,306,114556,1,2,0:0:0:0:
466,321,114744,1,2,0:0:0:0:
392,301,114931,1,2,0:0:0:0:
331,216,115119,1,2,0:0:0:0:
376,90,115306,1,2,0:0:0:0:
37,355,115869,5,2,0:0:0:0:
256,192,115962,12,0,119244,0:0:0:0:
