osu file format v14

[General]
AudioFilename: audio.mp3
AudioLeadIn: 0
PreviewTime: 89999
Countdown: 0
SampleSet: Normal
StackLeniency: 0.2
Mode: 1
LetterboxInBreaks: 0
WidescreenStoryboard: 1

[Editor]
Bookmarks: 4499,16499,28499,37499,49499,65999,76499,89999,103499
DistanceSpacing: 0.8
BeatDivisor: 3
GridSize: 32
TimelineZoom: 2.82

[Metadata]
Title:Arianrhod
TitleUnicode:Arianrhod
Artist:LeaF
ArtistUnicode:LeaF
Creator:Genjuro
Version:Oni
Source:東方紅魔郷 ~ the Embodiment of Scarlet Devil.
Tags:electronic instrumental video game featured artist fa mappers guild mg osu! Touhou 東方Project Team Shanghai Alice ZUN 月時計 ~ ルナ・ダイアル Lunar Clock ~ Dial EoSD TH6 十六夜 咲夜 Sakuya Izayoi
BeatmapID:2359716
BeatmapSetID:1128939

[Difficulty]
HPDrainRate:5.5
CircleSize:2
OverallDifficulty:5.5
ApproachRate:10
SliderMultiplier:1.4
SliderTickRate:1

[Events]
//Background and Video events
0,0,"bg.jpg",0,0
//Break Periods
2,76699,82049
//Storyboard Layer 0 (Background)
//Storyboard Layer 1 (Fail)
//Storyboard Layer 2 (Pass)
//Storyboard Layer 3 (Foreground)
//Storyboard Layer 4 (Overlay)
//Storyboard Sound Samples

[TimingPoints]
1499,375,4,1,0,100,1,0
4499,375,4,1,0,100,1,0
14999,-100,4,1,0,40,0,0
16264,-100,4,1,0,100,0,0
16499,-100,4,1,0,100,0,1
27749,-100,4,1,0,100,0,0
37499,375,4,1,0,100,1,0
49452,-100,4,1,0,60,0,0
50952,-100,4,1,0,70,0,0
52452,-100,4,1,0,80,0,0
53952,-100,4,1,0,90,0,0
55452,-100,4,1,0,100,0,0
65999,375,4,1,0,100,1,0
76499,375,4,1,0,100,1,0
76545,-100,4,1,0,60,0,0
83952,-100,4,1,0,70,0,0
85452,-100,4,1,0,80,0,0
86952,-100,4,1,0,90,0,0
88452,-100,4,1,0,100,0,0
89999,375,4,1,0,100,1,1
101249,-100,4,1,0,100,0,0
103499,375,4,1,0,100,1,0

[HitObjects]
256,192,1499,5,0,0:0:0:0:
256,192,1686,1,8,0:0:0:0:
256,192,1967,1,0,0:0:0:0:
256,192,2061,1,0,0:0:0:0:
256,192,2249,1,8,0:0:0:0:
256,192,2530,1,8,0:0:0:0:
256,192,2811,1,8,0:0:0:0:
256,192,2999,1,0,0:0:0:0:
256,192,3374,1,0,0:0:0:0:
256,192,3749,1,8,0:0:0:0:
256,192,4311,1,8,0:0:0:0:
256,192,4499,1,4,0:0:0:0:
256,192,4686,1,8,0:0:0:0:
256,192,4780,1,8,0:0:0:0:
256,192,4874,1,0,0:0:0:0:
256,192,5061,1,8,0:0:0:0:
256,192,5249,1,0,0:0:0:0:
256,192,5436,1,8,0:0:0:0:
256,192,5530,1,8,0:0:0:0:
256,192,5624,1,0,0:0:0:0:
256,192,5811,1,8,0:0:0:0:
256,192,5999,1,0,0:0:0:0:
256,192,6186,1,8,0:0:0:0:
256,192,6280,1,8,0:0:0:0:
256,192,6374,1,0,0:0:0:0:
256,192,6561,1,8,0:0:0:0:
256,192,7499,1,4,0:0:0:0:
256,192,7686,1,8,0:0:0:0:
256,192,7780,1,8,0:0:0:0:
256,192,7874,1,0,0:0:0:0:
256,192,8061,1,8,0:0:0:0:
256,192,8249,1,0,0:0:0:0:
256,192,8436,1,8,0:0:0:0:
256,192,8530,1,8,0:0:0:0:
256,192,8624,1,0,0:0:0:0:
256,192,8811,1,8,0:0:0:0:
256,192,8999,1,0,0:0:0:0:
256,192,9186,1,8,0:0:0:0:
256,192,9280,1,8,0:0:0:0:
256,192,9374,1,0,0:0:0:0:
256,192,9561,1,8,0:0:0:0:
256,192,10124,1,0,0:0:0:0:
256,192,10311,1,0,0:0:0:0:
256,192,10499,1,8,0:0:0:0:
256,192,10624,1,8,0:0:0:0:
256,192,10749,1,0,0:0:0:0:
256,192,10874,1,8,0:0:0:0:
256,192,10999,1,0,0:0:0:0:
256,192,11249,1,8,0:0:0:0:
256,192,11374,1,8,0:0:0:0:
256,192,11499,1,0,0:0:0:0:
256,192,11624,1,8,0:0:0:0:
256,192,11749,1,0,0:0:0:0:
256,192,11999,1,8,0:0:0:0:
256,192,12092,1,8,0:0:0:0:
256,192,12186,1,0,0:0:0:0:
256,192,12280,1,0,0:0:0:0:
256,192,12374,1,8,0:0:0:0:
256,192,12561,1,8,0:0:0:0:
256,192,12655,1,8,0:0:0:0:
256,192,12749,1,0,0:0:0:0:
256,192,12936,1,8,0:0:0:0:
256,192,13124,1,0,0:0:0:0:
256,192,13499,1,4,0:0:0:0:
256,192,13686,1,8,0:0:0:0:
256,192,13780,1,8,0:0:0:0:
256,192,13874,1,0,0:0:0:0:
256,192,14061,1,8,0:0:0:0:
256,192,14249,1,0,0:0:0:0:
256,192,14436,1,8,0:0:0:0:
256,192,14530,1,8,0:0:0:0:
256,192,14624,1,0,0:0:0:0:
256,192,14811,1,0,0:0:0:0:
256,192,14905,1,0,0:0:0:0:
256,192,15374,1,8,0:0:0:0:
256,192,15749,1,8,0:0:0:0:
256,192,16124,1,8,0:0:0:0:
256,192,16499,1,4,0:0:0:0:
256,192,16686,1,8,0:0:0:0:
256,192,16780,1,0,0:0:0:0:
256,192,16874,1,0,0:0:0:0:
256,192,17061,1,8,0:0:0:0:
256,192,17249,1,0,0:0:0:0:
256,192,17436,1,8,0:0:0:0:
256,192,17624,1,0,0:0:0:0:
256,192,17717,1,0,0:0:0:0:
256,192,17811,1,8,0:0:0:0:
256,192,17905,1,0,0:0:0:0:
256,192,17999,1,0,0:0:0:0:
256,192,18186,1,8,0:0:0:0:
256,192,18280,1,0,0:0:0:0:
256,192,18374,1,0,0:0:0:0:
256,192,18561,1,8,0:0:0:0:
256,192,18749,1,0,0:0:0:0:
256,192,18936,1,8,0:0:0:0:
256,192,19124,1,0,0:0:0:0:
256,192,19499,1,0,0:0:0:0:
256,192,19686,1,8,0:0:0:0:
256,192,19780,1,8,0:0:0:0:
256,192,19874,1,0,0:0:0:0:
256,192,20061,1,8,0:0:0:0:
256,192,20249,1,0,0:0:0:0:
256,192,20436,1,8,0:0:0:0:
256,192,20624,1,0,0:0:0:0:
256,192,20717,1,8,0:0:0:0:
256,192,20811,1,8,0:0:0:0:
256,192,20905,1,8,0:0:0:0:
256,192,20999,1,0,0:0:0:0:
256,192,21186,1,8,0:0:0:0:
256,192,21280,1,8,0:0:0:0:
256,192,21374,1,0,0:0:0:0:
256,192,21561,1,8,0:0:0:0:
256,192,21749,1,0,0:0:0:0:
256,192,21936,1,8,0:0:0:0:
256,192,22124,1,0,0:0:0:0:
256,192,22499,1,4,0:0:0:0:
256,192,22686,1,8,0:0:0:0:
256,192,22780,1,0,0:0:0:0:
256,192,22874,1,0,0:0:0:0:
256,192,23061,1,8,0:0:0:0:
256,192,23249,1,0,0:0:0:0:
256,192,23436,1,8,0:0:0:0:
256,192,23624,1,0,0:0:0:0:
256,192,23717,1,0,0:0:0:0:
256,192,23811,1,8,0:0:0:0:
256,192,23905,1,8,0:0:0:0:
256,192,23999,1,0,0:0:0:0:
256,192,24186,1,8,0:0:0:0:
256,192,24280,1,0,0:0:0:0:
256,192,24374,1,0,0:0:0:0:
256,192,24561,1,8,0:0:0:0:
256,192,24749,1,0,0:0:0:0:
256,192,24936,1,8,0:0:0:0:
256,192,25124,1,0,0:0:0:0:
256,192,25499,1,4,0:0:0:0:
256,192,25686,1,8,0:0:0:0:
256,192,25780,1,8,0:0:0:0:
256,192,25874,1,0,0:0:0:0:
256,192,26061,1,8,0:0:0:0:
256,192,26249,1,0,0:0:0:0:
256,192,26436,1,8,0:0:0:0:
256,192,26624,1,0,0:0:0:0:
256,192,26749,1,0,0:0:0:0:
256,192,26874,1,8,0:0:0:0:
256,192,26999,1,0,0:0:0:0:
256,192,27280,1,0,0:0:0:0:
256,192,27374,1,8,0:0:0:0:
256,192,27467,1,8,0:0:0:0:
256,192,27561,1,0,0:0:0:0:
256,192,28311,1,8,0:0:0:0:
256,192,28499,1,4,0:0:0:0:
256,192,28686,1,8,0:0:0:0:
256,192,28780,1,8,0:0:0:0:
256,192,28874,1,0,0:0:0:0:
256,192,29061,1,8,0:0:0:0:
256,192,29249,1,0,0:0:0:0:
256,192,29436,1,8,0:0:0:0:
256,192,29530,1,8,0:0:0:0:
256,192,29624,1,0,0:0:0:0:
256,192,29811,1,8,0:0:0:0:
256,192,29999,1,0,0:0:0:0:
256,192,30186,1,0,0:0:0:0:
256,192,30280,1,0,0:0:0:0:
256,192,30374,1,8,0:0:0:0:
256,192,30561,1,0,0:0:0:0:
256,192,30749,1,8,0:0:0:0:
256,192,30874,1,0,0:0:0:0:
256,192,31124,1,0,0:0:0:0:
256,192,31217,1,8,0:0:0:0:
256,192,31311,1,0,0:0:0:0:
256,192,31499,1,8,0:0:0:0:
256,192,31874,1,4,0:0:0:0:
256,192,32061,1,8,0:0:0:0:
256,192,32155,1,8,0:0:0:0:
256,192,32249,1,0,0:0:0:0:
256,192,32436,1,8,0:0:0:0:
256,192,32624,1,0,0:0:0:0:
256,192,32811,1,8,0:0:0:0:
256,192,32905,1,8,0:0:0:0:
256,192,32999,1,0,0:0:0:0:
256,192,33249,1,0,0:0:0:0:
256,192,33374,1,8,0:0:0:0:
256,192,33561,1,0,0:0:0:0:
256,192,33749,1,0,0:0:0:0:
256,192,33842,1,8,0:0:0:0:
256,192,33936,1,0,0:0:0:0:
256,192,34030,1,8,0:0:0:0:
256,192,34499,1,4,0:0:0:0:
256,192,34686,1,8,0:0:0:0:
256,192,34780,1,8,0:0:0:0:
256,192,34874,1,0,0:0:0:0:
256,192,35061,1,8,0:0:0:0:
256,192,35249,1,0,0:0:0:0:
256,192,35436,1,8,0:0:0:0:
256,192,35530,1,8,0:0:0:0:
256,192,35624,1,0,0:0:0:0:
256,192,35811,1,0,0:0:0:0:
256,192,36186,1,8,0:0:0:0:
256,192,36374,1,0,0:0:0:0:
256,192,36561,1,8,0:0:0:0:
256,192,36749,1,0,0:0:0:0:
256,192,36842,1,0,0:0:0:0:
256,192,36936,1,8,0:0:0:0:
256,192,37030,1,8,0:0:0:0:
256,192,37124,1,0,0:0:0:0:
256,192,37499,1,4,0:0:0:0:
256,192,37686,1,8,0:0:0:0:
256,192,37780,1,8,0:0:0:0:
256,192,37874,1,0,0:0:0:0:
256,192,38061,1,8,0:0:0:0:
256,192,38249,1,0,0:0:0:0:
256,192,38436,1,8,0:0:0:0:
256,192,38530,1,8,0:0:0:0:
256,192,38624,1,0,0:0:0:0:
256,192,38811,1,8,0:0:0:0:
256,192,38999,1,0,0:0:0:0:
256,192,39186,1,8,0:0:0:0:
256,192,39280,1,8,0:0:0:0:
256,192,39374,1,0,0:0:0:0:
256,192,39561,1,8,0:0:0:0:
256,192,39749,1,0,0:0:0:0:
256,192,39936,1,8,0:0:0:0:
256,192,40030,1,8,0:0:0:0:
256,192,40124,1,0,0:0:0:0:
256,192,40311,1,0,0:0:0:0:
256,192,40499,1,0,0:0:0:0:
256,192,40686,1,8,0:0:0:0:
256,192,40780,1,8,0:0:0:0:
256,192,40874,1,0,0:0:0:0:
256,192,41061,1,8,0:0:0:0:
256,192,41249,1,0,0:0:0:0:
256,192,41436,1,8,0:0:0:0:
256,192,41530,1,8,0:0:0:0:
256,192,41624,1,0,0:0:0:0:
256,192,41811,1,8,0:0:0:0:
256,192,41999,1,0,0:0:0:0:
256,192,42186,1,8,0:0:0:0:
256,192,42280,1,8,0:0:0:0:
256,192,42374,1,0,0:0:0:0:
256,192,42561,1,8,0:0:0:0:
256,192,42749,1,0,0:0:0:0:
256,192,42936,1,8,0:0:0:0:
256,192,43030,1,8,0:0:0:0:
256,192,43124,1,0,0:0:0:0:
256,192,43499,1,4,0:0:0:0:
256,192,43686,1,8,0:0:0:0:
256,192,43780,1,0,0:0:0:0:
256,192,43874,1,8,0:0:0:0:
256,192,44061,1,8,0:0:0:0:
256,192,44249,1,0,0:0:0:0:
256,192,44436,1,8,0:0:0:0:
256,192,44530,1,0,0:0:0:0:
256,192,44624,1,8,0:0:0:0:
256,192,44811,1,8,0:0:0:0:
256,192,44999,1,0,0:0:0:0:
256,192,45186,1,8,0:0:0:0:
256,192,45280,1,0,0:0:0:0:
256,192,45374,1,8,0:0:0:0:
256,192,45561,1,8,0:0:0:0:
256,192,45655,1,0,0:0:0:0:
256,192,45749,1,8,0:0:0:0:
256,192,45936,1,8,0:0:0:0:
256,192,46030,1,0,0:0:0:0:
256,192,46124,1,8,0:0:0:0:
256,192,46311,1,8,0:0:0:0:
256,192,46499,1,0,0:0:0:0:
256,192,46624,1,8,0:0:0:0:
256,192,46749,1,0,0:0:0:0:
256,192,46874,1,8,0:0:0:0:
256,192,46999,1,8,0:0:0:0:
256,192,47249,1,0,0:0:0:0:
256,192,47374,1,8,0:0:0:0:
256,192,47624,1,8,0:0:0:0:
256,192,47749,1,8,0:0:0:0:
256,192,47874,1,0,0:0:0:0:
256,192,49124,1,12,0:0:0:0:
256,192,49499,1,0,0:0:0:0:
256,192,49874,1,8,0:0:0:0:
256,192,50624,1,8,0:0:0:0:
256,192,50999,1,0,0:0:0:0:
256,192,51186,1,0,0:0:0:0:
256,192,51374,1,8,0:0:0:0:
256,192,51561,1,0,0:0:0:0:
256,192,51749,1,8,0:0:0:0:
256,192,51842,1,0,0:0:0:0:
256,192,52124,1,8,0:0:0:0:
256,192,52499,1,0,0:0:0:0:
256,192,52686,1,0,0:0:0:0:
256,192,52874,1,8,0:0:0:0:
256,192,53061,1,0,0:0:0:0:
256,192,53155,1,8,0:0:0:0:
256,192,53249,1,0,0:0:0:0:
256,192,53436,1,0,0:0:0:0:
256,192,53624,1,8,0:0:0:0:
256,192,53811,1,0,0:0:0:0:
256,192,53999,1,0,0:0:0:0:
256,192,54186,1,8,0:0:0:0:
256,192,54374,1,8,0:0:0:0:
256,192,54561,1,0,0:0:0:0:
256,192,54655,1,8,0:0:0:0:
256,192,54749,1,8,0:0:0:0:
256,192,54936,1,0,0:0:0:0:
256,192,55124,1,8,0:0:0:0:
256,192,55499,1,0,0:0:0:0:
256,192,55624,1,8,0:0:0:0:
256,192,55780,1,0,0:0:0:0:
256,192,55874,1,8,0:0:0:0:
256,192,56061,1,8,0:0:0:0:
256,192,56249,1,0,0:0:0:0:
256,192,56342,1,8,0:0:0:0:
256,192,56436,1,0,0:0:0:0:
256,192,56530,1,0,0:0:0:0:
256,192,56624,1,8,0:0:0:0:
256,192,56811,1,8,0:0:0:0:
256,192,56999,1,0,0:0:0:0:
256,192,57124,1,8,0:0:0:0:
256,192,57249,1,0,0:0:0:0:
256,192,57374,1,8,0:0:0:0:
256,192,57499,1,0,0:0:0:0:
256,192,57749,1,0,0:0:0:0:
256,192,57889,1,8,0:0:0:0:
256,192,58030,1,0,0:0:0:0:
256,192,58124,1,8,0:0:0:0:
256,192,58311,1,0,0:0:0:0:
256,192,58499,1,12,0:0:0:0:
256,192,59061,1,0,0:0:0:0:
256,192,59249,1,12,0:0:0:0:
256,192,59624,1,0,0:0:0:0:
256,192,59811,1,0,0:0:0:0:
256,192,60186,1,12,0:0:0:0:
256,192,60467,1,12,0:0:0:0:
256,192,60749,1,4,0:0:0:0:
256,192,61030,1,12,0:0:0:0:
256,192,61499,1,0,0:0:0:0:
256,192,61780,1,8,0:0:0:0:
256,192,62061,1,0,0:0:0:0:
256,192,62249,1,8,0:0:0:0:
256,192,62374,1,0,0:0:0:0:
256,192,62624,1,8,0:0:0:0:
256,192,62749,1,8,0:0:0:0:
256,192,62874,1,8,0:0:0:0:
256,192,62999,1,0,0:0:0:0:
256,192,63280,1,8,0:0:0:0:
256,192,63561,1,0,0:0:0:0:
256,192,63749,1,8,0:0:0:0:
256,192,63874,1,0,0:0:0:0:
256,192,64124,1,8,0:0:0:0:
256,192,64249,1,0,0:0:0:0:
256,192,64374,1,8,0:0:0:0:
256,192,64499,1,0,0:0:0:0:
256,192,64780,1,8,0:0:0:0:
256,192,65061,1,0,0:0:0:0:
256,192,65249,1,0,0:0:0:0:
256,192,65530,1,8,0:0:0:0:
256,192,65999,1,8,0:0:0:0:
256,192,66249,1,0,0:0:0:0:
256,192,66374,1,8,0:0:0:0:
256,192,66499,1,0,0:0:0:0:
256,192,66624,1,0,0:0:0:0:
256,192,66749,1,8,0:0:0:0:
256,192,66999,1,0,0:0:0:0:
256,192,67124,1,8,0:0:0:0:
256,192,67249,1,0,0:0:0:0:
256,192,67374,1,8,0:0:0:0:
256,192,67499,1,8,0:0:0:0:
256,192,67749,1,0,0:0:0:0:
256,192,67874,1,8,0:0:0:0:
256,192,67999,1,0,0:0:0:0:
256,192,68124,1,0,0:0:0:0:
256,192,68249,1,8,0:0:0:0:
256,192,68499,1,0,0:0:0:0:
256,192,68624,1,8,0:0:0:0:
256,192,68749,1,0,0:0:0:0:
256,192,68874,1,8,0:0:0:0:
256,192,68999,1,8,0:0:0:0:
256,192,69249,1,0,0:0:0:0:
256,192,69374,1,8,0:0:0:0:
256,192,69499,1,0,0:0:0:0:
256,192,69624,1,0,0:0:0:0:
256,192,69749,1,8,0:0:0:0:
256,192,69999,1,0,0:0:0:0:
256,192,70124,1,8,0:0:0:0:
256,192,70249,1,0,0:0:0:0:
256,192,70374,1,8,0:0:0:0:
256,192,70686,1,4,0:0:0:0:
256,192,70967,1,12,0:0:0:0:
256,192,71249,1,4,0:0:0:0:
256,192,71624,1,8,0:0:0:0:
256,192,71811,1,8,0:0:0:0:
256,192,71999,1,4,0:0:0:0:
256,192,72186,1,8,0:0:0:0:
256,192,72280,1,8,0:0:0:0:
256,192,72374,1,0,0:0:0:0:
256,192,72561,1,8,0:0:0:0:
256,192,72749,1,0,0:0:0:0:
256,192,72936,1,8,0:0:0:0:
256,192,73030,1,8,0:0:0:0:
256,192,73124,1,0,0:0:0:0:
256,192,73311,1,8,0:0:0:0:
256,192,73686,1,4,0:0:0:0:
256,192,73967,1,4,0:0:0:0:
256,192,74249,1,12,0:0:0:0:
256,192,74530,1,0,0:0:0:0:
256,192,74624,1,8,0:0:0:0:
256,192,74811,1,8,0:0:0:0:
256,192,74999,1,0,0:0:0:0:
256,192,75749,1,4,0:0:0:0:
256,192,76124,1,12,0:0:0:0:
256,192,76499,1,4,0:0:0:0:
256,192,82499,5,0,0:0:0:0:
256,192,82686,1,0,0:0:0:0:
256,192,82874,1,8,0:0:0:0:
256,192,83155,1,8,0:0:0:0:
256,192,83436,1,0,0:0:0:0:
256,192,83624,1,8,0:0:0:0:
256,192,83999,1,0,0:0:0:0:
256,192,84186,1,0,0:0:0:0:
256,192,84374,1,8,0:0:0:0:
256,192,84655,1,8,0:0:0:0:
256,192,84749,1,0,0:0:0:0:
256,192,84936,1,0,0:0:0:0:
256,192,85124,1,8,0:0:0:0:
256,192,85499,1,0,0:0:0:0:
256,192,85686,1,0,0:0:0:0:
256,192,85874,1,8,0:0:0:0:
256,192,86061,1,0,0:0:0:0:
256,192,86155,1,8,0:0:0:0:
256,192,86249,1,0,0:0:0:0:
256,192,86436,1,0,0:0:0:0:
256,192,86624,1,8,0:0:0:0:
256,192,86811,1,0,0:0:0:0:
256,192,86999,1,0,0:0:0:0:
256,192,87186,1,8,0:0:0:0:
256,192,87374,1,8,0:0:0:0:
256,192,87561,1,0,0:0:0:0:
256,192,87655,1,8,0:0:0:0:
256,192,87749,1,8,0:0:0:0:
256,192,87936,1,0,0:0:0:0:
256,192,88124,1,12,0:0:0:0:
256,192,88499,1,0,0:0:0:0:
256,192,88592,1,0,0:0:0:0:
256,192,88686,1,0,0:0:0:0:
256,192,88874,1,8,0:0:0:0:
256,192,89249,1,0,0:0:0:0:
256,192,89499,1,8,0:0:0:0:
256,192,89624,1,8,0:0:0:0:
256,192,89749,1,8,0:0:0:0:
256,192,89999,1,4,0:0:0:0:
256,192,90186,1,8,0:0:0:0:
256,192,90280,1,0,0:0:0:0:
256,192,90374,1,0,0:0:0:0:
256,192,90561,1,8,0:0:0:0:
256,192,90749,1,0,0:0:0:0:
256,192,90936,1,8,0:0:0:0:
256,192,91124,1,0,0:0:0:0:
256,192,91217,1,0,0:0:0:0:
256,192,91311,1,8,0:0:0:0:
256,192,91405,1,0,0:0:0:0:
256,192,91499,1,0,0:0:0:0:
256,192,91686,1,8,0:0:0:0:
256,192,91780,1,0,0:0:0:0:
256,192,91874,1,0,0:0:0:0:
256,192,92061,1,8,0:0:0:0:
256,192,92249,1,0,0:0:0:0:
256,192,92436,1,8,0:0:0:0:
256,192,92624,1,0,0:0:0:0:
256,192,92999,1,0,0:0:0:0:
256,192,93186,1,8,0:0:0:0:
256,192,93280,1,8,0:0:0:0:
256,192,93374,1,0,0:0:0:0:
256,192,93561,1,8,0:0:0:0:
256,192,93749,1,0,0:0:0:0:
256,192,93936,1,8,0:0:0:0:
256,192,94124,1,0,0:0:0:0:
256,192,94217,1,8,0:0:0:0:
256,192,94311,1,8,0:0:0:0:
256,192,94405,1,8,0:0:0:0:
256,192,94499,1,0,0:0:0:0:
256,192,94686,1,8,0:0:0:0:
256,192,94780,1,8,0:0:0:0:
256,192,94874,1,0,0:0:0:0:
256,192,95061,1,8,0:0:0:0:
256,192,95249,1,0,0:0:0:0:
256,192,95436,1,8,0:0:0:0:
256,192,95624,1,0,0:0:0:0:
256,192,95999,1,4,0:0:0:0:
256,192,96186,1,8,0:0:0:0:
256,192,96280,1,0,0:0:0:0:
256,192,96374,1,0,0:0:0:0:
256,192,96561,1,8,0:0:0:0:
256,192,96749,1,0,0:0:0:0:
256,192,96936,1,8,0:0:0:0:
256,192,97124,1,0,0:0:0:0:
256,192,97217,1,0,0:0:0:0:
256,192,97311,1,8,0:0:0:0:
256,192,97405,1,8,0:0:0:0:
256,192,97499,1,0,0:0:0:0:
256,192,97686,1,8,0:0:0:0:
256,192,97780,1,0,0:0:0:0:
256,192,97874,1,0,0:0:0:0:
256,192,98061,1,8,0:0:0:0:
256,192,98249,1,0,0:0:0:0:
256,192,98436,1,8,0:0:0:0:
256,192,98624,1,0,0:0:0:0:
256,192,98999,1,4,0:0:0:0:
256,192,99186,1,8,0:0:0:0:
256,192,99280,1,0,0:0:0:0:
256,192,99374,1,8,0:0:0:0:
256,192,99467,1,8,0:0:0:0:
256,192,99561,1,0,0:0:0:0:
256,192,99749,1,0,0:0:0:0:
256,192,99936,1,8,0:0:0:0:
256,192,100124,1,0,0:0:0:0:
256,192,100249,1,0,0:0:0:0:
256,192,100374,1,8,0:0:0:0:
256,192,100499,1,0,0:0:0:0:
256,192,100780,1,0,0:0:0:0:
256,192,100874,1,8,0:0:0:0:
256,192,100967,1,8,0:0:0:0:
256,192,101061,1,0,0:0:0:0:
256,192,101249,1,0,0:0:0:0:
256,192,101342,1,0,0:0:0:0:
256,192,101624,1,0,0:0:0:0:
256,192,101717,1,0,0:0:0:0:
256,192,101811,1,8,0:0:0:0:
256,192,102936,1,8,0:0:0:0:
256,192,103030,1,0,0:0:0:0:
256,192,103124,1,8,0:0:0:0:
256,192,103217,1,8,0:0:0:0:
256,192,103311,1,0,0:0:0:0:
256,192,103499,1,4,0:0:0:0:
256,192,103686,1,8,0:0:0:0:
256,192,103780,1,8,0:0:0:0:
256,192,103874,1,0,0:0:0:0:
256,192,104061,1,8,0:0:0:0:
256,192,104249,1,0,0:0:0:0:
256,192,104436,1,8,0:0:0:0:
256,192,104530,1,8,0:0:0:0:
256,192,104624,1,0,0:0:0:0:
256,192,104811,1,8,0:0:0:0:
256,192,104999,1,0,0:0:0:0:
256,192,105186,1,8,0:0:0:0:
256,192,105280,1,8,0:0:0:0:
256,192,105374,1,0,0:0:0:0:
256,192,105561,1,8,0:0:0:0:
256,192,105749,1,0,0:0:0:0:
256,192,105936,1,8,0:0:0:0:
256,192,106030,1,8,0:0:0:0:
256,192,106124,1,0,0:0:0:0:
256,192,106311,1,0,0:0:0:0:
256,192,106499,1,0,0:0:0:0:
256,192,106686,1,8,0:0:0:0:
256,192,106780,1,8,0:0:0:0:
256,192,106874,1,0,0:0:0:0:
256,192,107061,1,8,0:0:0:0:
256,192,107249,1,0,0:0:0:0:
256,192,107436,1,8,0:0:0:0:
256,192,107530,1,8,0:0:0:0:
256,192,107624,1,0,0:0:0:0:
256,192,107811,1,8,0:0:0:0:
256,192,107999,1,0,0:0:0:0:
256,192,108186,1,8,0:0:0:0:
256,192,108280,1,8,0:0:0:0:
256,192,108374,1,0,0:0:0:0:
256,192,108561,1,8,0:0:0:0:
256,192,108749,1,0,0:0:0:0:
256,192,108936,1,8,0:0:0:0:
256,192,109030,1,8,0:0:0:0:
256,192,109124,1,0,0:0:0:0:
256,192,109499,1,4,0:0:0:0:
256,192,109686,1,8,0:0:0:0:
256,192,109780,1,0,0:0:0:0:
256,192,109874,1,8,0:0:0:0:
256,192,110061,1,8,0:0:0:0:
256,192,110249,1,0,0:0:0:0:
256,192,110436,1,8,0:0:0:0:
256,192,110530,1,0,0:0:0:0:
256,192,110624,1,8,0:0:0:0:
256,192,110811,1,8,0:0:0:0:
256,192,110999,1,0,0:0:0:0:
256,192,111186,1,8,0:0:0:0:
256,192,111280,1,0,0:0:0:0:
256,192,111374,1,8,0:0:0:0:
256,192,111561,1,8,0:0:0:0:
256,192,111655,1,0,0:0:0:0:
256,192,111749,1,8,0:0:0:0:
256,192,111936,1,8,0:0:0:0:
256,192,112030,1,0,0:0:0:0:
256,192,112124,1,8,0:0:0:0:
256,192,112311,1,8,0:0:0:0:
256,192,112499,1,0,0:0:0:0:
256,192,112624,1,8,0:0:0:0:
256,192,112749,1,0,0:0:0:0:
256,192,112874,1,8,0:0:0:0:
256,192,112999,1,8,0:0:0:0:
256,192,113249,1,0,0:0:0:0:
256,192,113374,1,8,0:0:0:0:
256,192,113624,1,8,0:0:0:0:
256,192,113749,1,8,0:0:0:0:
256,192,113874,1,0,0:0:0:0:
256,192,114186,8,0,115499,0:0:0:0:
256,192,115874,5,12,0:0:0:0:
