osu file format v14

[General]
AudioFilename: audio.mp3
AudioLeadIn: 0
PreviewTime: 67711
Countdown: 0
SampleSet: None
StackLeniency: 0.01
Mode: 0
LetterboxInBreaks: 0
WidescreenStoryboard: 0

[Editor]
DistanceSpacing: 1.5
BeatDivisor: 4
GridSize: 16
TimelineZoom: 2.799999

[Metadata]
Title:Alice in Misanthrope -Ensei Alice-
TitleUnicode:Alice in Misanthrope -厭世アリス-
Artist:LeaF
ArtistUnicode:LeaF
Creator:ninfia
Version:Another
Source:BMS
Tags:Alice in Wonderland S_a_n_d Sand rustbell totori spro inspired
BeatmapID:1225501
BeatmapSetID:578836

[Difficulty]
HPDrainRate:4.8
CircleSize:5
OverallDifficulty:9
ApproachRate:9.8
SliderMultiplier:1.7
SliderTickRate:1

[Events]
//Background and Video events
0,0,"4a953af729fb3e539068592a17b0feb8.jpg",0,0
//Break Periods
//Storyboard Layer 0 (Background)
//Storyboard Layer 1 (Fail)
//Storyboard Layer 2 (Pass)
//Storyboard Layer 3 (Foreground)
//Storyboard Sound Samples

[TimingPoints]
766,389.61038961039,4,3,0,40,1,0
766,-133.333333333333,4,3,0,40,0,0
1545,384.615384615385,4,3,0,40,1,0
1545,-133.333333333333,4,3,0,40,0,0
2314,375,4,3,0,40,1,0
2314,-133.333333333333,4,3,0,40,0,0
3064,365.853658536585,4,3,0,40,1,0
3064,-133.333333333333,4,3,0,40,0,0
3795,357.142857142857,4,3,0,40,1,0
3795,-125,4,3,0,40,0,0
4509,348.837209302326,4,3,0,40,1,0
4509,-111.111111111111,4,3,0,40,0,0
5206,346.820809248555,4,3,0,40,1,0
5206,-100,4,3,0,40,0,0
5552,-90.9090909090909,4,3,0,40,0,0
5899,-76.9230769230769,4,3,0,40,0,0
6593,348.837209302326,4,3,0,70,1,1
6593,-100,4,3,0,70,0,1
16360,-90.9090909090909,4,3,0,70,0,1
16622,-90.9090909090909,4,3,0,5,0,1
16709,-83.3333333333333,4,3,0,70,0,1
16970,-83.3333333333333,4,3,0,5,0,1
17058,-76.9230769230769,4,3,0,70,0,1
17319,-76.9230769230769,4,3,0,5,0,1
17406,-66.6666666666667,4,3,0,70,0,1
17755,361.44578313253,4,3,0,40,1,0
18477,357.142857142857,4,3,0,40,1,0
19191,352.941176470588,4,3,0,40,1,0
19191,-105.263157894737,4,3,0,40,0,0
20602,348.837209302326,4,3,0,40,1,0
20602,-106.382978723404,4,3,0,40,0,0
20776,-111.111111111111,4,3,0,40,0,0
21997,344.827586206897,4,3,0,40,1,0
21997,-113.636363636364,4,3,0,40,0,0
22083,-117.647058823529,4,3,0,40,0,0
23031,-113.636363636364,4,3,0,40,0,0
23203,-107.52688172043,4,3,0,40,0,0
23376,348.837209302326,4,3,0,40,1,0
23376,-106.382978723404,4,3,0,40,0,0
24073,352.941176470588,4,3,0,40,1,0
24073,-105.263157894737,4,3,0,40,0,0
24778,357.142857142857,4,3,0,40,1,0
24778,-100,4,3,0,40,0,0
25492,359.281437125748,4,3,0,40,1,0
26210,348.837209302326,4,3,0,40,1,0
26210,-90.9090909090909,4,3,0,40,0,0
26384,-95.2380952380952,4,3,0,40,0,0
26907,346.820809248555,4,3,0,40,1,0
26907,-83.3333333333333,4,3,0,40,0,0
27080,-86.9565217391304,4,3,0,40,0,0
27600,-80,4,3,0,40,0,0
27774,-76.9230769230769,4,3,0,40,0,0
27947,-74.0740740740741,4,3,0,40,0,0
28120,-71.4285714285714,4,3,0,40,0,0
28294,-688.493150684931,4,3,0,40,0,0
28991,348.837209302326,4,3,0,70,1,1
28991,-90.9090909090909,4,3,0,70,0,1
29339,-900.909090909091,4,3,0,70,0,1
35270,-100,4,3,0,50,0,0
35370,-900.909090909091,4,3,0,50,0,0
37363,-83.3333333333333,4,3,0,40,0,0
37450,-83.3333333333333,4,3,0,5,0,0
37711,-76.9230769230769,4,3,0,40,0,0
38060,-71.4285714285714,4,3,0,40,0,0
38409,-76.9230769230769,4,3,0,40,0,0
38758,-83.3333333333333,4,3,0,40,0,0
39107,-100,4,3,0,40,0,0
39456,-166.666666666667,4,3,0,40,0,0
40153,-90.9090909090909,4,3,0,40,0,1
40502,-83.3333333333333,4,3,0,40,0,1
40851,-76.9230769230769,4,3,0,40,0,1
41200,-71.4285714285714,4,3,0,40,0,1
41549,-66.6666666666667,4,3,0,40,0,1
41897,-71.4285714285714,4,3,0,40,0,1
42246,-76.9230769230769,4,3,0,40,0,1
42595,-83.3333333333333,4,3,0,40,0,1
42944,-90.9090909090909,4,3,0,40,0,0
43118,-95.2380952380952,4,3,0,40,0,0
43467,-100,4,3,0,40,0,0
43816,-105.263157894737,4,3,0,40,0,0
44165,-111.111111111111,4,3,0,45,0,0
44514,-105.263157894737,4,3,0,50,0,0
44863,-100,4,3,0,55,0,0
45211,-95.2380952380952,4,3,0,50,0,0
45386,-95.2380952380952,4,3,0,60,0,0
45473,-95.2380952380952,4,3,0,55,0,0
45560,-94.3396226415094,4,3,0,50,0,0
45647,-92.5925925925926,4,3,0,45,0,0
45735,-90.9090909090909,4,3,0,40,0,0
45909,-95.2380952380952,4,3,0,40,0,0
46258,-86.9565217391304,4,3,0,40,0,0
46607,-90.9090909090909,4,3,0,40,0,0
46956,-83.3333333333333,4,3,0,40,0,0
47304,-90.9090909090909,4,3,0,40,0,0
47653,-86.9565217391304,4,3,0,40,0,0
48002,-200,4,3,0,40,0,0
48525,-90.9090909090909,4,3,0,70,0,1
48874,-83.3333333333333,4,3,0,70,0,1
49223,-76.9230769230769,4,3,0,70,0,1
49572,-71.4285714285714,4,3,0,70,0,1
49921,-66.6666666666667,4,3,0,70,0,1
50270,-71.4285714285714,4,3,0,70,0,1
50618,-76.9230769230769,4,3,0,70,0,1
50967,-83.3333333333333,4,3,0,70,0,1
51316,-90.9090909090909,4,3,0,40,0,0
51491,-95.2380952380952,4,3,0,40,0,0
51839,-100,4,3,0,40,0,0
52188,-105.263157894737,4,3,0,40,0,0
52537,-111.111111111111,4,3,0,40,0,0
52886,-105.263157894737,4,3,0,40,0,0
53235,-100,4,3,0,40,0,0
53322,-99.009900990099,4,3,0,40,0,0
53409,-98.0392156862745,4,3,0,40,0,0
53496,-97.0873786407767,4,3,0,40,0,0
53584,-96.1538461538461,4,3,0,40,0,0
53671,-95.2380952380952,4,3,0,40,0,0
53758,-94.3396226415094,4,3,0,40,0,0
53845,-93.4579439252336,4,3,0,40,0,0
53932,-92.5925925925926,4,3,0,40,0,0
54107,-90.9090909090909,4,3,0,70,0,1
54456,-83.3333333333333,4,3,0,70,0,1
54804,-76.9230769230769,4,3,0,70,0,1
55153,-71.4285714285714,4,3,0,70,0,1
55502,-66.6666666666667,4,3,0,70,0,1
55851,-71.4285714285714,4,3,0,70,0,1
56200,-76.9230769230769,4,3,0,70,0,1
56549,-83.3333333333333,4,3,0,70,0,1
56897,-90.9090909090909,4,3,0,40,0,0
57246,-95.2380952380952,4,3,0,40,0,0
57595,-100,4,3,0,40,0,0
57770,-105.263157894737,4,3,0,40,0,0
58118,-108.695652173913,4,3,0,40,0,0
58293,-105.263157894737,4,3,0,40,0,0
58642,-100,4,3,0,40,0,0
58991,-95.2380952380952,4,3,0,40,0,0
59688,-90.9090909090909,4,3,0,70,0,1
60037,-83.3333333333333,4,3,0,70,0,1
60386,-76.9230769230769,4,3,0,70,0,1
60735,-71.4285714285714,4,3,0,70,0,1
61084,-66.6666666666667,4,3,0,70,0,1
61432,-133.333333333333,4,3,0,70,0,1
61781,-50,4,3,0,70,0,1
62479,-90.9090909090909,4,3,0,40,0,0
62653,-83.3333333333333,4,3,0,40,0,0
63002,-86.9565217391304,4,3,0,40,0,0
63351,-80,4,3,0,40,0,0
63700,-83.3333333333333,4,3,0,40,0,0
64049,-76.9230769230769,4,3,0,40,0,0
64397,-83.3333333333333,4,3,0,40,0,0
64834,-80,4,3,0,40,0,0
65095,-43.478260865,4,3,0,40,0,0
65270,-90.9090909090909,4,3,0,70,0,1
65444,-86.9565217391304,4,3,0,70,0,1
65618,-83.3333333333333,4,3,0,70,0,1
65793,-80,4,3,0,70,0,1
65967,-76.9230769230769,4,3,0,70,0,1
66142,-74.0740740740741,4,3,0,70,0,1
66316,-71.4285714285714,4,3,0,70,0,1
66491,-68.9655172413793,4,3,0,70,0,1
66665,-66.6666666666667,4,3,0,70,0,1
66839,-68.9655172413793,4,3,0,70,0,1
67014,-71.4285714285714,4,3,0,70,0,1
67188,-74.0740740740741,4,3,0,70,0,1
67363,-76.9230769230769,4,3,0,70,0,1
68060,357.142857142857,4,3,0,30,1,0
69488,352.941176470588,4,3,0,35,1,0
70899,348.837209302326,4,3,0,40,1,0
72294,344.827586206897,4,3,0,45,1,0
73328,-99.009900990099,4,3,0,50,0,0
73414,-97.0873786407767,4,3,0,50,0,0
73500,-94.3396226415094,4,3,0,50,0,0
73587,-90.9090909090909,4,3,0,50,0,0
73673,348.837209302326,4,3,0,50,1,0
73673,-86.9565217391304,4,3,0,50,0,0
73760,-86.9565217391304,4,3,0,5,0,0
74021,-86.9565217391304,4,3,0,50,0,0
74370,-80,4,3,0,50,0,0
74457,-80,4,3,0,5,0,0
74719,-80,4,3,0,50,0,0
75068,-74.0740740740741,4,3,0,50,0,0
75155,-74.0740740740741,4,3,0,5,0,0
75417,-74.0740740740741,4,3,0,50,0,0
75766,-68.9655172413793,4,3,0,50,0,0
75853,-68.9655172413793,4,3,0,5,0,0
76114,-68.9655172413793,4,3,0,50,0,0
76463,-64.5161290322581,4,3,0,50,0,0
76550,-64.5161290322581,4,3,0,5,0,0
76812,-64.5161290322581,4,3,0,50,0,0
77161,-60.6060606060606,4,3,0,50,0,0
77248,-60.6060606060606,4,3,0,5,0,0
77510,-60.6060606060606,4,3,0,50,0,0
77859,-57.1428571428571,4,3,0,50,0,0
77946,-57.1428571428571,4,3,0,5,0,0
78033,-57.1428571428571,4,3,0,50,0,0
78207,-54.054054054054,4,3,0,50,0,0
78295,-54.054054054054,4,3,0,5,0,0
78382,-54.054054054054,4,3,0,50,0,0
78556,357.142857142857,4,3,0,50,1,0
78556,-51.2820512820513,4,3,0,70,0,0
78645,-51.2820512820513,4,3,0,5,0,0
78734,-100,4,3,0,40,0,0
78823,-98.0392156862745,4,3,0,45,0,0
78913,-96.1538461538461,4,3,0,50,0,0
79002,-94.3396226415094,4,3,0,55,0,0
79091,-92.5925925925926,4,3,0,60,0,0
79181,-90.9090909090909,4,3,0,65,0,0
79270,174.418604651163,4,3,0,80,1,1
79270,-90.9090909090909,4,3,0,80,0,1
83456,-200,4,3,0,80,0,1
83761,-200,4,3,0,5,0,1
83804,-133.333333333333,4,3,0,80,0,1
84110,-133.333333333333,4,3,0,5,0,1
84153,-100,4,3,0,80,0,1
84458,-100,4,3,0,5,0,1
84502,-90.9090909090909,4,3,0,65,0,1
84502,-90.9090909090909,4,3,0,80,0,1
84546,-90.9090909090909,4,3,0,70,0,1
84633,-90.9090909090909,4,3,0,75,0,1
84720,-90.9090909090909,4,3,0,78,0,1
84807,-90.9090909090909,4,3,0,80,0,1
87206,-95.2380952380952,4,3,0,80,0,1
87990,-100,4,3,0,80,0,1
89037,-200,4,3,0,80,0,1
89299,-181.818181818182,4,3,0,80,0,1
90083,-94.3396226415094,4,3,0,80,0,1
90171,-93.4579439252336,4,3,0,80,0,1
90258,-92.5925925925926,4,3,0,80,0,1
90345,-91.743119266055,4,3,0,80,0,1
90432,-90.9090909090909,4,3,0,80,0,1
91828,-89.2857142857143,4,3,0,80,0,1
92089,-86.2068965517241,4,3,0,80,0,1
92351,-81.9672131147541,4,3,0,80,0,1
92613,-76.9230769230769,4,3,0,80,0,1
93049,-83.3333333333333,4,3,0,80,0,1
93136,-86.9565217391304,4,3,0,80,0,1
93223,-90.9090909090909,4,3,0,80,0,1
94618,-89.2857142857143,4,3,0,80,0,1
94880,-86.2068965517241,4,3,0,80,0,1
95142,-81.9672131147541,4,3,0,80,0,1
95403,-76.9230769230769,4,3,0,80,0,1
95839,-83.3333333333333,4,3,0,80,0,1
95926,-86.9565217391304,4,3,0,80,0,1
96014,-90.9090909090909,4,3,0,80,0,1
98107,-200,4,3,0,80,0,1
98804,-83.3333333333333,4,3,0,80,0,1
98979,-83.3333333333333,4,3,0,50,0,0
99066,-83.3333333333333,4,3,0,5,0,0
99153,-133.333333333333,4,3,0,5,0,0
99153,-50,4,3,0,50,0,0
99502,348.837209302326,4,3,0,100,1,0
101595,174.418604651163,4,3,0,40,1,0
101595,-100,4,3,0,50,0,0
104386,-95.2380952380952,4,3,0,50,0,0
107176,-90.9090909090909,4,3,0,68,0,0
109967,-86.9565217391304,4,3,0,68,0,0
112408,-76.9230769230769,4,3,0,68,0,0
112758,-83.3333333333333,4,3,0,80,0,1
115549,-81.9672131147541,4,3,0,80,0,1
117641,-71.4285714285714,4,3,0,80,0,1
117990,-62.5,4,3,0,80,0,1
118339,-80,4,3,0,80,0,1
120432,-66.6666666666667,4,3,0,80,0,1
121130,-78.7401574803149,4,3,0,80,0,1
121827,-157.48031496063,4,3,0,80,0,1
122002,-66.6666666666667,4,3,0,80,0,1
123921,352.941176470588,4,3,0,50,1,0
123921,-78.7401574803149,4,3,0,25,0,0
125332,348.837209302326,4,3,0,50,1,0
125332,-90.9090909090909,4,3,0,50,0,0
125593,-90.9090909090909,4,3,0,5,0,0
125680,-83.3333333333333,4,3,0,50,0,0
125942,-83.3333333333333,4,3,0,5,0,0
126029,-76.9230769230769,4,3,0,50,0,0
126291,-76.9230769230769,4,3,0,5,0,0
126378,-66.6666666666667,4,3,0,50,0,0
126727,-125,4,3,0,50,0,0
126988,-117.647058823529,4,3,0,50,0,0
127076,-117.647058823529,4,3,0,20,0,0
127425,-117.647058823529,4,3,0,50,0,0
127686,-111.111111111111,4,3,0,50,0,0
127773,-117.647058823529,4,3,0,20,0,0
128122,-117.647058823529,4,3,0,50,0,0
128297,-105.263157894737,4,3,0,50,0,0
128471,-117.647058823529,4,3,0,50,0,0
128820,-117.647058823529,4,3,0,50,0,0
129518,-100,4,3,0,100,0,1
130215,-200,4,3,0,100,0,1
130913,-2000,4,3,0,100,0,1
134750,-2000,4,3,0,20,0,1
135099,-2000,4,3,0,100,0,1
139285,-50,4,3,0,60,0,0
140506,-90.9090909090909,4,3,0,70,0,0
140680,-83.3333333333333,4,3,0,80,0,1
142425,-100,4,3,0,40,0,0
142773,-100,4,3,0,45,0,0

[Colours]
Combo1 : 128,0,255
Combo2 : 0,255,255
Combo3 : 18,124,255
Combo4 : 242,24,57

[HitObjects]
164,153,766,6,0,P|149:120|157:83,1,63.7500024318696,8|0,0:0|0:0,0:0:0:0:
323,135,1155,2,0,P|338:168|330:205,1,63.7500024318696
269,311,1545,5,8,0:0:0:0:
358,277,1737,1,0,0:0:0:0:
193,191,1929,2,0,L|122:184,1,63.7500024318696
46,138,2311,5,8,0:0:0:0:
131,95,2502,1,0,0:0:0:0:
199,163,2688,1,0,0:0:0:0:
155,248,2876,1,0,0:0:0:0:
61,233,3064,1,8,0:0:0:0:
56,238,3246,1,0,0:0:0:0:
51,243,3429,1,0,0:0:0:0:
46,248,3612,1,0,0:0:0:0:
232,321,3795,6,0,P|274:333|312:319,1,68,8|0,0:0|0:0,0:0:0:0:
359,202,4152,1,0,0:0:0:0:
304,158,4330,1,0,0:0:0:0:
35,343,4509,6,0,L|123:347,1,76.4999976654053,8|0,0:0|0:0,0:0:0:0:
191,348,4857,1,0,0:0:0:0:
90,157,5032,5,2,0:0:0:0:
92,159,5119,1,2,0:0:0:0:
94,161,5206,1,10,0:0:0:0:
43,253,5379,1,2,0:0:0:0:
41,255,5466,1,2,0:0:0:0:
39,257,5552,1,10,0:0:0:0:
192,232,5639,5,2,0:0:0:0:
190,234,5726,2,0,L|139:237,1,46.7500014266968,2|0,0:0|0:0,0:0:0:0:
0,82,5899,2,0,L|55:85,1,55.2499974708558,10|0,0:0|0:0,0:0:0:0:
408,110,6073,5,2,0:0:0:0:
409,108,6159,1,2,0:0:0:0:
409,108,6246,2,0,B|427:86|427:86|424:273,1,165.749992412568,2|0,0:0|0:0,0:0:0:0:
421,308,6593,5,8,0:0:0:0:
134,161,6767,1,0,0:0:0:0:
134,161,6941,2,0,L|130:66,1,85
324,299,7290,1,12,0:0:0:0:
331,135,7465,1,0,0:0:0:0:
324,299,7639,2,0,L|328:204,1,85,4|0,0:0|0:0,0:0:0:0:
79,120,7988,5,14,0:0:0:0:
80,119,8075,1,2,0:0:0:0:
81,118,8162,1,2,0:0:0:0:
82,117,8249,1,2,0:0:0:0:
118,54,8337,6,0,L|127:156,1,85,2|0,0:0|0:0,0:0:0:0:
314,186,8686,1,12,0:0:0:0:
182,4,8860,1,0,0:0:0:0:
147,290,9034,6,0,L|142:247,1,42.5,4|0,0:0|0:0,0:0:0:0:
72,300,9209,2,0,L|78:352,1,42.5,0|0,0:0|0:0,0:0:0:0:
293,358,9383,5,14,0:0:0:0:
295,360,9470,1,2,0:0:0:0:
297,362,9558,2,0,L|395:357,1,85,2|0,0:0|0:0,0:0:0:0:
473,132,9906,1,0,0:0:0:0:
473,132,10081,2,0,P|431:119|388:136,1,85,12|0,0:0|0:0,0:0:0:0:
328,188,10430,1,4,0:0:0:0:
499,253,10604,1,0,0:0:0:0:
433,22,10779,5,14,0:0:0:0:
435,20,10866,1,2,0:0:0:0:
437,18,10953,1,2,0:0:0:0:
232,99,11127,2,0,L|129:102,1,85,0|0,0:0|0:0,0:0:0:0:
384,295,11476,5,10,0:0:0:0:
382,297,11563,1,2,0:0:0:0:
380,299,11651,1,2,0:0:0:0:
378,301,11738,1,2,0:0:0:0:
296,260,11825,6,0,P|282:214|286:200,1,42.5,6|0,0:0|0:0,0:0:0:0:
424,144,11999,2,0,P|420:164|409:182,1,42.5,2|0,0:0|0:0,0:0:0:0:
188,333,12174,6,0,L|97:338,1,85,14|0,0:0|0:0,0:0:0:0:
265,79,12523,2,0,L|349:83,1,85,0|0,0:0|0:0,0:0:0:0:
268,327,12872,5,12,0:0:0:0:
189,73,13046,1,0,0:0:0:0:
268,327,13220,1,4,0:0:0:0:
189,73,13394,1,0,0:0:0:0:
62,228,13569,6,0,P|54:274|78:330,1,85,12|0,0:0|0:0,0:0:0:0:
388,220,13918,2,0,P|398:179|390:137,1,85,0|0,0:0|0:0,0:0:0:0:
123,129,14267,5,12,0:0:0:0:
285,336,14441,1,0,0:0:0:0:
255,53,14616,1,4,0:0:0:0:
72,337,14790,1,0,0:0:0:0:
460,221,14965,6,0,L|464:130,1,85,12|0,0:0|0:0,0:0:0:0:
349,27,15313,2,0,L|352:111,1,85,0|0,0:0|0:0,0:0:0:0:
356,313,15662,5,12,0:0:0:0:
181,149,15837,1,2,0:0:0:0:
180,138,15924,1,2,0:0:0:0:
179,127,16011,1,6,0:0:0:0:
486,232,16186,1,2,0:0:0:0:
488,234,16273,1,2,0:0:0:0:
417,254,16360,6,0,P|426:187|487:157,1,140.25000428009,14|0,0:0|0:0,0:0:0:0:
490,236,16709,6,0,L|304:247,1,152.999995330811,8|0,0:0|0:0,0:0:0:0:
217,92,17058,6,0,P|302:82|368:170,1,165.749992412568,8|0,0:0|0:0,0:0:0:0:
103,334,17406,6,0,P|92:291|134:234,1,63.7500024318696,8|0,3:0|3:0,3:0:0:0:
148,211,17581,1,4,0:0:0:0:
476,123,17755,5,2,0:0:0:0:
491,198,18477,1,2,0:0:0:0:
464,269,18834,1,2,0:0:0:0:
406,319,19191,1,2,0:0:0:0:
330,331,19543,1,2,0:0:0:0:
259,306,19896,1,2,0:0:0:0:
210,247,20249,1,2,0:0:0:0:
197,172,20426,1,2,0:0:0:0:
223,100,20602,1,2,0:0:0:0:
281,51,20950,1,2,0:0:0:0:
356,38,21299,1,2,0:0:0:0:
428,64,21648,1,2,0:0:0:0:
341,211,21997,6,2,L|229:208,1,112.200003424072,2|2,0:0|0:0,0:0:0:0:
413,214,22341,1,2,0:0:0:0:
346,102,22514,1,2,0:0:0:0:
216,326,22686,2,2,P|172:326|142:297,1,72.2500013780594,2|2,0:0|0:0,0:0:0:0:
176,105,23031,1,2,0:0:0:0:
319,197,23203,2,2,L|322:275,1,79.050002472725
322,275,24073,5,2,0:0:0:0:
445,175,24249,1,2,0:0:0:0:
201,125,24425,1,2,0:0:0:0:
144,174,24602,2,2,P|127:209|134:249,1,80.7499978437424
318,92,25671,5,2,0:0:0:0:
436,69,25851,1,2,0:0:0:0:
459,186,26030,1,4,0:0:0:0:
341,209,26210,1,12,0:0:0:0:
67,159,26558,6,0,P|48:117|63:67,1,89.2499972763062,0|0,0:0|0:0,0:0:0:0:
218,0,26907,1,4,0:0:0:0:
351,117,27080,1,4,0:0:0:0:
149,279,27253,1,4,0:0:0:0:
147,281,27340,1,0,0:0:0:0:
145,283,27427,2,0,B|43:277,1,97.7500018644333,4|0,0:0|0:0,0:0:0:0:
215,244,27774,6,0,P|229:272|228:297,1,55.2499974708558,8|0,0:0|0:0,0:0:0:0:
61,330,27947,2,0,P|46:301|47:276,1,57.3750002188683,8|0,0:0|0:0,0:0:0:0:
448,53,28120,2,0,P|462:81|461:106,1,57.3750002188683,8|0,0:0|0:0,0:0:0:0:
260,360,28294,6,0,L|237:353,1,24.6916031811999,8|0,0:0|0:0,0:0:0:0:
170,334,28814,1,0,0:0:0:0:
366,249,28987,1,10,0:0:0:0:
368,247,29078,1,2,0:0:0:0:
370,245,29165,2,0,P|370:210|353:185,1,46.7500014266968,2|0,0:0|0:0,0:0:0:0:
314,138,29339,5,0,0:0:0:0:
496,225,29514,1,2,0:0:0:0:
494,227,29601,1,2,0:0:0:0:
492,229,29688,1,14,0:0:0:0:
199,291,29863,1,0,0:0:0:0:
413,63,30037,6,0,L|412:73,1,9.43491393750684,4|0,0:0|0:0,0:0:0:0:
104,197,30386,2,0,L|103:187,1,9.43491393750684,12|0,0:0|0:0,0:0:0:0:
95,107,30735,5,0,0:0:0:0:
375,262,30909,1,2,0:0:0:0:
374,264,30996,1,2,0:0:0:0:
373,266,31084,1,14,0:0:0:0:
154,325,31258,1,0,0:0:0:0:
199,109,31432,5,4,0:0:0:0:
315,352,31607,1,0,0:0:0:0:
86,27,31781,6,0,L|85:15,1,9.43491393750684,12|0,0:0|0:0,0:0:0:0:
405,110,32130,2,0,L|406:98,1,9.43491393750684
189,31,32479,5,12,0:0:0:0:
6,92,32653,1,0,0:0:0:0:
68,272,32828,1,4,0:0:0:0:
250,211,33002,1,0,0:0:0:0:
86,27,33177,5,12,0:0:0:0:
339,133,33351,1,0,0:0:0:0:
350,56,33525,2,0,L|351:45,1,9.43491393750684
409,187,33874,5,14,0:0:0:0:
362,214,33961,1,2,0:0:0:0:
307,209,34048,1,2,0:0:0:0:
266,174,34135,1,2,0:0:0:0:
253,121,34223,5,6,0:0:0:0:
212,177,34310,1,2,0:0:0:0:
142,181,34397,1,2,0:0:0:0:
95,129,34484,1,2,0:0:0:0:
151,35,34572,6,0,L|154:56,1,18.8698278750137,14|0,0:0|0:0,0:0:0:0:
287,203,35095,1,2,0:0:0:0:
288,200,35182,1,2,0:0:0:0:
289,197,35270,1,14,0:0:0:0:
394,36,35444,5,2,0:0:0:0:
392,38,35531,1,2,0:0:0:0:
390,40,35618,2,0,L|378:40,1,9.43491393750684,6|0,0:0|0:0,0:0:0:0:
59,120,35967,1,12,0:0:0:0:
60,122,36142,1,0,0:0:0:0:
146,117,36316,1,0,0:0:0:0:
102,54,36491,5,2,0:0:0:0:
103,57,36578,1,2,0:0:0:0:
80,250,36665,1,14,0:0:0:0:
210,171,36839,1,0,0:0:0:0:
7,173,37014,1,4,0:0:0:0:
250,72,37188,1,0,0:0:0:0:
252,70,37363,2,0,P|258:42|254:18,1,50.9999984436036,12|0,0:0|0:0,0:0:0:0:
135,301,37711,5,0,0:0:0:0:
180,86,37886,1,0,0:0:0:0:
400,196,38060,6,2,L|343:212,1,59.4999981842042,6|2,0:0|0:0,0:0:0:0:
122,100,38235,2,2,P|142:92|180:85,1,59.4999981842042,6|2,0:0|0:0,0:0:0:0:
268,137,38409,6,2,P|250:151|215:152,1,55.2499974708558,6|2,0:0|0:0,0:0:0:0:
50,41,38584,2,2,P|71:28|104:27,1,55.2499974708558,6|2,0:0|0:0,0:0:0:0:
138,332,38758,6,2,P|116:275|130:218,1,101.999996887207,6|2,0:0|0:0,0:0:0:0:
321,60,39107,2,2,P|365:60|400:89,1,85,6|2,0:0|0:0,0:0:0:0:
179,219,39456,6,2,P|169:194|178:164,1,50.9999984436036,6|2,0:0|0:0,0:0:0:0:
466,267,39804,2,2,P|470:291|461:315,1,50.9999984436036,6|2,0:0|0:0,0:0:0:0:
161,84,40153,6,0,P|239:83|336:68,1,140.25000428009,12|0,0:0|0:0,0:0:0:0:
89,156,40502,6,0,P|54:106|91:14,1,152.999995330811,12|0,0:0|0:0,0:0:0:0:
403,70,40851,6,0,P|341:74|285:172,1,165.749992412568,12|0,0:0|0:0,0:0:0:0:
439,295,41200,6,0,P|437:202|329:150,1,178.499994552612,12|0,0:0|0:0,0:0:0:0:
30,296,41549,6,0,B|122:333|122:333|245:292,1,191.250007295609,12|0,0:0|0:0,0:0:0:0:
119,17,41897,6,0,P|51:100|76:197,1,178.499994552612,12|0,0:0|0:0,0:0:0:0:
452,123,42246,6,0,P|354:136|297:57,1,165.749992412568,12|0,0:0|0:0,0:0:0:0:
492,43,42595,6,0,L|481:212,1,152.999995330811,12|0,0:0|0:0,0:0:0:0:
229,103,42944,2,0,L|232:56,1,46.7500014266968,12|0,0:0|0:0,0:0:0:0:
275,198,43118,5,2,0:0:0:0:
230,195,43205,1,2,0:0:0:0:
185,192,43292,1,10,0:0:0:0:
141,189,43379,1,2,0:0:0:0:
96,186,43467,2,0,L|49:183,1,42.5,2|2,0:0|0:0,0:0:0:0:
409,110,43642,5,6,0:0:0:0:
382,167,43729,1,2,0:0:0:0:
331,203,43816,1,2,0:0:0:0:
354,213,43903,1,2,0:0:0:0:
365,240,43991,2,0,P|369:258|362:287,1,40.3749989218712,10|2,0:0|0:0,0:0:0:0:
172,304,44165,5,2,0:0:0:0:
158,290,44252,1,2,0:0:0:0:
150,261,44339,1,6,0:0:0:0:
157,224,44426,1,2,0:0:0:0:
179,193,44514,1,2,0:0:0:0:
228,169,44601,1,2,0:0:0:0:
235,115,44688,1,10,0:0:0:0:
194,79,44775,1,2,0:0:0:0:
142,93,44862,1,2,0:0:0:0:
124,145,44950,1,2,0:0:0:0:
243,259,45037,5,6,0:0:0:0:
256,261,45124,1,2,0:0:0:0:
271,260,45211,2,0,P|281:213|277:202,1,44.6249986381531,2|2,0:0|0:0,0:0:0:0:
41,118,45386,5,10,0:0:0:0:
0,179,45473,1,2,0:0:0:0:
49,236,45560,2,0,L|112:233,1,45.0500000687408,2|2,0:0|0:0,0:0:0:0:
273,57,45735,6,0,B|289:50|289:50|250:36|214:45,1,93.5000028533936,12|0,0:0|0:0,0:0:0:0:
41,118,46084,2,0,P|63:88|128:95,1,89.2499972763062,8|0,0:0|0:0,0:0:0:0:
362,189,46432,6,0,L|252:197,1,97.7500018644333,8|0,0:0|0:0,0:0:0:0:
180,205,46781,1,8,0:0:0:0:
279,49,46956,1,0,0:0:0:0:
412,313,47130,5,8,0:0:0:0:
282,46,47304,1,0,0:0:0:0:
125,164,47479,2,0,P|110:206|143:262,1,93.5000028533936,8|0,0:0|0:0,0:0:0:0:
414,123,47828,5,10,0:0:0:0:
416,122,47915,1,2,0:0:0:0:
418,121,48002,1,2,0:0:0:0:
420,120,48089,1,2,0:0:0:0:
353,60,48177,6,0,L|356:84,1,21.25,10|0,0:0|0:0,0:0:0:0:
218,157,48351,2,0,L|221:133,1,21.25
509,297,48525,6,0,P|443:274|369:310,1,140.25000428009,8|0,0:0|0:0,0:0:0:0:
380,299,48874,2,0,L|375:228,1,50.9999984436036,4|0,0:0|0:0,0:0:0:0:
370,173,49049,5,4,0:0:0:0:
228,280,49137,1,0,0:0:0:0:
219,285,49223,2,0,B|57:292,1,110.499994941712,8|0,0:0|0:0,0:0:0:0:
310,65,49573,5,6,0:0:0:0:
312,63,49660,1,2,0:0:0:0:
314,61,49747,1,6,0:0:0:0:
383,87,49834,1,2,0:0:0:0:
251,109,49921,2,0,P|210:107|179:85,1,63.7500024318696,10|0,0:0|0:0,0:0:0:0:
377,17,50095,2,0,P|418:19|442:48,1,63.7500024318696,2|0,0:0|0:0,0:0:0:0:
126,281,50270,5,6,0:0:0:0:
128,278,50357,1,2,0:0:0:0:
130,275,50444,2,0,L|133:193,1,59.4999981842042,6|0,0:0|0:0,0:0:0:0:
285,75,50618,1,10,0:0:0:0:
287,78,50705,1,2,0:0:0:0:
289,81,50792,2,0,L|292:163,1,55.2499974708558,2|0,0:0|0:0,0:0:0:0:
454,307,50967,6,0,L|457:225,1,50.9999984436036,6|0,0:0|0:0,0:0:0:0:
208,43,51142,2,0,L|211:125,1,50.9999984436036,6|0,0:0|0:0,0:0:0:0:
216,177,51316,5,8,0:0:0:0:
133,99,51491,1,0,0:0:0:0:
488,52,51665,2,0,P|441:33|398:48,1,89.2499972763062,4|0,0:0|0:0,0:0:0:0:
275,146,52014,5,8,0:0:0:0:
484,271,52188,2,0,L|482:215,1,40.3749989218712
442,104,52363,5,6,0:0:0:0:
440,106,52450,1,2,0:0:0:0:
438,108,52537,1,2,0:0:0:0:
98,286,52711,5,10,0:0:0:0:
122,301,52798,1,2,0:0:0:0:
150,308,52885,1,2,0:0:0:0:
178,307,52972,1,2,0:0:0:0:
206,298,53059,5,6,0:0:0:0:
209,301,53147,1,2,0:0:0:0:
212,304,53235,1,2,0:0:0:0:
178,338,53322,1,2,0:0:0:0:
131,331,53409,1,10,0:0:0:0:
108,290,53496,1,2,0:0:0:0:
128,246,53583,1,2,0:0:0:0:
174,236,53671,1,2,0:0:0:0:
206,271,53758,5,6,0:0:0:0:
170,214,53845,1,2,0:0:0:0:
159,148,53932,1,10,0:0:0:0:
178,84,54019,1,2,0:0:0:0:
224,35,54106,1,6,0:0:0:0:
226,37,54281,1,10,0:0:0:0:
426,170,54456,5,10,0:0:0:0:
424,171,54631,1,10,0:0:0:0:
54,334,54804,1,10,0:0:0:0:
56,335,54979,1,10,0:0:0:0:
466,262,55153,6,0,L|484:107,1,118.999996368408,10|10,0:0|0:0,0:0:0:0:
84,31,55502,2,0,L|99:165,1,127.500004863739,10|10,0:0|0:0,0:0:0:0:
252,258,55851,6,0,P|280:249|305:232,1,59.4999981842042,8|0,0:0|0:0,0:0:0:0:
482,348,56025,2,0,P|420:323|405:307,1,59.4999981842042,8|0,0:0|0:0,0:0:0:0:
244,172,56200,5,2,0:0:0:0:
245,173,56287,1,2,0:0:0:0:
246,175,56374,1,2,0:0:0:0:
247,177,56461,1,2,0:0:0:0:
247,179,56548,1,2,0:0:0:0:
248,181,56636,1,2,0:0:0:0:
249,183,56723,1,2,0:0:0:0:
249,184,56810,1,2,0:0:0:0:
301,239,56897,2,0,P|305:269|287:308,1,46.7500014266968,2|0,0:0|0:0,0:0:0:0:
56,311,57072,5,2,0:0:0:0:
54,309,57159,1,2,0:0:0:0:
52,307,57246,2,0,P|50:278|67:240,1,44.6249986381531,2|0,0:0|0:0,0:0:0:0:
161,56,57421,1,2,0:0:0:0:
159,58,57508,1,2,0:0:0:0:
157,60,57599,2,0,L|166:101,1,42.5,2|0,0:0|0:0,0:0:0:0:
439,302,57770,5,2,0:0:0:0:
437,300,57857,1,2,0:0:0:0:
435,298,57944,2,0,L|453:226,1,40.3749989218712,2|0,0:0|0:0,0:0:0:0:
165,293,58118,2,0,L|183:360,1,39.099998687439,2|0,0:0|0:0,0:0:0:0:
377,150,58293,5,2,0:0:0:0:
377,130,58380,1,2,0:0:0:0:
377,110,58467,1,2,0:0:0:0:
378,90,58554,1,2,0:0:0:0:
378,70,58642,2,0,L|308:71,1,42.5,2|0,0:0|0:0,0:0:0:0:
124,241,58816,2,0,L|166:241,1,42.5,2|0,0:0|0:0,0:0:0:0:
427,323,58991,5,2,0:0:0:0:
481,291,59078,1,2,0:0:0:0:
471,229,59165,1,2,0:0:0:0:
409,217,59252,1,2,0:0:0:0:
368,270,59339,6,0,P|340:277|297:268,1,44.6249986381531,2|2,0:0|0:0,0:0:0:0:
264,239,59513,1,2,0:0:0:0:
230,173,59600,1,2,0:0:0:0:
223,154,59688,2,0,P|222:121|231:97,1,46.7500014266968,8|0,0:0|0:0,0:0:0:0:
286,64,59863,2,0,L|332:65,1,46.7500014266968,4|0,0:0|0:0,0:0:0:0:
97,341,60037,2,0,P|69:285|105:215,1,101.999996887207,8|0,0:0|0:0,0:0:0:0:
299,46,60386,6,0,P|312:73|304:108,1,55.2499974708558,8|0,0:0|0:0,0:0:0:0:
227,134,60560,2,0,L|151:130,1,55.2499974708558,4|0,0:0|0:0,0:0:0:0:
33,91,60735,6,0,P|99:112|163:78,1,118.999996368408,8|0,0:0|0:0,0:0:0:0:
87,18,60996,1,4,0:0:0:0:
54,199,61084,2,0,P|54:241|83:283,1,63.7500024318696,8|0,3:0|3:0,3:0:0:0:
306,160,61258,2,0,P|306:118|277:76,1,63.7500024318696,8|0,3:0|3:0,3:0:0:0:
470,232,61432,5,2,0:0:0:0:
471,230,61519,1,2,0:0:0:0:
472,228,61606,1,2,0:0:0:0:
473,226,61693,1,2,0:0:0:0:
406,195,61781,6,0,P|396:235|423:283,1,85,2|0,0:0|0:0,0:0:0:0:
496,304,61956,1,2,0:0:0:0:
328,77,62043,1,2,0:0:0:0:
315,61,62130,6,0,P|288:113|335:239,1,170,2|0,0:0|0:0,0:0:0:0:
334,232,62392,1,2,0:0:0:0:
461,162,62479,2,0,L|350:155,1,93.5000028533936,10|0,0:0|0:0,0:0:0:0:
108,219,62828,6,0,B|152:184|216:213,1,101.999996887207,8|0,0:0|0:0,0:0:0:0:
28,285,63177,2,0,P|9:253|10:192,1,97.7500018644333,8|0,0:0|0:0,0:0:0:0:
449,338,63525,2,0,P|403:360|353:344,1,106.25,8|0,0:0|0:0,0:0:0:0:
393,213,63787,1,2,0:0:0:0:
402,228,63874,2,0,L|398:283,1,50.9999984436036,4|0,0:0|0:0,0:0:0:0:
183,341,64049,5,2,0:0:0:0:
181,343,64136,1,2,0:0:0:0:
179,345,64223,2,0,L|185:282,1,55.2499974708558,2|0,0:0|0:0,0:0:0:0:
333,72,64397,6,0,L|410:78,1,50.9999984436036,2|0,0:0|0:0,0:0:0:0:
485,84,64572,2,0,L|383:75,1,101.999996887207,4|0,0:0|0:0,0:0:0:0:
259,65,64834,5,2,0:0:0:0:
137,135,64921,2,0,L|214:141,1,53.125,4|0,0:0|0:0,0:0:0:0:
464,198,65095,6,0,P|421:184|370:210,1,97.7500018644333,8|0,0:0|0:0,0:0:0:0:
306,270,65270,2,0,L|238:274,1,46.7500014266968,4|0,0:0|0:0,0:0:0:0:
210,275,65444,2,0,L|278:271,1,48.8750009322167,8|0,0:0|0:0,0:0:0:0:
456,344,65618,5,4,0:0:0:0:
460,343,65706,1,4,0:0:0:0:
464,342,65793,2,0,L|455:266,1,53.125,4|0,0:0|0:0,0:0:0:0:
197,36,65967,6,0,P|190:65|212:105,1,55.2499974708558,4|0,0:0|0:0,0:0:0:0:
335,154,66142,2,0,P|342:125|320:85,1,55.2499974708558,4|0,0:0|0:0,0:0:0:0:
77,233,66316,5,4,0:0:0:0:
65,244,66403,1,4,0:0:0:0:
58,256,66488,2,0,P|53:286|63:315,1,61.6250018806458,4|0,0:0|0:0,0:0:0:0:
416,349,66665,6,0,P|421:317|411:287,1,63.7500024318696,4|0,0:0|0:0,0:0:0:0:
181,113,66839,2,0,P|175:144|185:174,1,63.7500024318696,4|0,0:0|0:0,0:0:0:0:
468,103,67014,5,4,0:0:0:0:
455,76,67101,1,4,0:0:0:0:
436,59,67188,2,0,P|406:51|354:75,1,57.3750002188683,4|0,0:0|0:0,0:0:0:0:
512,208,67363,5,6,0:0:0:0:
510,210,67450,1,6,0:0:0:0:
508,212,67537,1,2,0:0:0:0:
506,214,67624,1,2,0:0:0:0:
456,262,67711,6,0,L|275:266,1,165.749992412568,2|0,0:0|0:0,0:0:0:0:
342,200,68060,6,0,P|385:243|339:336,1,170,4|0,0:0|0:0,0:0:0:0:
164,332,68774,2,0,P|122:264|170:200,1,170,4|0,0:0|0:0,0:0:0:0:
306,268,69310,2,4,P|346:275|401:258,1,85
202,266,69664,1,2,0:0:0:0:
204,267,69752,1,2,0:0:0:0:
206,268,69840,2,0,P|166:275|111:258,1,85,10|0,0:0|0:0,0:0:0:0:
256,76,70193,6,0,L|256:216,1,127.5,8|0,0:0|0:0,0:0:0:0:
219,139,70546,1,2,0:0:0:0:
293,139,70899,1,4,0:0:0:0:
256,256,71247,1,4,0:0:0:0:
96,319,71596,6,4,P|39:323|3:305,1,85
412,315,71945,1,2,0:0:0:0:
414,317,72032,1,2,0:0:0:0:
416,319,72119,2,0,P|473:323|509:305,1,85,4|0,0:0|0:0,0:0:0:0:
347,239,72466,6,0,P|334:216|330:189,1,42.5,2|0,0:0|0:0,0:0:0:0:
264,316,72638,1,2,0:0:0:0:
455,252,72811,2,0,P|468:232|472:202,1,42.5,2|0,0:0|0:0,0:0:0:0:
111,355,72983,2,0,L|-30:356,1,127.5,6|0,0:0|0:0,0:0:0:0:
121,276,73328,2,0,P|128:324|109:356,1,85.8499982970429,10|0,0:0|0:0,0:0:0:0:
27,147,73673,6,12,L|92:140,1,48.8750009322167
266,264,74021,1,2,0:0:0:0:
485,147,74370,6,12,L|415:140,1,53.125
243,267,74719,1,2,0:0:0:0:
75,141,75068,6,12,L|149:134,1,57.3750002188683
272,270,75417,1,2,0:0:0:0:
432,141,75766,6,12,L|355:134,1,61.6250018806458
237,273,76114,1,2,0:0:0:0:
132,135,76463,6,12,L|224:126,1,65.8750005025864
278,276,76812,1,2,0:0:0:0:
370,135,77161,6,12,L|273:126,1,70.1250006687641
231,279,77510,1,2,0:0:0:0:
27,147,77859,6,12,L|127:138,1,74.3750007092953
284,282,78033,1,2,0:0:0:0:
485,147,78207,6,12,L|381:138,1,78.6249997000694
225,285,78382,1,2,0:0:0:0:
415,59,78556,6,12,P|403:104|417:170,1,82.875000316143
434,255,78734,5,2,0:0:0:0:
436,257,78823,1,2,0:0:0:0:
483,319,78913,1,2,0:0:0:0:
398,323,79002,1,2,0:0:0:0:
313,327,79091,1,2,0:0:0:0:
228,332,79180,1,2,0:0:0:0:
143,336,79270,6,0,B|164:110|164:110|212:242,1,280.500008560181,12|0,0:0|0:0,0:0:0:0:
231,247,79618,2,0,P|129:250|76:169,1,187.000005706787,12|0,0:0|0:0,0:0:0:0:
278,162,79880,5,0,0:0:0:0:
288,172,79967,2,0,P|320:280|312:301,1,93.5000028533936,12|0,0:0|0:0,0:0:0:0:
0,202,80142,2,0,P|8:156|35:118,1,93.5000028533936
240,42,80316,5,14,0:0:0:0:
263,43,80403,1,2,0:0:0:0:
286,45,80490,1,10,0:0:0:0:
309,46,80578,1,2,0:0:0:0:
358,103,80665,5,14,0:0:0:0:
318,79,80752,1,0,0:0:0:0:
271,75,80839,1,2,0:0:0:0:
228,92,80926,1,0,0:0:0:0:
197,126,81014,6,0,P|203:240|215:257,1,93.5000028533936,14|0,0:0|0:0,0:0:0:0:
476,318,81188,2,0,P|470:204|458:187,1,93.5000028533936,8|0,0:0|0:0,0:0:0:0:
291,37,81363,5,12,0:0:0:0:
82,225,81537,1,0,0:0:0:0:
329,356,81711,5,6,0:0:0:0:
336,337,81799,1,2,0:0:0:0:
385,286,81886,1,2,0:0:0:0:
392,267,81974,1,2,0:0:0:0:
442,213,82060,2,0,B|448:193|448:193|265:209,2,187.000005706787,14|0|12,0:0|0:0|0:0,0:0:0:0:
266,278,82496,5,2,0:0:0:0:
253,274,82583,2,0,P|213:210|236:172,1,93.5000028533936,2|0,0:0|0:0,0:0:0:0:
388,31,82758,2,0,L|403:168,1,93.5000028533936,14|0,0:0|0:0,0:0:0:0:
177,70,82932,6,0,P|298:46|314:55,1,93.5000028533936,2|0,0:0|0:0,0:0:0:0:
479,206,83107,2,0,P|358:230|342:221,1,93.5000028533936,14|0,0:0|0:0,0:0:0:0:
95,206,83281,5,10,0:0:0:0:
94,205,83368,1,2,0:0:0:0:
93,204,83456,2,0,B|75:199|75:199|90:308,1,127.5,14|0,0:0|0:0,0:0:0:0:
312,70,83804,6,0,B|339:62|339:62|316:230,1,191.250007295609,14|0,0:0|0:0,0:0:0:0:
38,60,84153,6,0,P|90:31|182:86,1,170,14|0,0:0|0:0,0:0:0:0:
241,209,84502,5,6,0:0:0:0:
242,217,84589,1,2,0:0:0:0:
203,281,84676,1,2,0:0:0:0:
170,183,84764,1,2,0:0:0:0:
100,208,84851,6,0,B|33:177|33:177|8:87|8:87|117:144,1,280.500008560181,14|0,0:0|0:0,0:0:0:0:
182,291,85200,6,0,P|76:317|56:305,1,93.5000028533936,12|0,0:0|0:0,0:0:0:0:
335,154,85374,2,0,P|428:210|433:233,1,93.5000028533936
434,286,85549,6,0,B|408:373|408:373|315:348|315:348|341:257,1,280.500008560181,12|0,0:0|0:0,0:0:0:0:
510,268,85897,6,0,L|394:250,1,93.5000028533936,12|0,0:0|0:0,0:0:0:0:
137,212,86072,2,0,L|253:194,1,93.5000028533936,8|0,0:0|0:0,0:0:0:0:
383,101,86246,6,0,B|419:18|419:18|480:88|480:88|383:101,1,280.500008560181,12|0,0:0|0:0,0:0:0:0:
241,40,86595,6,0,P|196:26|150:32,1,93.5000028533936,12|0,0:0|0:0,0:0:0:0:
325,255,86770,2,0,P|372:261|416:247,1,93.5000028533936,8|0,0:0|0:0,0:0:0:0:
43,131,86944,6,0,B|28:256|103:358|103:358|150:255,1,280.500008560181,12|0,0:0|0:0,0:0:0:0:
162,266,87293,6,0,P|93:256|62:286,1,89.2499972763062,12|0,0:0|0:0,0:0:0:0:
257,339,87467,2,0,L|390:330,1,89.2499972763062
240,189,87642,1,12,0:0:0:0:
241,188,87816,1,0,0:0:0:0:
242,187,87990,1,4,0:0:0:0:
243,186,88165,1,0,0:0:0:0:
165,76,88339,1,4,0:0:0:0:
105,195,88513,1,8,0:0:0:0:
303,71,88688,5,12,0:0:0:0:
192,298,88863,1,8,0:0:0:0:
45,97,89037,2,0,P|32:50|71:-1,1,85,12|0,0:0|0:0,0:0:0:0:
335,229,89386,2,0,L|350:321,1,93.5000028533936,12|0,0:0|0:0,0:0:0:0:
383,99,89735,5,14,0:0:0:0:
385,97,89822,1,2,0:0:0:0:
387,95,89909,1,2,0:0:0:0:
422,42,89996,5,2,0:0:0:0:
425,39,90083,1,6,0:0:0:0:
422,84,90171,1,2,0:0:0:0:
420,129,90258,1,2,0:0:0:0:
418,174,90345,1,2,0:0:0:0:
411,270,90432,6,0,L|416:153,1,93.5000028533936,14|0,0:0|0:0,0:0:0:0:
299,218,90607,2,0,P|294:169|293:101,1,93.5000028533936,8|0,0:0|0:0,0:0:0:0:
188,191,90781,2,0,P|172:138|172:74,1,93.5000028533936,14|0,0:0|0:0,0:0:0:0:
68,159,90956,2,0,P|43:109|42:44,1,93.5000028533936,8|0,0:0|0:0,0:0:0:0:
288,31,91130,5,14,0:0:0:0:
311,32,91217,1,2,0:0:0:0:
333,40,91304,1,2,0:0:0:0:
351,54,91392,1,2,0:0:0:0:
202,82,91479,5,14,0:0:0:0:
191,61,91566,1,0,0:0:0:0:
188,38,91653,1,8,0:0:0:0:
190,14,91741,1,0,0:0:0:0:
286,131,91828,5,14,0:0:0:0:
273,151,91915,1,10,0:0:0:0:
254,165,92002,1,10,0:0:0:0:
233,175,92090,1,10,0:0:0:0:
143,147,92176,6,0,B|74:147|74:147|115:170,1,98.6000030090333,14|0,0:0|0:0,0:0:0:0:
382,159,92351,2,0,P|381:102|307:48,1,103.699995727692,10|0,0:0|0:0,0:0:0:0:
273,288,92525,2,0,B|359:343|359:343|513:303,1,207.399991455384,14|0,0:0|0:0,0:0:0:0:
372,252,92787,5,10,0:0:0:0:
360,342,92874,1,14,0:0:0:0:
432,180,93049,6,0,B|382:157|382:157|260:172,1,110.499994941712
478,245,93223,6,0,L|449:18,1,187.000005706787,12|0,0:0|0:0,0:0:0:0:
63,314,93572,2,0,L|86:128,1,187.000005706787,12|0,0:0|0:0,0:0:0:0:
483,250,93921,6,0,L|473:21,1,187.000005706787,12|0,0:0|0:0,0:0:0:0:
58,319,94270,2,0,L|65:132,1,187.000005706787,12|0,0:0|0:0,0:0:0:0:
68,55,94531,5,10,0:0:0:0:
126,103,94618,2,0,P|-2:116|30:74,1,285.600003486328,14|0,0:0|0:0,0:0:0:0:
149,207,94967,6,0,P|196:210|275:180,1,98.6000030090333,12|0,0:0|0:0,0:0:0:0:
426,48,95142,2,0,P|378:35|329:39,1,98.6000030090333,8|0,0:0|0:0,0:0:0:0:
319,212,95316,5,14,0:0:0:0:
301,293,95403,1,10,0:0:0:0:
353,358,95490,1,10,0:0:0:0:
436,358,95578,1,10,0:0:0:0:
487,293,95665,1,14,0:0:0:0:
469,212,95752,1,10,0:0:0:0:
394,177,95839,1,10,0:0:0:0:
239,240,95926,1,10,0:0:0:0:
114,116,96014,2,0,B|148:5|148:5|179:80,1,187.000005706787,14|0,0:0|0:0,0:0:0:0:
143,315,96363,6,0,P|23:302|-1:236,1,187.000005706787,12|0,0:0|0:0,0:0:0:0:
369,69,96711,2,4,P|489:82|513:148,1,187.000005706787,8|0,0:0|0:0,0:0:0:0:
295,180,96973,5,0,0:0:0:0:
257,109,97060,2,0,B|254:8,1,93.5000028533936,12|0,0:0|0:0,0:0:0:0:
375,210,97235,2,0,P|305:267|277:256,1,93.5000028533936,8|0,0:0|0:0,0:0:0:0:
39,173,97409,5,14,0:0:0:0:
68,154,97496,1,2,0:0:0:0:
102,149,97583,1,2,0:0:0:0:
136,157,97671,1,2,0:0:0:0:
164,177,97758,5,14,0:0:0:0:
105,191,97845,1,0,0:0:0:0:
52,160,97932,1,8,0:0:0:0:
35,102,98020,1,0,0:0:0:0:
63,47,98107,6,0,L|108:43,1,42.5,14|0,0:0|0:0,0:0:0:0:
216,90,98281,2,0,L|173:86,1,42.5,2|0,0:0|0:0,0:0:0:0:
111,115,98456,5,14,0:0:0:0:
113,168,98543,1,10,0:0:0:0:
116,221,98630,1,10,0:0:0:0:
121,271,98717,1,10,0:0:0:0:
122,327,98804,5,12,0:0:0:0:
426,158,98979,1,12,0:0:0:0:
256,192,99502,12,0,101246,0:0:0:0:
99,199,101595,6,4,P|82:156|102:98,1,85
158,155,101769,2,4,P|164:109|211:69,1,85
229,143,101943,1,4,0:0:0:0:
459,245,102118,6,4,P|476:202|456:144,1,85
400,201,102292,2,4,P|393:155|346:115,1,85
329,189,102466,1,4,0:0:0:0:
27,306,102641,6,4,L|137:300,1,85
196,296,102815,2,4,L|86:302,1,85
66,237,102990,1,4,0:0:0:0:
281,71,103164,6,4,L|391:77,1,85
450,81,103338,2,4,L|340:75,1,85
320,140,103513,1,4,0:0:0:0:
192,261,103688,6,8,P|92:287|30:180,1,170
51,175,104036,2,8,P|151:149|213:256,1,170
350,331,104385,6,4,P|316:290|333:227,1,85
451,203,104560,2,4,P|485:244|468:307,1,85
402,267,104734,1,4,0:0:0:0:
79,92,104908,6,4,P|45:133|62:196,1,85
180,220,105083,2,4,P|214:179|197:116,1,85
131,156,105257,1,4,0:0:0:0:
463,75,105432,6,4,L|319:80,1,89.2499972763062
373,78,105606,2,4,L|229:83,1,89.2499972763062
470,151,105781,1,4,0:0:0:0:
62,244,105955,6,4,L|206:239,1,89.2499972763062
152,241,106129,2,4,L|296:236,1,89.2499972763062
55,168,106304,1,4,0:0:0:0:
418,326,106478,6,8,B|449:208|449:208|419:111,1,178.499994552612
366,114,106827,2,8,P|280:133|202:94,1,178.499994552612
289,56,107176,5,4,0:0:0:0:
330,39,107263,1,4,0:0:0:0:
374,36,107350,1,4,0:0:0:0:
417,49,107438,1,4,0:0:0:0:
453,76,107525,1,4,0:0:0:0:
310,218,107699,5,4,0:0:0:0:
269,235,107786,1,4,0:0:0:0:
225,238,107873,1,4,0:0:0:0:
182,225,107961,1,4,0:0:0:0:
146,198,108048,1,4,0:0:0:0:
449,162,108222,5,4,0:0:0:0:
466,203,108309,1,4,0:0:0:0:
469,247,108396,1,4,0:0:0:0:
456,290,108484,1,4,0:0:0:0:
429,326,108571,1,4,0:0:0:0:
146,198,108746,5,4,0:0:0:0:
129,157,108833,1,4,0:0:0:0:
126,113,108920,1,4,0:0:0:0:
139,70,109008,1,4,0:0:0:0:
166,34,109095,1,4,0:0:0:0:
293,318,109269,6,8,L|55:327,1,187.000005706787
294,135,109618,2,8,L|480:142,1,187.000005706787
87,231,109967,5,4,0:0:0:0:
68,185,110054,1,4,0:0:0:0:
65,137,110141,1,4,0:0:0:0:
79,90,110229,1,4,0:0:0:0:
109,50,110316,1,4,0:0:0:0:
351,172,110490,5,4,0:0:0:0:
370,218,110577,1,4,0:0:0:0:
373,266,110664,1,4,0:0:0:0:
359,313,110752,1,4,0:0:0:0:
329,353,110839,1,4,0:0:0:0:
178,61,111013,5,4,0:0:0:0:
224,42,111100,1,4,0:0:0:0:
272,39,111187,1,4,0:0:0:0:
319,53,111275,1,4,0:0:0:0:
359,83,111362,1,4,0:0:0:0:
197,322,111536,5,4,0:0:0:0:
151,341,111623,1,4,0:0:0:0:
103,344,111710,1,4,0:0:0:0:
56,330,111798,1,4,0:0:0:0:
16,300,111885,1,4,0:0:0:0:
467,115,112060,6,8,L|456:332,1,195.500003728867
90,42,112408,6,8,L|101:268,1,220.999989883423
467,115,112757,6,12,P|425:65|321:98,1,110.499994941712
304,195,112932,2,12,P|356:181|388:137,1,110.499994941712
306,94,113106,1,12,0:0:0:0:
228,271,113281,6,12,P|186:321|82:288,1,110.499994941712
65,191,113456,2,12,P|117:204|149:248,1,110.499994941712
67,292,113630,1,12,0:0:0:0:
206,40,113804,6,12,L|391:49,1,101.999996887207
470,105,113978,2,12,L|368:109,1,101.999996887207
233,119,114153,1,12,0:0:0:0:
423,330,114327,6,12,L|238:321,1,101.999996887207
159,265,114501,2,12,L|260:260,1,101.999996887207
396,251,114676,1,12,0:0:0:0:
67,77,114850,6,10,P|30:195|83:279,1,203.999993774414
273,346,115199,2,10,P|310:228|257:144,1,203.999993774414
31,343,115548,6,12,P|83:347|140:292,1,101.999996887207
96,181,115722,2,12,P|44:177|-13:232,1,101.999996887207
63,261,115897,1,12,0:0:0:0:
333,52,116071,6,12,P|385:48|442:103,1,101.999996887207
398,214,116245,2,12,P|346:218|289:163,1,101.999996887207
365,134,116420,1,12,0:0:0:0:
68,49,116595,6,12,L|78:184,1,103.699995727692
83,255,116769,2,12,L|75:151,1,103.699995727692
160,93,116943,1,12,0:0:0:0:
347,344,117118,6,12,L|357:209,1,103.699995727692
362,138,117292,2,12,L|354:241,1,103.699995727692
439,300,117466,1,12,0:0:0:0:
34,145,117641,6,10,P|131:164|220:63,1,237.999992736817
496,294,117990,6,10,P|384:315|281:199,1,272
416,57,118339,5,12,0:0:0:0:
450,96,118426,1,12,0:0:0:0:
459,148,118513,1,12,0:0:0:0:
439,196,118600,1,12,0:0:0:0:
397,227,118688,1,12,0:0:0:0:
142,314,118862,5,12,0:0:0:0:
107,274,118949,1,12,0:0:0:0:
98,222,119036,1,12,0:0:0:0:
118,174,119123,1,12,0:0:0:0:
160,143,119211,1,12,0:0:0:0:
499,316,119385,5,12,0:0:0:0:
445,317,119472,1,12,0:0:0:0:
392,319,119560,1,12,0:0:0:0:
339,320,119647,1,12,0:0:0:0:
286,322,119734,1,12,0:0:0:0:
99,59,119908,5,12,0:0:0:0:
152,61,119995,1,12,0:0:0:0:
205,63,120083,1,12,0:0:0:0:
258,64,120170,1,12,0:0:0:0:
311,66,120257,1,12,0:0:0:0:
33,360,120432,6,10,B|-7:302|-7:302|29:78,1,255.000009727478
464,259,120781,6,10,P|397:308|234:228,1,255.000009727478
391,93,121129,5,12,0:0:0:0:
393,156,121217,1,12,0:0:0:0:
395,220,121304,1,12,0:0:0:0:
398,284,121391,1,12,0:0:0:0:
400,347,121478,1,12,0:0:0:0:
24,162,121653,5,12,0:0:0:0:
65,102,121740,1,12,0:0:0:0:
134,77,121827,1,12,0:0:0:0:
204,97,121914,1,12,0:0:0:0:
249,155,122001,1,12,0:0:0:0:
254,362,122176,5,14,0:0:0:0:
181,356,122263,1,14,0:0:0:0:
125,309,122350,1,14,0:0:0:0:
107,238,122437,1,14,0:0:0:0:
135,170,122524,1,14,0:0:0:0:
169,136,122612,1,14,0:0:0:0:
213,121,122699,1,14,0:0:0:0:
259,132,122786,1,14,0:0:0:0:
301,155,122874,1,14,0:0:0:0:
343,178,122961,1,14,0:0:0:0:
389,188,123048,1,14,0:0:0:0:
433,171,123135,1,14,0:0:0:0:
466,136,123222,5,10,0:0:0:0:
403,138,123310,1,10,0:0:0:0:
357,180,123397,1,10,0:0:0:0:
349,242,123484,1,10,0:0:0:0:
383,294,123571,2,0,P|449:313|515:247,1,127.500004863739,2|0,0:0|0:0,0:0:0:0:
263,98,123746,2,0,P|203:78|148:107,1,127.500004863739,2|0,0:0|0:0,0:0:0:0:
348,355,123921,5,2,0:0:0:0:
351,355,124009,1,2,0:0:0:0:
355,355,124097,1,2,0:0:0:0:
358,355,124185,1,2,0:0:0:0:
362,355,124273,1,2,0:0:0:0:
365,355,124362,1,2,0:0:0:0:
369,355,124450,1,2,0:0:0:0:
373,355,124538,1,2,0:0:0:0:
376,356,124626,1,2,0:0:0:0:
380,356,124715,1,2,0:0:0:0:
383,356,124803,1,2,0:0:0:0:
387,356,124891,1,2,0:0:0:0:
391,356,124979,1,2,0:0:0:0:
394,356,125068,1,2,0:0:0:0:
398,356,125156,1,2,0:0:0:0:
401,357,125244,1,2,0:0:0:0:
451,291,125332,6,12,P|332:310|306:278,1,140.25000428009
373,98,125680,6,12,L|385:275,1,152.999995330811
11,271,126029,6,12,P|109:179|159:204,1,165.749992412568
126,371,126378,6,12,P|85:301|121:226,1,127.500004863739
442,127,126727,6,0,L|446:216,1,68
191,107,127076,2,8,L|191:95,4,9.03125017225743
191,107,127250,1,8,0:0:0:0:
340,319,127425,6,0,L|344:230,1,68,2|0,0:0|0:0,0:0:0:0:
48,314,127773,2,8,L|48:325,4,12.0416668963432
48,314,127947,1,8,0:0:0:0:
204,50,128122,6,0,P|237:39|284:70,1,72.2500013780594,2|0,0:0|0:0,0:0:0:0:
77,210,128471,2,0,L|74:122,1,72.2500013780594,2|0,0:0|0:0,0:0:0:0:
389,45,128820,6,2,L|389:16,2,18.0625003445149
389,45,128994,1,2,0:0:0:0:
452,240,129169,1,4,0:0:0:0:
451,243,129212,1,4,0:0:0:0:
450,247,129256,1,4,0:0:0:0:
450,251,129300,1,4,0:0:0:0:
449,255,129343,1,4,0:0:0:0:
449,259,129387,1,4,0:0:0:0:
448,263,129430,1,4,0:0:0:0:
448,267,129474,1,4,0:0:0:0:
447,271,129518,2,0,P|429:274|335:238,1,85,4|0,0:0|0:0,0:0:0:0:
429,155,129866,2,0,P|446:151|540:187,1,85,8|0,0:0|0:0,0:0:0:0:
132,303,130215,6,0,L|125:247,1,42.5,4|0,0:0|0:0,0:0:0:0:
175,167,130564,2,0,L|182:223,1,42.5,8|0,0:0|0:0,0:0:0:0:
127,308,130913,6,0,L|125:298,1,8.5,4|0,0:0|0:0,0:0:0:0:
180,162,131262,2,0,L|181:171,1,8.5,8|0,0:0|0:0,0:0:0:0:
339,335,131611,5,4,0:0:0:0:
341,337,131785,1,0,0:0:0:0:
343,338,131959,2,0,L|351:338,1,8.5,8|0,0:0|0:0,0:0:0:0:
471,91,132308,1,6,0:0:0:0:
470,92,132395,1,2,0:0:0:0:
469,93,132483,1,2,0:0:0:0:
468,94,132570,1,2,0:0:0:0:
467,95,132657,2,0,L|459:95,1,8.5,10|0,0:0|0:0,0:0:0:0:
126,158,133006,5,6,0:0:0:0:
122,172,133093,1,2,0:0:0:0:
120,187,133180,1,2,0:0:0:0:
121,202,133267,1,2,0:0:0:0:
123,216,133354,1,10,0:0:0:0:
265,274,133529,1,2,0:0:0:0:
269,260,133616,1,2,0:0:0:0:
271,245,133703,1,6,0:0:0:0:
40,290,133878,1,2,0:0:0:0:
36,304,133965,1,2,0:0:0:0:
34,319,134052,1,10,0:0:0:0:
35,334,134139,1,2,0:0:0:0:
37,348,134226,1,2,0:0:0:0:
463,339,134401,5,6,0:0:0:0:
478,311,134488,1,2,0:0:0:0:
483,280,134575,1,2,0:0:0:0:
479,248,134662,1,2,0:0:0:0:
466,220,134750,2,0,L|466:219,8,1.0625,2|0|0|0|0|0|0|0|0,0:0|0:0|0:0|0:0|0:0|0:0|0:0|0:0|0:0,0:0:0:0:
102,253,135099,5,4,0:0:0:0:
99,256,135273,1,0,0:0:0:0:
356,83,135448,5,8,0:0:0:0:
359,86,135622,1,0,0:0:0:0:
216,344,135797,5,4,0:0:0:0:
213,347,135971,1,0,0:0:0:0:
126,11,136145,5,8,0:0:0:0:
129,14,136319,1,0,0:0:0:0:
426,283,136494,6,0,L|427:293,1,8.5,4|0,0:0|0:0,0:0:0:0:
449,198,136843,2,0,L|450:208,1,8.5,8|0,0:0|0:0,0:0:0:0:
86,283,137192,2,0,L|85:293,1,8.5,4|0,0:0|0:0,0:0:0:0:
63,198,137541,2,0,L|62:208,1,8.5,8|0,0:0|0:0,0:0:0:0:
152,264,137890,5,4,0:0:0:0:
182,88,138064,1,0,0:0:0:0:
358,119,138238,1,8,0:0:0:0:
327,294,138413,1,0,0:0:0:0:
113,243,138587,5,4,0:0:0:0:
203,49,138761,1,0,0:0:0:0:
397,139,138935,1,8,0:0:0:0:
307,332,139110,1,0,0:0:0:0:
68,63,139285,6,0,B|40:100|40:100|47:258,1,170,4|0,0:0|0:0,0:0:0:0:
54,244,139547,1,2,0:0:0:0:
216,152,139634,1,10,0:0:0:0:
196,131,139721,1,2,0:0:0:0:
171,119,139808,1,2,0:0:0:0:
143,119,139895,1,2,0:0:0:0:
223,232,139983,5,10,0:0:0:0:
250,225,140070,1,2,0:0:0:0:
273,209,140157,1,2,0:0:0:0:
287,185,140244,1,2,0:0:0:0:
150,196,140332,5,10,0:0:0:0:
101,251,140419,1,2,0:0:0:0:
108,263,140506,2,0,L|101:334,1,46.7500014266968,2|0,0:0|0:0,0:0:0:0:
404,140,140680,5,8,0:0:0:0:
297,68,140768,1,12,0:0:0:0:
357,94,140942,5,8,0:0:0:0:
232,64,141029,1,12,0:0:0:0:
297,68,141204,5,8,0:0:0:0:
169,83,141291,1,12,0:0:0:0:
232,64,141465,5,8,0:0:0:0:
117,122,141552,1,12,0:0:0:0:
416,296,141727,6,0,P|448:242|420:177,1,101.999996887207,8|0,0:0|0:0,0:0:0:0:
431,187,141988,1,0,0:0:0:0:
99,311,142076,2,0,L|238:306,1,101.999996887207,12|0,0:0|0:0,0:0:0:0:
245,57,142425,5,2,0:0:0:0:
225,105,142512,1,2,0:0:0:0:
229,158,142599,1,2,0:0:0:0:
254,204,142686,1,2,0:0:0:0:
297,235,142773,5,6,0:0:0:0:
