osu file format v14

[General]
AudioFilename: audio.mp3
AudioLeadIn: 0
PreviewTime: 28468
Countdown: 0
SampleSet: Normal
StackLeniency: 0.7
Mode: 1
LetterboxInBreaks: 0
WidescreenStoryboard: 0

[Editor]
Bookmarks: 766,5899,6246,6593,16360,17406,17755,26210,28294,28991,37363,40153,45037,45735,47828,48525,50618,51316,53409,54107,56200,56897,58991,59688,61781,62479,64572,65270,67711,68060,73673,77859,81363,82060,84153,84851,90083,90432,91828,93223,94618,96014,98804,98979,101595,103688,104037,106479,106828,109270,109618,112060,112409,112758,114851,115200,117642,117990,118339,120432,120781,122176,123921,125332,126378,126727,128820,129518,139285,140680,142076,142773
DistanceSpacing: 1.5
BeatDivisor: 4
GridSize: 32
TimelineZoom: 1.9

[Metadata]
Title:Alice in Misanthrope -Ensei Alice-
TitleUnicode:Alice in Misanthrope -厭世アリス-
Artist:LeaF
ArtistUnicode:LeaF
Creator:S a n d
Version:No Regret
Source:BMS
Tags:Sand BOFU2016 - Legendary Again - 想起 セシル◇タイト GOTHIC CHOIR 孤高クローバー
BeatmapID:1111087
BeatmapSetID:523315

[Difficulty]
HPDrainRate:6
CircleSize:2
OverallDifficulty:6
ApproachRate:5
SliderMultiplier:1.4
SliderTickRate:1

[Events]
//Background and Video events
0,0,"AliceInMisanthrope.png",0,-130
//Break Periods
//Storyboard Layer 0 (Background)
//Storyboard Layer 1 (Fail)
//Storyboard Layer 2 (Pass)
//Storyboard Layer 3 (Foreground)
//Storyboard Sound Samples

[TimingPoints]
766,389.61038961039,4,1,0,70,1,0
766,-133.333333333333,4,1,0,70,0,0
1545,384.615384615385,4,1,0,70,1,0
1545,-133.333333333333,4,1,0,70,0,0
2314,375,4,1,0,70,1,0
2314,-133.333333333333,4,1,0,70,0,0
3064,365.853658536585,4,1,0,70,1,0
3064,-133.333333333333,4,1,0,70,0,0
3795,357.142857142857,4,1,0,70,1,0
3795,-125,4,1,0,70,0,0
4509,348.837209302326,4,1,0,70,1,0
4509,-111.111111111111,4,1,0,70,0,0
5206,346.820809248555,4,1,0,70,1,0
5206,-100,4,1,0,70,0,0
5552,-90.9090909090909,4,1,0,70,0,0
5899,-76.9230769230769,4,1,0,70,0,0
6593,348.837209302326,4,1,0,100,1,1
6593,-100,4,1,0,100,0,1
16360,-90.9090909090909,4,1,0,100,0,1
16709,-83.3333333333333,4,1,0,100,0,1
17058,-76.9230769230769,4,1,0,100,0,1
17406,-66.6666666666667,4,1,0,100,0,1
17755,361.44578313253,4,1,0,70,1,0
18477,357.142857142857,4,1,0,70,1,0
19191,352.941176470588,4,1,0,70,1,0
19191,-105.263157894737,4,1,0,70,0,0
20602,348.837209302326,4,1,0,70,1,0
20602,-106.382978723404,4,1,0,70,0,0
20776,-111.111111111111,4,1,0,70,0,0
21997,344.827586206897,4,1,0,70,1,0
21997,-113.636363636364,4,1,0,70,0,0
22083,-117.647058823529,4,1,0,70,0,0
23031,-113.636363636364,4,1,0,70,0,0
23203,-107.52688172043,4,1,0,70,0,0
23376,348.837209302326,4,1,0,70,1,0
23376,-106.382978723404,4,1,0,70,0,0
24073,352.941176470588,4,1,0,70,1,0
24073,-105.263157894737,4,1,0,70,0,0
24778,357.142857142857,4,1,0,70,1,0
24778,-100,4,1,0,70,0,0
25492,359.281437125748,4,1,0,70,1,0
26210,348.837209302326,4,1,0,70,1,0
26210,-90.9090909090909,4,1,0,70,0,0
26384,-95.2380952380952,4,1,0,70,0,0
26907,346.820809248555,4,1,0,70,1,0
26907,-83.3333333333333,4,1,0,70,0,0
27080,-86.9565217391304,4,1,0,70,0,0
27600,-80,4,1,0,70,0,0
27774,-76.9230769230769,4,1,0,70,0,0
27947,-74.0740740740741,4,1,0,70,0,0
28120,-71.4285714285714,4,1,0,70,0,0
28294,348.837209302326,4,1,0,70,1,0
28294,-68.4931506849315,4,1,0,70,0,0
28991,348.837209302326,4,1,0,100,1,1
28991,-90.9090909090909,4,1,0,100,0,1
37363,-83.3333333333333,4,1,0,70,0,0
37711,-76.9230769230769,4,1,0,70,0,0
38060,-71.4285714285714,4,1,0,70,0,0
38409,-76.9230769230769,4,1,0,70,0,0
38758,-83.3333333333333,4,1,0,70,0,0
39107,-100,4,1,0,70,0,0
40153,-90.9090909090909,4,1,0,100,0,1
40502,-83.3333333333333,4,1,0,100,0,1
40851,-76.9230769230769,4,1,0,100,0,1
41200,-71.4285714285714,4,1,0,100,0,1
41549,-66.6666666666667,4,1,0,100,0,1
41897,-71.4285714285714,4,1,0,100,0,1
42246,-76.9230769230769,4,1,0,100,0,1
42595,-83.3333333333333,4,1,0,100,0,1
42944,-90.9090909090909,4,1,0,70,0,0
43118,-95.2380952380952,4,1,0,70,0,0
43467,-100,4,1,0,70,0,0
43816,-105.263157894737,4,1,0,70,0,0
44165,-111.111111111111,4,1,0,70,0,0
44514,-105.263157894737,4,1,0,70,0,0
44863,-100,4,1,0,70,0,0
45211,-95.2380952380952,4,1,0,70,0,0
45560,-94.3396226415094,4,1,0,70,0,0
45647,-92.5925925925926,4,1,0,70,0,0
45735,-90.9090909090909,4,1,0,70,0,0
45909,-95.2380952380952,4,1,0,70,0,0
46258,-86.9565217391304,4,1,0,70,0,0
46607,-90.9090909090909,4,1,0,70,0,0
46956,-83.3333333333333,4,1,0,70,0,0
47304,-90.9090909090909,4,1,0,70,0,0
47653,-86.9565217391304,4,1,0,70,0,0
48002,-95.2380952380952,4,1,0,70,0,0
48525,-90.9090909090909,4,1,0,100,0,1
48874,-83.3333333333333,4,1,0,100,0,1
49223,-76.9230769230769,4,1,0,100,0,1
49572,-71.4285714285714,4,1,0,100,0,1
49921,-66.6666666666667,4,1,0,100,0,1
50270,-71.4285714285714,4,1,0,100,0,1
50618,-76.9230769230769,4,1,0,100,0,1
50967,-83.3333333333333,4,1,0,100,0,1
51316,-90.9090909090909,4,1,0,70,0,0
51491,-95.2380952380952,4,1,0,70,0,0
51839,-100,4,1,0,70,0,0
52188,-105.263157894737,4,1,0,70,0,0
52537,-111.111111111111,4,1,0,70,0,0
52886,-105.263157894737,4,1,0,70,0,0
53235,-100,4,1,0,70,0,0
53322,-99.009900990099,4,1,0,70,0,0
53409,-98.0392156862745,4,1,0,70,0,0
53496,-97.0873786407767,4,1,0,70,0,0
53584,-96.1538461538461,4,1,0,70,0,0
53671,-95.2380952380952,4,1,0,70,0,0
53758,-94.3396226415094,4,1,0,70,0,0
53845,-93.4579439252336,4,1,0,70,0,0
53932,-92.5925925925926,4,1,0,70,0,0
54107,-90.9090909090909,4,1,0,100,0,1
54456,-83.3333333333333,4,1,0,100,0,1
54804,-76.9230769230769,4,1,0,100,0,1
55153,-71.4285714285714,4,1,0,100,0,1
55502,-66.6666666666667,4,1,0,100,0,1
55851,-71.4285714285714,4,1,0,100,0,1
56200,-76.9230769230769,4,1,0,100,0,1
56549,-83.3333333333333,4,1,0,100,0,1
56897,-90.9090909090909,4,1,0,70,0,0
57246,-95.2380952380952,4,1,0,70,0,0
57595,-100,4,1,0,70,0,0
57770,-105.263157894737,4,1,0,70,0,0
58118,-108.695652173913,4,1,0,70,0,0
58293,-105.263157894737,4,1,0,70,0,0
58642,-100,4,1,0,70,0,0
58991,-95.2380952380952,4,1,0,70,0,0
59688,-90.9090909090909,4,1,0,100,0,1
60037,-83.3333333333333,4,1,0,100,0,1
60386,-76.9230769230769,4,1,0,100,0,1
60735,-71.4285714285714,4,1,0,100,0,1
61084,-66.6666666666667,4,1,0,100,0,1
61432,-71.4285714285714,4,1,0,100,0,1
61781,-100,4,1,0,100,0,1
62479,-90.9090909090909,4,1,0,70,0,0
62653,-83.3333333333333,4,1,0,70,0,0
63002,-86.9565217391304,4,1,0,70,0,0
63351,-80,4,1,0,70,0,0
63700,-83.3333333333333,4,1,0,70,0,0
64049,-76.9230769230769,4,1,0,70,0,0
64397,-83.3333333333333,4,1,0,70,0,0
64834,-80,4,1,0,70,0,0
65095,-86.9565217391304,4,1,0,70,0,0
65270,-90.9090909090909,4,1,0,100,0,1
65444,-86.9565217391304,4,1,0,100,0,1
65618,-83.3333333333333,4,1,0,100,0,1
65793,-80,4,1,0,100,0,1
65967,-76.9230769230769,4,1,0,100,0,1
66142,-74.0740740740741,4,1,0,100,0,1
66316,-71.4285714285714,4,1,0,100,0,1
66491,-68.9655172413793,4,1,0,100,0,1
66665,-66.6666666666667,4,1,0,100,0,1
66839,-68.9655172413793,4,1,0,100,0,1
67014,-71.4285714285714,4,1,0,100,0,1
67188,-74.0740740740741,4,1,0,100,0,1
67363,-76.9230769230769,4,1,0,100,0,1
68060,357.142857142857,4,1,0,70,1,0
69488,352.941176470588,4,1,0,70,1,0
70899,348.837209302326,4,1,0,70,1,0
72294,344.827586206897,4,1,0,70,1,0
73328,-99.009900990099,4,1,0,70,0,0
73414,-97.0873786407767,4,1,0,70,0,0
73500,-94.3396226415094,4,1,0,70,0,0
73587,-90.9090909090909,4,1,0,70,0,0
73673,348.837209302326,4,1,0,70,1,0
73673,-86.9565217391304,4,1,0,70,0,0
74021,-99.009900990099,4,1,0,70,0,0
74109,-97.0873786407767,4,1,0,70,0,0
74196,-94.3396226415094,4,1,0,70,0,0
74283,-90.9090909090909,4,1,0,70,0,0
74370,-86.9565217391304,4,1,0,70,0,0
74719,-99.009900990099,4,1,0,70,0,0
74806,-97.0873786407767,4,1,0,70,0,0
74893,-94.3396226415094,4,1,0,70,0,0
74981,-90.9090909090909,4,1,0,70,0,0
75068,-86.9565217391304,4,1,0,70,0,0
75417,-99.009900990099,4,1,0,70,0,0
75504,-97.0873786407767,4,1,0,70,0,0
75591,-94.3396226415094,4,1,0,70,0,0
75678,-90.9090909090909,4,1,0,70,0,0
75766,-86.9565217391304,4,1,0,70,0,0
76114,-99.009900990099,4,1,0,70,0,0
76202,-97.0873786407767,4,1,0,70,0,0
76289,-94.3396226415094,4,1,0,70,0,0
76376,-90.9090909090909,4,1,0,70,0,0
76463,-86.9565217391304,4,1,0,70,0,0
76812,-99.009900990099,4,1,0,70,0,0
76899,-97.0873786407767,4,1,0,70,0,0
76986,-94.3396226415094,4,1,0,70,0,0
77074,-90.9090909090909,4,1,0,70,0,0
77161,-86.9565217391304,4,1,0,70,0,0
77510,-99.009900990099,4,1,0,70,0,0
77597,-97.0873786407767,4,1,0,70,0,0
77684,-94.3396226415094,4,1,0,70,0,0
77771,-90.9090909090909,4,1,0,70,0,0
77859,-86.9565217391304,4,1,0,70,0,0
78033,-94.3396226415094,4,1,0,70,0,0
78120,-90.9090909090909,4,1,0,70,0,0
78207,-86.9565217391304,4,1,0,70,0,0
78382,-94.3396226415094,4,1,0,70,0,0
78469,-90.9090909090909,4,1,0,70,0,0
78556,357.142857142857,4,1,0,70,1,0
78556,-84.7457627118644,4,1,0,70,0,0
78734,-100,4,1,0,70,0,0
78823,-98.0392156862745,4,1,0,70,0,0
78913,-96.1538461538461,4,1,0,70,0,0
79002,-94.3396226415094,4,1,0,70,0,0
79091,-92.5925925925926,4,1,0,70,0,0
79181,-90.9090909090909,4,1,0,70,0,0
79270,348.837209302326,4,1,0,100,1,1
79270,-90.9090909090909,4,1,0,100,0,1
87206,-95.2380952380952,4,1,0,100,0,1
87990,-100,4,1,0,100,0,1
89299,-95.2380952380952,4,1,0,100,0,1
90083,-94.3396226415094,4,1,0,100,0,1
90171,-93.4579439252336,4,1,0,100,0,1
90258,-92.5925925925926,4,1,0,100,0,1
90345,-91.743119266055,4,1,0,100,0,1
90432,-90.9090909090909,4,1,0,100,0,1
91828,-89.2857142857143,4,1,0,100,0,1
92089,-86.2068965517241,4,1,0,100,0,1
92351,-81.9672131147541,4,1,0,100,0,1
92613,-76.9230769230769,4,1,0,100,0,1
93049,-83.3333333333333,4,1,0,100,0,1
93136,-86.9565217391304,4,1,0,100,0,1
93223,-90.9090909090909,4,1,0,100,0,1
94618,-89.2857142857143,4,1,0,100,0,1
94880,-86.2068965517241,4,1,0,100,0,1
95142,-81.9672131147541,4,1,0,100,0,1
95403,-76.9230769230769,4,1,0,100,0,1
95839,-83.3333333333333,4,1,0,100,0,1
95926,-86.9565217391304,4,1,0,100,0,1
96014,-90.9090909090909,4,1,0,100,0,1
98804,-83.3333333333333,4,1,0,100,0,1
98979,-83.3333333333333,4,1,0,70,0,0
99153,-133.333333333333,4,1,0,70,0,0
101595,-100,4,1,0,70,0,0
104386,-95.2380952380952,4,1,0,70,0,0
107176,-90.9090909090909,4,1,0,70,0,0
109967,-86.9565217391304,4,1,0,70,0,0
112758,-83.3333333333333,4,1,0,100,0,1
115549,-81.9672131147541,4,1,0,100,0,1
118339,-80,4,1,0,100,0,1
121130,-78.7401574803149,4,1,0,100,0,1
123921,352.941176470588,4,1,0,70,1,0
123921,-78.7401574803149,4,1,0,70,0,0
125332,348.837209302326,4,1,0,70,1,0
125332,-90.9090909090909,4,1,0,70,0,0
125680,-83.3333333333333,4,1,0,70,0,0
126029,-76.9230769230769,4,1,0,70,0,0
126378,-66.6666666666667,4,1,0,70,0,0
126727,-125,4,1,0,70,0,0
126988,-117.647058823529,4,1,0,70,0,0
127686,-111.111111111111,4,1,0,70,0,0
128297,-105.263157894737,4,1,0,70,0,0
128645,-100,4,1,0,70,0,0
129518,-100,4,1,0,100,0,1
139285,-100,4,1,0,70,0,0
140506,-90.9090909090909,4,1,0,70,0,0
140680,-83.3333333333333,4,1,0,100,0,1
142425,-100,4,1,0,70,0,0

[HitObjects]
256,192,766,5,0,0:0:0:0:
256,192,3795,1,4,0:0:0:0:
256,192,4509,1,4,0:0:0:0:
256,192,5206,1,4,0:0:0:0:
288,192,5552,1,4,0:0:0:0:
288,192,5899,1,4,0:0:0:0:
288,192,6593,1,12,0:0:0:0:
288,192,6767,1,0,0:0:0:0:
288,192,6854,1,0,0:0:0:0:
288,192,6941,1,8,0:0:0:0:
288,192,7116,1,0,0:0:0:0:
288,192,7290,1,8,0:0:0:0:
288,192,7465,1,0,0:0:0:0:
288,192,7552,1,0,0:0:0:0:
288,192,7639,1,8,0:0:0:0:
288,192,7813,1,0,0:0:0:0:
288,192,7988,1,8,0:0:0:0:
224,96,8075,1,0,0:0:0:0:
256,192,8162,1,0,0:0:0:0:
256,192,8249,1,0,0:0:0:0:
256,192,8337,1,8,0:0:0:0:
256,192,8511,1,0,0:0:0:0:
256,192,8686,1,8,0:0:0:0:
256,192,8860,1,0,0:0:0:0:
256,192,8947,1,0,0:0:0:0:
256,192,9034,1,8,0:0:0:0:
192,128,9209,1,8,0:0:0:0:
192,128,9296,1,8,0:0:0:0:
256,192,9383,1,0,0:0:0:0:
256,192,9558,1,0,0:0:0:0:
256,192,9645,1,0,0:0:0:0:
256,192,9732,1,8,0:0:0:0:
256,192,9906,1,8,0:0:0:0:
256,192,10081,1,0,0:0:0:0:
256,192,10255,1,8,0:0:0:0:
256,192,10343,1,8,0:0:0:0:
256,192,10430,1,0,0:0:0:0:
256,224,10517,1,0,0:0:0:0:
256,224,10604,1,8,0:0:0:0:
160,128,10691,1,8,0:0:0:0:
256,224,10779,1,0,0:0:0:0:
256,192,10953,1,0,0:0:0:0:
256,192,11040,1,0,0:0:0:0:
256,192,11127,1,8,0:0:0:0:
256,192,11302,1,8,0:0:0:0:
256,192,11476,1,0,0:0:0:0:
160,96,11563,1,8,0:0:0:0:
256,192,11738,1,8,0:0:0:0:
256,192,11825,1,0,0:0:0:0:
96,160,11999,1,8,0:0:0:0:
96,160,12174,1,12,0:0:0:0:
128,128,12348,1,0,0:0:0:0:
128,128,12436,1,0,0:0:0:0:
128,128,12523,1,8,0:0:0:0:
128,128,12697,1,0,0:0:0:0:
128,128,12872,1,8,0:0:0:0:
128,128,13046,1,0,0:0:0:0:
128,128,13133,1,0,0:0:0:0:
128,128,13220,1,8,0:0:0:0:
128,128,13395,1,0,0:0:0:0:
128,128,13569,1,8,0:0:0:0:
224,128,13656,1,0,0:0:0:0:
128,128,13744,1,8,0:0:0:0:
128,128,13831,1,8,0:0:0:0:
128,128,13918,1,0,0:0:0:0:
128,128,14093,1,8,0:0:0:0:
128,128,14267,1,0,0:0:0:0:
128,128,14441,1,0,0:0:0:0:
128,128,14529,1,0,0:0:0:0:
128,128,14616,1,8,0:0:0:0:
128,128,14790,1,8,0:0:0:0:
128,128,14965,1,0,0:0:0:0:
128,128,15139,1,0,0:0:0:0:
128,128,15226,1,0,0:0:0:0:
128,128,15313,1,8,0:0:0:0:
128,128,15488,1,0,0:0:0:0:
128,128,15662,1,0,0:0:0:0:
192,160,15749,1,0,0:0:0:0:
128,128,15837,1,8,0:0:0:0:
128,128,15924,1,8,0:0:0:0:
128,128,16011,1,0,0:0:0:0:
128,128,16186,1,8,0:0:0:0:
160,96,16360,1,4,0:0:0:0:
192,128,16709,1,4,0:0:0:0:
192,128,17058,1,4,0:0:0:0:
192,128,17406,1,12,0:0:0:0:
256,192,17755,1,4,0:0:0:0:
256,192,18116,1,8,0:0:0:0:
288,224,18387,1,8,0:0:0:0:
256,192,18477,1,0,0:0:0:0:
256,192,18655,1,0,0:0:0:0:
256,192,18834,1,8,0:0:0:0:
256,192,19191,1,0,0:0:0:0:
256,192,19543,1,8,0:0:0:0:
256,192,19808,1,8,0:0:0:0:
256,192,19896,1,0,0:0:0:0:
256,192,19985,1,8,0:0:0:0:
256,192,20073,1,0,0:0:0:0:
256,192,20249,1,8,0:0:0:0:
256,192,20426,1,8,0:0:0:0:
256,192,20514,1,8,0:0:0:0:
256,192,20602,1,0,0:0:0:0:
256,192,20776,1,0,0:0:0:0:
256,192,20950,1,8,0:0:0:0:
288,192,21212,1,8,0:0:0:0:
288,192,21299,1,0,0:0:0:0:
288,192,21474,1,0,0:0:0:0:
288,192,21648,1,8,0:0:0:0:
192,160,21822,1,8,0:0:0:0:
192,160,21910,1,8,0:0:0:0:
192,160,21997,1,0,0:0:0:0:
192,160,22169,1,0,0:0:0:0:
192,160,22341,1,8,0:0:0:0:
160,64,22600,1,8,0:0:0:0:
160,64,22686,1,0,0:0:0:0:
160,64,22772,1,8,0:0:0:0:
160,64,22859,1,0,0:0:0:0:
160,64,23031,1,8,0:0:0:0:
160,64,23203,1,8,0:0:0:0:
160,64,23290,1,8,0:0:0:0:
160,64,23376,1,0,0:0:0:0:
160,64,23550,1,0,0:0:0:0:
160,64,23724,1,8,0:0:0:0:
160,64,23899,1,0,0:0:0:0:
160,64,23986,1,8,0:0:0:0:
192,96,24249,1,8,0:0:0:0:
192,128,24425,1,0,0:0:0:0:
192,128,24514,1,0,0:0:0:0:
192,128,24602,1,8,0:0:0:0:
192,128,24778,1,8,0:0:0:0:
192,96,24956,1,0,0:0:0:0:
192,96,25045,1,0,0:0:0:0:
192,96,25135,1,8,0:0:0:0:
192,96,25313,1,8,0:0:0:0:
192,96,25403,1,8,0:0:0:0:
224,64,25671,1,0,0:0:0:0:
192,96,25851,1,8,0:0:0:0:
192,96,25941,1,8,0:0:0:0:
192,96,26030,1,0,0:0:0:0:
192,96,26210,1,12,0:0:0:0:
192,160,26471,1,0,0:0:0:0:
192,160,26646,1,0,0:0:0:0:
192,160,26733,1,0,0:0:0:0:
192,160,26907,1,12,0:0:0:0:
192,160,27167,1,0,0:0:0:0:
192,160,27340,1,0,0:0:0:0:
192,160,27427,1,0,0:0:0:0:
192,160,27600,1,12,0:0:0:0:
192,160,27774,1,0,0:0:0:0:
192,160,27947,1,12,0:0:0:0:
192,160,28120,1,0,0:0:0:0:
192,160,28294,1,12,0:0:0:0:
192,160,28991,1,4,0:0:0:0:
192,160,29252,1,0,0:0:0:0:
192,160,29339,1,8,0:0:0:0:
192,160,29514,1,8,0:0:0:0:
192,160,29601,1,8,0:0:0:0:
192,160,29688,1,0,0:0:0:0:
192,160,29775,1,8,0:0:0:0:
192,160,29863,1,0,0:0:0:0:
192,160,30037,1,8,0:0:0:0:
192,160,30211,1,8,0:0:0:0:
192,160,30386,1,0,0:0:0:0:
192,96,30473,1,8,0:0:0:0:
192,160,30647,1,8,0:0:0:0:
192,96,30735,1,0,0:0:0:0:
192,160,30909,1,0,0:0:0:0:
192,160,30996,1,0,0:0:0:0:
192,160,31084,1,8,0:0:0:0:
192,96,31171,1,8,0:0:0:0:
192,160,31258,1,0,0:0:0:0:
192,160,31432,1,8,0:0:0:0:
192,160,31607,1,8,0:0:0:0:
192,160,31781,1,0,0:0:0:0:
192,160,31868,1,0,0:0:0:0:
192,160,31956,1,0,0:0:0:0:
192,160,32043,1,0,0:0:0:0:
192,160,32130,1,8,0:0:0:0:
192,160,32304,1,0,0:0:0:0:
192,160,32479,1,0,0:0:0:0:
192,160,32566,1,8,0:0:0:0:
192,160,32653,1,0,0:0:0:0:
192,160,32741,1,0,0:0:0:0:
192,160,32828,1,8,0:0:0:0:
192,160,33002,1,0,0:0:0:0:
192,160,33177,1,8,0:0:0:0:
192,160,33351,1,0,0:0:0:0:
192,160,33438,1,0,0:0:0:0:
192,160,33525,1,8,0:0:0:0:
192,160,33700,1,0,0:0:0:0:
192,160,33787,1,0,0:0:0:0:
192,160,33874,1,8,0:0:0:0:
192,160,34049,1,0,0:0:0:0:
192,128,34223,1,8,0:0:0:0:
192,128,34397,1,8,0:0:0:0:
160,128,34572,1,4,0:0:0:0:
160,128,34834,1,0,0:0:0:0:
160,128,34921,1,8,0:0:0:0:
160,128,35095,1,8,0:0:0:0:
160,128,35182,1,8,0:0:0:0:
160,128,35270,1,0,0:0:0:0:
288,96,35357,1,8,0:0:0:0:
224,128,35444,1,0,0:0:0:0:
224,128,35618,1,8,0:0:0:0:
224,128,35793,1,8,0:0:0:0:
224,128,35967,1,0,0:0:0:0:
192,96,36054,1,8,0:0:0:0:
192,96,36229,1,8,0:0:0:0:
192,96,36316,1,0,0:0:0:0:
192,96,36491,1,0,0:0:0:0:
192,96,36578,1,0,0:0:0:0:
192,96,36665,1,8,0:0:0:0:
288,96,36752,1,8,0:0:0:0:
192,96,36839,1,0,0:0:0:0:
192,96,37014,1,8,0:0:0:0:
192,96,37188,1,8,0:0:0:0:
192,160,37363,1,4,0:0:0:0:
192,160,37711,1,4,0:0:0:0:
192,160,38060,1,12,0:0:0:0:
192,160,38409,1,12,0:0:0:0:
192,160,38758,1,12,0:0:0:0:
192,160,39107,1,0,0:0:0:0:
192,160,39281,1,0,0:0:0:0:
192,160,39368,1,0,0:0:0:0:
192,160,39456,1,8,0:0:0:0:
192,160,39630,1,0,0:0:0:0:
192,160,39804,1,8,0:0:0:0:
192,96,39892,1,8,0:0:0:0:
192,160,39979,1,0,0:0:0:0:
192,160,40153,1,12,0:0:0:0:
192,160,40502,1,12,0:0:0:0:
192,160,40851,1,12,0:0:0:0:
192,160,41200,1,12,0:0:0:0:
192,160,41549,1,12,0:0:0:0:
192,160,41897,1,12,0:0:0:0:
192,160,42246,1,12,0:0:0:0:
192,160,42595,1,12,0:0:0:0:
192,160,42944,1,4,0:0:0:0:
192,128,43118,1,8,0:0:0:0:
192,128,43206,1,8,0:0:0:0:
192,128,43293,1,0,0:0:0:0:
192,128,43467,1,8,0:0:0:0:
192,128,43554,1,8,0:0:0:0:
192,128,43642,1,0,0:0:0:0:
192,128,43816,1,8,0:0:0:0:
192,128,43903,1,8,0:0:0:0:
192,128,43991,1,0,0:0:0:0:
192,128,44165,1,8,0:0:0:0:
192,128,44252,1,8,0:0:0:0:
192,128,44339,1,0,0:0:0:0:
192,128,44514,1,8,0:0:0:0:
192,128,44601,1,8,0:0:0:0:
192,128,44688,1,0,0:0:0:0:
192,128,44863,1,8,0:0:0:0:
192,128,44950,1,8,0:0:0:0:
192,128,45037,1,0,0:0:0:0:
96,128,45211,1,8,0:0:0:0:
96,128,45299,1,8,0:0:0:0:
160,128,45386,1,0,0:0:0:0:
288,128,45444,1,0,0:0:0:0:
288,128,45502,1,0,0:0:0:0:
288,128,45560,1,8,0:0:0:0:
352,96,45647,1,8,0:0:0:0:
160,128,45735,1,0,0:0:0:0:
256,160,45909,1,0,0:0:0:0:
256,160,45996,1,0,0:0:0:0:
256,160,46084,1,8,0:0:0:0:
256,160,46258,1,8,0:0:0:0:
256,160,46345,1,8,0:0:0:0:
160,128,46432,1,0,0:0:0:0:
224,160,46607,1,0,0:0:0:0:
224,160,46694,1,0,0:0:0:0:
160,128,46781,1,8,0:0:0:0:
192,128,46956,1,8,0:0:0:0:
192,128,47043,1,8,0:0:0:0:
160,128,47130,1,0,0:0:0:0:
192,128,47304,1,0,0:0:0:0:
192,128,47392,1,0,0:0:0:0:
192,128,47479,1,8,0:0:0:0:
192,128,47653,1,0,0:0:0:0:
192,128,47741,1,0,0:0:0:0:
160,128,47828,1,8,0:0:0:0:
288,160,48002,1,0,0:0:0:0:
288,160,48089,1,0,0:0:0:0:
160,128,48177,1,8,0:0:0:0:
160,128,48264,1,8,0:0:0:0:
160,128,48351,1,8,0:0:0:0:
160,128,48525,1,12,0:0:0:0:
288,160,48874,1,12,0:0:0:0:
288,160,49223,1,12,0:0:0:0:
288,160,49572,1,12,0:0:0:0:
288,160,49921,1,12,0:0:0:0:
288,160,50270,1,12,0:0:0:0:
288,160,50618,1,12,0:0:0:0:
288,160,50967,1,12,0:0:0:0:
288,160,51316,1,4,0:0:0:0:
256,160,51491,1,0,0:0:0:0:
256,160,51578,1,0,0:0:0:0:
256,160,51665,1,8,0:0:0:0:
256,160,51839,1,8,0:0:0:0:
256,160,51927,1,8,0:0:0:0:
256,160,52014,1,0,0:0:0:0:
256,160,52188,1,0,0:0:0:0:
256,160,52275,1,8,0:0:0:0:
256,160,52363,1,8,0:0:0:0:
256,160,52537,1,8,0:0:0:0:
256,160,52624,1,8,0:0:0:0:
256,160,52711,1,0,0:0:0:0:
256,160,52886,1,0,0:0:0:0:
256,160,52973,1,0,0:0:0:0:
256,160,53060,1,8,0:0:0:0:
256,160,53235,1,0,0:0:0:0:
256,160,53322,1,0,0:0:0:0:
256,160,53409,1,8,0:0:0:0:
224,96,53496,1,8,0:0:0:0:
256,160,53584,1,0,0:0:0:0:
256,160,53671,1,0,0:0:0:0:
256,160,53758,1,8,0:0:0:0:
256,160,53845,1,8,0:0:0:0:
256,160,53932,1,8,0:0:0:0:
256,160,54107,1,12,0:0:0:0:
256,160,54456,1,12,0:0:0:0:
256,160,54804,1,12,0:0:0:0:
256,160,55153,1,12,0:0:0:0:
256,160,55502,1,12,0:0:0:0:
256,160,55851,1,12,0:0:0:0:
256,160,56200,1,12,0:0:0:0:
256,160,56549,1,12,0:0:0:0:
256,160,56897,1,4,0:0:0:0:
256,160,57072,1,0,0:0:0:0:
256,128,57246,1,8,0:0:0:0:
256,128,57334,1,8,0:0:0:0:
256,128,57421,1,0,0:0:0:0:
256,128,57595,1,8,0:0:0:0:
256,128,57770,1,0,0:0:0:0:
256,192,57857,1,0,0:0:0:0:
256,128,57944,1,8,0:0:0:0:
256,128,58118,1,0,0:0:0:0:
256,128,58293,1,8,0:0:0:0:
256,96,58380,1,8,0:0:0:0:
256,128,58467,1,0,0:0:0:0:
256,128,58642,1,8,0:0:0:0:
256,128,58729,1,8,0:0:0:0:
256,128,58816,1,0,0:0:0:0:
256,192,58991,1,8,0:0:0:0:
256,192,59165,1,0,0:0:0:0:
256,192,59252,1,0,0:0:0:0:
256,192,59339,1,8,0:0:0:0:
256,192,59427,1,8,0:0:0:0:
256,192,59514,1,8,0:0:0:0:
256,192,59688,1,12,0:0:0:0:
256,192,60037,1,12,0:0:0:0:
256,192,60386,1,12,0:0:0:0:
256,192,60735,1,12,0:0:0:0:
256,192,61084,1,12,0:0:0:0:
256,192,61432,1,12,0:0:0:0:
320,192,61781,1,0,0:0:0:0:
224,128,61868,1,8,0:0:0:0:
224,128,61955,1,8,0:0:0:0:
224,128,62043,1,8,0:0:0:0:
224,128,62130,1,8,0:0:0:0:
288,128,62304,1,8,0:0:0:0:
288,128,62479,1,4,0:0:0:0:
288,96,62653,1,0,0:0:0:0:
288,128,62741,1,0,0:0:0:0:
288,128,62828,1,8,0:0:0:0:
288,128,63002,1,8,0:0:0:0:
288,128,63089,1,8,0:0:0:0:
288,128,63177,1,0,0:0:0:0:
288,128,63351,1,0,0:0:0:0:
288,128,63438,1,8,0:0:0:0:
288,128,63525,1,8,0:0:0:0:
224,96,63700,1,8,0:0:0:0:
224,96,63787,1,8,0:0:0:0:
224,96,63874,1,0,0:0:0:0:
256,96,64049,1,0,0:0:0:0:
256,96,64136,1,0,0:0:0:0:
256,96,64223,1,8,0:0:0:0:
256,96,64397,1,8,0:0:0:0:
256,96,64485,1,0,0:0:0:0:
256,96,64572,1,8,0:0:0:0:
256,96,64659,1,8,0:0:0:0:
256,96,64834,1,8,0:0:0:0:
256,96,64921,1,8,0:0:0:0:
256,96,65095,1,8,0:0:0:0:
256,96,65270,1,12,0:0:0:0:
224,96,65444,1,0,0:0:0:0:
224,96,65618,1,12,0:0:0:0:
224,96,65793,1,0,0:0:0:0:
224,96,65967,1,12,0:0:0:0:
224,96,66142,1,0,0:0:0:0:
224,96,66316,1,12,0:0:0:0:
192,96,66491,1,0,0:0:0:0:
192,96,66665,1,12,0:0:0:0:
192,96,66839,1,0,0:0:0:0:
192,96,67014,1,12,0:0:0:0:
192,96,67188,1,0,0:0:0:0:
192,96,67363,1,0,0:0:0:0:
192,96,67537,1,0,0:0:0:0:
320,96,67595,1,0,0:0:0:0:
320,96,67653,1,0,0:0:0:0:
192,96,67711,1,8,0:0:0:0:
256,96,68060,1,4,0:0:0:0:
256,192,68417,1,8,0:0:0:0:
256,192,68774,1,8,0:0:0:0:
256,192,69131,1,8,0:0:0:0:
256,128,69310,1,8,0:0:0:0:
256,192,69488,1,0,0:0:0:0:
288,160,69840,1,0,0:0:0:0:
256,96,70017,1,0,0:0:0:0:
288,160,70193,1,8,0:0:0:0:
288,160,70899,1,0,0:0:0:0:
288,160,71247,1,8,0:0:0:0:
288,160,71596,1,8,0:0:0:0:
288,160,71945,1,8,0:0:0:0:
288,160,72119,1,8,0:0:0:0:
288,160,72294,1,0,0:0:0:0:
288,128,72466,1,0,0:0:0:0:
416,64,72523,1,8,0:0:0:0:
416,64,72581,1,8,0:0:0:0:
288,160,72638,1,0,0:0:0:0:
256,160,72811,1,0,0:0:0:0:
256,160,72983,1,8,0:0:0:0:
256,128,73156,1,8,0:0:0:0:
256,128,73242,1,8,0:0:0:0:
256,128,73328,1,8,0:0:0:0:
256,128,73414,1,8,0:0:0:0:
256,128,73500,1,8,0:0:0:0:
256,128,73587,1,8,0:0:0:0:
288,96,73673,1,4,0:0:0:0:
256,128,74021,1,8,0:0:0:0:
256,128,74109,1,8,0:0:0:0:
256,128,74196,1,8,0:0:0:0:
256,128,74283,1,8,0:0:0:0:
256,128,74370,1,4,0:0:0:0:
224,96,74719,1,8,0:0:0:0:
224,96,74806,1,8,0:0:0:0:
224,96,74893,1,8,0:0:0:0:
224,96,74981,1,8,0:0:0:0:
224,96,75068,1,4,0:0:0:0:
224,96,75417,1,8,0:0:0:0:
224,96,75504,1,8,0:0:0:0:
224,96,75591,1,8,0:0:0:0:
224,96,75678,1,8,0:0:0:0:
224,96,75766,1,4,0:0:0:0:
224,96,76114,1,8,0:0:0:0:
224,96,76202,1,8,0:0:0:0:
224,96,76289,1,8,0:0:0:0:
224,96,76376,1,8,0:0:0:0:
224,96,76463,1,4,0:0:0:0:
192,160,76812,1,8,0:0:0:0:
192,160,76899,1,8,0:0:0:0:
192,160,76986,1,8,0:0:0:0:
192,160,77074,1,8,0:0:0:0:
192,160,77161,1,4,0:0:0:0:
192,160,77510,1,8,0:0:0:0:
192,160,77597,1,8,0:0:0:0:
192,160,77684,1,8,0:0:0:0:
192,160,77771,1,8,0:0:0:0:
192,160,77859,1,4,0:0:0:0:
192,160,78033,1,8,0:0:0:0:
192,160,78120,1,8,0:0:0:0:
192,160,78207,1,0,0:0:0:0:
192,160,78382,1,8,0:0:0:0:
192,160,78469,1,8,0:0:0:0:
192,160,78556,1,0,0:0:0:0:
224,128,78734,1,8,0:0:0:0:
224,128,78823,1,8,0:0:0:0:
64,96,78913,1,0,0:0:0:0:
256,96,79002,1,0,0:0:0:0:
256,96,79091,1,0,0:0:0:0:
256,96,79181,1,0,0:0:0:0:
224,96,79270,1,12,0:0:0:0:
256,96,79444,1,0,0:0:0:0:
256,128,79531,1,0,0:0:0:0:
256,128,79618,1,8,0:0:0:0:
256,128,79793,1,8,0:0:0:0:
256,128,79880,1,8,0:0:0:0:
256,128,79967,1,0,0:0:0:0:
256,128,80142,1,0,0:0:0:0:
256,128,80229,1,0,0:0:0:0:
256,128,80316,1,8,0:0:0:0:
256,96,80490,1,8,0:0:0:0:
256,96,80578,1,8,0:0:0:0:
256,96,80665,1,0,0:0:0:0:
224,96,80752,1,8,0:0:0:0:
256,96,80839,1,0,0:0:0:0:
256,96,80926,1,0,0:0:0:0:
256,96,81014,1,8,0:0:0:0:
256,96,81188,1,8,0:0:0:0:
256,96,81275,1,8,0:0:0:0:
256,96,81363,1,0,0:0:0:0:
256,96,81537,1,0,0:0:0:0:
256,96,81624,1,0,0:0:0:0:
256,96,81711,1,8,0:0:0:0:
256,96,81799,1,8,0:0:0:0:
256,96,81886,1,0,0:0:0:0:
256,96,81973,1,8,0:0:0:0:
256,96,82060,1,0,0:0:0:0:
256,64,82235,1,0,0:0:0:0:
256,64,82322,1,0,0:0:0:0:
256,64,82409,1,8,0:0:0:0:
256,64,82583,1,8,0:0:0:0:
256,64,82671,1,8,0:0:0:0:
256,64,82758,1,0,0:0:0:0:
256,64,82932,1,0,0:0:0:0:
256,64,83020,1,0,0:0:0:0:
256,64,83107,1,8,0:0:0:0:
256,64,83281,1,8,0:0:0:0:
256,64,83368,1,8,0:0:0:0:
256,64,83456,1,0,0:0:0:0:
256,64,83543,1,8,0:0:0:0:
256,64,83630,1,0,0:0:0:0:
256,64,83717,1,0,0:0:0:0:
256,64,83804,1,8,0:0:0:0:
256,64,83979,1,8,0:0:0:0:
256,64,84153,1,4,0:0:0:0:
224,96,84328,1,0,0:0:0:0:
224,96,84415,1,0,0:0:0:0:
224,96,84502,1,8,0:0:0:0:
224,96,84589,1,8,0:0:0:0:
224,96,84676,1,8,0:0:0:0:
224,96,84764,1,8,0:0:0:0:
224,96,84851,1,4,0:0:0:0:
288,64,85025,1,0,0:0:0:0:
288,64,85113,1,0,0:0:0:0:
288,64,85200,1,8,0:0:0:0:
288,64,85374,1,8,0:0:0:0:
224,64,85461,1,8,0:0:0:0:
288,64,85549,1,0,0:0:0:0:
288,64,85723,1,0,0:0:0:0:
288,64,85810,1,0,0:0:0:0:
288,64,85897,1,8,0:0:0:0:
288,64,86071,1,8,0:0:0:0:
288,64,86158,1,8,0:0:0:0:
288,64,86246,1,0,0:0:0:0:
192,96,86333,1,8,0:0:0:0:
224,96,86421,1,0,0:0:0:0:
288,64,86508,1,0,0:0:0:0:
288,64,86595,1,8,0:0:0:0:
288,64,86770,1,0,0:0:0:0:
288,64,86944,1,8,0:0:0:0:
224,96,87206,1,0,0:0:0:0:
224,96,87293,1,8,0:0:0:0:
224,96,87467,1,0,0:0:0:0:
224,96,87642,1,0,0:0:0:0:
224,96,87990,1,0,0:0:0:0:
224,96,88078,1,0,0:0:0:0:
224,96,88165,1,8,0:0:0:0:
224,96,88252,1,8,0:0:0:0:
224,96,88339,1,0,0:0:0:0:
224,96,88514,1,0,0:0:0:0:
224,96,88688,1,8,0:0:0:0:
224,96,88863,1,8,0:0:0:0:
224,96,89037,1,0,0:0:0:0:
224,96,89299,1,0,0:0:0:0:
224,96,89386,1,8,0:0:0:0:
224,96,89560,1,0,0:0:0:0:
192,160,89647,1,8,0:0:0:0:
224,96,89735,1,0,0:0:0:0:
224,96,89909,1,0,0:0:0:0:
224,96,89996,1,0,0:0:0:0:
224,96,90083,1,8,0:0:0:0:
224,96,90171,1,8,0:0:0:0:
224,96,90258,1,8,0:0:0:0:
224,96,90345,1,8,0:0:0:0:
224,96,90432,1,4,0:0:0:0:
256,96,90607,1,0,0:0:0:0:
256,128,90781,1,8,0:0:0:0:
256,128,90868,1,8,0:0:0:0:
256,128,90956,1,0,0:0:0:0:
256,128,91130,1,8,0:0:0:0:
256,128,91305,1,0,0:0:0:0:
256,128,91392,1,0,0:0:0:0:
256,128,91479,1,8,0:0:0:0:
256,96,91653,1,8,0:0:0:0:
256,96,91741,1,8,0:0:0:0:
256,96,91828,1,0,0:0:0:0:
224,96,91915,1,8,0:0:0:0:
256,96,92089,1,0,0:0:0:0:
256,96,92177,1,8,0:0:0:0:
256,96,92351,1,0,0:0:0:0:
256,96,92438,1,8,0:0:0:0:
256,96,92613,1,8,0:0:0:0:
224,128,92700,1,0,0:0:0:0:
256,96,92787,1,0,0:0:0:0:
256,96,92874,1,8,0:0:0:0:
256,96,93049,1,8,0:0:0:0:
256,96,93136,1,8,0:0:0:0:
256,96,93223,1,0,0:0:0:0:
256,96,93397,1,0,0:0:0:0:
256,128,93571,1,8,0:0:0:0:
256,128,93658,1,8,0:0:0:0:
256,128,93746,1,0,0:0:0:0:
256,128,93920,1,8,0:0:0:0:
256,128,94095,1,0,0:0:0:0:
256,128,94182,1,0,0:0:0:0:
256,128,94269,1,8,0:0:0:0:
256,96,94443,1,8,0:0:0:0:
256,96,94531,1,8,0:0:0:0:
256,96,94618,1,0,0:0:0:0:
224,96,94706,1,8,0:0:0:0:
256,96,94880,1,0,0:0:0:0:
256,96,94967,1,8,0:0:0:0:
256,96,95142,1,0,0:0:0:0:
256,96,95228,1,8,0:0:0:0:
256,96,95403,1,8,0:0:0:0:
256,96,95490,1,0,0:0:0:0:
256,96,95577,1,0,0:0:0:0:
256,96,95664,1,8,0:0:0:0:
256,96,95839,1,8,0:0:0:0:
256,96,95926,1,8,0:0:0:0:
256,96,96014,1,0,0:0:0:0:
256,96,96188,1,0,0:0:0:0:
256,128,96362,1,8,0:0:0:0:
256,128,96449,1,8,0:0:0:0:
256,128,96537,1,0,0:0:0:0:
256,128,96711,1,8,0:0:0:0:
256,128,96886,1,0,0:0:0:0:
256,128,96973,1,0,0:0:0:0:
256,128,97060,1,8,0:0:0:0:
256,96,97234,1,8,0:0:0:0:
256,96,97322,1,8,0:0:0:0:
256,96,97409,1,0,0:0:0:0:
224,96,97496,1,0,0:0:0:0:
256,96,97583,1,0,0:0:0:0:
256,96,97758,1,8,0:0:0:0:
256,96,97932,1,0,0:0:0:0:
256,96,98020,1,8,0:0:0:0:
256,96,98107,1,0,0:0:0:0:
256,96,98281,1,0,0:0:0:0:
256,32,98368,1,0,0:0:0:0:
256,32,98456,1,8,0:0:0:0:
256,32,98543,1,8,0:0:0:0:
256,96,98630,1,8,0:0:0:0:
256,96,98804,1,4,0:0:0:0:
32,128,98979,1,4,0:0:0:0:
160,160,101595,1,0,0:0:0:0:
160,160,101682,1,8,0:0:0:0:
160,160,101770,1,0,0:0:0:0:
160,160,101857,1,0,0:0:0:0:
160,160,101944,1,8,0:0:0:0:
160,160,102118,1,0,0:0:0:0:
160,160,102205,1,8,0:0:0:0:
160,160,102293,1,0,0:0:0:0:
160,160,102380,1,0,0:0:0:0:
160,160,102467,1,8,0:0:0:0:
160,160,102642,1,0,0:0:0:0:
160,160,102729,1,8,0:0:0:0:
160,160,102817,1,0,0:0:0:0:
160,160,102904,1,0,0:0:0:0:
160,160,102991,1,8,0:0:0:0:
160,160,103165,1,0,0:0:0:0:
160,160,103252,1,8,0:0:0:0:
160,160,103340,1,0,0:0:0:0:
160,160,103427,1,0,0:0:0:0:
160,160,103514,1,8,0:0:0:0:
192,96,103688,1,0,0:0:0:0:
192,96,103863,1,0,0:0:0:0:
192,96,103950,1,0,0:0:0:0:
192,96,104037,1,8,0:0:0:0:
160,128,104211,1,0,0:0:0:0:
192,96,104386,1,0,0:0:0:0:
192,128,104473,1,8,0:0:0:0:
192,128,104560,1,8,0:0:0:0:
192,128,104647,1,0,0:0:0:0:
192,128,104735,1,8,0:0:0:0:
192,96,104909,1,0,0:0:0:0:
192,128,104996,1,8,0:0:0:0:
192,128,105083,1,8,0:0:0:0:
192,128,105170,1,0,0:0:0:0:
192,128,105258,1,8,0:0:0:0:
192,96,105432,1,0,0:0:0:0:
192,128,105519,1,8,0:0:0:0:
192,128,105606,1,8,0:0:0:0:
192,128,105693,1,0,0:0:0:0:
192,128,105781,1,8,0:0:0:0:
192,96,105956,1,0,0:0:0:0:
192,128,106043,1,8,0:0:0:0:
192,128,106130,1,8,0:0:0:0:
192,128,106217,1,0,0:0:0:0:
192,128,106305,1,8,0:0:0:0:
160,128,106479,1,0,0:0:0:0:
224,96,106653,1,0,0:0:0:0:
224,96,106740,1,0,0:0:0:0:
224,96,106828,1,8,0:0:0:0:
224,96,107002,1,0,0:0:0:0:
192,160,107176,1,8,0:0:0:0:
192,160,107264,1,0,0:0:0:0:
192,160,107351,1,8,0:0:0:0:
192,160,107438,1,8,0:0:0:0:
192,160,107525,1,0,0:0:0:0:
192,160,107700,1,8,0:0:0:0:
192,160,107788,1,0,0:0:0:0:
192,160,107875,1,8,0:0:0:0:
192,160,107962,1,8,0:0:0:0:
192,160,108049,1,0,0:0:0:0:
192,160,108223,1,8,0:0:0:0:
192,160,108311,1,0,0:0:0:0:
192,160,108398,1,8,0:0:0:0:
192,160,108485,1,8,0:0:0:0:
192,160,108572,1,0,0:0:0:0:
192,160,108746,1,8,0:0:0:0:
192,160,108834,1,0,0:0:0:0:
192,160,108921,1,8,0:0:0:0:
192,160,109008,1,8,0:0:0:0:
192,160,109095,1,0,0:0:0:0:
128,128,109270,1,8,0:0:0:0:
128,128,109444,1,0,0:0:0:0:
128,128,109531,1,0,0:0:0:0:
128,128,109618,1,8,0:0:0:0:
128,128,109793,1,0,0:0:0:0:
192,160,109967,1,8,0:0:0:0:
192,160,110055,1,8,0:0:0:0:
192,160,110142,1,0,0:0:0:0:
192,160,110229,1,8,0:0:0:0:
192,160,110316,1,0,0:0:0:0:
192,160,110491,1,8,0:0:0:0:
192,160,110579,1,8,0:0:0:0:
192,160,110665,1,0,0:0:0:0:
192,160,110753,1,8,0:0:0:0:
192,160,110840,1,0,0:0:0:0:
192,160,111014,1,8,0:0:0:0:
192,160,111102,1,8,0:0:0:0:
192,160,111189,1,0,0:0:0:0:
192,160,111276,1,8,0:0:0:0:
192,160,111363,1,0,0:0:0:0:
192,160,111537,1,8,0:0:0:0:
192,160,111625,1,8,0:0:0:0:
192,160,111712,1,0,0:0:0:0:
192,160,111799,1,8,0:0:0:0:
192,160,111886,1,0,0:0:0:0:
128,128,112061,1,8,0:0:0:0:
128,128,112235,1,0,0:0:0:0:
128,128,112322,1,0,0:0:0:0:
128,128,112409,1,8,0:0:0:0:
128,128,112584,1,8,0:0:0:0:
128,128,112758,1,0,0:0:0:0:
128,160,112845,1,0,0:0:0:0:
128,160,112932,1,8,0:0:0:0:
128,160,113020,1,0,0:0:0:0:
128,160,113107,1,8,0:0:0:0:
128,160,113194,1,8,0:0:0:0:
128,160,113281,1,0,0:0:0:0:
128,160,113368,1,0,0:0:0:0:
128,160,113456,1,8,0:0:0:0:
128,160,113543,1,0,0:0:0:0:
128,160,113630,1,8,0:0:0:0:
128,160,113717,1,8,0:0:0:0:
128,160,113804,1,0,0:0:0:0:
128,160,113892,1,0,0:0:0:0:
128,160,113979,1,8,0:0:0:0:
128,160,114066,1,0,0:0:0:0:
128,160,114153,1,8,0:0:0:0:
128,160,114240,1,8,0:0:0:0:
128,160,114328,1,0,0:0:0:0:
128,160,114415,1,0,0:0:0:0:
128,160,114502,1,8,0:0:0:0:
128,160,114589,1,0,0:0:0:0:
128,160,114676,1,8,0:0:0:0:
128,160,114764,1,8,0:0:0:0:
128,160,114851,1,0,0:0:0:0:
128,96,115025,1,0,0:0:0:0:
128,96,115113,1,0,0:0:0:0:
96,96,115200,1,8,0:0:0:0:
96,96,115374,1,0,0:0:0:0:
128,128,115549,1,0,0:0:0:0:
128,160,115636,1,8,0:0:0:0:
128,160,115723,1,8,0:0:0:0:
128,160,115811,1,0,0:0:0:0:
128,160,115898,1,8,0:0:0:0:
128,160,115985,1,0,0:0:0:0:
128,160,116072,1,0,0:0:0:0:
128,160,116159,1,8,0:0:0:0:
128,160,116247,1,8,0:0:0:0:
128,160,116334,1,0,0:0:0:0:
128,160,116421,1,8,0:0:0:0:
128,160,116508,1,0,0:0:0:0:
128,160,116595,1,0,0:0:0:0:
128,160,116683,1,8,0:0:0:0:
128,160,116770,1,8,0:0:0:0:
128,160,116857,1,0,0:0:0:0:
128,160,116944,1,8,0:0:0:0:
128,160,117031,1,0,0:0:0:0:
128,160,117119,1,0,0:0:0:0:
128,160,117206,1,8,0:0:0:0:
128,160,117293,1,8,0:0:0:0:
128,160,117380,1,0,0:0:0:0:
128,160,117467,1,8,0:0:0:0:
128,160,117555,1,0,0:0:0:0:
128,160,117642,1,0,0:0:0:0:
128,96,117816,1,0,0:0:0:0:
128,96,117904,1,0,0:0:0:0:
96,96,117991,1,8,0:0:0:0:
96,96,118165,1,8,0:0:0:0:
224,160,118339,1,8,0:0:0:0:
224,160,118426,1,0,0:0:0:0:
224,160,118514,1,8,0:0:0:0:
224,160,118601,1,8,0:0:0:0:
224,160,118688,1,0,0:0:0:0:
224,160,118775,1,0,0:0:0:0:
224,160,118863,1,8,0:0:0:0:
224,160,118950,1,0,0:0:0:0:
224,160,119037,1,8,0:0:0:0:
224,160,119124,1,8,0:0:0:0:
224,160,119211,1,0,0:0:0:0:
224,160,119299,1,0,0:0:0:0:
224,160,119386,1,8,0:0:0:0:
224,160,119473,1,0,0:0:0:0:
224,160,119560,1,8,0:0:0:0:
224,128,119647,1,8,0:0:0:0:
224,128,119735,1,0,0:0:0:0:
224,128,119822,1,0,0:0:0:0:
224,128,119909,1,8,0:0:0:0:
224,128,119996,1,0,0:0:0:0:
224,128,120083,1,8,0:0:0:0:
160,160,120171,1,8,0:0:0:0:
160,160,120258,1,0,0:0:0:0:
160,160,120345,1,0,0:0:0:0:
160,160,120432,1,8,0:0:0:0:
160,160,120607,1,0,0:0:0:0:
160,160,120694,1,0,0:0:0:0:
160,160,120781,1,8,0:0:0:0:
160,160,120956,1,0,0:0:0:0:
160,160,121130,1,8,0:0:0:0:
192,160,121217,1,0,0:0:0:0:
192,160,121304,1,8,0:0:0:0:
192,160,121392,1,8,0:0:0:0:
192,160,121479,1,0,0:0:0:0:
192,160,121566,1,0,0:0:0:0:
192,160,121653,1,8,0:0:0:0:
192,160,121740,1,0,0:0:0:0:
192,160,121828,1,8,0:0:0:0:
192,160,121915,1,8,0:0:0:0:
192,160,122002,1,0,0:0:0:0:
192,160,122089,1,0,0:0:0:0:
192,160,122176,1,8,0:0:0:0:
192,160,122264,1,0,0:0:0:0:
192,160,122351,1,8,0:0:0:0:
192,160,122438,1,8,0:0:0:0:
192,160,122525,1,0,0:0:0:0:
192,160,122613,1,0,0:0:0:0:
192,160,122700,1,8,0:0:0:0:
192,160,122787,1,0,0:0:0:0:
192,160,122874,1,8,0:0:0:0:
192,160,122961,1,0,0:0:0:0:
192,160,123049,1,8,0:0:0:0:
192,160,123136,1,0,0:0:0:0:
192,160,123223,1,8,0:0:0:0:
192,160,123310,1,0,0:0:0:0:
192,160,123397,1,8,0:0:0:0:
192,160,123485,1,0,0:0:0:0:
192,160,123572,1,8,0:0:0:0:
192,160,123659,1,0,0:0:0:0:
192,160,123746,1,8,0:0:0:0:
192,128,123833,1,0,0:0:0:0:
160,128,123921,1,8,0:0:0:0:
160,128,125332,1,4,0:0:0:0:
160,128,125680,1,4,0:0:0:0:
160,128,126029,1,4,0:0:0:0:
160,160,126378,1,12,0:0:0:0:
160,160,126727,1,0,0:0:0:0:
224,160,126988,1,8,0:0:0:0:
160,160,127076,1,8,0:0:0:0:
160,160,127250,1,8,0:0:0:0:
160,160,127337,1,8,0:0:0:0:
160,160,127425,1,0,0:0:0:0:
160,160,127686,1,8,0:0:0:0:
160,160,127773,1,8,0:0:0:0:
160,160,127948,1,8,0:0:0:0:
160,160,128035,1,8,0:0:0:0:
160,160,128122,1,0,0:0:0:0:
160,160,128297,1,8,0:0:0:0:
160,160,128384,1,8,0:0:0:0:
160,160,128471,1,0,0:0:0:0:
160,160,128645,1,8,0:0:0:0:
160,160,128733,1,8,0:0:0:0:
160,160,128820,1,0,0:0:0:0:
256,96,128878,1,0,0:0:0:0:
256,96,128936,1,0,0:0:0:0:
256,96,128994,1,8,0:0:0:0:
288,64,129082,1,8,0:0:0:0:
288,64,129169,1,0,0:0:0:0:
288,64,129256,1,0,0:0:0:0:
288,64,129343,1,0,0:0:0:0:
384,96,129401,1,0,0:0:0:0:
384,96,129459,1,0,0:0:0:0:
288,64,129518,1,8,0:0:0:0:
256,96,129692,1,0,0:0:0:0:
256,96,129866,1,8,0:0:0:0:
256,96,129954,1,8,0:0:0:0:
256,96,130041,1,0,0:0:0:0:
256,96,130215,1,8,0:0:0:0:
160,64,130390,1,0,0:0:0:0:
160,64,130564,1,8,0:0:0:0:
160,64,130651,1,8,0:0:0:0:
160,64,130738,1,0,0:0:0:0:
192,64,130826,1,0,0:0:0:0:
160,64,130913,1,8,0:0:0:0:
160,64,131087,1,8,0:0:0:0:
160,64,131175,1,0,0:0:0:0:
160,64,131262,1,8,0:0:0:0:
160,64,131436,1,0,0:0:0:0:
160,64,131611,1,8,0:0:0:0:
160,64,131785,1,0,0:0:0:0:
160,128,131872,1,0,0:0:0:0:
160,64,131959,1,8,0:0:0:0:
160,64,132047,1,8,0:0:0:0:
160,64,132134,1,0,0:0:0:0:
160,64,132221,1,0,0:0:0:0:
160,64,132308,1,8,0:0:0:0:
160,128,132483,1,0,0:0:0:0:
160,128,132570,1,0,0:0:0:0:
160,128,132657,1,8,0:0:0:0:
160,128,132744,1,0,0:0:0:0:
160,128,132919,1,0,0:0:0:0:
160,128,133006,1,8,0:0:0:0:
128,128,133180,1,8,0:0:0:0:
160,128,133355,1,8,0:0:0:0:
160,128,133442,1,8,0:0:0:0:
160,128,133529,1,0,0:0:0:0:
160,128,133616,1,0,0:0:0:0:
160,128,133704,1,8,0:0:0:0:
224,96,133791,1,8,0:0:0:0:
224,96,133878,1,0,0:0:0:0:
224,96,133965,1,8,0:0:0:0:
224,96,134052,1,8,0:0:0:0:
224,96,134140,1,0,0:0:0:0:
288,128,134227,1,0,0:0:0:0:
192,96,134401,1,0,0:0:0:0:
192,96,134488,1,8,0:0:0:0:
192,96,134576,1,0,0:0:0:0:
192,96,134663,1,0,0:0:0:0:
192,96,134750,1,8,0:0:0:0:
256,64,134808,1,8,0:0:0:0:
256,64,134866,1,8,0:0:0:0:
256,64,134925,1,0,0:0:0:0:
320,64,135012,1,0,0:0:0:0:
320,64,135099,1,8,0:0:0:0:
192,96,135273,1,0,0:0:0:0:
192,96,135361,1,0,0:0:0:0:
192,96,135448,1,8,0:0:0:0:
192,96,135622,1,0,0:0:0:0:
160,96,135797,1,0,0:0:0:0:
160,96,135884,1,0,0:0:0:0:
160,96,135971,1,8,0:0:0:0:
160,96,136058,1,8,0:0:0:0:
160,96,136145,1,0,0:0:0:0:
160,96,136233,1,8,0:0:0:0:
160,96,136320,1,0,0:0:0:0:
160,96,136407,1,0,0:0:0:0:
160,96,136494,1,8,0:0:0:0:
160,96,136669,1,0,0:0:0:0:
160,96,136843,1,8,0:0:0:0:
160,96,137018,1,8,0:0:0:0:
160,64,137192,1,0,0:0:0:0:
160,64,137279,1,8,0:0:0:0:
160,64,137454,1,8,0:0:0:0:
160,64,137541,1,0,0:0:0:0:
160,64,137715,1,8,0:0:0:0:
160,64,137890,1,0,0:0:0:0:
192,64,137977,1,8,0:0:0:0:
192,64,138064,1,0,0:0:0:0:
192,64,138151,1,0,0:0:0:0:
192,64,138238,1,8,0:0:0:0:
192,64,138326,1,8,0:0:0:0:
192,64,138413,1,0,0:0:0:0:
192,64,138500,1,0,0:0:0:0:
192,64,138587,1,8,0:0:0:0:
160,64,138675,1,0,0:0:0:0:
160,64,138762,1,0,0:0:0:0:
160,64,138849,1,0,0:0:0:0:
160,64,138936,1,8,0:0:0:0:
160,64,139023,1,8,0:0:0:0:
160,64,139111,1,0,0:0:0:0:
160,64,139198,1,0,0:0:0:0:
160,64,139285,1,8,0:0:0:0:
160,96,140506,1,4,0:0:0:0:
160,128,140680,1,8,0:0:0:0:
160,128,140768,1,8,0:0:0:0:
160,128,140942,1,8,0:0:0:0:
160,128,141029,1,8,0:0:0:0:
160,128,141204,1,8,0:0:0:0:
160,128,141291,1,8,0:0:0:0:
160,128,141465,1,8,0:0:0:0:
160,128,141552,1,8,0:0:0:0:
160,128,141727,1,8,0:0:0:0:
160,128,141901,1,8,0:0:0:0:
128,128,142076,1,12,0:0:0:0:
192,96,142425,1,0,0:0:0:0:
192,96,142512,1,0,0:0:0:0:
192,96,142599,1,0,0:0:0:0:
192,96,142686,1,0,0:0:0:0:
192,160,142773,1,8,0:0:0:0:
