osu file format v14

[General]
AudioFilename: audio.mp3
AudioLeadIn: 0
PreviewTime: 79277
Countdown: 0
SampleSet: Soft
StackLeniency: 0.3
Mode: 0
LetterboxInBreaks: 0
WidescreenStoryboard: 1

[Editor]
Bookmarks: 771,6149,6582,17744,26215,28469,28642,28816,28989,45035,47826,50616,53407,56198,58989,61779,64570,81370,82067,84160,84858,87649,90439,91835,93230,94625,96021,101602,104393,107183,109974,112765,115381,115556,118172,118346,119393,121137,123230,126733,129531,140693,142437
DistanceSpacing: 0.8
BeatDivisor: 4
GridSize: 32
TimelineZoom: 1.900006

[Metadata]
Title:Alice in Misanthrope -Ensei Alice-
TitleUnicode:Alice in Misanthrope -厭世アリス-
Artist:LeaF
ArtistUnicode:LeaF
Creator:Murasaki Nova
Version:Misanthropy
Source:BMS
Tags:BOFU2016 - Legendary Again 想起 GOTHIC CHOIR セシル◇タイト Fouriose 孤高クローバー
BeatmapID:1245830
BeatmapSetID:588475

[Difficulty]
HPDrainRate:6.5
CircleSize:4
OverallDifficulty:9
ApproachRate:9.5
SliderMultiplier:1.7
SliderTickRate:1

[Events]
//Background and Video events
0,0,"BG.jpg",0,0
//Break Periods
2,68258,73156
//Storyboard Layer 0 (Background)
//Storyboard Layer 1 (Fail)
//Storyboard Layer 2 (Pass)
//Storyboard Layer 3 (Foreground)
//Storyboard Sound Samples

[TimingPoints]
771,379.746835443038,4,2,0,35,1,0
771,-133.333333333333,4,2,0,35,0,0
3808,346.820809248555,4,2,0,80,1,0
3808,-133.333333333333,4,2,0,80,0,0
5195,-100,4,2,0,80,0,0
6149,-133.333333333333,4,2,0,80,0,0
6582,348.837209302326,4,2,0,80,1,0
6582,-76.9230769230769,4,2,0,80,0,0
16349,-62.5,4,2,0,80,0,0
17744,359.281437125748,4,2,0,35,1,0
17744,-133.333333333333,4,2,0,35,0,0
20617,346.820809248555,4,2,0,35,1,0
20617,-133.333333333333,4,2,0,35,0,0
23391,-100,4,2,0,35,0,0
24778,359.281437125748,4,2,0,35,1,0
26215,346.820809248555,4,2,0,60,1,0
26215,-62.5,4,2,0,60,0,0
28469,-58.8235294117647,4,2,0,50,0,0
28642,-55.5555555555556,4,2,0,60,0,0
28816,-52.6315789473684,4,2,0,70,0,0
28989,348.837209302326,4,2,0,80,1,0
28989,-76.9230769230769,4,2,0,80,0,0
34570,-76.9230769230769,4,2,0,80,0,0
37361,-62.5,4,2,0,80,0,0
45733,-76.9230769230769,4,2,0,70,0,0
48523,-62.5,4,2,0,70,0,0
51314,-76.9230769230769,4,2,0,70,0,0
54105,-62.5,4,2,0,70,0,0
56895,-76.9230769230769,4,2,0,70,0,0
59686,-62.5,4,2,0,70,0,0
62477,-76.9230769230769,4,2,0,70,0,0
65268,-62.5,4,2,0,70,0,0
68058,359.281437125748,4,2,0,35,1,0
69495,355.029585798817,4,2,0,35,1,0
70915,348.837209302326,4,2,0,35,1,0
72310,342.857142857143,4,2,0,35,1,0
73681,346.820809248555,4,2,0,60,1,0
73681,-100,4,2,0,60,0,0
76455,352.941176470588,4,2,0,60,1,0
76455,-90.9090909090909,4,2,0,60,0,0
77866,-76.9230769230769,4,2,0,60,0,0
79277,348.837209302326,4,2,0,80,1,1
79277,-62.5,4,2,0,80,0,1
98811,-62.5,4,2,0,80,0,0
99509,-100,4,2,0,80,0,0
101602,-76.9230769230769,4,2,0,80,0,0
112765,-62.5,4,2,0,90,0,1
118346,-58.8235294117647,4,2,0,100,0,1
123927,352.941176470588,4,2,0,80,1,0
125338,348.837209302326,4,2,0,80,1,0
125338,-62.5,4,2,0,80,0,0
126733,349.854227405248,4,2,0,60,1,0
129531,348.837209302326,4,2,0,80,1,0
129531,-76.9230769230769,4,2,0,80,0,0

[Colours]
Combo1 : 247,136,196
Combo2 : 197,37,235
Combo3 : 128,128,255
Combo4 : 24,184,231

[HitObjects]
128,152,771,6,0,L|118:234,1,63.7500024318696
165,117,1150,2,0,L|153:202,1,63.7500024318696
205,85,1530,1,0,0:0:0:0:
319,301,1910,2,0,L|305:238,1,63.7500024318696
297,346,2289,2,0,L|282:281,1,63.7500024318696
182,169,2669,5,0,0:0:0:0:
140,142,2859,1,0,0:0:0:0:
100,112,3049,2,0,L|118:173,1,63.7500024318696
68,330,3429,1,0,0:0:0:0:
83,284,3619,1,0,0:0:0:0:
118,173,3808,6,0,L|141:252,1,63.7500024318696,4|0,3:0|0:0,0:0:0:0:
160,238,4068,1,0,0:0:0:0:
185,241,4154,1,0,0:0:0:0:
210,244,4241,1,0,0:0:0:0:
235,248,4328,1,0,0:0:0:0:
260,252,4414,1,8,3:0:0:0:
347,257,4501,5,4,3:0:0:0:
339,232,4588,1,0,0:0:0:0:
332,207,4675,1,8,3:0:0:0:
322,182,4761,1,0,0:0:0:0:
315,157,4848,1,4,3:0:0:0:
307,132,4935,2,0,L|252:203,1,63.7500024318696,8|0,3:0|0:0,0:0:0:0:
185,241,5195,6,0,B|224:255|224:255|265:295,1,85,4|0,3:0|0:0,0:0:0:0:
149,261,5542,6,0,B|188:275|188:275|229:315,1,85,4|0,3:0|0:0,0:0:0:0:
115,281,5888,6,0,B|154:295|154:295|195:335,1,85,4|0,3:0|0:0,0:0:0:0:
328,299,6149,2,0,L|406:299,1,63.7500024318696
429,173,6409,2,0,L|368:173,1,31.8750012159348
227,172,6582,6,0,L|152:50,1,110.499994941712,4|0,3:0|0:0,0:0:0:0:
149,261,6930,1,4,3:0:0:0:
337,221,7105,1,0,0:0:0:0:
113,184,7279,1,4,3:0:0:0:
113,184,7366,1,0,0:0:0:0:
113,184,7454,1,0,0:0:0:0:
263,319,7628,1,8,3:0:0:0:
169,77,7802,1,4,3:0:0:0:
116,335,7977,6,0,L|213:222,1,110.499994941712,4|0,3:0|0:0,0:0:0:0:
113,184,8238,2,0,L|63:245,1,55.2499974708558,0|4,0:0|3:0,0:0:0:0:
227,361,8413,2,0,L|277:303,1,55.2499974708558
358,109,8675,2,0,B|302:119|302:119|263:159,1,110.499994941712,4|8,3:0|3:0,0:0:0:0:
218,218,8936,1,4,3:0:0:0:
188,251,9023,1,4,3:0:0:0:
260,40,9198,1,8,3:0:0:0:
308,285,9372,6,0,L|291:210,1,55.2499974708558,4|0,3:0|0:0,0:0:0:0:
211,64,9547,2,0,L|174:130,1,55.2499974708558
288,333,9721,2,0,L|268:253,1,55.2499974708558,4|0,3:0|0:0,0:0:0:0:
162,88,9895,2,0,L|123:160,1,55.2499974708558
155,353,10070,2,0,B|181:300|181:300|163:220,1,110.499994941712,4|8,3:0|3:0,0:0:0:0:
148,179,10332,1,4,3:0:0:0:
136,136,10419,1,4,3:0:0:0:
290,291,10593,5,8,3:0:0:0:
309,252,10680,1,8,3:0:0:0:
327,212,10768,2,0,B|258:240|258:240|228:233|228:233|165:251,1,165.749992412568,4|0,3:0|0:0,0:0:0:0:
251,150,11116,2,0,B|262:95|262:95|238:41,1,110.499994941712,4|0,3:0|0:0,0:0:0:0:
123,170,11465,5,4,3:0:0:0:
161,187,11552,1,4,3:0:0:0:
202,205,11640,1,8,3:0:0:0:
243,223,11727,1,8,3:0:0:0:
283,240,11814,1,4,3:0:0:0:
197,26,11988,1,8,3:0:0:0:
172,228,12163,6,0,L|274:273,1,110.499994941712,4|0,3:0|0:0,0:0:0:0:
504,351,12512,1,4,3:0:0:0:
429,217,12687,1,0,0:0:0:0:
308,374,12861,1,4,3:0:0:0:
512,262,13035,1,0,0:0:0:0:
343,170,13209,1,8,3:0:0:0:
406,363,13384,1,4,3:0:0:0:
297,33,13558,6,0,L|234:168,1,110.499994941712,4|0,3:0|0:0,0:0:0:0:
343,170,13820,2,0,L|383:87,1,55.2499974708558,0|4,0:0|3:0,0:0:0:0:
182,42,13994,2,0,L|150:110,1,55.2499974708558
126,316,14256,2,0,B|177:290|177:290|203:241,1,110.499994941712,4|8,3:0|3:0,0:0:0:0:
231,173,14518,1,4,3:0:0:0:
250,133,14605,1,4,3:0:0:0:
91,201,14779,1,8,3:0:0:0:
295,344,14954,6,0,L|420:290,1,110.499994941712,4|0,3:0|0:0,0:0:0:0:
240,201,15302,1,4,3:0:0:0:
187,375,15477,1,0,0:0:0:0:
352,200,15651,1,4,3:0:0:0:
133,203,15826,1,8,3:0:0:0:
133,247,15913,1,4,3:0:0:0:
134,291,16000,1,4,3:0:0:0:
44,90,16175,5,8,3:0:0:0:
47,134,16262,1,8,3:0:0:0:
50,178,16349,2,0,B|82:139|82:139|117:124|117:124|167:63,1,136,4|0,3:0|0:0,0:0:0:0:
324,131,16698,2,0,L|120:208,1,204,4|0,3:0|0:0,0:0:0:0:
300,172,17047,2,0,L|173:220,1,136,4|0,3:0|0:0,0:0:0:0:
201,12,17395,1,4,1:0:0:0:
108,123,17744,6,0,L|191:90,1,63.7500024318696,4|0,3:0|0:0,0:0:0:0:
285,53,18103,1,2,3:0:0:0:
285,53,18462,6,0,L|323:136,1,63.7500024318696,2|0,0:0|0:0,0:0:0:0:
270,97,18821,2,0,L|304:166,1,63.7500024318696,2|0,3:0|0:0,0:0:0:0:
223,276,19181,6,0,L|244:196,1,63.7500024318696,2|0,0:0|0:0,0:0:0:0:
184,303,19540,2,0,L|206:218,1,63.7500024318696,2|0,3:0|0:0,0:0:0:0:
66,238,19899,2,0,L|139:196,1,63.7500024318696,2|0,0:0|0:0,0:0:0:0:
234,142,20258,1,2,3:0:0:0:
223,276,20438,1,2,0:0:0:0:
320,68,20618,1,2,0:0:0:0:
320,68,20963,6,0,L|236:40,1,63.7500024318696,2|0,3:0|0:0,0:0:0:0:
172,157,21310,2,0,L|259:136,1,63.7500024318696,2|0,0:0|0:0,0:0:0:0:
147,195,21657,2,0,L|222:177,1,63.7500024318696,2|0,3:0|0:0,0:0:0:0:
250,311,22004,2,0,L|276:221,1,63.7500024318696,2|0,0:0|0:0,0:0:0:0:
405,78,22351,6,0,L|481:35,2,63.7500024318696,2|2|2,3:0|3:0|3:0,0:0:0:0:
329,178,22871,1,2,0:0:0:0:
295,266,23044,1,2,0:0:0:0:
264,354,23218,1,2,0:0:0:0:
290,195,23391,6,0,L|176:243,1,85,2|2,3:0|0:0,0:0:0:0:
180,242,23651,1,2,0:0:0:0:
148,255,23738,1,2,0:0:0:0:
4,238,23911,5,2,3:0:0:0:
36,225,23998,1,2,3:0:0:0:
67,210,24085,1,2,3:0:0:0:
142,103,24258,1,2,0:0:0:0:
238,94,24432,1,2,0:0:0:0:
332,86,24605,1,2,0:0:0:0:
172,132,24778,6,0,L|235:186,1,85,2|2,3:0|0:0,0:0:0:0:
260,205,25047,1,2,0:0:0:0:
285,224,25137,1,2,0:0:0:0:
311,365,25316,5,2,3:0:0:0:
286,346,25406,1,2,3:0:0:0:
262,328,25496,1,2,3:0:0:0:
192,205,25676,1,2,0:0:0:0:
230,111,25855,1,2,0:0:0:0:
267,23,26035,1,2,0:0:0:0:
231,198,26215,6,0,B|289:164|289:164|316:100|316:100|424:38,1,204,4|0,3:0|0:0,0:0:0:0:
512,135,26561,2,0,B|458:120|458:120|385:162,1,136,2|0,3:0|0:0,0:0:0:0:
148,328,26908,6,0,B|211:348|211:348|343:270,1,204,4|0,3:0|0:0,0:0:0:0:
498,341,27255,2,0,B|434:315|434:315|358:362,1,136,2|0,3:0|0:0,0:0:0:0:
282,82,27602,6,0,B|252:219|252:219|183:262,1,204,4|0,3:0|0:0,0:0:0:0:
144,34,27949,2,0,B|179:120|179:120|165:186,1,136,4|2,3:0|3:0,0:0:0:0:
95,127,28209,1,2,3:0:0:0:
50,131,28295,1,4,3:0:0:0:
126,261,28469,6,0,B|206:252,1,72.2500013780594,8|0,3:0|0:0,0:0:0:0:
208,330,28642,6,0,B|278:289,1,76.4999976654053,4|0,3:0|0:0,0:0:0:0:
315,357,28816,6,0,B|374:279,1,80.7499978437424,8|0,3:0|0:0,0:0:0:0:
461,95,28989,6,0,B|414:120|414:120|332:95,1,110.499994941712,4|2,3:0|3:0,0:0:0:0:
286,74,29250,1,2,3:0:0:0:
245,60,29337,1,2,3:0:0:0:
341,254,29512,1,2,3:0:0:0:
364,293,29599,1,2,3:0:0:0:
387,331,29686,1,2,3:0:0:0:
319,213,29861,2,0,L|291:164,1,55.2499974708558,8|0,3:0|0:0,0:0:0:0:
194,39,30035,2,0,L|248:61,1,55.2499974708558,4|0,3:0|0:0,0:0:0:0:
361,223,30209,2,0,L|333:174,1,55.2499974708558,8|0,3:0|0:0,0:0:0:0:
111,50,30384,6,0,B|128:100|128:100|208:135,1,110.499994941712,4|2,3:0|3:0,0:0:0:0:
251,150,30645,1,2,3:0:0:0:
292,165,30733,1,2,3:0:0:0:
95,263,30907,1,2,3:0:0:0:
53,283,30994,1,2,3:0:0:0:
14,302,31082,1,2,3:0:0:0:
138,242,31256,2,0,L|192:215,1,55.2499974708558,8|0,3:0|0:0,0:0:0:0:
347,166,31430,2,0,L|290:165,1,55.2499974708558,4|0,3:0|0:0,0:0:0:0:
77,236,31605,2,0,L|149:201,1,55.2499974708558,8|0,3:0|0:0,0:0:0:0:
371,71,31779,6,0,B|254:68|254:68|191:7,1,165.749992412568,4|0,3:0|0:0,0:0:0:0:
35,82,32128,2,0,B|150:97|150:97|199:144,1,165.749992412568,2|0,3:0|0:0,0:0:0:0:
362,342,32477,6,0,B|311:342|311:342|225:250,1,165.749992412568,4|0,3:0|2:0,2:0:0:0:
41,258,32826,2,0,B|91:258|91:258|171:343,1,165.749992412568,2|0,3:0|0:0,0:0:0:0:
148,160,33175,6,0,B|103:110|103:110|103:-20,1,165.749992412568,4|0,3:0|0:0,0:0:0:0:
233,142,33523,1,4,3:0:0:0:
63,181,33698,1,8,3:0:0:0:
103,11,33872,1,4,3:0:0:0:
304,67,34047,2,0,L|333:113,1,55.2499974708558,8|0,3:0|0:0,0:0:0:0:
131,114,34221,2,0,L|161:67,1,55.2499974708558,4|0,3:0|0:0,0:0:0:0:
262,243,34395,2,0,L|198:243,1,55.2499974708558,8|0,3:0|0:0,0:0:0:0:
401,49,34570,6,0,B|427:98|427:98|417:157,1,110.499994941712,4|2,3:0|3:0,0:0:0:0:
399,227,34832,1,2,3:0:0:0:
389,268,34919,1,2,3:0:0:0:
270,76,35093,1,2,3:0:0:0:
250,38,35180,1,2,3:0:0:0:
230,0,35268,1,2,3:0:0:0:
291,116,35442,2,0,L|317:165,1,55.2499974708558,8|0,3:0|0:0,0:0:0:0:
440,290,35616,2,0,L|386:266,1,55.2499974708558,4|0,3:0|0:0,0:0:0:0:
247,105,35790,2,0,L|273:154,1,55.2499974708558,8|0,3:0|0:0,0:0:0:0:
362,353,35965,6,0,B|314:325|314:325|293:243,1,110.499994941712,4|2,3:0|3:0,0:0:0:0:
283,195,36226,1,2,3:0:0:0:
273,154,36313,1,2,3:0:0:0:
102,292,36488,1,2,3:0:0:0:
66,319,36575,1,2,3:0:0:0:
30,344,36662,1,2,3:0:0:0:
139,266,36838,2,0,L|184:232,1,55.2499974708558,8|0,3:0|0:0,0:0:0:0:
288,101,37011,2,0,L|273:155,1,55.2499974708558,4|0,3:0|0:0,0:0:0:0:
131,308,37186,2,0,L|176:274,1,55.2499974708558,8|0,3:0|0:0,0:0:0:0:
256,66,37361,6,0,B|289:3|289:3|324:127,1,204,4|0,3:0|0:0,0:0:0:0:
482,236,37709,2,0,B|447:298|447:298|410:170,1,204,2|0,3:0|0:0,0:0:0:0:
256,66,38058,6,0,B|222:3|222:3|187:127,1,204,4|0,3:0|0:0,0:0:0:0:
30,236,38407,2,0,B|64:298|64:298|101:170,1,204,2|0,3:0|0:0,0:0:0:0:
300,105,38756,6,0,B|317:64|317:64|298:22|298:22|256:4|256:4|213:22|213:22|195:64|195:64|214:114,1,272,4|0,3:0|0:0,0:0:0:0:
368,308,39279,5,2,3:0:0:0:
334,265,39366,1,2,3:0:0:0:
302,222,39454,1,2,3:0:0:0:
204,85,39628,1,8,3:0:0:0:
119,220,39802,1,4,3:0:0:0:
322,208,39977,1,8,3:0:0:0:
196,64,40151,6,0,B|190:129|190:129|220:185|220:185|213:267,1,204,4|0,3:0|0:0,0:0:0:0:
402,383,40500,2,0,B|316:267|316:267|323:194,1,204,2|0,3:0|0:0,0:0:0:0:
110,359,40849,2,0,B|214:260|214:260|220:187,1,204,4|0,3:0|0:0,0:0:0:0:
454,96,41198,2,0,L|442:242,1,136,2|0,3:0|0:0,0:0:0:0:
135,158,41547,6,0,B|266:223|266:223|347:200,1,204,4|0,3:0|0:0,0:0:0:0:
489,356,41895,2,0,B|360:281|360:281|306:296,1,204,2|0,3:0|0:0,0:0:0:0:
101,312,42244,2,0,B|164:289|164:289|210:239|210:239|283:218,1,204,4|0,3:0|0:0,0:0:0:0:
0,213,42593,2,0,B|62:236|62:236|130:212,1,136,2|0,3:0|0:0,0:0:0:0:
396,53,42942,6,0,B|422:43|422:43|459:55|459:55|470:93|470:93|453:127|453:127|420:135|420:135|374:117,1,204,4|0,3:0|0:0,0:0:0:0:
421,90,43291,2,0,B|420:141|420:141|436:175|436:175|434:266,1,136,4|0,3:0|0:0,0:0:0:0:
163,312,43640,6,0,B|163:242|163:242|64:112,1,204,4|0,3:0|0:0,0:0:0:0:
318,312,43989,2,0,B|318:243|318:243|372:169,1,136,4|0,3:0|0:0,0:0:0:0:
241,230,44337,5,4,3:0:0:0:
420,50,44512,1,4,3:0:0:0:
241,272,44686,1,4,3:0:0:0:
421,90,44861,1,4,3:0:0:0:
241,312,45035,2,0,L|330:184,1,136,4|4,3:0|3:0,0:0:0:0:
369,144,45297,5,4,3:0:0:0:
300,127,45384,1,8,3:0:0:0:
231,109,45471,1,8,3:0:0:0:
162,91,45558,1,8,3:0:0:0:
93,74,45645,1,4,3:0:0:0:
24,56,45733,6,0,P|43:83|117:183,1,110.499994941712,4|0,3:0|0:0,0:0:0:0:
319,200,46082,5,4,3:0:0:0:
437,364,46256,1,0,0:0:0:0:
331,160,46430,5,4,3:0:0:0:
195,323,46605,1,0,0:0:0:0:
290,167,46779,5,4,3:0:0:0:
437,321,46954,1,0,0:0:0:0:
309,130,47128,5,4,3:0:0:0:
239,331,47302,1,0,0:0:0:0:
265,136,47477,5,4,3:0:0:0:
437,277,47651,1,0,0:0:0:0:
286,102,47826,1,2,3:0:0:0:
298,84,47913,1,2,3:0:0:0:
310,66,48000,1,2,3:0:0:0:
321,49,48087,1,2,3:0:0:0:
351,1,48175,5,4,3:0:0:0:
379,50,48262,1,4,3:0:0:0:
405,100,48349,1,4,3:0:0:0:
432,149,48436,1,4,3:0:0:0:
457,199,48523,6,0,B|402:192|402:192|328:47,1,204,4|0,3:0|0:0,0:0:0:0:
112,29,48872,2,0,B|167:36|167:36|234:168,1,204,2|0,3:0|0:0,0:0:0:0:
405,321,49221,6,0,B|340:310|340:310|294:260|294:260|208:245,1,204,4|0,3:0|0:0,0:0:0:0:
0,265,49570,2,0,B|65:276|65:276|111:326|111:326|197:341,1,204,2|0,3:0|0:0,0:0:0:0:
414,190,49919,6,0,B|372:146|372:146|386:-22,1,204,4|0,3:0|0:0,0:0:0:0:
234,168,50268,2,0,B|273:135|273:135|280:51,1,136,4|0,3:0|0:0,0:0:0:0:
462,169,50616,1,2,3:0:0:0:
458,225,50704,1,2,3:0:0:0:
455,282,50791,1,2,3:0:0:0:
450,337,50878,1,2,3:0:0:0:
494,365,50965,5,4,3:0:0:0:
497,312,51052,1,4,3:0:0:0:
498,257,51140,1,4,3:0:0:0:
502,201,51227,1,4,3:0:0:0:
503,148,51314,6,0,L|374:141,1,110.499994941712,4|0,3:0|0:0,0:0:0:0:
191,183,51663,5,4,3:0:0:0:
290,373,51837,1,0,0:0:0:0:
152,175,52012,5,4,3:0:0:0:
352,248,52186,1,0,0:0:0:0:
178,145,52361,5,4,3:0:0:0:
251,344,52535,1,0,0:0:0:0:
138,143,52709,5,4,3:0:0:0:
88,350,52884,1,0,0:0:0:0:
164,107,53058,5,4,3:0:0:0:
216,315,53233,1,0,0:0:0:0:
125,115,53407,1,2,3:0:0:0:
101,107,53494,1,2,3:0:0:0:
78,101,53582,1,2,3:0:0:0:
55,94,53669,1,2,3:0:0:0:
2,81,53756,5,4,3:0:0:0:
2,136,53843,1,4,3:0:0:0:
2,191,53930,1,4,3:0:0:0:
2,245,54018,1,4,3:0:0:0:
4,299,54105,6,0,B|51:267|51:267|51:103,1,204,4|0,3:0|0:0,0:0:0:0:
249,7,54454,2,0,B|202:39|202:39|202:203,1,204,2|0,3:0|0:0,0:0:0:0:
57,358,54802,2,0,B|112:321|112:321|179:326|179:326|252:279,1,204,4|0,3:0|2:0,2:0:0:0:
384,117,55151,2,0,B|328:153|328:153|261:148|261:148|188:195,1,204,2|0,3:0|2:0,2:0:0:0:
512,197,55500,6,0,B|462:231|462:231|444:373,1,204,4|0,3:0|0:0,0:0:0:0:
288,226,55849,2,0,B|319:266|319:266|308:350,1,136,4|0,3:0|0:0,0:0:0:0:
316,32,56198,1,2,3:0:0:0:
349,75,56285,1,2,3:0:0:0:
382,118,56372,1,2,3:0:0:0:
414,160,56459,1,2,3:0:0:0:
390,209,56547,5,4,3:0:0:0:
358,167,56634,1,4,3:0:0:0:
326,124,56721,1,4,3:0:0:0:
291,80,56808,1,4,3:0:0:0:
256,38,56895,6,0,L|154:117,1,110.499994941712,4|0,3:0|0:0,0:0:0:0:
257,264,57244,5,4,3:0:0:0:
451,178,57419,1,0,0:0:0:0:
293,290,57593,5,4,3:0:0:0:
291,80,57768,1,0,0:0:0:0:
252,303,57942,5,4,3:0:0:0:
451,226,58117,1,0,0:0:0:0:
288,326,58290,5,4,3:0:0:0:
318,119,58465,1,0,0:0:0:0:
245,341,58639,5,4,3:0:0:0:
451,274,58813,1,0,0:0:0:0:
287,361,58989,1,2,3:0:0:0:
245,341,59076,1,2,3:0:0:0:
205,323,59163,1,2,3:0:0:0:
164,306,59250,1,2,3:0:0:0:
126,286,59337,5,4,3:0:0:0:
101,219,59425,1,0,0:0:0:0:
77,152,59512,1,4,3:0:0:0:
53,85,59599,1,4,3:0:0:0:
31,17,59686,6,0,B|91:51|91:51|145:214,1,204,4|0,3:0|0:0,0:0:0:0:
358,293,60035,2,0,B|303:277|303:277|252:121,1,204,2|0,3:0|0:0,0:0:0:0:
19,109,60383,2,0,B|39:172|39:172|17:235|17:235|44:317,1,204,4|0,3:0|2:0,2:0:0:0:
287,361,60733,2,0,B|265:293|265:293|287:230|287:230|266:167,1,204,2|0,3:0|2:0,2:0:0:0:
512,212,61082,6,0,B|467:241|467:241|413:404,1,204,4|0,3:0|0:0,0:0:0:0:
367,164,61430,2,0,B|384:214|384:214|357:295,1,136,4|0,3:0|0:0,0:0:0:0:
145,332,61779,5,8,3:0:0:0:
167,264,61866,1,8,3:0:0:0:
190,196,61954,1,8,3:0:0:0:
213,129,62041,1,8,3:0:0:0:
235,61,62128,1,8,3:0:0:0:
108,128,62302,5,8,3:0:0:0:
171,94,62390,1,8,3:0:0:0:
235,61,62477,5,4,3:0:0:0:
45,162,62651,1,0,0:0:0:0:
155,348,62826,5,4,3:0:0:0:
12,187,63000,1,0,0:0:0:0:
189,50,63175,5,4,3:0:0:0:
47,211,63349,1,0,0:0:0:0:
296,205,63523,5,4,3:0:0:0:
143,52,63698,1,0,0:0:0:0:
331,177,63872,5,4,3:0:0:0:
198,350,64047,1,0,0:0:0:0:
294,149,64221,5,4,3:0:0:0:
97,51,64395,1,0,0:0:0:0:
331,177,64570,5,4,3:0:0:0:
368,201,64657,1,8,3:0:0:0:
302,103,64832,1,4,3:0:0:0:
345,100,64919,1,8,3:0:0:0:
245,53,65093,1,4,3:0:0:0:
281,30,65180,1,8,3:0:0:0:
315,5,65268,5,4,3:0:0:0:
156,166,65442,1,4,3:0:0:0:
310,348,65616,1,4,3:0:0:0:
132,187,65791,1,4,3:0:0:0:
310,41,65965,5,4,3:0:0:0:
158,207,66140,1,4,3:0:0:0:
303,380,66314,1,4,3:0:0:0:
131,226,66489,1,4,3:0:0:0:
345,125,66663,5,8,3:0:0:0:
269,379,66837,1,8,3:0:0:0:
455,204,67012,1,8,3:0:0:0:
193,278,67186,1,8,3:0:0:0:
385,303,67361,5,2,3:0:0:0:
356,264,67448,1,2,3:0:0:0:
328,224,67535,1,2,3:0:0:0:
304,186,67622,1,2,3:0:0:0:
274,145,67709,1,8,1:0:0:0:
161,255,67884,5,8,3:0:0:0:
432,236,68058,5,4,0:0:0:0:
403,326,73681,5,4,3:0:0:0:
383,310,74374,5,4,3:0:0:0:
364,295,75068,5,4,3:0:0:0:
183,135,75415,5,4,3:0:0:0:
271,218,75588,1,8,3:0:0:0:
247,40,75761,1,4,3:0:0:0:
379,149,76108,6,0,B|293:113|293:113|262:137,1,127.5,4|0,3:0|0:0,0:0:0:0:
218,227,76455,6,0,B|197:170|197:170|152:53|152:53|293:113|293:113|243:151,1,374.000011413575,4|4,3:0|3:0,0:0:0:0:
134,223,77337,2,0,L|61:265,1,46.7500014266968,2|0,3:0|0:0,0:0:0:0:
48,181,77513,2,0,L|0:165,1,46.7500014266968,2|0,3:0|0:0,0:0:0:0:
34,94,77690,2,0,L|16:28,1,46.7500014266968,2|0,3:0|0:0,0:0:0:0:
127,136,77866,6,0,B|197:143|197:143|293:95,1,165.749992412568,4|0,3:0|0:0,0:0:0:0:
351,144,78219,2,0,B|301:172|301:172|274:236,1,110.499994941712,4|0,3:0|0:0,0:0:0:0:
257,289,78484,1,0,0:0:0:0:
237,358,78572,2,0,B|273:315|273:315|330:309,1,110.499994941712,4|4,3:0|3:0,0:0:0:0:
438,281,78837,5,8,3:0:0:0:
385,262,78925,1,4,3:0:0:0:
333,241,79013,1,8,3:0:0:0:
280,221,79102,1,4,3:0:0:0:
228,201,79190,1,8,3:0:0:0:
178,182,79277,6,0,B|223:159|223:159|328:193,1,136,4|0,3:0|0:0,0:0:0:0:
213,74,79625,1,4,3:0:0:0:
237,252,79800,1,0,0:0:0:0:
474,161,79974,1,4,3:0:0:0:
346,287,80149,1,0,0:0:0:0:
414,57,80323,2,0,L|245:107,1,136,4|4,3:0|3:0,0:0:0:0:
237,252,80672,6,0,B|275:194|275:194|352:171,1,136,4|0,3:0|0:0,0:0:0:0:
203,121,81021,1,4,3:0:0:0:
346,287,81195,1,4,3:0:0:0:
118,261,81370,1,4,3:0:0:0:
87,248,81457,1,0,0:0:0:0:
53,234,81544,1,0,0:0:0:0:
6,174,81631,5,8,3:0:0:0:
50,157,81718,1,4,3:0:0:0:
94,138,81806,1,0,0:0:0:0:
149,85,81893,5,4,3:0:0:0:
90,61,81980,1,0,0:0:0:0:
33,36,82067,2,0,B|185:15,1,136,4|0,3:0|0:0,0:0:0:0:
290,200,82416,1,4,3:0:0:0:
149,85,82590,1,0,0:0:0:0:
206,318,82765,1,4,3:0:0:0:
35,258,82939,1,0,0:0:0:0:
275,221,83114,2,4,L|136:211,1,136,4|4,3:0|3:0,3:0:0:0:
65,58,83463,6,0,B|112:105|112:105|199:112,1,136,4|0,3:0|0:0,0:0:0:0:
395,110,83811,1,4,3:0:0:0:
198,267,83986,1,4,3:0:0:0:
278,70,84160,1,4,3:0:0:0:
306,49,84247,1,0,0:0:0:0:
335,27,84335,1,0,0:0:0:0:
410,16,84422,5,8,3:0:0:0:
402,63,84509,1,4,3:0:0:0:
395,110,84596,1,0,0:0:0:0:
407,186,84683,5,4,3:0:0:0:
459,151,84771,1,0,0:0:0:0:
510,114,84858,2,0,B|448:253,1,136,4|0,3:0|0:0,0:0:0:0:
395,110,85207,1,4,3:0:0:0:
312,262,85381,1,0,0:0:0:0:
286,15,85556,1,4,3:0:0:0:
454,49,85730,1,0,0:0:0:0:
194,151,85904,2,0,L|358:86,1,136,4|4,3:0|3:0,0:0:0:0:
493,183,86253,6,0,B|430:151|430:151|360:176,1,136,4|0,3:0|0:0,0:0:0:0:
512,293,86602,1,4,3:0:0:0:
327,188,86777,1,4,3:0:0:0:
416,344,86951,1,4,3:0:0:0:
321,101,87125,1,8,3:0:0:0:
285,110,87213,1,4,3:0:0:0:
251,121,87300,1,4,3:0:0:0:
477,275,87474,1,8,3:0:0:0:
378,30,87649,6,0,B|311:17|311:17|107:81,1,272,4|2,3:0|3:0,0:0:0:0:
251,121,88085,1,2,3:0:0:0:
297,131,88172,1,2,3:0:0:0:
341,143,88259,1,2,3:0:0:0:
386,153,88346,1,2,3:0:0:0:
270,325,88521,1,8,3:0:0:0:
425,140,88695,1,4,3:0:0:0:
231,334,88870,1,8,3:0:0:0:
460,113,89044,6,0,B|404:157|404:157|334:141,1,136,4|8,3:0|3:0,0:0:0:0:
270,125,89306,1,4,3:0:0:0:
230,114,89393,1,4,3:0:0:0:
392,262,89567,1,8,3:0:0:0:
434,296,89654,1,4,3:0:0:0:
477,330,89742,1,4,3:0:0:0:
211,217,89916,1,8,3:0:0:0:
331,35,90090,5,4,3:0:0:0:
300,80,90178,1,8,3:0:0:0:
270,125,90265,1,4,3:0:0:0:
239,170,90352,1,4,3:0:0:0:
211,217,90439,6,0,B|194:162|194:162|237:96,1,136,4|0,3:0|0:0,0:0:0:0:
92,154,90788,1,4,3:0:0:0:
289,172,90963,1,0,0:0:0:0:
96,343,91137,1,4,3:0:0:0:
286,312,91311,1,0,0:0:0:0:
97,192,91486,2,0,L|211:307,1,136,4|4,3:0|3:0,0:0:0:0:
180,149,91835,5,4,3:0:0:0:
138,107,91922,1,8,3:0:0:0:
325,151,92096,5,4,3:0:0:0:
367,111,92183,1,8,3:0:0:0:
179,250,92358,5,4,3:0:0:0:
137,208,92445,1,8,3:0:0:0:
324,252,92620,5,4,3:0:0:0:
366,212,92707,1,8,3:0:0:0:
257,33,92881,1,8,3:0:0:0:
257,33,93056,1,8,3:0:0:0:
424,214,93230,6,0,L|299:134,1,136,4|0,3:0|0:0,0:0:0:0:
377,294,93579,1,4,3:0:0:0:
505,182,93753,1,0,0:0:0:0:
279,240,93928,1,4,3:0:0:0:
428,351,94102,1,4,3:0:0:0:
452,303,94189,1,8,3:0:0:0:
474,255,94277,1,4,3:0:0:0:
256,354,94451,1,8,3:0:0:0:
180,235,94625,5,4,3:0:0:0:
138,277,94713,1,8,3:0:0:0:
325,233,94887,5,4,3:0:0:0:
367,273,94974,1,8,3:0:0:0:
179,134,95149,5,4,3:0:0:0:
137,176,95236,1,8,3:0:0:0:
324,132,95410,5,4,3:0:0:0:
366,172,95497,1,8,3:0:0:0:
256,321,95672,1,8,3:0:0:0:
256,321,95846,1,8,3:0:0:0:
77,175,96021,6,0,L|228:215,1,136,4|0,3:0|0:0,0:0:0:0:
126,77,96370,1,4,3:0:0:0:
126,77,96457,1,0,0:0:0:0:
126,77,96544,1,0,0:0:0:0:
176,290,96718,1,4,3:0:0:0:
77,175,96893,1,0,0:0:0:0:
348,187,97067,1,4,3:0:0:0:
60,138,97242,1,4,3:0:0:0:
365,224,97416,6,0,L|254:114,1,136,4|0,3:0|0:0,0:0:0:0:
293,296,97765,1,4,3:0:0:0:
453,275,97939,1,4,3:0:0:0:
225,219,98114,1,4,3:0:0:0:
284,370,98288,1,4,3:0:0:0:
336,357,98375,1,8,3:0:0:0:
389,343,98463,1,4,3:0:0:0:
195,191,98637,1,8,3:0:0:0:
419,371,98811,5,4,3:0:0:0:
468,97,98986,1,12,3:0:0:0:
256,192,99509,12,0,101253,0:0:0:0:
176,245,101602,5,4,3:0:0:0:
207,213,101689,1,4,3:0:0:0:
239,181,101777,1,4,3:0:0:0:
271,149,101864,1,4,3:0:0:0:
303,117,101951,1,4,3:0:0:0:
207,213,102125,5,2,3:0:0:0:
239,181,102213,1,2,3:0:0:0:
271,149,102300,1,2,3:0:0:0:
303,117,102387,1,2,3:0:0:0:
334,85,102474,1,2,3:0:0:0:
239,181,102649,5,4,3:0:0:0:
271,149,102736,1,4,3:0:0:0:
303,117,102823,1,4,3:0:0:0:
334,85,102910,1,4,3:0:0:0:
366,53,102997,1,4,3:0:0:0:
271,149,103172,5,2,3:0:0:0:
303,117,103259,1,2,3:0:0:0:
334,85,103346,1,2,3:0:0:0:
366,53,103433,1,2,3:0:0:0:
397,21,103521,1,2,3:0:0:0:
374,307,103695,5,4,3:0:0:0:
337,186,103870,1,8,3:0:0:0:
87,230,104044,1,4,3:0:0:0:
126,109,104218,1,8,3:0:0:0:
417,123,104393,5,4,3:0:0:0:
377,105,104480,1,4,3:0:0:0:
334,85,104567,1,4,3:0:0:0:
294,68,104654,1,4,3:0:0:0:
252,50,104742,1,4,3:0:0:0:
319,227,104916,5,2,3:0:0:0:
337,186,105003,1,2,3:0:0:0:
357,146,105090,1,2,3:0:0:0:
377,105,105178,1,2,3:0:0:0:
397,64,105265,1,2,3:0:0:0:
214,132,105439,5,4,3:0:0:0:
254,149,105527,1,4,3:0:0:0:
295,167,105614,1,4,3:0:0:0:
337,186,105701,1,4,3:0:0:0:
379,205,105788,1,4,3:0:0:0:
313,28,105963,5,2,3:0:0:0:
294,68,106050,1,2,3:0:0:0:
273,107,106137,1,2,3:0:0:0:
254,149,106224,1,2,3:0:0:0:
232,187,106311,1,2,3:0:0:0:
17,30,106486,5,4,3:0:0:0:
60,148,106660,1,8,3:0:0:0:
309,206,106835,1,4,3:0:0:0:
254,325,107009,1,8,3:0:0:0:
73,225,107183,5,4,3:0:0:0:
113,205,107271,1,4,3:0:0:0:
155,186,107358,1,4,3:0:0:0:
194,166,107445,1,4,3:0:0:0:
234,145,107532,1,4,3:0:0:0:
386,264,107707,5,2,3:0:0:0:
344,249,107794,1,2,3:0:0:0:
301,234,107881,1,2,3:0:0:0:
259,220,107968,1,2,3:0:0:0:
216,206,108056,1,2,3:0:0:0:
75,321,108230,5,4,3:0:0:0:
117,306,108317,1,4,3:0:0:0:
160,291,108404,1,4,3:0:0:0:
202,277,108492,1,4,3:0:0:0:
245,263,108579,1,4,3:0:0:0:
387,378,108753,5,2,3:0:0:0:
345,363,108840,1,2,3:0:0:0:
302,348,108928,1,2,3:0:0:0:
260,334,109015,1,2,3:0:0:0:
217,320,109102,1,2,3:0:0:0:
412,203,109277,5,4,3:0:0:0:
377,75,109451,1,8,3:0:0:0:
155,146,109625,1,8,3:0:0:0:
122,20,109800,1,4,3:0:0:0:
287,201,109974,5,4,3:0:0:0:
304,245,110061,1,4,3:0:0:0:
318,286,110149,1,4,3:0:0:0:
333,327,110236,1,4,3:0:0:0:
347,368,110323,1,4,3:0:0:0:
118,169,110497,5,2,3:0:0:0:
161,178,110585,1,2,3:0:0:0:
204,185,110672,1,2,3:0:0:0:
248,194,110759,1,2,3:0:0:0:
290,203,110846,1,2,3:0:0:0:
462,237,111021,5,4,3:0:0:0:
420,228,111108,1,4,3:0:0:0:
376,219,111195,1,4,3:0:0:0:
333,212,111282,1,4,3:0:0:0:
290,203,111370,1,4,3:0:0:0:
233,38,111544,5,2,3:0:0:0:
247,80,111631,1,2,3:0:0:0:
261,121,111718,1,2,3:0:0:0:
276,162,111806,1,2,3:0:0:0:
290,203,111893,1,2,3:0:0:0:
84,344,112067,5,4,3:0:0:0:
143,224,112242,1,8,3:0:0:0:
386,148,112416,1,4,3:0:0:0:
336,31,112590,1,8,3:0:0:0:
263,334,112765,5,4,3:0:0:0:
97,212,112939,1,4,3:0:0:0:
227,54,113114,1,4,3:0:0:0:
249,315,113288,5,4,3:0:0:0:
155,127,113462,1,4,3:0:0:0:
345,49,113637,1,4,3:0:0:0:
235,296,113811,5,4,3:0:0:0:
252,93,113986,1,4,3:0:0:0:
449,115,114160,1,4,3:0:0:0:
221,277,114335,5,4,3:0:0:0:
349,122,114509,1,4,3:0:0:0:
497,265,114684,1,4,3:0:0:0:
217,182,114858,5,4,3:0:0:0:
322,32,115032,1,4,3:0:0:0:
328,336,115207,1,4,3:0:0:0:
433,186,115381,2,0,L|382:264,1,68,4|4,3:0|3:0,0:0:0:0:
310,352,115556,5,4,3:0:0:0:
497,265,115730,1,4,3:0:0:0:
402,84,115905,1,4,3:0:0:0:
328,336,116079,5,4,3:0:0:0:
457,171,116253,1,4,3:0:0:0:
288,54,116428,1,4,3:0:0:0:
346,320,116602,5,4,3:0:0:0:
369,117,116776,1,4,3:0:0:0:
173,97,116951,1,4,3:0:0:0:
364,305,117126,5,4,3:0:0:0:
269,125,117300,1,4,3:0:0:0:
94,234,117475,1,4,3:0:0:0:
400,139,117649,5,4,3:0:0:0:
244,36,117823,1,8,3:0:0:0:
362,306,117997,1,4,3:0:0:0:
206,203,118172,2,0,L|138:147,1,68,4|8,3:0|3:0,0:0:0:0:
88,66,118346,5,8,3:0:0:0:
144,110,118433,1,8,3:0:0:0:
200,155,118521,1,8,3:0:0:0:
257,197,118608,1,8,3:0:0:0:
315,240,118695,1,8,3:0:0:0:
426,66,118870,5,8,3:0:0:0:
370,110,118957,1,8,3:0:0:0:
314,155,119045,1,8,3:0:0:0:
257,197,119132,1,8,3:0:0:0:
201,242,119219,1,8,3:0:0:0:
89,153,119393,5,8,3:0:0:0:
145,197,119480,1,8,3:0:0:0:
201,242,119568,1,8,3:0:0:0:
258,284,119655,1,8,3:0:0:0:
314,329,119742,1,8,3:0:0:0:
427,151,119917,5,8,3:0:0:0:
371,195,120004,1,8,3:0:0:0:
315,240,120090,1,8,3:0:0:0:
258,284,120179,1,8,3:0:0:0:
201,328,120266,1,8,3:0:0:0:
445,335,120439,5,4,3:0:0:0:
371,195,120614,1,8,3:0:0:0:
114,264,120788,1,4,3:0:0:0:
243,168,120963,1,8,3:0:0:0:
169,45,121137,5,8,3:0:0:0:
206,106,121224,1,8,3:0:0:0:
243,168,121312,1,8,3:0:0:0:
281,230,121399,1,8,3:0:0:0:
318,291,121486,1,8,3:0:0:0:
288,113,121660,5,8,3:0:0:0:
243,168,121747,1,8,3:0:0:0:
198,224,121835,1,8,3:0:0:0:
151,277,121922,1,8,3:0:0:0:
105,332,122009,1,8,3:0:0:0:
386,304,122183,5,8,3:0:0:0:
352,241,122271,1,8,3:0:0:0:
320,177,122358,1,8,3:0:0:0:
288,113,122445,1,8,3:0:0:0:
252,51,122532,6,8,L|327:51,7,72.2500013780594,8|8|8|8|8|8|8|8,3:0|3:0|3:0|3:0|3:0|3:0|3:0|3:0,3:0:0:0:
190,87,123230,5,8,3:0:0:0:
129,126,123317,1,8,3:0:0:0:
70,167,123404,1,8,3:0:0:0:
11,208,123492,1,8,3:0:0:0:
5,136,123579,5,8,3:0:0:0:
70,167,123666,1,8,3:0:0:0:
135,198,123754,1,8,3:0:0:0:
201,227,123841,1,8,3:0:0:0:
266,258,123928,5,8,3:0:0:0:
256,192,124103,12,0,124985,0:0:0:0:
100,78,125338,6,0,B|125:116|125:116|130:158|130:158|175:236,1,136,4|0,3:0|0:0,0:0:0:0:
321,305,125686,2,0,L|207:135,1,204,4|0,3:0|0:0,0:0:0:0:
326,261,126035,2,0,L|250:149,1,136,4|0,3:0|0:0,0:0:0:0:
122,315,126384,1,4,1:0:0:0:
122,315,126733,6,0,B|161:298|161:298|187:229,1,85,4|2,3:0|3:0,0:0:0:0:
183,237,126995,1,2,3:0:0:0:
188,217,127082,1,2,3:0:0:0:
102,111,127257,1,2,3:0:0:0:
97,90,127345,1,2,3:0:0:0:
80,9,127432,2,0,B|71:73|71:73|10:109,1,127.5,4|2,3:0|3:0,0:0:0:0:
55,175,127782,2,0,B|68:214|68:214|119:251,1,85,2|2,3:0|3:0,0:0:0:0:
157,313,128132,6,0,L|194:236,1,85,4|2,3:0|3:0,0:0:0:0:
263,221,128394,1,2,3:0:0:0:
332,205,128482,2,0,L|369:128,1,85,4|2,3:0|3:0,0:0:0:0:
414,27,128832,5,4,3:0:0:0:
381,52,128919,1,0,0:0:0:0:
369,128,129007,5,4,3:0:0:0:
410,123,129094,1,0,0:0:0:0:
472,167,129181,5,4,3:0:0:0:
437,194,129269,1,0,0:0:0:0:
399,219,129356,1,4,3:0:0:0:
361,243,129444,1,4,3:0:0:0:
324,268,129531,6,0,B|274:298|274:298|191:282,1,110.499994941712,4|0,3:0|0:0,0:0:0:0:
60,95,129879,1,4,3:0:0:0:
214,134,130054,1,0,0:0:0:0:
72,351,130228,1,4,3:0:0:0:
223,288,130403,1,0,0:0:0:0:
12,222,130577,1,4,3:0:0:0:
12,222,130751,1,4,3:0:0:0:
214,134,130926,5,4,3:0:0:0:
254,116,131013,1,0,0:0:0:0:
294,97,131100,1,0,0:0:0:0:
334,79,131187,1,0,0:0:0:0:
420,39,131275,5,4,3:0:0:0:
410,82,131362,1,0,0:0:0:0:
401,124,131449,1,0,0:0:0:0:
363,303,131624,1,4,3:0:0:0:
222,141,131798,1,8,3:0:0:0:
222,141,131885,1,4,3:0:0:0:
222,141,131972,1,4,3:0:0:0:
476,119,132147,1,8,3:0:0:0:
252,250,132321,6,0,B|237:305|237:305|255:359,1,110.499994941712,4|0,3:0|0:0,0:0:0:0:
153,259,132670,2,0,L|168:205,1,55.2499974708558,4|0,3:0|0:0,0:0:0:0:
114,278,132844,2,0,L|129:224,1,55.2499974708558
352,69,133019,2,0,L|300:89,1,55.2499974708558,4|0,3:0|0:0,0:0:0:0:
367,30,133193,2,0,L|316:49,1,55.2499974708558,0|8,0:0|3:0,0:0:0:0:
197,99,133368,1,4,3:0:0:0:
59,68,133542,5,8,3:0:0:0:
128,83,133629,1,4,3:0:0:0:
197,99,133717,1,4,3:0:0:0:
240,109,133804,1,0,0:0:0:0:
283,119,133891,1,4,3:0:0:0:
325,129,133978,1,0,0:0:0:0:
368,139,134065,2,0,B|421:150|421:150|501:95,1,110.499994941712,4|0,3:0|0:0,0:0:0:0:
512,234,134414,5,4,3:0:0:0:
478,261,134501,1,0,0:0:0:0:
443,288,134589,1,0,0:0:0:0:
387,332,134676,1,8,3:0:0:0:
331,376,134763,1,4,3:0:0:0:
170,316,134937,1,8,3:0:0:0:
114,121,135112,6,0,B|143:167|143:167|140:227,1,110.499994941712,4|0,3:0|0:0,0:0:0:0:
245,27,135461,1,4,3:0:0:0:
62,189,135635,1,0,0:0:0:0:
278,128,135810,1,4,3:0:0:0:
86,284,135984,5,0,0:0:0:0:
124,300,136071,1,0,0:0:0:0:
196,276,136158,5,4,3:0:0:0:
173,241,136246,1,0,0:0:0:0:
185,165,136333,5,8,3:0:0:0:
225,185,136420,1,0,0:0:0:0:
266,203,136507,5,4,3:0:0:0:
472,302,136682,1,0,0:0:0:0:
226,235,136856,1,4,3:0:0:0:
512,270,137031,1,0,0:0:0:0:
311,329,137205,1,4,3:0:0:0:
421,92,137379,1,8,3:0:0:0:
421,92,137467,1,4,3:0:0:0:
421,92,137554,1,4,3:0:0:0:
419,240,137728,1,8,3:0:0:0:
200,142,137903,5,4,3:0:0:0:
308,195,138077,1,0,0:0:0:0:
113,316,138251,1,4,3:0:0:0:
213,253,138426,1,0,0:0:0:0:
3,184,138600,1,4,3:0:0:0:
244,130,138775,5,8,3:0:0:0:
288,122,138862,1,4,3:0:0:0:
330,113,138949,1,4,3:0:0:0:
237,283,139124,1,8,3:0:0:0:
214,318,139211,1,8,3:0:0:0:
190,355,139298,1,4,3:0:0:0:
256,192,139472,12,0,140344,0:0:0:0:
259,349,140519,5,4,3:0:0:0:
168,275,140693,5,4,3:0:0:0:
212,313,140781,1,8,3:0:0:0:
340,204,140955,5,4,3:0:0:0:
296,242,141042,1,8,3:0:0:0:
170,128,141217,5,4,3:0:0:0:
214,165,141304,1,8,3:0:0:0:
343,55,141478,5,4,3:0:0:0:
299,93,141565,1,8,3:0:0:0:
256,0,141740,5,8,3:0:0:0:
256,0,141914,1,8,3:0:0:0:
256,0,142089,1,4,3:0:0:0:
256,194,142437,5,2,3:0:0:0:
256,221,142525,1,2,3:0:0:0:
256,248,142612,1,2,0:0:0:0:
256,275,142699,1,6,3:2:0:0:
256,302,142786,5,6,3:2:0:0:
